  0
SECTION
  2
HEADER
  9
$ACADVER
  1
AC1015
  9
$ACADMAINTVER
 70
    20
  9
$DWGCODEPAGE
  3
ANSI_1252
  9
$INSBASE
 10
0.0
 20
0.0
 30
0.0
  9
$EXTMIN
 10
63.31682918315144
 20
81.51910479031403
 30
-0.0015258207003583
  9
$EXTMAX
 10
143.5739142303051
 20
175.9217279254752
 30
0.0000000349246037
  9
$LIMMIN
 10
0.0
 20
0.0
  9
$LIMMAX
 10
420.0
 20
297.0
  9
$ORTHOMODE
 70
     0
  9
$REGENMODE
 70
     1
  9
$FILLMODE
 70
     1
  9
$QTEXTMODE
 70
     0
  9
$MIRRTEXT
 70
     1
  9
$LTSCALE
 40
1.0
  9
$ATTMODE
 70
     1
  9
$TEXTSIZE
 40
2.5
  9
$TRACEWID
 40
1.0
  9
$TEXTSTYLE
  7
STANDARD
  9
$CLAYER
  8
HAWA1
  9
$CELTYPE
  6
BYLAYER
  9
$CECOLOR
 62
   256
  9
$CELTSCALE
 40
1.0
  9
$DISPSILH
 70
     0
  9
$DIMSCALE
 40
1.0
  9
$DIMASZ
 40
2.0
  9
$DIMEXO
 40
2.0
  9
$DIMDLI
 40
0.0
  9
$DIMRND
 40
0.0
  9
$DIMDLE
 40
1.0
  9
$DIMEXE
 40
1.0
  9
$DIMTP
 40
0.0
  9
$DIMTM
 40
0.0
  9
$DIMTXT
 40
3.5
  9
$DIMCEN
 40
0.0
  9
$DIMTSZ
 40
0.0
  9
$DIMTOL
 70
     0
  9
$DIMLIM
 70
     0
  9
$DIMTIH
 70
     0
  9
$DIMTOH
 70
     0
  9
$DIMSE1
 70
     0
  9
$DIMSE2
 70
     0
  9
$DIMTAD
 70
     1
  9
$DIMZIN
 70
     8
  9
$DIMBLK
  1

  9
$DIMASO
 70
     1
  9
$DIMSHO
 70
     1
  9
$DIMPOST
  1

  9
$DIMAPOST
  1

  9
$DIMALT
 70
     1
  9
$DIMALTD
 70
     5
  9
$DIMALTF
 40
0.039370078740157
  9
$DIMLFAC
 40
1.0
  9
$DIMTOFL
 70
     1
  9
$DIMTVP
 40
0.0
  9
$DIMTIX
 70
     0
  9
$DIMSOXD
 70
     0
  9
$DIMSAH
 70
     1
  9
$DIMBLK1
  1
Oblique
  9
$DIMBLK2
  1
Oblique
  9
$DIMSTYLE
  2
HAWA-Strich
  9
$DIMCLRD
 70
   256
  9
$DIMCLRE
 70
   256
  9
$DIMCLRT
 70
   256
  9
$DIMTFAC
 40
0.7114285714285719
  9
$DIMGAP
 40
1.0
  9
$DIMJUST
 70
     0
  9
$DIMSD1
 70
     0
  9
$DIMSD2
 70
     0
  9
$DIMTOLJ
 70
     1
  9
$DIMTZIN
 70
     8
  9
$DIMALTZ
 70
     8
  9
$DIMALTTZ
 70
     8
  9
$DIMUPT
 70
     0
  9
$DIMDEC
 70
     1
  9
$DIMTDEC
 70
     1
  9
$DIMALTU
 70
     4
  9
$DIMALTTD
 70
     5
  9
$DIMTXSTY
  7
Beschlag
  9
$DIMAUNIT
 70
     0
  9
$DIMADEC
 70
     1
  9
$DIMALTRND
 40
0.0
  9
$DIMAZIN
 70
     2
  9
$DIMDSEP
 70
    46
  9
$DIMATFIT
 70
     3
  9
$DIMFRAC
 70
     0
  9
$DIMLDRBLK
  1
Oblique
  9
$DIMLUNIT
 70
     2
  9
$DIMLWD
 70
    -2
  9
$DIMLWE
 70
    -2
  9
$DIMTMOVE
 70
     0
  9
$LUNITS
 70
     2
  9
$LUPREC
 70
     4
  9
$SKETCHINC
 40
1.0
  9
$FILLETRAD
 40
2.5
  9
$AUNITS
 70
     0
  9
$AUPREC
 70
     0
  9
$MENU
  1
.
  9
$ELEVATION
 40
0.0
  9
$PELEVATION
 40
0.0
  9
$THICKNESS
 40
0.0
  9
$LIMCHECK
 70
     0
  9
$CHAMFERA
 40
2.5
  9
$CHAMFERB
 40
2.5
  9
$CHAMFERC
 40
0.0
  9
$CHAMFERD
 40
0.0
  9
$SKPOLY
 70
     0
  9
$TDCREATE
 40
2447893.000000000
  9
$TDUCREATE
 40
2447892.958333333
  9
$TDUPDATE
 40
2455224.390801887
  9
$TDUUPDATE
 40
2455224.349135220
  9
$TDINDWG
 40
0.0002306019
  9
$TDUSRTIMER
 40
0.0002306019
  9
$USRTIMER
 70
     1
  9
$ANGBASE
 50
0.0
  9
$ANGDIR
 70
     0
  9
$PDMODE
 70
     0
  9
$PDSIZE
 40
0.0
  9
$PLINEWID
 40
0.0
  9
$SPLFRAME
 70
     0
  9
$SPLINETYPE
 70
     6
  9
$SPLINESEGS
 70
     8
  9
$HANDSEED
  5
2CC
  9
$SURFTAB1
 70
     6
  9
$SURFTAB2
 70
     6
  9
$SURFTYPE
 70
     6
  9
$SURFU
 70
     6
  9
$SURFV
 70
     6
  9
$UCSBASE
  2

  9
$UCSNAME
  2

  9
$UCSORG
 10
0.0
 20
0.0
 30
0.0
  9
$UCSXDIR
 10
1.0
 20
0.0
 30
0.0
  9
$UCSYDIR
 10
0.0
 20
1.0
 30
0.0
  9
$UCSORTHOREF
  2

  9
$UCSORTHOVIEW
 70
     0
  9
$UCSORGTOP
 10
0.0
 20
0.0
 30
0.0
  9
$UCSORGBOTTOM
 10
0.0
 20
0.0
 30
0.0
  9
$UCSORGLEFT
 10
0.0
 20
0.0
 30
0.0
  9
$UCSORGRIGHT
 10
0.0
 20
0.0
 30
0.0
  9
$UCSORGFRONT
 10
0.0
 20
0.0
 30
0.0
  9
$UCSORGBACK
 10
0.0
 20
0.0
 30
0.0
  9
$PUCSBASE
  2

  9
$PUCSNAME
  2

  9
$PUCSORG
 10
0.0
 20
0.0
 30
0.0
  9
$PUCSXDIR
 10
1.0
 20
0.0
 30
0.0
  9
$PUCSYDIR
 10
0.0
 20
1.0
 30
0.0
  9
$PUCSORTHOREF
  2

  9
$PUCSORTHOVIEW
 70
     0
  9
$PUCSORGTOP
 10
0.0
 20
0.0
 30
0.0
  9
$PUCSORGBOTTOM
 10
0.0
 20
0.0
 30
0.0
  9
$PUCSORGLEFT
 10
0.0
 20
0.0
 30
0.0
  9
$PUCSORGRIGHT
 10
0.0
 20
0.0
 30
0.0
  9
$PUCSORGFRONT
 10
0.0
 20
0.0
 30
0.0
  9
$PUCSORGBACK
 10
0.0
 20
0.0
 30
0.0
  9
$USERI1
 70
     0
  9
$USERI2
 70
     0
  9
$USERI3
 70
     0
  9
$USERI4
 70
     0
  9
$USERI5
 70
     0
  9
$USERR1
 40
0.0
  9
$USERR2
 40
0.0
  9
$USERR3
 40
0.0
  9
$USERR4
 40
0.0
  9
$USERR5
 40
0.0
  9
$WORLDVIEW
 70
     1
  9
$SHADEDGE
 70
     3
  9
$SHADEDIF
 70
    70
  9
$TILEMODE
 70
     1
  9
$MAXACTVP
 70
    48
  9
$PINSBASE
 10
0.0
 20
0.0
 30
0.0
  9
$PLIMCHECK
 70
     0
  9
$PEXTMIN
 10
0.0
 20
0.0
 30
0.0
  9
$PEXTMAX
 10
38.56066099999999
 20
25.235146
 30
2.0
  9
$PLIMMIN
 10
0.0
 20
0.0
  9
$PLIMMAX
 10
420.0
 20
297.0
  9
$UNITMODE
 70
     0
  9
$VISRETAIN
 70
     0
  9
$PLINEGEN
 70
     0
  9
$PSLTSCALE
 70
     1
  9
$TREEDEPTH
 70
  3020
  9
$CMLSTYLE
  2
STANDARD
  9
$CMLJUST
 70
     0
  9
$CMLSCALE
 40
20.0
  9
$PROXYGRAPHICS
 70
     1
  9
$MEASUREMENT
 70
     1
  9
$CELWEIGHT
370
    -1
  9
$ENDCAPS
280
     0
  9
$JOINSTYLE
280
     0
  9
$LWDISPLAY
290
     0
  9
$INSUNITS
 70
     0
  9
$HYPERLINKBASE
  1

  9
$STYLESHEET
  1

  9
$XEDIT
290
     1
  9
$CEPSNTYPE
380
     0
  9
$PSTYLEMODE
290
     1
  9
$FINGERPRINTGUID
  2
{D3749663-87FF-46BA-892D-8075B078BE70}
  9
$VERSIONGUID
  2
{182A44D5-4B34-4EA5-802A-4437909F1D73}
  9
$EXTNAMES
290
     1
  9
$PSVPSCALE
 40
0.0
  9
$OLESTARTUP
290
     0
  0
ENDSEC
  0
SECTION
  2
CLASSES
  0
CLASS
  1
IMAGE
  2
AcDbRasterImage
  3
ISM
 90
    34943
280
     0
281
     1
  0
CLASS
  1
DICTIONARYVAR
  2
AcDbDictionaryVar
  3
ObjectDBX Classes
 90
        0
280
     0
281
     0
  0
CLASS
  1
RASTERVARIABLES
  2
AcDbRasterVariables
  3
ISM
 90
    32768
280
     0
281
     0
  0
CLASS
  1
IMAGEDEF
  2
AcDbRasterImageDef
  3
ISM
 90
    32768
280
     0
281
     0
  0
CLASS
  1
IMAGEDEF_REACTOR
  2
AcDbRasterImageDefReactor
  3
ISM
 90
    32769
280
     0
281
     0
  0
CLASS
  1
IDBUFFER
  2
AcDbIdBuffer
  3
ObjectDBX Classes
 90
    32768
280
     0
281
     0
  0
CLASS
  1
SPATIAL_FILTER
  2
AcDbSpatialFilter
  3
ObjectDBX Classes
 90
    32768
280
     0
281
     0
  0
CLASS
  1
SORTENTSTABLE
  2
AcDbSortentsTable
  3
ObjectDBX Classes
 90
    32768
280
     0
281
     0
  0
CLASS
  1
LAYER_INDEX
  2
AcDbLayerIndex
  3
ObjectDBX Classes
 90
    32768
280
     0
281
     0
  0
CLASS
  1
SPATIAL_INDEX
  2
AcDbSpatialIndex
  3
ObjectDBX Classes
 90
    32768
280
     0
281
     0
  0
CLASS
  1
OBJECT_PTR
  2
CAseDLPNTableRecord
  3
ASE-LPNTableRecord
 90
    32769
280
     0
281
     0
  0
CLASS
  1
LAYOUT
  2
AcDbLayout
  3
ObjectDBX Classes
 90
        0
280
     0
281
     0
  0
CLASS
  1
PLOTSETTINGS
  2
AcDbPlotSettings
  3
ObjectDBX Classes
 90
    32768
280
     0
281
     0
  0
CLASS
  1
ACDBDICTIONARYWDFLT
  2
AcDbDictionaryWithDefault
  3
ObjectDBX Classes
 90
        0
280
     0
281
     0
  0
CLASS
  1
ACDBPLACEHOLDER
  2
AcDbPlaceHolder
  3
ObjectDBX Classes
 90
        0
280
     0
281
     0
  0
CLASS
  1
VBA_PROJECT
  2
AcDbVbaProject
  3
acad
 90
    32768
280
     0
281
     0
  0
CLASS
  1
WIPEOUT
  2
AcDbWipeout
  3
"WipeOut|Product Desc: Object Enabler for WipeOut entity                        |Company: Autodesk, Inc.                        |WEB Address: www.autodesk.com"
 90
    34943
280
     0
281
     1
  0
CLASS
  1
WIPEOUTVARIABLES
  2
AcDbWipeoutVariables
  3
"WipeOut|Product Desc:     WipeOut Dbx Application|Company:          Autodesk, Inc.|WEB Address:      www.autodesk.com"
 90
    32768
280
     0
281
     0
  0
CLASS
  1
RTEXT
  2
RText
  3
RText|AutoCAD Express Tool|expresstools@autodesk.com
 90
    32768
280
     0
281
     1
  0
CLASS
  1
ARCALIGNEDTEXT
  2
AcDbArcAlignedText
  3
ATEXT|AutoCAD Express Tool|expresstools@autodesk.com
 90
    32768
280
     0
281
     1
  0
CLASS
  1
MATERIAL
  2
AcDbMaterial
  3
ObjectDBX Classes
 90
     1024
280
     0
281
     0
  0
CLASS
  1
VISUALSTYLE
  2
AcDbVisualStyle
  3
ObjectDBX Classes
 90
     4095
280
     0
281
     0
  0
CLASS
  1
TABLESTYLE
  2
AcDbTableStyle
  3
ObjectDBX Classes
 90
     4095
280
     0
281
     0
  0
ENDSEC
  0
SECTION
  2
TABLES
  0
TABLE
  2
VPORT
  5
7
330
0
100
AcDbSymbolTable
 70
     1
  0
VPORT
  5
15
330
7
100
AcDbSymbolTableRecord
100
AcDbViewportTableRecord
  2
*ACTIVE
 70
     0
 10
0.0
 20
0.0
 11
1.0
 21
1.0
 12
104.5449837652792
 22
127.6081244464825
 13
0.0
 23
0.0
 14
1.0
 24
1.0
 15
0.0
 25
0.0
 16
0.0
 26
0.0
 36
1.0
 17
0.0
 27
0.0
 37
0.0
 40
92.78116715952796
 41
1.811135371179039
 42
50.0
 43
0.0
 44
0.0
 50
0.0
 51
0.0
 71
     0
 72
   100
 73
     1
 74
     1
 75
     0
 76
     0
 77
     0
 78
     0
281
     0
 65
     1
110
0.0
120
0.0
130
0.0
111
1.0
121
0.0
131
0.0
112
0.0
122
1.0
132
0.0
 79
     0
146
0.0
  0
ENDTAB
  0
TABLE
  2
LTYPE
  5
4
330
0
100
AcDbSymbolTable
 70
     8
  0
LTYPE
  5
11
330
4
100
AcDbSymbolTableRecord
100
AcDbLinetypeTableRecord
  2
BYBLOCK
 70
     0
  3

 72
    65
 73
     0
 40
0.0
  0
LTYPE
  5
12
330
4
100
AcDbSymbolTableRecord
100
AcDbLinetypeTableRecord
  2
BYLAYER
 70
     0
  3

 72
    65
 73
     0
 40
0.0
  0
LTYPE
  5
13
330
4
100
AcDbSymbolTableRecord
100
AcDbLinetypeTableRecord
  2
CONTINUOUS
 70
     0
  3
Solid line
 72
    65
 73
     0
 40
0.0
  0
LTYPE
  5
1D
330
4
100
AcDbSymbolTableRecord
100
AcDbLinetypeTableRecord
  2
DASHED
 70
     0
  3
__ __ __ __ __ __ __ __ __ __ __ __ __ __ __ __
 72
    65
 73
     2
 40
15.0
 49
12.0
 74
     0
 49
-3.0
 74
     0
  0
LTYPE
  5
1E
330
4
100
AcDbSymbolTableRecord
100
AcDbLinetypeTableRecord
  2
DASHDOT
 70
     0
  3
 __ . __ . __ . __ . __ . __ . __ . 
 72
    65
 73
     4
 40
18.5
 49
12.0
 74
     0
 49
-3.0
 74
     0
 49
0.5
 74
     0
 49
-3.0
 74
     0
  0
LTYPE
  5
1F
330
4
100
AcDbSymbolTableRecord
100
AcDbLinetypeTableRecord
  2
DOT
 70
     0
  3
 . . . . . . . . . . . . . . . .
 72
    65
 73
     2
 40
3.5
 49
0.5
 74
     0
 49
-3.0
 74
     0
  0
LTYPE
  5
20
330
4
100
AcDbSymbolTableRecord
100
AcDbLinetypeTableRecord
  2
DASHSPACE
 70
     0
  3
__    __    __    __    __   
 72
    65
 73
     2
 40
30.0
 49
12.0
 74
     0
 49
-18.0
 74
     0
  0
LTYPE
  5
21
330
4
100
AcDbSymbolTableRecord
100
AcDbLinetypeTableRecord
  2
DASHDOT2
 70
     0
  3
__ . . __ . . __ . . __ 
 72
    65
 73
     6
 40
22.0
 49
12.0
 74
     0
 49
-3.0
 74
     0
 49
0.5
 74
     0
 49
-3.0
 74
     0
 49
0.5
 74
     0
 49
-3.0
 74
     0
  0
LTYPE
  5
22
330
4
100
AcDbSymbolTableRecord
100
AcDbLinetypeTableRecord
  2
PHANTOM
 70
     0
  3
____________    ____    ____   _
 72
    65
 73
     6
 40
20.0
 49
10.0
 74
     0
 49
-2.0
 74
     0
 49
2.0
 74
     0
 49
-2.0
 74
     0
 49
2.0
 74
     0
 49
-2.0
 74
     0
  0
LTYPE
  5
23
330
4
100
AcDbSymbolTableRecord
100
AcDbLinetypeTableRecord
  2
AXES
 70
     0
  3
________  __  ________  __  _____
 72
    65
 73
     4
 40
24.0
 49
15.0
 74
     0
 49
-3.0
 74
     0
 49
3.0
 74
     0
 49
-3.0
 74
     0
  0
ENDTAB
  0
TABLE
  2
LAYER
  5
2
330
0
100
AcDbSymbolTable
 70
     8
  0
LAYER
  5
21E
330
2
100
AcDbSymbolTableRecord
100
AcDbLayerTableRecord
  2
0
 70
     0
 62
     7
  6
CONTINUOUS
370
    -3
390
220
  0
LAYER
  5
21A
330
2
100
AcDbSymbolTableRecord
100
AcDbLayerTableRecord
  2
Hawa2
 70
     0
 62
     9
  6
CONTINUOUS
370
     0
390
220
  0
LAYER
  5
21B
330
2
100
AcDbSymbolTableRecord
100
AcDbLayerTableRecord
  2
Hawa4
 70
     0
 62
     4
  6
CONTINUOUS
370
     0
390
220
  0
LAYER
  5
21C
330
2
100
AcDbSymbolTableRecord
100
AcDbLayerTableRecord
  2
Hawa5
 70
     0
 62
     1
  6
CONTINUOUS
370
    -3
390
220
  0
LAYER
  5
21D
330
2
100
AcDbSymbolTableRecord
100
AcDbLayerTableRecord
  2
Hawa6
 70
     0
 62
     3
  6
CONTINUOUS
370
    -3
390
220
  0
LAYER
  5
14
330
2
100
AcDbSymbolTableRecord
100
AcDbLayerTableRecord
  2
HAWA1
 70
     0
 62
     2
  6
CONTINUOUS
370
     0
390
220
  0
LAYER
  5
245
330
2
100
AcDbSymbolTableRecord
100
AcDbLayerTableRecord
  2
Defpoints
 70
     0
 62
     7
  6
CONTINUOUS
290
     0
370
    -3
390
220
  0
LAYER
  5
246
330
2
100
AcDbSymbolTableRecord
100
AcDbLayerTableRecord
  2
1
 70
     0
 62
     7
  6
CONTINUOUS
370
    -3
390
220
  0
ENDTAB
  0
TABLE
  2
STYLE
  5
3
330
0
100
AcDbSymbolTable
 70
     3
  0
STYLE
  5
17
330
3
100
AcDbSymbolTableRecord
100
AcDbTextStyleTableRecord
  2
STANDARD
 70
     0
 40
0.0
 41
1.0
 50
0.0
 71
     0
 42
2.5
  3
isocp.shx
  4

  0
STYLE
  5
24
330
3
100
AcDbSymbolTableRecord
100
AcDbTextStyleTableRecord
  2
GDT
 70
     0
 40
0.0
 41
1.0
 50
0.0
 71
     0
 42
2.5
  3
amgdt.shx
  4

  0
STYLE
  5
247
330
3
100
AcDbSymbolTableRecord
100
AcDbTextStyleTableRecord
  2
Beschlag
 70
     0
 40
0.0
 41
0.9
 50
0.0
 71
     0
 42
3.5
  3
ARIAL.TTF
  4

1001
ACAD
1000
Arial
1071
       34
  0
ENDTAB
  0
TABLE
  2
VIEW
  5
5
330
0
100
AcDbSymbolTable
 70
     0
  0
ENDTAB
  0
TABLE
  2
UCS
  5
6
330
0
100
AcDbSymbolTable
 70
     0
  0
ENDTAB
  0
TABLE
  2
APPID
  5
8
330
0
100
AcDbSymbolTable
 70
     2
  0
APPID
  5
16
330
8
100
AcDbSymbolTableRecord
100
AcDbRegAppTableRecord
  2
ACAD
 70
     0
  0
APPID
  5
249
330
8
100
AcDbSymbolTableRecord
100
AcDbRegAppTableRecord
  2
ACAD_PSEXT
 70
     0
  0
ENDTAB
  0
TABLE
  2
DIMSTYLE
  5
9
330
0
100
AcDbSymbolTable
 70
     2
100
AcDbDimStyleTable
 71
     1
340
248
  0
DIMSTYLE
105
18
330
9
100
AcDbSymbolTableRecord
100
AcDbDimStyleTableRecord
  2
STANDARD
 70
     0
 41
2.5
 42
0.625
 43
3.75
 44
1.25
 73
     0
 74
     0
 77
     1
 78
     8
140
2.5
141
2.5
143
0.03937
147
0.625
171
     3
172
     1
271
     2
272
     2
274
     3
283
     0
284
     8
289
     0
340
17
  0
DIMSTYLE
105
248
102
{ACAD_REACTORS
330
2E
330
2C
330
2A
330
28
330
26
102
}
330
9
100
AcDbSymbolTableRecord
100
AcDbDimStyleTableRecord
  2
HAWA-Strich
 70
     0
 41
2.0
 42
2.0
 43
0.0
 44
1.0
 46
1.0
 73
     0
 74
     0
 77
     1
 78
     8
 79
     2
140
3.5
141
0.0
143
0.039370078740157
146
0.7114285714285719
147
1.0
170
     1
171
     5
172
     1
173
     1
176
   256
177
   256
178
   256
179
     1
271
     1
272
     1
273
     4
274
     5
284
     8
285
     8
286
     8
340
247
341
241
343
241
344
241
  0
ENDTAB
  0
TABLE
  2
BLOCK_RECORD
  5
1
330
0
100
AcDbSymbolTable
 70
    11
  0
BLOCK_RECORD
  5
A
330
1
100
AcDbSymbolTableRecord
100
AcDbBlockTableRecord
  2
*MODEL_SPACE
340
1C8
  0
BLOCK_RECORD
  5
B
330
1
100
AcDbSymbolTableRecord
100
AcDbBlockTableRecord
  2
*PAPER_SPACE
340
1C9
  0
BLOCK_RECORD
  5
25
330
1
100
AcDbSymbolTableRecord
100
AcDbBlockTableRecord
  2
*D0
340
0
  0
BLOCK_RECORD
  5
27
330
1
100
AcDbSymbolTableRecord
100
AcDbBlockTableRecord
  2
*D1
340
0
  0
BLOCK_RECORD
  5
29
330
1
100
AcDbSymbolTableRecord
100
AcDbBlockTableRecord
  2
*D2
340
0
  0
BLOCK_RECORD
  5
2B
330
1
100
AcDbSymbolTableRecord
100
AcDbBlockTableRecord
  2
*D3
340
0
  0
BLOCK_RECORD
  5
2D
330
1
100
AcDbSymbolTableRecord
100
AcDbBlockTableRecord
  2
*D4
340
0
  0
BLOCK_RECORD
  5
122
330
1
100
AcDbSymbolTableRecord
100
AcDbBlockTableRecord
  2
BLOCK0
340
0
  0
BLOCK_RECORD
  5
123
330
1
100
AcDbSymbolTableRecord
100
AcDbBlockTableRecord
  2
BLOCK1
340
0
  0
BLOCK_RECORD
  5
124
330
1
100
AcDbSymbolTableRecord
100
AcDbBlockTableRecord
  2
BLOCK2
340
0
  0
BLOCK_RECORD
  5
125
330
1
100
AcDbSymbolTableRecord
100
AcDbBlockTableRecord
  2
BLOCK3
340
0
  0
BLOCK_RECORD
  5
241
330
1
100
AcDbSymbolTableRecord
100
AcDbBlockTableRecord
  2
_Oblique
340
0
102
{BLKREFS
331
28D
331
28E
331
296
331
297
331
2A0
331
2A1
331
2A9
331
2AA
331
2B2
331
2B3
102
}
  0
BLOCK_RECORD
  5
255
330
1
100
AcDbSymbolTableRecord
100
AcDbBlockTableRecord
  2
HAWA
340
0
102
{BLKREFS
331
258
102
}
  0
ENDTAB
  0
ENDSEC
  0
SECTION
  2
BLOCKS
  0
BLOCK
  5
D
330
A
100
AcDbEntity
  8
HAWA1
100
AcDbBlockBegin
  2
*MODEL_SPACE
 70
     0
 10
0.0
 20
0.0
 30
0.0
  3
*MODEL_SPACE
  1

  0
ENDBLK
  5
E
330
A
100
AcDbEntity
  8
HAWA1
100
AcDbBlockEnd
  0
BLOCK
  5
F
330
B
100
AcDbEntity
 67
     1
  8
HAWA1
100
AcDbBlockBegin
  2
*PAPER_SPACE
 70
     0
 10
0.0
 20
0.0
 30
0.0
  3
*PAPER_SPACE
  1

  0
ENDBLK
  5
10
330
B
100
AcDbEntity
 67
     1
  8
HAWA1
100
AcDbBlockEnd
  0
BLOCK
  5
126
330
25
100
AcDbEntity
  8
HAWA1
100
AcDbBlockBegin
  2
*D0
 70
     1
 10
0.0
 20
0.0
 30
0.0
  3
*D0
  1

  0
LINE
  5
2AF
330
25
100
AcDbEntity
  8
HAWA1
370
    -2
100
AcDbLine
 10
96.5
 20
109.499966
 30
0.0
 11
70.78981400000002
 21
109.499966
 31
0.0
  0
LINE
  5
2B0
330
25
100
AcDbEntity
  8
HAWA1
370
    -2
100
AcDbLine
 10
96.5
 20
156.499965
 30
0.0
 11
70.78981400000002
 21
156.499965
 31
0.0
  0
LINE
  5
2B1
330
25
100
AcDbEntity
  8
HAWA1
370
    -2
100
AcDbLine
 10
71.78981400000002
 20
108.499966
 30
0.0
 11
71.78981400000002
 21
157.499965
 31
0.0
  0
INSERT
  5
2B2
330
25
100
AcDbEntity
  8
HAWA1
370
    -2
100
AcDbBlockReference
  2
_Oblique
 10
71.78981400000002
 20
109.499966
 30
0.0
 41
2.0
 42
2.0
 43
2.0
 50
270.0
  0
INSERT
  5
2B3
330
25
100
AcDbEntity
  8
HAWA1
370
    -2
100
AcDbBlockReference
  2
_Oblique
 10
71.78981400000002
 20
156.499965
 30
0.0
 41
2.0
 42
2.0
 43
2.0
 50
90.0
  0
MTEXT
  5
2B4
330
25
100
AcDbEntity
  8
HAWA1
100
AcDbMText
 10
67.36669490450205
 20
132.9999655
 30
0.0
 40
3.5
 41
0.0
 71
     5
 72
     1
  1
\A1;47 [1{\H0.711429x;\S27/32;}"]
  7
Beschlag
 11
0.0000000000000001
 21
1.0
 31
0.0
 73
     1
 44
1.0
1001
ACAD
1000
MTEXTBEGIN
1070
    73
1070
     1
1070
    44
1040
1.0
1070
    74
1070
     0
1000
MTEXTEND
  0
POINT
  5
2B5
330
25
100
AcDbEntity
  8
Defpoints
 62
     0
100
AcDbPoint
 10
98.50000000000001
 20
109.499966
 30
0.0
  0
POINT
  5
2B6
330
25
100
AcDbEntity
  8
Defpoints
 62
     0
100
AcDbPoint
 10
98.50000000000001
 20
156.499965
 30
0.0
  0
POINT
  5
2B7
330
25
100
AcDbEntity
  8
Defpoints
 62
     0
100
AcDbPoint
 10
71.78981400000002
 20
156.499965
 30
0.0
  0
ENDBLK
  5
133
330
25
100
AcDbEntity
  8
HAWA1
100
AcDbBlockEnd
  0
BLOCK
  5
134
330
27
100
AcDbEntity
  8
HAWA1
100
AcDbBlockBegin
  2
*D1
 70
     1
 10
0.0
 20
0.0
 30
0.0
  3
*D1
  1

  0
LINE
  5
2A6
330
27
100
AcDbEntity
  8
HAWA1
370
    -2
100
AcDbLine
 10
142.5000333008821
 20
151.9999999997228
 30
0.0
 11
142.5003068064665
 21
168.4263266853267
 31
0.0
  0
LINE
  5
2A7
330
27
100
AcDbEntity
  8
HAWA1
370
    -2
100
AcDbLine
 10
98.49996669911789
 20
167.0399880002772
 30
0.0
 11
98.49995649358485
 21
166.4270593102892
 31
0.0
  0
LINE
  5
2A8
330
27
100
AcDbEntity
  8
HAWA1
370
    -2
100
AcDbLine
 10
143.5002901558868
 20
167.4263100350243
 30
0.0
 11
97.49997314416454
 21
167.4270759605917
 31
0.0
  0
INSERT
  5
2A9
330
27
100
AcDbEntity
  8
HAWA1
370
    -2
100
AcDbBlockReference
  2
_Oblique
 10
142.5002901560254
 20
167.4263266854653
 30
0.0
 41
2.0
 42
2.0
 43
2.0
 50
359.999046
  0
INSERT
  5
2AA
330
27
100
AcDbEntity
  8
HAWA1
370
    -2
100
AcDbBlockReference
  2
_Oblique
 10
98.49997314402592
 20
167.4270593101506
 30
0.0
 41
2.0
 42
2.0
 43
2.0
 50
179.999046
  0
MTEXT
  5
2AB
330
27
100
AcDbEntity
  8
HAWA1
100
AcDbMText
 10
120.5002056645596
 20
171.8718925971236
 30
0.0
 40
3.5
 41
0.0
 71
     5
 72
     1
  1
\A1;44 [1{\H0.711429x;\S23/32;}"]
  7
Beschlag
 11
0.9999999998613814
 21
-0.0000166504410634
 31
0.0
 73
     1
 44
1.0
1001
ACAD
1000
MTEXTBEGIN
1070
    73
1070
     1
1070
    44
1040
1.0
1070
    74
1070
     0
1000
MTEXTEND
  0
POINT
  5
2AC
330
27
100
AcDbEntity
  8
Defpoints
 62
     0
100
AcDbPoint
 10
142.5
 20
150.0
 30
0.0
  0
POINT
  5
2AD
330
27
100
AcDbEntity
  8
Defpoints
 62
     0
100
AcDbPoint
 10
98.50000000000001
 20
169.039988
 30
0.0
  0
POINT
  5
2AE
330
27
100
AcDbEntity
  8
Defpoints
 62
     0
100
AcDbPoint
 10
98.49997314402592
 20
167.4270593101506
 30
0.0
  0
ENDBLK
  5
141
330
27
100
AcDbEntity
  8
HAWA1
100
AcDbBlockEnd
  0
BLOCK
  5
142
330
29
100
AcDbEntity
  8
HAWA1
100
AcDbBlockBegin
  2
*D2
 70
     1
 10
0.0
 20
0.0
 30
0.0
  3
*D2
  1

  0
LINE
  5
29C
330
29
100
AcDbEntity
  8
HAWA1
370
    -2
100
AcDbLine
 10
109.4999666991179
 20
107.5000150002772
 30
0.0
 11
109.4997543073536
 21
94.74409079127799
 31
0.0
  0
LINE
  5
29D
330
29
100
AcDbEntity
  8
HAWA1
370
    -2
100
AcDbLine
 10
98.49996669911789
 20
98.53355800027724
 30
0.0
 11
98.49990360586701
 21
94.74427394364381
 31
0.0
  0
LINE
  5
29E
330
29
100
AcDbEntity
  8
HAWA1
370
    -2
100
AcDbLine
 10
110.499770957656
 20
95.74407414069831
 30
0.0
 11
98.49992025630809
 21
95.7442739435052
 31
0.0
  0
LINE
  5
29F
330
29
100
AcDbEntity
  8
HAWA1
370
    -2
100
AcDbLine
 10
98.49992025630809
 20
95.7442739435052
 30
0.0
 11
81.99267484273681
 21
95.74454879642212
 31
0.0
  0
INSERT
  5
2A0
330
29
100
AcDbEntity
  8
HAWA1
370
    -2
100
AcDbBlockReference
  2
_Oblique
 10
109.4997709577946
 20
95.74409079113937
 30
0.0
 41
2.0
 42
2.0
 43
2.0
 50
359.999046
  0
INSERT
  5
2A1
330
29
100
AcDbEntity
  8
HAWA1
370
    -2
100
AcDbBlockReference
  2
_Oblique
 10
98.49992025630809
 20
95.7442739435052
 30
0.0
 41
2.0
 42
2.0
 43
2.0
 50
179.999046
  0
MTEXT
  5
2A2
330
29
100
AcDbEntity
  8
HAWA1
100
AcDbMText
 10
89.24637082889473
 20
100.1454666108588
 30
0.0
 40
3.5
 41
0.0
 71
     5
 72
     1
  1
\A1;11 [{\H0.711429x;\S7/16;}"]
  7
Beschlag
 11
0.9999999998613814
 21
-0.0000166504410634
 31
0.0
 73
     1
 44
1.0
1001
ACAD
1000
MTEXTBEGIN
1070
    73
1070
     1
1070
    44
1040
1.0
1070
    74
1070
     0
1000
MTEXTEND
  0
POINT
  5
2A3
330
29
100
AcDbEntity
  8
Defpoints
 62
     0
100
AcDbPoint
 10
109.5
 20
109.500015
 30
0.0
  0
POINT
  5
2A4
330
29
100
AcDbEntity
  8
Defpoints
 62
     0
100
AcDbPoint
 10
98.50000000000001
 20
100.533558
 30
0.0
  0
POINT
  5
2A5
330
29
100
AcDbEntity
  8
Defpoints
 62
     0
100
AcDbPoint
 10
98.49992025630809
 20
95.7442739435052
 30
0.0
  0
ENDBLK
  5
14E
330
29
100
AcDbEntity
  8
HAWA1
100
AcDbBlockEnd
  0
BLOCK
  5
14F
330
2B
100
AcDbEntity
  8
HAWA1
100
AcDbBlockBegin
  2
*D3
 70
     1
 10
0.0
 20
0.0
 30
0.0
  3
*D3
  1

  0
LINE
  5
293
330
2B
100
AcDbEntity
  8
HAWA1
370
    -2
100
AcDbLine
 10
98.49993339823576
 20
89.06074100110897
 30
0.0
 11
98.49968492038094
 21
81.59914122225464
 31
0.0
  0
LINE
  5
294
330
2B
100
AcDbEntity
  8
HAWA1
370
    -2
100
AcDbLine
 10
126.4999313982357
 20
91.06073800110893
 30
0.0
 11
126.4996162876661
 21
81.59820879984023
 31
0.0
  0
LINE
  5
295
330
2B
100
AcDbEntity
  8
HAWA1
370
    -2
100
AcDbLine
 10
97.49971822181754
 20
82.59917452258227
 30
0.0
 11
127.4996495879937
 21
82.59817549840361
 31
0.0
  0
INSERT
  5
296
330
2B
100
AcDbEntity
  8
HAWA1
370
    -2
100
AcDbBlockReference
  2
_Oblique
 10
98.49971822126306
 20
82.59914122170014
 30
0.0
 41
2.0
 42
2.0
 43
2.0
 50
179.998092
  0
INSERT
  5
297
330
2B
100
AcDbEntity
  8
HAWA1
370
    -2
100
AcDbBlockReference
  2
_Oblique
 10
126.4996495885482
 20
82.59820879928573
 30
0.0
 41
2.0
 42
2.0
 43
2.0
 50
359.998092
  0
MTEXT
  5
298
330
2B
100
AcDbEntity
  8
HAWA1
100
AcDbMText
 10
112.4998319339735
 20
87.04387460795999
 30
0.0
 40
3.5
 41
0.0
 71
     5
 72
     1
  1
\A1;28 [1{\H0.711429x;\S3/32;}"]
  7
Beschlag
 11
0.9999999994455256
 21
-0.0000333008821221
 31
0.0
 73
     1
 44
1.0
1001
ACAD
1000
MTEXTBEGIN
1070
    73
1070
     1
1070
    44
1040
1.0
1070
    74
1070
     0
1000
MTEXTEND
  0
POINT
  5
299
330
2B
100
AcDbEntity
  8
Defpoints
 62
     0
100
AcDbPoint
 10
98.50000000000001
 20
91.06074100000002
 30
0.0
  0
POINT
  5
29A
330
2B
100
AcDbEntity
  8
Defpoints
 62
     0
100
AcDbPoint
 10
126.499998
 20
93.06073799999998
 30
0.0
  0
POINT
  5
29B
330
2B
100
AcDbEntity
  8
Defpoints
 62
     0
100
AcDbPoint
 10
126.4996495885482
 20
82.59820879928573
 30
0.0
  0
ENDBLK
  5
15C
330
2B
100
AcDbEntity
  8
HAWA1
100
AcDbBlockEnd
  0
BLOCK
  5
15D
330
2D
100
AcDbEntity
  8
HAWA1
100
AcDbBlockBegin
  2
*D4
 70
     1
 10
0.0
 20
0.0
 30
0.0
  3
*D4
  1

  0
LINE
  5
289
330
2D
100
AcDbEntity
  8
HAWA1
370
    -2
100
AcDbLine
 10
96.5
 20
127.39993
 30
0.0
 11
84.09823600000001
 21
127.39993
 31
0.0
  0
LINE
  5
28A
330
2D
100
AcDbEntity
  8
HAWA1
370
    -2
100
AcDbLine
 10
96.5
 20
133.59993
 30
0.0
 11
84.09823600000001
 21
133.59993
 31
0.0
  0
LINE
  5
28B
330
2D
100
AcDbEntity
  8
HAWA1
370
    -2
100
AcDbLine
 10
85.09823600000002
 20
126.39993
 30
0.0
 11
85.09823600000002
 21
133.59993
 31
0.0
  0
LINE
  5
28C
330
2D
100
AcDbEntity
  8
HAWA1
370
    -2
100
AcDbLine
 10
85.09823600000002
 20
133.59993
 30
0.0
 11
85.09823600000002
 21
153.6058600826739
 31
0.0
  0
INSERT
  5
28D
330
2D
100
AcDbEntity
  8
HAWA1
370
    -2
100
AcDbBlockReference
  2
_Oblique
 10
85.09823600000002
 20
127.39993
 30
0.0
 41
2.0
 42
2.0
 43
2.0
 50
270.0
  0
INSERT
  5
28E
330
2D
100
AcDbEntity
  8
HAWA1
370
    -2
100
AcDbBlockReference
  2
_Oblique
 10
85.09823600000002
 20
133.59993
 30
0.0
 41
2.0
 42
2.0
 43
2.0
 50
90.0
  0
MTEXT
  5
28F
330
2D
100
AcDbEntity
  8
HAWA1
100
AcDbMText
 10
80.70229290995907
 20
144.602895041337
 30
0.0
 40
3.5
 41
0.0
 71
     5
 72
     1
  1
\A1;%%c6.2 [{\H0.711429x;\S1/4;}"]
  7
Beschlag
 11
0.0000000000000001
 21
1.0
 31
0.0
 73
     1
 44
1.0
1001
ACAD
1000
MTEXTBEGIN
1070
    73
1070
     1
1070
    44
1040
1.0
1070
    74
1070
     0
1000
MTEXTEND
  0
POINT
  5
290
330
2D
100
AcDbEntity
  8
Defpoints
 62
     0
100
AcDbPoint
 10
98.50000000000001
 20
127.39993
 30
0.0
  0
POINT
  5
291
330
2D
100
AcDbEntity
  8
Defpoints
 62
     0
100
AcDbPoint
 10
98.50000000000001
 20
133.59993
 30
0.0
  0
POINT
  5
292
330
2D
100
AcDbEntity
  8
Defpoints
 62
     0
100
AcDbPoint
 10
85.09823600000002
 20
133.59993
 30
0.0
  0
ENDBLK
  5
16A
330
2D
100
AcDbEntity
  8
HAWA1
100
AcDbBlockEnd
  0
BLOCK
  5
16B
330
122
100
AcDbEntity
  8
HAWA1
100
AcDbBlockBegin
  2
BLOCK0
 70
     0
 10
0.0
 20
0.0
 30
0.0
  3
BLOCK0
  1

  0
LINE
  5
16C
330
122
100
AcDbEntity
  8
Hawa2
 62
     9
 48
0.037958
100
AcDbLine
 10
3.426372
 20
-39.000034
 30
0.0
 11
4.5
 21
-37.926407
 31
0.0
  0
LINE
  5
16D
330
122
100
AcDbEntity
  8
Hawa2
 62
     9
 48
0.106066
100
AcDbLine
 10
0.597945
 20
-39.000034
 30
0.0
 11
3.597944999999999
 21
-36.000034
 31
0.0
  0
LINE
  5
16E
330
122
100
AcDbEntity
  8
Hawa2
 62
     9
 48
0.106066
100
AcDbLine
 10
-2.230481999999999
 20
-39.000034
 30
0.0
 11
0.7695180000000001
 21
-36.000034
 31
0.0
  0
LINE
  5
16F
330
122
100
AcDbEntity
  8
Hawa2
 62
     9
 48
0.161182
100
AcDbLine
 10
-5.058908999999999
 20
-39.000034
 30
0.0
 11
-0.5
 21
-34.441124
 31
0.0
  0
LINE
  5
170
330
122
100
AcDbEntity
  8
Hawa2
 62
     9
 48
0.046186
100
AcDbLine
 10
-6.5
 20
-37.61269799999999
 30
0.0
 11
-5.193667999999999
 21
-36.306366
 31
0.0
  0
LINE
  5
171
330
122
100
AcDbEntity
  8
Hawa2
 62
     9
 48
0.141421
100
AcDbLine
 10
-4.5
 20
-35.612698
 30
0.0
 11
-0.5
 21
-31.612698
 31
0.0
  0
LINE
  5
172
330
122
100
AcDbEntity
  8
Hawa2
 62
     9
 48
0.120763
100
AcDbLine
 10
-4.523569
 20
-32.807838
 30
0.0
 11
-1.107882
 21
-29.39215300000001
 31
0.0
  0
LINE
  5
173
330
122
100
AcDbEntity
  8
Hawa2
 62
     9
 48
0.121295
100
AcDbLine
 10
-5.922094999999999
 20
-31.377939
 30
0.0
 11
-2.491341999999999
 21
-27.947186
 31
0.0
  0
LINE
  5
174
330
122
100
AcDbEntity
  8
Hawa2
 62
     9
 48
0.141421
100
AcDbLine
 10
-6.5
 20
-29.127417
 30
0.0
 11
-2.5
 21
-25.127417
 31
0.0
  0
LINE
  5
175
330
122
100
AcDbEntity
  8
Hawa2
 62
     9
 48
0.141421
100
AcDbLine
 10
-6.5
 20
-26.29899
 30
0.0
 11
-2.5
 21
-22.29899
 31
0.0
  0
LINE
  5
176
330
122
100
AcDbEntity
  8
Hawa2
 62
     9
 48
0.08381
100
AcDbLine
 10
-6.5
 20
-23.470562
 30
0.0
 11
-4.129507
 21
-21.100069
 31
0.0
  0
ENDBLK
  5
177
330
122
100
AcDbEntity
  8
HAWA1
100
AcDbBlockEnd
  0
BLOCK
  5
178
330
123
100
AcDbEntity
  8
HAWA1
100
AcDbBlockBegin
  2
BLOCK1
 70
     0
 10
0.0
 20
0.0
 30
0.0
  3
BLOCK1
  1

  0
LINE
  5
179
330
123
100
AcDbEntity
  8
Hawa2
 62
     9
 48
0.025825
100
AcDbLine
 10
36.769554
 20
0.0
 30
0.0
 11
37.5
 21
0.7304470000000001
 31
0.0
  0
LINE
  5
17A
330
123
100
AcDbEntity
  8
Hawa2
 62
     9
 48
0.106401
100
AcDbLine
 10
33.941124
 20
0.0
 30
0.0
 11
36.950596
 21
3.009472
 31
0.0
  0
LINE
  5
17B
330
123
100
AcDbEntity
  8
Hawa2
 62
     9
 48
0.179716
100
AcDbLine
 10
31.112698
 20
0.0
 30
0.0
 11
36.195843
 21
5.083143999999999
 31
0.0
  0
LINE
  5
17C
330
123
100
AcDbEntity
  8
Hawa2
 62
     9
 48
0.251426
100
AcDbLine
 10
28.284271
 20
0.0
 30
0.0
 11
35.395664
 21
7.111392999999999
 31
0.0
  0
LINE
  5
17D
330
123
100
AcDbEntity
  8
Hawa2
 62
     9
 48
0.024955
100
AcDbLine
 10
26.75
 20
1.294155999999999
 30
0.0
 11
27.455845
 21
2.0
 31
0.0
  0
LINE
  5
17E
330
123
100
AcDbEntity
  8
Hawa2
 62
     9
 48
0.113344
100
AcDbLine
 10
30.25
 20
4.794156
 30
0.0
 11
33.45584500000001
 21
8.0
 31
0.0
  0
LINE
  5
17F
330
123
100
AcDbEntity
  8
Hawa2
 62
     9
 48
0.070711
100
AcDbLine
 10
28.627417
 20
6.0
 30
0.0
 11
30.627415
 21
7.999997999999999
 31
0.0
  0
LINE
  5
180
330
123
100
AcDbEntity
  8
Hawa2
 62
     9
 48
0.07071
100
AcDbLine
 10
25.79899
 20
6.0
 30
0.0
 11
27.798985
 21
7.999994999999999
 31
0.0
  0
LINE
  5
181
330
123
100
AcDbEntity
  8
Hawa2
 62
     9
 48
0.07071
100
AcDbLine
 10
22.970562
 20
6.0
 30
0.0
 11
24.970556
 21
7.999991999999999
 31
0.0
  0
LINE
  5
182
330
123
100
AcDbEntity
  8
Hawa2
 62
     9
 48
0.067279
100
AcDbLine
 10
14.142136
 20
0.0
 30
0.0
 11
16.045059
 21
1.902922999999999
 31
0.0
  0
LINE
  5
183
330
123
100
AcDbEntity
  8
Hawa2
 62
     9
 48
0.07071
100
AcDbLine
 10
20.142136
 20
6.0
 30
0.0
 11
22.142126
 21
7.999989999999999
 31
0.0
  0
LINE
  5
184
330
123
100
AcDbEntity
  8
Hawa2
 62
     9
 48
0.038409
100
AcDbLine
 10
-3.586361
 20
-14.900069
 30
0.0
 11
-2.5
 21
-13.813708
 31
0.0
  0
LINE
  5
185
330
123
100
AcDbEntity
  8
Hawa2
 62
     9
 48
0.070711
100
AcDbLine
 10
11.313708
 20
0.0
 30
0.0
 11
13.313708
 21
2.0
 31
0.0
  0
LINE
  5
186
330
123
100
AcDbEntity
  8
Hawa2
 62
     9
 48
0.07071
100
AcDbLine
 10
17.313709
 20
6.0
 30
0.0
 11
19.313696
 21
7.999988
 31
0.0
  0
LINE
  5
187
330
123
100
AcDbEntity
  8
Hawa2
 62
     9
 48
0.138409
100
AcDbLine
 10
-6.414787999999999
 20
-14.900069
 30
0.0
 11
-2.5
 21
-10.985281
 31
0.0
  0
LINE
  5
188
330
123
100
AcDbEntity
  8
Hawa2
 62
     9
 48
0.035877
100
AcDbLine
 10
3.485247
 20
-5.000034999999999
 30
0.0
 11
4.5
 21
-3.985280999999999
 31
0.0
  0
LINE
  5
189
330
123
100
AcDbEntity
  8
Hawa2
 62
     9
 48
0.150781
100
AcDbLine
 10
8.485281
 20
0.0
 30
0.0
 11
12.75
 21
4.264719
 31
0.0
  0
LINE
  5
18A
330
123
100
AcDbEntity
  8
Hawa2
 62
     9
 48
0.07071
100
AcDbLine
 10
14.485281
 20
6.0
 30
0.0
 11
16.485266
 21
7.999985
 31
0.0
  0
LINE
  5
18B
330
123
100
AcDbEntity
  8
Hawa2
 62
     9
 48
0.141421
100
AcDbLine
 10
-6.5
 20
-12.156855
 30
0.0
 11
-2.5
 21
-8.156855
 31
0.0
  0
LINE
  5
18C
330
123
100
AcDbEntity
  8
Hawa2
 62
     9
 48
0.136905
100
AcDbLine
 10
0.4561640000000001
 20
-5.200689999999999
 30
0.0
 11
4.328426999999999
 21
-1.328427
 31
0.0
  0
LINE
  5
18D
330
123
100
AcDbEntity
  8
Hawa2
 62
     9
 48
0.276776
100
AcDbLine
 10
5.828426999999999
 20
0.171573
 30
0.0
 11
13.656837
 21
7.999983
 31
0.0
  0
LINE
  5
18E
330
123
100
AcDbEntity
  8
Hawa2
 62
     9
100
AcDbLine
 10
-6.5
 20
-9.328426999999999
 30
0.0
 11
10.828407
 21
7.999979999999999
 31
0.0
  0
LINE
  5
18F
330
123
100
AcDbEntity
  8
Hawa2
 62
     9
100
AcDbLine
 10
-6.5
 20
-6.5
 30
0.0
 11
7.999977999999999
 21
7.999977999999999
 31
0.0
  0
LINE
  5
190
330
123
100
AcDbEntity
  8
Hawa2
 62
     9
 48
0.274321
100
AcDbLine
 10
-6.5
 20
-3.671573
 30
0.0
 11
1.258958
 21
4.087385
 31
0.0
  0
LINE
  5
191
330
123
100
AcDbEntity
  8
Hawa2
 62
     9
 48
0.218458
100
AcDbLine
 10
-6.5
 20
-0.8431459999999999
 30
0.0
 11
-0.321084
 21
5.33577
 31
0.0
  0
LINE
  5
192
330
123
100
AcDbEntity
  8
Hawa2
 62
     9
 48
0.097747
100
AcDbLine
 10
-4.5
 20
3.985280999999999
 30
0.0
 11
-1.735298
 21
6.749983999999999
 31
0.0
  0
LINE
  5
193
330
123
100
AcDbEntity
  8
Hawa2
 62
     9
 48
0.11083
100
AcDbLine
 10
-6.5
 20
4.813708
 30
0.0
 11
-3.365255999999999
 21
7.948452
 31
0.0
  0
LINE
  5
194
330
123
100
AcDbEntity
  8
Hawa2
 62
     9
 48
0.012651
100
AcDbLine
 10
-6.5
 20
7.642135999999999
 30
0.0
 11
-6.14217
 21
7.999966
 31
0.0
  0
ENDBLK
  5
195
330
123
100
AcDbEntity
  8
HAWA1
100
AcDbBlockEnd
  0
BLOCK
  5
196
330
124
100
AcDbEntity
  8
HAWA1
100
AcDbBlockBegin
  2
BLOCK2
 70
     0
 10
0.0
 20
0.0
 30
0.0
  3
BLOCK2
  1

  0
LINE
  5
197
330
124
100
AcDbEntity
  8
Hawa2
 62
     9
 48
0.075394
100
AcDbLine
 10
36.367519
 20
-40.000015
 30
0.0
 11
38.499985
 21
-37.86755
 31
0.0
  0
LINE
  5
198
330
124
100
AcDbEntity
  8
Hawa2
 62
     9
 48
0.175394
100
AcDbLine
 10
33.539093
 20
-40.000011
 30
0.0
 11
38.499985
 21
-35.03912000000001
 31
0.0
  0
LINE
  5
199
330
124
100
AcDbEntity
  8
Hawa2
 62
     9
 48
0.275394
100
AcDbLine
 10
30.710667
 20
-40.000011
 30
0.0
 11
38.499985
 21
-32.210693
 31
0.0
  0
LINE
  5
19A
330
124
100
AcDbEntity
  8
Hawa2
 62
     9
 48
0.093527
100
AcDbLine
 10
28.236897
 20
-39.645355
 30
0.0
 11
30.882238
 21
-37.000011
 31
0.0
  0
LINE
  5
19B
330
124
100
AcDbEntity
  8
Hawa2
 62
     9
 48
0.038263
100
AcDbLine
 10
31.79998400000001
 20
-36.082268
 30
0.0
 11
32.882236
 21
-35.000011
 31
0.0
  0
LINE
  5
19C
330
124
100
AcDbEntity
  8
Hawa2
 62
     9
 48
0.102531
100
AcDbLine
 10
35.599987
 20
-32.282265
 30
0.0
 11
38.499989
 21
-29.382263
 31
0.0
  0
LINE
  5
19D
330
124
100
AcDbEntity
  8
Hawa2
 62
     9
 48
0.102531
100
AcDbLine
 10
35.599987
 20
-29.453836
 30
0.0
 11
38.499989
 21
-26.553835
 31
0.0
  0
LINE
  5
19E
330
124
100
AcDbEntity
  8
Hawa2
 62
     9
 48
0.102531
100
AcDbLine
 10
35.599987
 20
-26.625408
 30
0.0
 11
38.499989
 21
-23.725407
 31
0.0
  0
LINE
  5
19F
330
124
100
AcDbEntity
  8
Hawa2
 62
     9
 48
0.102531
100
AcDbLine
 10
35.599991
 20
-23.79698
 30
0.0
 11
38.499992
 21
-20.896978
 31
0.0
  0
LINE
  5
1A0
330
124
100
AcDbEntity
  8
Hawa2
 62
     9
 48
0.102531
100
AcDbLine
 10
35.599991
 20
-20.968552
 30
0.0
 11
38.499992
 21
-18.06855
 31
0.0
  0
LINE
  5
1A1
330
124
100
AcDbEntity
  8
Hawa2
 62
     9
 48
0.102531
100
AcDbLine
 10
35.599991
 20
-18.140123
 30
0.0
 11
38.499992
 21
-15.240122
 31
0.0
  0
LINE
  5
1A2
330
124
100
AcDbEntity
  8
Hawa2
 62
     9
 48
0.102531
100
AcDbLine
 10
35.599995
 20
-15.311695
 30
0.0
 11
38.499996
 21
-12.411694
 31
0.0
  0
LINE
  5
1A3
330
124
100
AcDbEntity
  8
Hawa2
 62
     9
 48
0.102531
100
AcDbLine
 10
35.599995
 20
-12.483266
 30
0.0
 11
38.499996
 21
-9.583264999999999
 31
0.0
  0
LINE
  5
1A4
330
124
100
AcDbEntity
  8
Hawa2
 62
     9
 48
0.102531
100
AcDbLine
 10
35.599995
 20
-9.654837999999999
 30
0.0
 11
38.499996
 21
-6.754836999999999
 31
0.0
  0
LINE
  5
1A5
330
124
100
AcDbEntity
  8
Hawa2
 62
     9
 48
0.102531
100
AcDbLine
 10
35.599998
 20
-6.826408999999999
 30
0.0
 11
38.5
 21
-3.926408
 31
0.0
  0
LINE
  5
1A6
330
124
100
AcDbEntity
  8
Hawa2
 62
     9
 48
0.107768
100
AcDbLine
 10
35.451862
 20
-4.146118
 30
0.0
 11
38.5
 21
-1.097979999999999
 31
0.0
  0
LINE
  5
1A7
330
124
100
AcDbEntity
  8
Hawa2
 62
     9
 48
0.103163
100
AcDbLine
 10
33.851658
 20
-2.917895
 30
0.0
 11
36.769539
 21
-0.000014
 31
0.0
  0
LINE
  5
1A8
330
124
100
AcDbEntity
  8
Hawa2
 62
     9
 48
0.10253
100
AcDbLine
 10
31.041113
 20
-2.900011999999999
 30
0.0
 11
33.941113
 21
-0.000013
 31
0.0
  0
LINE
  5
1A9
330
124
100
AcDbEntity
  8
Hawa2
 62
     9
 48
0.10253
100
AcDbLine
 10
28.212688
 20
-2.900011
 30
0.0
 11
31.112686
 21
-0.000012
 31
0.0
  0
LINE
  5
1AA
330
124
100
AcDbEntity
  8
Hawa2
 62
     9
 48
0.079271
100
AcDbLine
 10
26.042131
 20
-2.242141
 30
0.0
 11
28.28426
 21
-0.000011
 31
0.0
  0
LINE
  5
1AB
330
124
100
AcDbEntity
  8
Hawa2
 62
     9
 48
0.029271
100
AcDbLine
 10
24.627918
 20
-0.827927
 30
0.0
 11
25.455835
 21
-0.000009
 31
0.0
  0
ENDBLK
  5
1AC
330
124
100
AcDbEntity
  8
HAWA1
100
AcDbBlockEnd
  0
BLOCK
  5
1AD
330
125
100
AcDbEntity
  8
HAWA1
100
AcDbBlockBegin
  2
BLOCK3
 70
     0
 10
0.0
 20
0.0
 30
0.0
  3
BLOCK3
  1

  0
LINE
  5
1AE
330
125
100
AcDbEntity
  8
Hawa2
 62
     9
 48
0.044545
100
AcDbLine
 10
13.740105
 20
-40.000011
 30
0.0
 11
15.000017
 21
-38.740097
 31
0.0
  0
LINE
  5
1AF
330
125
100
AcDbEntity
  8
Hawa2
 62
     9
 48
0.106066
100
AcDbLine
 10
10.911675
 20
-40.000011
 30
0.0
 11
13.911677
 21
-37.000011
 31
0.0
  0
LINE
  5
1B0
330
125
100
AcDbEntity
  8
Hawa2
 62
     9
 48
0.113493
100
AcDbLine
 10
8.083247
 20
-40.000015
 30
0.0
 11
11.293302
 21
-36.789959
 31
0.0
  0
LINE
  5
1B1
330
125
100
AcDbEntity
  8
Hawa2
 62
     9
 48
0.175788
100
AcDbLine
 10
5.280222
 20
-39.974613
 30
0.0
 11
10.252255
 21
-35.002579
 31
0.0
  0
LINE
  5
1B2
330
125
100
AcDbEntity
  8
Hawa2
 62
     9
 48
0.12373
100
AcDbLine
 10
4.500016999999999
 20
-37.926392
 30
0.0
 11
7.999639
 21
-34.426769
 31
0.0
  0
LINE
  5
1B3
330
125
100
AcDbEntity
  8
Hawa2
 62
     9
 48
0.10253
100
AcDbLine
 10
4.500016
 20
-35.097965
 30
0.0
 11
7.400013999999999
 21
-32.197964
 31
0.0
  0
LINE
  5
1B4
330
125
100
AcDbEntity
  8
Hawa2
 62
     9
 48
0.10253
100
AcDbLine
 10
4.500014
 20
-32.269539
 30
0.0
 11
7.400013
 21
-29.36953900000001
 31
0.0
  0
LINE
  5
1B5
330
125
100
AcDbEntity
  8
Hawa2
 62
     9
 48
0.10253
100
AcDbLine
 10
4.500013
 20
-29.441113
 30
0.0
 11
7.400011999999999
 21
-26.541115
 31
0.0
  0
LINE
  5
1B6
330
125
100
AcDbEntity
  8
Hawa2
 62
     9
 48
0.10253
100
AcDbLine
 10
4.500010999999999
 20
-26.612686
 30
0.0
 11
7.40001
 21
-23.712688
 31
0.0
  0
LINE
  5
1B7
330
125
100
AcDbEntity
  8
Hawa2
 62
     9
 48
0.10253
100
AcDbLine
 10
4.500009999999999
 20
-23.784262
 30
0.0
 11
7.400008999999999
 21
-20.884262
 31
0.0
  0
LINE
  5
1B8
330
125
100
AcDbEntity
  8
Hawa2
 62
     9
 48
0.10253
100
AcDbLine
 10
4.500008999999999
 20
-20.955835
 30
0.0
 11
7.400008
 21
-18.055836
 31
0.0
  0
LINE
  5
1B9
330
125
100
AcDbEntity
  8
Hawa2
 62
     9
 48
0.10253
100
AcDbLine
 10
4.500008
 20
-18.127409
 30
0.0
 11
7.400005999999999
 21
-15.22741
 31
0.0
  0
LINE
  5
1BA
330
125
100
AcDbEntity
  8
Hawa2
 62
     9
 48
0.10253
100
AcDbLine
 10
4.500007
 20
-15.298984
 30
0.0
 11
7.400005
 21
-12.398985
 31
0.0
  0
LINE
  5
1BB
330
125
100
AcDbEntity
  8
Hawa2
 62
     9
 48
0.10253
100
AcDbLine
 10
4.500005
 20
-12.470557
 30
0.0
 11
7.400003999999999
 21
-9.570558999999999
 31
0.0
  0
LINE
  5
1BC
330
125
100
AcDbEntity
  8
Hawa2
 62
     9
 48
0.102531
100
AcDbLine
 10
14.070552
 20
-2.900011
 30
0.0
 11
16.970552
 21
-0.00001
 31
0.0
  0
LINE
  5
1BD
330
125
100
AcDbEntity
  8
Hawa2
 62
     9
 48
0.10253
100
AcDbLine
 10
4.500003999999999
 20
-9.642132
 30
0.0
 11
7.400002
 21
-6.742132999999999
 31
0.0
  0
LINE
  5
1BE
330
125
100
AcDbEntity
  8
Hawa2
 62
     9
 48
0.102531
100
AcDbLine
 10
11.242124
 20
-2.900011999999999
 30
0.0
 11
14.142125
 21
-0.000011
 31
0.0
  0
LINE
  5
1BF
330
125
100
AcDbEntity
  8
Hawa2
 62
     9
 48
0.2409
100
AcDbLine
 10
4.500002999999999
 20
-6.813705999999999
 30
0.0
 11
11.313696
 21
-0.000012
 31
0.0
  0
LINE
  5
1C0
330
125
100
AcDbEntity
  8
Hawa2
 62
     9
 48
0.1409
100
AcDbLine
 10
4.500001
 20
-3.98528
 30
0.0
 11
8.485267999999999
 21
-0.000013
 31
0.0
  0
LINE
  5
1C1
330
125
100
AcDbEntity
  8
Hawa2
 62
     9
 48
0.0409
100
AcDbLine
 10
4.5
 20
-1.156854
 30
0.0
 11
5.656838999999999
 21
-0.000015
 31
0.0
  0
ENDBLK
  5
1C2
330
125
100
AcDbEntity
  8
HAWA1
100
AcDbBlockEnd
  0
BLOCK
  5
242
330
241
100
AcDbEntity
  8
0
100
AcDbBlockBegin
  2
_Oblique
 70
     0
 10
0.0
 20
0.0
 30
0.0
  3
_Oblique
  1

  0
LINE
  5
243
330
241
100
AcDbEntity
  8
0
 62
     0
370
    -2
100
AcDbLine
 10
-0.5
 20
-0.5
 30
0.0
 11
0.5
 21
0.5
 31
0.0
  0
ENDBLK
  5
244
330
241
100
AcDbEntity
  8
0
100
AcDbBlockEnd
  0
BLOCK
  5
256
330
255
100
AcDbEntity
  8
0
100
AcDbBlockBegin
  2
HAWA
 70
     0
 10
0.0
 20
0.0
 30
0.0
  3
HAWA
  1

  0
ENDBLK
  5
257
330
255
100
AcDbEntity
  8
0
100
AcDbBlockEnd
  0
ENDSEC
  0
SECTION
  2
ENTITIES
  0
DIMENSION
  5
26
330
A
100
AcDbEntity
  8
HAWA1
 62
     0
100
AcDbDimension
  2
*D0
 10
71.78981400000002
 20
156.499965
 30
0.0
 11
67.36669490450205
 21
132.9999655
 31
0.0
 70
    33
 71
     5
 42
46.99999900000001
 52
89.999523
  3
HAWA-Strich
100
AcDbAlignedDimension
 13
98.50000000000001
 23
109.499966
 33
0.0
 14
98.50000000000001
 24
156.499965
 34
0.0
  0
DIMENSION
  5
28
330
A
100
AcDbEntity
  8
HAWA1
 62
     0
100
AcDbDimension
  2
*D1
 10
98.49997314402592
 20
167.4270593101506
 30
0.0
 11
120.5002056645596
 21
171.8718925971236
 31
0.0
 70
    32
 71
     5
 42
44.00031701809881
 52
89.999523
  3
HAWA-Strich
100
AcDbAlignedDimension
 13
142.5
 23
150.0
 33
0.0
 14
98.50000000000001
 24
169.039988
 34
0.0
 50
179.999046
100
AcDbRotatedDimension
  0
DIMENSION
  5
2A
330
A
100
AcDbEntity
  8
HAWA1
 62
     0
100
AcDbDimension
  2
*D2
 10
98.49992025630809
 20
95.7442739435052
 30
0.0
 11
89.24637082889473
 21
100.1454666108588
 31
0.0
 70
    32
 71
     5
 42
10.99985070301137
 52
89.999523
  3
HAWA-Strich
100
AcDbAlignedDimension
 13
109.5
 23
109.500015
 33
0.0
 14
98.50000000000001
 24
100.533558
 34
0.0
 50
179.999046
100
AcDbRotatedDimension
  0
DIMENSION
  5
2C
330
A
100
AcDbEntity
  8
HAWA1
 62
     0
100
AcDbDimension
  2
*D3
 10
126.4996495885482
 20
82.59820879928573
 30
0.0
 11
112.4998319339735
 21
87.04387460795999
 31
0.0
 70
    32
 71
     5
 42
27.99993138281039
 52
89.999523
  3
HAWA-Strich
100
AcDbAlignedDimension
 13
98.50000000000001
 23
91.060741
 33
0.0
 14
126.499998
 24
93.060738
 34
0.0
 50
359.998092
100
AcDbRotatedDimension
  0
DIMENSION
  5
2E
330
A
100
AcDbEntity
  8
HAWA1
 62
     0
100
AcDbDimension
  2
*D4
 10
85.09823600000002
 20
133.59993
 30
0.0
 11
80.70229290995907
 21
144.602895041337
 31
0.0
 70
    33
  1
%%c<>
 71
     5
 42
6.200000000000002
 52
89.999523
  3
HAWA-Strich
100
AcDbAlignedDimension
 13
98.50000000000001
 23
127.39993
 33
0.0
 14
98.50000000000001
 24
133.59993
 34
0.0
  0
LINE
  5
2F
330
A
100
AcDbEntity
  8
Hawa5
  6
DASHDOT
 62
     1
100
AcDbLine
 10
126.499979
 20
102.044113
 30
0.0
 11
126.500004
 21
156.415075
 31
0.0
  0
LINE
  5
30
330
A
100
AcDbEntity
  8
Hawa4
 62
     4
 48
0.335
100
AcDbLine
 10
142.5
 20
148.5
 30
0.0
 11
129.1
 21
148.5
 31
0.0
  0
LINE
  5
31
330
A
100
AcDbEntity
  8
Hawa4
 62
     4
 48
0.335
100
AcDbLine
 10
123.9
 20
148.5
 30
0.0
 11
110.5
 21
148.5
 31
0.0
  0
LINE
  5
32
330
A
100
AcDbEntity
  8
HAWA1
 48
0.000002
100
AcDbLine
 10
114.5
 20
161.900017
 30
0.0
 11
114.5
 21
161.899952
 31
0.0
  0
LINE
  5
33
330
A
100
AcDbEntity
  8
Hawa4
 62
     4
 48
0.003107
100
AcDbLine
 10
98.587868
 20
117.612097
 30
0.0
 11
98.50000000000001
 21
117.699965
 31
0.0
  0
LINE
  5
34
330
A
100
AcDbEntity
  8
Hawa5
 62
     1
 48
0.1
100
AcDbLine
 10
102.5
 20
127.399931
 30
0.0
 11
98.50000000000001
 21
127.399931
 31
0.0
  0
LINE
  5
35
330
A
100
AcDbEntity
  8
Hawa5
 62
     1
 48
0.1
100
AcDbLine
 10
102.5
 20
133.599931
 30
0.0
 11
98.50000000000001
 21
133.599931
 31
0.0
  0
LINE
  5
36
330
A
100
AcDbEntity
  8
Hawa4
 62
     4
 48
0.049999
100
AcDbLine
 10
120.0
 20
111.499969
 30
0.0
 11
120.0
 21
109.500015
 31
0.0
  0
LINE
  5
37
330
A
100
AcDbEntity
  8
Hawa4
 62
     4
 48
0.049999
100
AcDbLine
 10
133.0
 20
111.499969
 30
0.0
 11
133.0
 21
109.500015
 31
0.0
  0
LINE
  5
38
330
A
100
AcDbEntity
  8
Hawa4
 62
     4
 48
0.02
100
AcDbLine
 10
115.199997
 20
113.5
 30
0.0
 11
114.399994
 21
113.5
 31
0.0
  0
LINE
  5
39
330
A
100
AcDbEntity
  8
Hawa4
 62
     4
 48
0.012499
100
AcDbLine
 10
136.799988
 20
112.499985
 30
0.0
 11
136.799988
 21
112.000015
 31
0.0
  0
LINE
  5
3A
330
A
100
AcDbEntity
  8
Hawa5
  6
DASHDOT
 62
     1
100
AcDbLine
 10
112.912064
 20
128.399948
 30
0.0
 11
139.968575
 21
128.399948
 31
0.0
  0
LINE
  5
3B
330
A
100
AcDbEntity
  8
Hawa6
 62
     3
 48
0.1
100
AcDbLine
 10
132.540588
 20
139.899994
 30
0.0
 11
132.540588
 21
135.900009
 31
0.0
  0
LINE
  5
3C
330
A
100
AcDbEntity
  8
Hawa6
 62
     3
 48
0.229998
100
AcDbLine
 10
136.5
 20
120.899948
 30
0.0
 11
136.5
 21
111.700012
 31
0.0
  0
LINE
  5
3D
330
A
100
AcDbEntity
  8
Hawa6
 62
     3
 48
0.100001
100
AcDbLine
 10
120.45942
 20
139.900033
 30
0.0
 11
120.459481
 21
135.899995
 31
0.0
  0
LINE
  5
3E
330
A
100
AcDbEntity
  8
Hawa6
 62
     3
100
AcDbLine
 10
113.5
 20
120.899948
 30
0.0
 11
139.5
 21
120.899948
 31
0.0
  0
LINE
  5
3F
330
A
100
AcDbEntity
  8
Hawa6
 62
     3
 48
0.375002
100
AcDbLine
 10
113.5
 20
135.900009
 30
0.0
 11
113.5
 21
120.899948
 31
0.0
  0
LINE
  5
40
330
A
100
AcDbEntity
  8
Hawa6
 62
     3
100
AcDbLine
 10
113.500011
 20
135.900006
 30
0.0
 11
139.499981
 21
135.899976
 31
0.0
  0
LINE
  5
41
330
A
100
AcDbEntity
  8
Hawa6
 62
     3
 48
0.375
100
AcDbLine
 10
139.5
 20
135.899948
 30
0.0
 11
139.5
 21
120.899948
 31
0.0
  0
LINE
  5
42
330
A
100
AcDbEntity
  8
Hawa6
 62
     3
 48
0.1
100
AcDbLine
 10
120.459412
 20
120.899948
 30
0.0
 11
120.459412
 21
116.899963
 31
0.0
  0
LINE
  5
43
330
A
100
AcDbEntity
  8
Hawa6
 62
     3
 48
0.1
100
AcDbLine
 10
132.540588
 20
120.899948
 30
0.0
 11
132.540588
 21
116.899963
 31
0.0
  0
LINE
  5
44
330
A
100
AcDbEntity
  8
Hawa6
  6
DASHED
 62
     3
 48
0.4650000000000001
100
AcDbLine
 10
131.5
 20
135.899985
 30
0.0
 11
131.5
 21
117.300003
 31
0.0
  0
LINE
  5
45
330
A
100
AcDbEntity
  8
Hawa6
  6
DASHED
 62
     3
 48
0.4624990000000001
100
AcDbLine
 10
122.499992
 20
135.899948
 30
0.0
 11
122.499992
 21
117.399994
 31
0.0
  0
LINE
  5
46
330
A
100
AcDbEntity
  8
Hawa6
  6
DASHED
 62
     3
 48
0.4625
100
AcDbLine
 10
121.5
 20
135.899998
 30
0.0
 11
121.5
 21
117.399994
 31
0.0
  0
LINE
  5
47
330
A
100
AcDbEntity
  8
Hawa6
  6
DASHED
 62
     3
 48
0.4624990000000001
100
AcDbLine
 10
130.5
 20
135.799957
 30
0.0
 11
130.5
 21
117.300003
 31
0.0
  0
LINE
  5
48
330
A
100
AcDbEntity
  8
Hawa6
  6
DASHED
 62
     3
 48
0.2
100
AcDbLine
 10
122.499992
 20
135.400002
 30
0.0
 11
130.5
 21
135.400002
 31
0.0
  0
LINE
  5
49
330
A
100
AcDbEntity
  8
Hawa4
 62
     4
100
AcDbLine
 10
143.5
 20
147.499985
 30
0.0
 11
143.5
 21
109.500015
 31
0.0
  0
LINE
  5
4A
330
A
100
AcDbEntity
  8
Hawa6
 62
     3
 48
0.277029
100
AcDbLine
 10
120.959424
 20
139.400029
 30
0.0
 11
132.040585
 21
139.399968
 31
0.0
  0
LINE
  5
4B
330
A
100
AcDbEntity
  8
Hawa6
 62
     3
 48
0.077905
100
AcDbLine
 10
119.816208
 20
145.299973
 30
0.0
 11
116.700012
 21
145.299973
 31
0.0
  0
LINE
  5
4C
330
A
100
AcDbEntity
  8
Hawa6
 62
     3
 48
0.13195
100
AcDbLine
 10
132.984499
 20
111.683075
 30
0.0
 11
132.538818
 21
116.942242
 31
0.0
  0
LINE
  5
4D
330
A
100
AcDbEntity
  8
Hawa6
 62
     3
 48
0.23
100
AcDbLine
 10
116.5
 20
145.099991
 30
0.0
 11
116.5
 21
135.900009
 31
0.0
  0
LINE
  5
4E
330
A
100
AcDbEntity
  8
Hawa6
 62
     3
 48
0.229998
100
AcDbLine
 10
116.5
 20
120.899948
 30
0.0
 11
116.5
 21
111.700012
 31
0.0
  0
LINE
  5
4F
330
A
100
AcDbEntity
  8
Hawa6
 62
     3
 48
0.077906
100
AcDbLine
 10
136.300018
 20
145.299973
 30
0.0
 11
133.183762
 21
145.299973
 31
0.0
  0
LINE
  5
50
330
A
100
AcDbEntity
  8
Hawa6
 62
     3
 48
0.131949
100
AcDbLine
 10
120.015549
 20
145.116568
 30
0.0
 11
120.46126
 21
139.857468
 31
0.0
  0
LINE
  5
51
330
A
100
AcDbEntity
  8
Hawa6
 62
     3
 48
0.230001
100
AcDbLine
 10
136.5
 20
145.099991
 30
0.0
 11
136.5
 21
135.899948
 31
0.0
  0
LINE
  5
52
330
A
100
AcDbEntity
  8
Hawa6
 62
     3
 48
0.131949
100
AcDbLine
 10
120.015781
 20
111.682507
 30
0.0
 11
120.461487
 21
116.941608
 31
0.0
  0
LINE
  5
53
330
A
100
AcDbEntity
  8
Hawa4
 62
     4
 48
0.2125
100
AcDbLine
 10
142.500008
 20
108.499954
 30
0.0
 11
134.0
 21
108.499954
 31
0.0
  0
LINE
  5
54
330
A
100
AcDbEntity
  8
Hawa4
 62
     4
 48
0.0825
100
AcDbLine
 10
136.29998
 20
111.499969
 30
0.0
 11
133.0
 21
111.499969
 31
0.0
  0
LINE
  5
55
330
A
100
AcDbEntity
  8
Hawa4
 62
     4
100
AcDbLine
 10
112.399994
 20
143.599991
 30
0.0
 11
112.399994
 21
115.499969
 31
0.0
  0
LINE
  5
56
330
A
100
AcDbEntity
  8
Hawa4
 62
     4
 48
0.02
100
AcDbLine
 10
138.600006
 20
113.5
 30
0.0
 11
137.799988
 21
113.5
 31
0.0
  0
LINE
  5
57
330
A
100
AcDbEntity
  8
Hawa4
 62
     4
100
AcDbLine
 10
140.600006
 20
143.599991
 30
0.0
 11
140.600006
 21
115.499969
 31
0.0
  0
LINE
  5
58
330
A
100
AcDbEntity
  8
Hawa4
 62
     4
100
AcDbLine
 10
109.5
 20
147.499985
 30
0.0
 11
109.5
 21
109.500015
 31
0.0
  0
LINE
  5
59
330
A
100
AcDbEntity
  8
Hawa4
 62
     4
 48
0.2125
100
AcDbLine
 10
119.0
 20
108.499954
 30
0.0
 11
110.5
 21
108.499954
 31
0.0
  0
LINE
  5
5A
330
A
100
AcDbEntity
  8
Hawa4
 62
     4
 48
0.012499
100
AcDbLine
 10
116.200012
 20
112.499985
 30
0.0
 11
116.200012
 21
112.000015
 31
0.0
  0
LINE
  5
5B
330
A
100
AcDbEntity
  8
Hawa6
 62
     3
 48
0.277029
100
AcDbLine
 10
120.959412
 20
117.399994
 30
0.0
 11
132.040588
 21
117.399994
 31
0.0
  0
LINE
  5
5C
330
A
100
AcDbEntity
  8
Hawa4
 62
     4
 48
0.082501
100
AcDbLine
 10
120.0
 20
111.499969
 30
0.0
 11
116.699974
 21
111.499969
 31
0.0
  0
LINE
  5
5D
330
A
100
AcDbEntity
  8
Hawa6
 62
     3
 48
0.13195
100
AcDbLine
 10
132.984493
 20
145.116447
 30
0.0
 11
132.53882
 21
139.857298
 31
0.0
  0
LINE
  5
5E
330
A
100
AcDbEntity
  8
Hawa6
 62
     3
 48
0.097503
100
AcDbLine
 10
130.499928
 20
113.499878
 30
0.0
 11
130.499926
 21
117.399994
 31
0.0
  0
LINE
  5
5F
330
A
100
AcDbEntity
  8
Hawa6
 62
     3
 48
0.05
100
AcDbLine
 10
131.499971
 20
111.767776
 30
0.0
 11
130.499971
 21
113.499828
 31
0.0
  0
LINE
  5
60
330
A
100
AcDbEntity
  8
Hawa6
 62
     3
 48
0.05
100
AcDbLine
 10
121.49996
 20
111.767883
 30
0.0
 11
122.499962
 21
113.499935
 31
0.0
  0
LINE
  5
61
330
A
100
AcDbEntity
  8
Hawa6
 62
     3
 48
0.25
100
AcDbLine
 10
121.500044
 20
113.499912
 30
0.0
 11
131.50004
 21
113.499908
 31
0.0
  0
LINE
  5
62
330
A
100
AcDbEntity
  8
Hawa6
 62
     3
 48
0.249997
100
AcDbLine
 10
121.500137
 20
104.499939
 30
0.0
 11
131.500004
 21
104.499939
 31
0.0
  0
LINE
  5
63
330
A
100
AcDbEntity
  8
Hawa6
 62
     3
 48
0.382678
100
AcDbLine
 10
131.500004
 20
102.092861
 30
0.0
 11
131.500006
 21
117.399994
 31
0.0
  0
LINE
  5
64
330
A
100
AcDbEntity
  8
Hawa6
 62
     3
 48
0.097502
100
AcDbLine
 10
122.499926
 20
113.499897
 30
0.0
 11
122.499924
 21
117.399994
 31
0.0
  0
LINE
  5
65
330
A
100
AcDbEntity
  8
Hawa6
 62
     3
 48
0.382679
100
AcDbLine
 10
121.500103
 20
117.399994
 30
0.0
 11
121.500143
 21
102.092834
 31
0.0
  0
LINE
  5
66
330
A
100
AcDbEntity
  8
Hawa5
 62
     1
 48
0.015
100
AcDbLine
 10
102.500031
 20
130.1999
 30
0.0
 11
102.499969
 21
130.7999
 31
0.0
  0
LINE
  5
67
330
A
100
AcDbEntity
  8
Hawa5
 62
     1
 48
0.025312
100
AcDbLine
 10
103.512975
 20
125.99946
 30
0.0
 11
102.500486
 21
125.999355
 31
0.0
  0
LINE
  5
68
330
A
100
AcDbEntity
  8
Hawa5
 62
     1
 48
0.025313
100
AcDbLine
 10
103.512059
 20
134.999501
 30
0.0
 11
102.499541
 21
134.999397
 31
0.0
  0
LINE
  5
69
330
A
100
AcDbEntity
  8
Hawa5
 62
     1
 48
0.1125
100
AcDbLine
 10
105.762728
 20
128.249714
 30
0.0
 11
105.76227
 21
132.749715
 31
0.0
  0
LINE
  5
6A
330
A
100
AcDbEntity
  8
Hawa5
 62
     1
 48
0.100003
100
AcDbLine
 10
102.500134
 20
129.206657
 30
0.0
 11
98.50000000000001
 21
129.206251
 31
0.0
  0
LINE
  5
6B
330
A
100
AcDbEntity
  8
Hawa5
 62
     1
 48
0.099997
100
AcDbLine
 10
102.499871
 20
131.792517
 30
0.0
 11
98.50000000000001
 21
131.79211
 31
0.0
  0
LINE
  5
6C
330
A
100
AcDbEntity
  8
Hawa5
 62
     1
100
AcDbLine
 10
98.50000000000001
 20
169.039988
 30
0.0
 11
98.50000000000001
 21
92.060741
 31
0.0
  0
LINE
  5
6D
330
A
100
AcDbEntity
  8
Hawa5
  6
DASHDOT
 62
     1
100
AcDbLine
 10
105.702463
 20
130.499929
 30
0.0
 11
85.398031
 21
130.499929
 31
0.0
  0
LINE
  5
6E
330
A
100
AcDbEntity
  8
Hawa5
 62
     1
 48
0.109938
100
AcDbLine
 10
98.50040899999999
 20
133.5597389999999
 30
0.0
 11
94.10289699999999
 21
133.5597389999999
 31
0.0
  0
LINE
  5
6F
330
A
100
AcDbEntity
  8
Hawa5
 62
     1
 48
0.15751
100
AcDbLine
 10
88.64564300000001
 20
133.560008
 30
0.0
 11
94.101902
 21
136.7103139999999
 31
0.0
  0
LINE
  5
70
330
A
100
AcDbEntity
  8
Hawa5
 62
     1
 48
0.157512
100
AcDbLine
 10
88.64609499999998
 20
127.499941
 30
0.0
 11
94.102508
 21
124.349762
 31
0.0
  0
LINE
  5
71
330
A
100
AcDbEntity
  8
Hawa5
 62
     1
 48
0.026645
100
AcDbLine
 10
94.10289699999999
 20
136.70998
 30
0.0
 11
94.10289699999999
 21
135.644165
 31
0.0
  0
LINE
  5
72
330
A
100
AcDbEntity
  8
Hawa5
 62
     1
 48
0.150375
100
AcDbLine
 10
88.89399899999999
 20
128.4231
 30
0.0
 11
94.103191
 21
125.415655
 31
0.0
  0
LINE
  5
73
330
A
100
AcDbEntity
  8
Hawa5
 62
     1
 48
0.144184
100
AcDbLine
 10
89.108561
 20
132.760041
 30
0.0
 11
94.10320400000001
 21
135.643766
 31
0.0
  0
LINE
  5
74
330
A
100
AcDbEntity
  8
Hawa5
 62
     1
 48
0.026647
100
AcDbLine
 10
94.10289699999999
 20
125.415588
 30
0.0
 11
94.10289699999999
 21
124.349689
 31
0.0
  0
LINE
  5
75
330
A
100
AcDbEntity
  8
Hawa5
 62
     1
 48
0.092308
100
AcDbLine
 10
88.64660999999999
 20
133.5597389999999
 30
0.0
 11
84.954285
 21
133.5597389999999
 31
0.0
  0
LINE
  5
76
330
A
100
AcDbEntity
  8
Hawa5
 62
     1
 48
0.092308
100
AcDbLine
 10
88.64660999999999
 20
127.499929
 30
0.0
 11
84.954285
 21
127.499929
 31
0.0
  0
LINE
  5
77
330
A
100
AcDbEntity
  8
Hawa5
 62
     1
 48
0.109938
100
AcDbLine
 10
98.50040899999999
 20
127.499929
 30
0.0
 11
94.10289699999999
 21
127.499929
 31
0.0
  0
LINE
  5
78
330
A
100
AcDbEntity
  8
Hawa5
 62
     1
 48
0.023078
100
AcDbLine
 10
94.10289699999999
 20
133.5597389999999
 30
0.0
 11
94.10289699999999
 21
132.636636
 31
0.0
  0
LINE
  5
79
330
A
100
AcDbEntity
  8
Hawa5
 62
     1
 48
0.023078
100
AcDbLine
 10
94.10289699999999
 20
128.423033
 30
0.0
 11
94.10289699999999
 21
127.499929
 31
0.0
  0
LINE
  5
7A
330
A
100
AcDbEntity
  8
Hawa5
 62
     1
 48
0.130224
100
AcDbLine
 10
94.10289699999999
 20
132.636636
 30
0.0
 11
88.89394600000001
 21
132.636636
 31
0.0
  0
LINE
  5
7B
330
A
100
AcDbEntity
  8
Hawa5
 62
     1
 48
0.130224
100
AcDbLine
 10
94.10289699999999
 20
128.423033
 30
0.0
 11
88.89394600000001
 21
128.423033
 31
0.0
  0
LINE
  5
7C
330
A
100
AcDbEntity
  8
Hawa4
 62
     4
100
AcDbLine
 10
114.399996
 20
145.600019
 30
0.0
 11
138.600006
 21
145.599991
 31
0.0
  0
LINE
  5
7D
330
A
100
AcDbEntity
  8
Hawa6
  6
DASHED
 62
     3
 48
0.035355
100
AcDbLine
 10
122.499992
 20
135.400002
 30
0.0
 11
121.5
 21
134.400009
 31
0.0
  0
LINE
  5
7E
330
A
100
AcDbEntity
  8
Hawa6
  6
DASHED
 62
     3
 48
0.035355
100
AcDbLine
 10
130.500015
 20
135.400001
 30
0.0
 11
131.500008
 21
134.400007
 31
0.0
  0
LINE
  5
7F
330
A
100
AcDbEntity
  8
Hawa4
 62
     4
 48
0.082249
100
AcDbLine
 10
104.914214
 20
142.914179
 30
0.0
 11
102.587868
 21
140.587833
 31
0.0
  0
LINE
  5
80
330
A
100
AcDbEntity
  8
Hawa4
 62
     4
 48
0.010607
100
AcDbLine
 10
107.5
 20
112.199966
 30
0.0
 11
107.8
 21
112.499966
 31
0.0
  0
LINE
  5
81
330
A
100
AcDbEntity
  8
Hawa4
 62
     4
 48
0.239394
100
AcDbLine
 10
102.5
 20
140.375701
 30
0.0
 11
102.5
 21
130.799931
 31
0.0
  0
LINE
  5
82
330
A
100
AcDbEntity
  8
Hawa4
 62
     4
 48
0.137919
100
AcDbLine
 10
142.5
 20
150.0
 30
0.0
 11
140.613163
 21
155.184041
 31
0.0
  0
LINE
  5
83
330
A
100
AcDbEntity
  8
Hawa4
 62
     4
 48
0.0375
100
AcDbLine
 10
142.5
 20
150.0
 30
0.0
 11
142.5
 21
148.5
 31
0.0
  0
LINE
  5
84
330
A
100
AcDbEntity
  8
Hawa4
 62
     4
 48
0.2675
100
AcDbLine
 10
109.2
 20
109.499966
 30
0.0
 11
98.50000000000001
 21
109.499966
 31
0.0
  0
LINE
  5
85
330
A
100
AcDbEntity
  8
Hawa4
 62
     4
 48
0.034497
100
AcDbLine
 10
99.98786800000001
 20
153.987833
 30
0.0
 11
99.012132
 21
153.012097
 31
0.0
  0
LINE
  5
86
330
A
100
AcDbEntity
  8
Hawa4
 62
     4
100
AcDbLine
 10
138.733776
 20
156.5
 30
0.0
 11
112.499998
 21
156.499978
 31
0.0
  0
LINE
  5
87
330
A
100
AcDbEntity
  8
Hawa4
 62
     4
 48
0.064497
100
AcDbLine
 10
100.412132
 20
150.212097
 30
0.0
 11
98.587868
 21
148.387833
 31
0.0
  0
LINE
  5
88
330
A
100
AcDbEntity
  8
Hawa6
 62
     3
 48
0.075
100
AcDbLine
 10
135.25
 20
154.0
 30
0.0
 11
135.25
 21
151.0
 31
0.0
  0
LINE
  5
89
330
A
100
AcDbEntity
  8
Hawa6
 62
     3
 48
0.4125
100
AcDbLine
 10
134.75
 20
154.5
 30
0.0
 11
118.25
 21
154.5
 31
0.0
  0
LINE
  5
8A
330
A
100
AcDbEntity
  8
Hawa4
 62
     4
 48
0.075
100
AcDbLine
 10
117.75
 20
154.0
 30
0.0
 11
117.75
 21
151.0
 31
0.0
  0
LINE
  5
8B
330
A
100
AcDbEntity
  8
Hawa6
 62
     3
 48
0.0375
100
AcDbLine
 10
131.75
 20
150.0
 30
0.0
 11
131.75
 21
148.5
 31
0.0
  0
LINE
  5
8C
330
A
100
AcDbEntity
  8
Hawa6
 62
     3
 48
0.0375
100
AcDbLine
 10
121.25
 20
150.0
 30
0.0
 11
121.25
 21
148.5
 31
0.0
  0
LINE
  5
8D
330
A
100
AcDbEntity
  8
Hawa4
 62
     4
 48
0.064497
100
AcDbLine
 10
100.412132
 20
115.787834
 30
0.0
 11
98.587868
 21
117.612097
 31
0.0
  0
LINE
  5
8E
330
A
100
AcDbEntity
  8
Hawa4
 62
     4
 48
0.034498
100
AcDbLine
 10
99.98786800000001
 20
112.012096
 30
0.0
 11
99.012132
 21
112.987835
 31
0.0
  0
LINE
  5
8F
330
A
100
AcDbEntity
  8
Hawa4
 62
     4
 48
0.083787
100
AcDbLine
 10
100.5
 20
115.575703
 30
0.0
 11
100.5
 21
112.224228
 31
0.0
  0
LINE
  5
90
330
A
100
AcDbEntity
  8
Hawa4
 62
     4
 48
0.083787
100
AcDbLine
 10
100.5
 20
150.424229
 30
0.0
 11
100.5
 21
153.775701
 31
0.0
  0
LINE
  5
91
330
A
100
AcDbEntity
  8
HAWA1
 48
0.000002
100
AcDbLine
 10
119.0
 20
161.900017
 30
0.0
 11
119.0
 21
161.899952
 31
0.0
  0
LINE
  5
92
330
A
100
AcDbEntity
  8
Hawa4
 62
     4
 48
0.071789
100
AcDbLine
 10
109.2
 20
143.499965
 30
0.0
 11
106.328427
 21
143.499965
 31
0.0
  0
LINE
  5
93
330
A
100
AcDbEntity
  8
Hawa4
 62
     4
 48
0.010607
100
AcDbLine
 10
107.5
 20
112.199966
 30
0.0
 11
107.2
 21
112.499966
 31
0.0
  0
LINE
  5
94
330
A
100
AcDbEntity
  8
Hawa4
 62
     4
 48
0.06
100
AcDbLine
 10
107.2
 20
112.499966
 30
0.0
 11
104.8
 21
112.499966
 31
0.0
  0
LINE
  5
95
330
A
100
AcDbEntity
  8
Hawa5
 62
     1
 48
0.010607
100
AcDbLine
 10
102.2
 20
130.499929
 30
0.0
 11
102.5
 21
130.799931
 31
0.0
  0
LINE
  5
96
330
A
100
AcDbEntity
  8
Hawa5
 62
     1
 48
0.010607
100
AcDbLine
 10
102.2
 20
130.499929
 30
0.0
 11
102.5
 21
130.19993
 31
0.0
  0
LINE
  5
97
330
A
100
AcDbEntity
  8
Hawa4
 62
     4
 48
0.239393
100
AcDbLine
 10
102.5
 20
130.19993
 30
0.0
 11
102.5
 21
120.624229
 31
0.0
  0
LINE
  5
98
330
A
100
AcDbEntity
  8
Hawa4
 62
     4
 48
0.026893
100
AcDbLine
 10
110.375736
 20
149.0
 30
0.0
 11
109.3
 21
149.0
 31
0.0
  0
LINE
  5
99
330
A
100
AcDbEntity
  8
Hawa4
 62
     4
 48
0.026893
100
AcDbLine
 10
109.0
 20
148.7
 30
0.0
 11
109.0
 21
147.624264
 31
0.0
  0
LINE
  5
9A
330
A
100
AcDbEntity
  8
Hawa4
 62
     4
 48
0.011464
100
AcDbLine
 10
110.912132
 20
148.587868
 30
0.0
 11
110.587868
 21
148.912132
 31
0.0
  0
LINE
  5
9B
330
A
100
AcDbEntity
  8
Hawa4
 62
     4
 48
0.011464
100
AcDbLine
 10
109.412132
 20
147.087868
 30
0.0
 11
109.087868
 21
147.412132
 31
0.0
  0
LINE
  5
9C
330
A
100
AcDbEntity
  8
Hawa4
 62
     4
 48
0.121789
100
AcDbLine
 10
104.5
 20
117.671537
 30
0.0
 11
104.5
 21
112.799965
 31
0.0
  0
LINE
  5
9D
330
A
100
AcDbEntity
  8
Hawa4
 62
     4
 48
0.046893
100
AcDbLine
 10
103.914214
 20
119.085752
 30
0.0
 11
102.587868
 21
120.412098
 31
0.0
  0
LINE
  5
9E
330
A
100
AcDbEntity
  8
Hawa4
 62
     4
 48
0.035
100
AcDbLine
 10
109.2
 20
112.499966
 30
0.0
 11
107.8
 21
112.499966
 31
0.0
  0
LINE
  5
9F
330
A
100
AcDbEntity
  8
Hawa4
 62
     4
 48
0.1
100
AcDbLine
 10
111.085786
 20
155.914191
 30
0.0
 11
108.257354
 21
153.085759
 31
0.0
  0
LINE
  5
A0
330
A
100
AcDbEntity
  8
Hawa4
 62
     4
 48
0.1
100
AcDbLine
 10
105.428927
 20
153.085759
 30
0.0
 11
102.600505
 21
155.914181
 31
0.0
  0
LINE
  5
A1
330
A
100
AcDbEntity
  8
Hawa4
 62
     4
 48
0.067157
100
AcDbLine
 10
101.18629
 20
156.499968
 30
0.0
 11
98.50000000000001
 21
156.499965
 31
0.0
  0
ARC
  5
A2
330
A
100
AcDbEntity
  8
Hawa4
 62
     4
100
AcDbCircle
 10
98.8
 20
148.175701
 30
0.0
 40
0.3
100
AcDbArc
 50
135.0
 51
180.000005
  0
ARC
  5
A3
330
A
100
AcDbEntity
  8
Hawa4
 62
     4
100
AcDbCircle
 10
98.8
 20
117.82423
 30
0.0
 40
0.3
100
AcDbArc
 50
180.000005
 51
224.999995
  0
ARC
  5
A4
330
A
100
AcDbEntity
  8
Hawa6
 62
     3
100
AcDbCircle
 10
116.700012
 20
111.700012
 30
0.0
 40
0.2
100
AcDbArc
 50
179.99995
 51
269.999973
  0
ARC
  5
A5
330
A
100
AcDbEntity
  8
Hawa6
 62
     3
100
AcDbCircle
 10
119.816208
 20
111.700012
 30
0.0
 40
0.2
100
AcDbArc
 50
269.999973
 51
355.155985
  0
ARC
  5
A6
330
A
100
AcDbEntity
  8
Hawa4
 62
     4
100
AcDbCircle
 10
138.600006
 20
115.499969
 30
0.0
 40
2.0
100
AcDbArc
 50
269.999973
 51
359.999983
  0
ARC
  5
A7
330
A
100
AcDbEntity
  8
Hawa4
 62
     4
100
AcDbCircle
 10
138.600006
 20
143.599991
 30
0.0
 40
2.0
100
AcDbArc
 50
359.999983
 51
89.999975
  0
ARC
  5
A8
330
A
100
AcDbEntity
  8
Hawa4
 62
     4
100
AcDbCircle
 10
114.399994
 20
143.599991
 30
0.0
 40
2.0
100
AcDbArc
 50
89.999975
 51
179.999978
  0
ARC
  5
A9
330
A
100
AcDbEntity
  8
Hawa4
 62
     4
100
AcDbCircle
 10
114.399994
 20
115.499969
 30
0.0
 40
2.0
100
AcDbArc
 50
179.999978
 51
269.999973
  0
ARC
  5
AA
330
A
100
AcDbEntity
  8
Hawa4
 62
     4
100
AcDbCircle
 10
115.199997
 20
112.499985
 30
0.0
 40
1.0
100
AcDbArc
 50
359.999983
 51
89.999975
  0
ARC
  5
AB
330
A
100
AcDbEntity
  8
Hawa4
 62
     4
100
AcDbCircle
 10
136.29998
 20
112.000015
 30
0.0
 40
0.5
100
AcDbArc
 50
269.999973
 51
359.999983
  0
ARC
  5
AC
330
A
100
AcDbEntity
  8
Hawa4
 62
     4
100
AcDbCircle
 10
116.700012
 20
112.000015
 30
0.0
 40
0.5
100
AcDbArc
 50
179.999978
 51
269.999973
  0
ARC
  5
AD
330
A
100
AcDbEntity
  8
Hawa4
 62
     4
100
AcDbCircle
 10
137.799988
 20
112.499985
 30
0.0
 40
1.0
100
AcDbArc
 50
89.999975
 51
179.999978
  0
ARC
  5
AE
330
A
100
AcDbEntity
  8
Hawa4
 62
     4
100
AcDbCircle
 10
119.0
 20
109.500015
 30
0.0
 40
1.0
100
AcDbArc
 50
269.999973
 51
359.999983
  0
ARC
  5
AF
330
A
100
AcDbEntity
  8
Hawa4
  6
DASHDOT
 62
     4
100
AcDbCircle
 10
142.500008
 20
109.500015
 30
0.0
 40
1.0
100
AcDbArc
 50
269.999973
 51
359.999983
  0
ARC
  5
B0
330
A
100
AcDbEntity
  8
Hawa4
 62
     4
100
AcDbCircle
 10
134.0
 20
109.500015
 30
0.0
 40
1.0
100
AcDbArc
 50
179.999978
 51
269.999973
  0
ARC
  5
B1
330
A
100
AcDbEntity
  8
Hawa4
 62
     4
100
AcDbCircle
 10
110.5
 20
109.500015
 30
0.0
 40
1.0
100
AcDbArc
 50
179.999978
 51
269.999973
  0
ARC
  5
B2
330
A
100
AcDbEntity
  8
Hawa6
 62
     3
100
AcDbCircle
 10
132.040588
 20
139.899994
 30
0.0
 40
0.5
100
AcDbArc
 50
269.999973
 51
355.15604
  0
ARC
  5
B3
330
A
100
AcDbEntity
  8
Hawa4
 62
     4
100
AcDbCircle
 10
142.500008
 20
147.499985
 30
0.0
 40
1.0
100
AcDbArc
 50
359.999983
 51
90.00044
  0
ARC
  5
B4
330
A
100
AcDbEntity
  8
Hawa4
 62
     4
100
AcDbCircle
 10
110.5
 20
147.499985
 30
0.0
 40
1.0
100
AcDbArc
 50
90.00000300000001
 51
179.999978
  0
ARC
  5
B5
330
A
100
AcDbEntity
  8
Hawa6
 62
     3
100
AcDbCircle
 10
120.959412
 20
139.899994
 30
0.0
 40
0.5
100
AcDbArc
 50
184.843893
 51
269.999973
  0
ARC
  5
B6
330
A
100
AcDbEntity
  8
Hawa6
 62
     3
100
AcDbCircle
 10
136.29998
 20
111.700012
 30
0.0
 40
0.2
100
AcDbArc
 50
269.999973
 51
359.999955
  0
ARC
  5
B7
330
A
100
AcDbEntity
  8
Hawa6
 62
     3
100
AcDbCircle
 10
132.040588
 20
116.899963
 30
0.0
 40
0.5
100
AcDbArc
 50
4.843979
 51
89.999962
  0
ARC
  5
B8
330
A
100
AcDbEntity
  8
Hawa6
 62
     3
100
AcDbCircle
 10
120.959412
 20
116.899963
 30
0.0
 40
0.5
100
AcDbArc
 50
89.99996800000001
 51
175.15598
  0
ARC
  5
B9
330
A
100
AcDbEntity
  8
Hawa6
 62
     3
100
AcDbCircle
 10
136.300018
 20
145.099991
 30
0.0
 40
0.2
100
AcDbArc
 50
359.999955
 51
89.99996800000001
  0
ARC
  5
BA
330
A
100
AcDbEntity
  8
Hawa6
 62
     3
100
AcDbCircle
 10
119.816208
 20
145.099991
 30
0.0
 40
0.2
100
AcDbArc
 50
4.843706
 51
89.99996800000001
  0
ARC
  5
BB
330
A
100
AcDbEntity
  8
Hawa6
 62
     3
100
AcDbCircle
 10
116.700012
 20
145.099991
 30
0.0
 40
0.2
100
AcDbArc
 50
89.99996800000001
 51
179.999978
  0
ARC
  5
BC
330
A
100
AcDbEntity
  8
Hawa6
 62
     3
100
AcDbCircle
 10
133.183762
 20
145.099991
 30
0.0
 40
0.2
100
AcDbArc
 50
89.99996800000001
 51
175.15624
  0
ARC
  5
BD
330
A
100
AcDbEntity
  8
Hawa6
 62
     3
100
AcDbCircle
 10
133.183746
 20
111.700012
 30
0.0
 40
0.2
100
AcDbArc
 50
184.84403
 51
269.999973
  0
ARC
  5
BE
330
A
100
AcDbEntity
  8
Hawa5
 62
     1
100
AcDbCircle
 10
103.512294
 20
132.749431
 30
0.0
 40
2.25
100
AcDbArc
 50
0.005828
 51
90.00587600000001
  0
ARC
  5
BF
330
A
100
AcDbEntity
  8
Hawa5
 62
     1
100
AcDbCircle
 10
103.512745
 20
128.24946
 30
0.0
 40
2.25
100
AcDbArc
 50
270.005847
 51
0.005828
  0
ARC
  5
C0
330
A
100
AcDbEntity
  8
Hawa4
 62
     4
100
AcDbCircle
 10
100.2
 20
150.424229
 30
0.0
 40
0.3
100
AcDbArc
 50
314.99999
 51
0.0
  0
ARC
  5
C1
330
A
100
AcDbEntity
  8
Hawa6
 62
     3
100
AcDbCircle
 10
132.25
 20
150.0
 30
0.0
 40
0.5
100
AcDbArc
 50
90.00000300000001
 51
180.000005
  0
ARC
  5
C2
330
A
100
AcDbEntity
  8
Hawa4
 62
     4
100
AcDbCircle
 10
100.2
 20
153.775701
 30
0.0
 40
0.3
100
AcDbArc
 50
0.0
 51
135.0
  0
ARC
  5
C3
330
A
100
AcDbEntity
  8
Hawa4
 62
     4
100
AcDbCircle
 10
98.8
 20
153.224229
 30
0.0
 40
0.3
100
AcDbArc
 50
180.000005
 51
314.99999
  0
ARC
  5
C4
330
A
100
AcDbEntity
  8
Hawa6
 62
     3
100
AcDbCircle
 10
118.25
 20
151.0
 30
0.0
 40
0.5
100
AcDbArc
 50
179.999991
 51
270.000001
  0
ARC
  5
C6
330
A
100
AcDbEntity
  8
Hawa4
 62
     4
100
AcDbCircle
 10
120.75
 20
150.0
 30
0.0
 40
0.5
100
AcDbArc
 50
0.0
 51
90.00000300000001
  0
ARC
  5
C7
330
A
100
AcDbEntity
  8
Hawa6
 62
     3
100
AcDbCircle
 10
134.75
 20
154.0
 30
0.0
 40
0.5
100
AcDbArc
 50
0.0
 51
90.00000300000001
  0
ARC
  5
C8
330
A
100
AcDbEntity
  8
Hawa6
 62
     3
100
AcDbCircle
 10
134.75
 20
151.0
 30
0.0
 40
0.5
100
AcDbArc
 50
270.000001
 51
0.0
  0
ARC
  5
C9
330
A
100
AcDbEntity
  8
Hawa4
 62
     4
100
AcDbCircle
 10
118.25
 20
154.0
 30
0.0
 40
0.5
100
AcDbArc
 50
90.00000300000001
 51
180.000005
  0
ARC
  5
CB
330
A
100
AcDbEntity
  8
Hawa4
 62
     4
100
AcDbCircle
 10
100.2
 20
112.224228
 30
0.0
 40
0.3
100
AcDbArc
 50
224.999995
 51
360.0
  0
ARC
  5
CC
330
A
100
AcDbEntity
  8
Hawa4
 62
     4
100
AcDbCircle
 10
100.2
 20
115.575703
 30
0.0
 40
0.3
100
AcDbArc
 50
0.0
 51
45.0
  0
ARC
  5
CD
330
A
100
AcDbEntity
  8
Hawa4
 62
     4
100
AcDbCircle
 10
98.8
 20
112.7757
 30
0.0
 40
0.3
100
AcDbArc
 50
45.0
 51
180.000005
  0
ARC
  5
CE
330
A
100
AcDbEntity
  8
Hawa4
 62
     4
100
AcDbCircle
 10
138.73378
 20
154.5
 30
0.0
 40
2.0
100
AcDbArc
 50
19.999999
 51
90.00007100000003
  0
ARC
  5
CF
330
A
100
AcDbEntity
  8
Hawa4
 62
     4
100
AcDbCircle
 10
102.8
 20
140.375701
 30
0.0
 40
0.3
100
AcDbArc
 50
135.0
 51
180.000005
  0
ARC
  5
D0
330
A
100
AcDbEntity
  8
Hawa4
 62
     4
100
AcDbCircle
 10
109.2
 20
143.799965
 30
0.0
 40
0.3
100
AcDbArc
 50
270.000001
 51
360.0
  0
ARC
  5
D1
330
A
100
AcDbEntity
  8
Hawa4
 62
     4
100
AcDbCircle
 10
106.328427
 20
141.499965
 30
0.0
 40
2.0
100
AcDbArc
 50
90.00000300000001
 51
135.0
  0
ARC
  5
D2
330
A
100
AcDbEntity
  8
Hawa4
 62
     4
100
AcDbCircle
 10
104.8
 20
112.799965
 30
0.0
 40
0.3
100
AcDbArc
 50
180.000005
 51
270.000001
  0
ARC
  5
D3
330
A
100
AcDbEntity
  8
Hawa4
 62
     4
100
AcDbCircle
 10
102.5
 20
117.671537
 30
0.0
 40
2.0
100
AcDbArc
 50
0.0
 51
45.0
  0
ARC
  5
D4
330
A
100
AcDbEntity
  8
Hawa4
 62
     4
100
AcDbCircle
 10
102.8
 20
120.624229
 30
0.0
 40
0.3
100
AcDbArc
 50
180.000005
 51
224.999995
  0
ARC
  5
D5
330
A
100
AcDbEntity
  8
Hawa4
 62
     4
100
AcDbCircle
 10
109.2
 20
146.875736
 30
0.0
 40
0.3
100
AcDbArc
 50
0.0
 51
45.0
  0
ARC
  5
D6
330
A
100
AcDbEntity
  8
Hawa4
 62
     4
100
AcDbCircle
 10
110.375736
 20
148.7
 30
0.0
 40
0.3
100
AcDbArc
 50
45.0
 51
90.00000300000001
  0
ARC
  5
D7
330
A
100
AcDbEntity
  8
Hawa4
 62
     4
100
AcDbCircle
 10
109.3
 20
148.7
 30
0.0
 40
0.3
100
AcDbArc
 50
90.00000300000001
 51
180.000005
  0
ARC
  5
D8
330
A
100
AcDbEntity
  8
Hawa4
 62
     4
100
AcDbCircle
 10
111.124264
 20
148.8
 30
0.0
 40
0.3
100
AcDbArc
 50
224.999995
 51
270.000001
  0
ARC
  5
D9
330
A
100
AcDbEntity
  8
Hawa4
 62
     4
100
AcDbCircle
 10
109.3
 20
147.624264
 30
0.0
 40
0.3
100
AcDbArc
 50
179.999991
 51
224.999995
  0
ARC
  5
DA
330
A
100
AcDbEntity
  8
Hawa4
 62
     4
100
AcDbCircle
 10
109.2
 20
109.799965
 30
0.0
 40
0.3
100
AcDbArc
 50
270.000001
 51
360.0
  0
ARC
  5
DB
330
A
100
AcDbEntity
  8
Hawa4
 62
     4
100
AcDbCircle
 10
109.2
 20
112.199966
 30
0.0
 40
0.3
100
AcDbArc
 50
0.0
 51
90.00000300000001
  0
ARC
  5
DC
330
A
100
AcDbEntity
  8
Hawa4
 62
     4
100
AcDbCircle
 10
112.5
 20
154.499978
 30
0.0
 40
2.0
100
AcDbArc
 50
90.00004999999999
 51
135.0
  0
ARC
  5
DD
330
A
100
AcDbEntity
  8
Hawa4
 62
     4
100
AcDbCircle
 10
106.843141
 20
154.499972
 30
0.0
 40
2.0
100
AcDbArc
 50
224.999995
 51
314.99999
  0
ARC
  5
DE
330
A
100
AcDbEntity
  8
Hawa4
 62
     4
100
AcDbCircle
 10
101.186291
 20
154.499968
 30
0.0
 40
2.0
100
AcDbArc
 50
45.0
 51
90.00004999999999
  0
LINE
  5
DF
330
A
100
AcDbEntity
  8
Hawa6
 62
     3
 48
0.05
100
AcDbLine
 10
134.999992
 20
153.0
 30
0.0
 11
134.999992
 21
151.0
 31
0.0
  0
LINE
  5
E0
330
A
100
AcDbEntity
  8
Hawa6
 62
     3
 48
0.11625
100
AcDbLine
 10
122.899992
 20
150.5
 30
0.0
 11
118.249992
 21
150.5
 31
0.0
  0
LINE
  5
E1
330
A
100
AcDbEntity
  8
Hawa6
  6
DASHED
 62
     3
 48
0.18
100
AcDbLine
 10
130.099993
 20
150.5
 30
0.0
 11
122.899992
 21
150.5
 31
0.0
  0
LINE
  5
E2
330
A
100
AcDbEntity
  8
Hawa6
 62
     3
 48
0.0325
100
AcDbLine
 10
123.399992
 20
150.0
 30
0.0
 11
123.399992
 21
148.7
 31
0.0
  0
LINE
  5
E3
330
A
100
AcDbEntity
  8
Hawa6
 62
     3
 48
0.11625
100
AcDbLine
 10
134.749992
 20
150.5
 30
0.0
 11
130.099993
 21
150.5
 31
0.0
  0
LINE
  5
E4
330
A
100
AcDbEntity
  8
Hawa6
 62
     3
 48
0.4
100
AcDbLine
 10
134.499992
 20
153.5
 30
0.0
 11
118.499992
 21
153.5
 31
0.0
  0
LINE
  5
E5
330
A
100
AcDbEntity
  8
Hawa6
 62
     3
 48
0.05
100
AcDbLine
 10
117.999992
 20
153.0
 30
0.0
 11
117.999992
 21
151.0
 31
0.0
  0
LINE
  5
E6
330
A
100
AcDbEntity
  8
Hawa6
 62
     3
 48
0.155
100
AcDbLine
 10
129.599993
 20
148.7
 30
0.0
 11
123.399992
 21
148.7
 31
0.0
  0
LINE
  5
E7
330
A
100
AcDbEntity
  8
Hawa6
 62
     3
 48
0.0325
100
AcDbLine
 10
129.599993
 20
150.0
 30
0.0
 11
129.599993
 21
148.7
 31
0.0
  0
LINE
  5
E8
330
A
100
AcDbEntity
  8
Hawa4
 62
     4
 48
0.075
100
AcDbLine
 10
135.249992
 20
154.0
 30
0.0
 11
135.249992
 21
151.0
 31
0.0
  0
LINE
  5
E9
330
A
100
AcDbEntity
  8
Hawa4
 62
     4
 48
0.4125
100
AcDbLine
 10
134.749992
 20
154.5
 30
0.0
 11
118.249992
 21
154.5
 31
0.0
  0
LINE
  5
EA
330
A
100
AcDbEntity
  8
Hawa4
 62
     4
 48
0.0375
100
AcDbLine
 10
131.749992
 20
150.0
 30
0.0
 11
131.749992
 21
148.5
 31
0.0
  0
LINE
  5
EB
330
A
100
AcDbEntity
  8
Hawa4
 62
     4
 48
0.0375
100
AcDbLine
 10
121.249992
 20
150.0
 30
0.0
 11
121.249992
 21
148.5
 31
0.0
  0
LINE
  5
EC
330
A
100
AcDbEntity
  8
Hawa6
 62
     3
 48
0.000002
100
AcDbLine
 10
118.999992
 20
151.899982
 30
0.0
 11
118.999992
 21
151.899917
 31
0.0
  0
ARC
  5
ED
330
A
100
AcDbEntity
  8
Hawa6
 62
     3
100
AcDbCircle
 10
118.499992
 20
153.0
 30
0.0
 40
0.5
100
AcDbArc
 50
90.00000300000001
 51
180.000005
  0
ARC
  5
EE
330
A
100
AcDbEntity
  8
Hawa6
 62
     3
100
AcDbCircle
 10
130.099993
 20
150.0
 30
0.0
 40
0.5
100
AcDbArc
 50
90.00000300000001
 51
180.000005
  0
ARC
  5
EF
330
A
100
AcDbEntity
  8
Hawa6
 62
     3
100
AcDbCircle
 10
122.899992
 20
150.0
 30
0.0
 40
0.5
100
AcDbArc
 50
0.0
 51
90.00000300000001
  0
ARC
  5
F0
330
A
100
AcDbEntity
  8
Hawa6
 62
     3
100
AcDbCircle
 10
118.499992
 20
151.0
 30
0.0
 40
0.5
100
AcDbArc
 50
179.999991
 51
270.000001
  0
ARC
  5
F1
330
A
100
AcDbEntity
  8
Hawa6
 62
     3
100
AcDbCircle
 10
134.499992
 20
151.0
 30
0.0
 40
0.5
100
AcDbArc
 50
270.000001
 51
0.0
  0
ARC
  5
F2
330
A
100
AcDbEntity
  8
Hawa6
 62
     3
100
AcDbCircle
 10
134.499992
 20
153.0
 30
0.0
 40
0.5
100
AcDbArc
 50
0.0
 51
90.00000300000001
  0
ARC
  5
F3
330
A
100
AcDbEntity
  8
Hawa4
 62
     4
100
AcDbCircle
 10
132.249992
 20
150.0
 30
0.0
 40
0.5
100
AcDbArc
 50
90.00000300000001
 51
180.000005
  0
ARC
  5
F4
330
A
100
AcDbEntity
  8
Hawa4
 62
     4
100
AcDbCircle
 10
118.249992
 20
151.0
 30
0.0
 40
0.5
100
AcDbArc
 50
179.999991
 51
270.000001
  0
ARC
  5
F5
330
A
100
AcDbEntity
  8
Hawa6
 62
     3
100
AcDbCircle
 10
120.749992
 20
150.0
 30
0.0
 40
0.5
100
AcDbArc
 50
0.0
 51
90.00000300000001
  0
ARC
  5
F6
330
A
100
AcDbEntity
  8
Hawa4
 62
     4
100
AcDbCircle
 10
134.749992
 20
154.0
 30
0.0
 40
0.5
100
AcDbArc
 50
0.0
 51
90.00000300000001
  0
ARC
  5
F7
330
A
100
AcDbEntity
  8
Hawa4
 62
     4
100
AcDbCircle
 10
134.749992
 20
151.0
 30
0.0
 40
0.5
100
AcDbArc
 50
270.000001
 51
0.0
  0
LINE
  5
F9
330
A
100
AcDbEntity
  8
Hawa6
 62
     3
 48
0.118358
100
AcDbLine
 10
126.965685
 20
145.599992
 30
0.0
 11
131.699999
 21
145.59999
 31
0.0
  0
LINE
  5
FA
330
A
100
AcDbEntity
  8
Hawa6
 62
     3
 48
0.050683
100
AcDbLine
 10
124.006987
 20
145.599994
 30
0.0
 11
126.034313
 21
145.599993
 31
0.0
  0
LINE
  5
FB
330
A
100
AcDbEntity
  8
Hawa6
 62
     3
 48
0.067675
100
AcDbLine
 10
121.299999
 20
145.599995
 30
0.0
 11
124.006987
 21
145.599994
 31
0.0
  0
LINE
  5
FC
330
A
100
AcDbEntity
  8
Hawa6
 62
     3
 48
0.003656
100
AcDbLine
 10
123.85
 20
148.4999939999999
 30
0.0
 11
123.996254
 21
148.4999939999999
 31
0.0
  0
LINE
  5
FD
330
A
100
AcDbEntity
  8
Hawa6
 62
     3
 48
0.003656
100
AcDbLine
 10
129.003748
 20
148.499991
 30
0.0
 11
129.15
 21
148.499991
 31
0.0
  0
ARC
  5
FE
330
A
100
AcDbEntity
  8
Hawa6
 62
     3
100
AcDbCircle
 10
126.965685
 20
145.799992
 30
0.0
 40
0.2
100
AcDbArc
 50
224.999969
 51
269.999973
  0
LINE
  5
FF
330
A
100
AcDbEntity
  8
Hawa6
 62
     3
 48
0.006074
100
AcDbLine
 10
126.824263
 20
145.658571
 30
0.0
 11
126.65247
 21
145.830364
 31
0.0
  0
LINE
  5
100
330
A
100
AcDbEntity
  8
Hawa6
 62
     3
 48
0.090156
100
AcDbLine
 10
131.699999
 20
145.59999
 30
0.0
 11
129.15
 21
148.149991
 31
0.0
  0
ARC
  5
101
330
A
100
AcDbEntity
  8
Hawa6
 62
     3
100
AcDbCircle
 10
126.034313
 20
145.799993
 30
0.0
 40
0.2
100
AcDbArc
 50
269.999973
 51
314.999964
  0
LINE
  5
102
330
A
100
AcDbEntity
  8
Hawa6
 62
     3
 48
0.006074
100
AcDbLine
 10
126.175735
 20
145.658571
 30
0.0
 11
126.347528
 21
145.830364
 31
0.0
  0
LINE
  5
103
330
A
100
AcDbEntity
  8
Hawa6
 62
     3
 48
0.090156
100
AcDbLine
 10
121.299999
 20
145.599995
 30
0.0
 11
123.85
 21
148.149994
 31
0.0
  0
LINE
  5
104
330
A
100
AcDbEntity
  8
Hawa6
 62
     3
 48
0.005094
100
AcDbLine
 10
123.996254
 20
148.4999939999999
 30
0.0
 11
123.996254
 21
148.296248
 31
0.0
  0
LINE
  5
105
330
A
100
AcDbEntity
  8
Hawa6
 62
     3
 48
0.00875
100
AcDbLine
 10
123.85
 20
148.149994
 30
0.0
 11
123.85
 21
148.4999939999999
 31
0.0
  0
LINE
  5
106
330
A
100
AcDbEntity
  8
Hawa6
 62
     3
 48
0.005094
100
AcDbLine
 10
129.003748
 20
148.499991
 30
0.0
 11
129.003748
 21
148.296245
 31
0.0
  0
LINE
  5
107
330
A
100
AcDbEntity
  8
Hawa6
 62
     3
 48
0.00875
100
AcDbLine
 10
129.15
 20
148.149991
 30
0.0
 11
129.15
 21
148.499991
 31
0.0
  0
LINE
  5
108
330
A
100
AcDbEntity
  8
Hawa6
 62
     3
 48
0.017678
100
AcDbLine
 10
124.000002
 20
153.329994
 30
0.0
 11
124.500004
 21
153.829993
 31
0.0
  0
LINE
  5
109
330
A
100
AcDbEntity
  8
Hawa6
 62
     3
 48
0.1
100
AcDbLine
 10
128.500004
 20
153.829991
 30
0.0
 11
124.500004
 21
153.829993
 31
0.0
  0
LINE
  5
10A
330
A
100
AcDbEntity
  8
Hawa6
 62
     3
 48
0.017678
100
AcDbLine
 10
129.000002
 20
153.329991
 30
0.0
 11
128.500004
 21
153.829991
 31
0.0
  0
LINE
  5
10B
330
A
100
AcDbEntity
  8
Hawa6
 62
     3
 48
0.12575
100
AcDbLine
 10
129.0
 20
148.299991
 30
0.0
 11
129.000002
 21
153.329991
 31
0.0
  0
LINE
  5
10C
330
A
100
AcDbEntity
  8
Hawa4
 62
     4
 48
0.076014
100
AcDbLine
 10
131.15
 20
146.14999
 30
0.0
 11
129.0
 21
148.299991
 31
0.0
  0
LINE
  5
10D
330
A
100
AcDbEntity
  8
Hawa6
 62
     3
 48
0.008
100
AcDbLine
 10
131.15
 20
145.82999
 30
0.0
 11
131.15
 21
146.14999
 31
0.0
  0
LINE
  5
10E
330
A
100
AcDbEntity
  8
Hawa6
 62
     3
 48
0.05125
100
AcDbLine
 10
131.15
 20
145.82999
 30
0.0
 11
129.099998
 21
145.829991
 31
0.0
  0
LINE
  5
10F
330
A
100
AcDbEntity
  8
Hawa6
 62
     3
 48
0.097796
100
AcDbLine
 10
129.099998
 20
145.829991
 30
0.0
 11
126.85
 21
149.029992
 31
0.0
  0
LINE
  5
110
330
A
100
AcDbEntity
  8
Hawa6
 62
     3
 48
0.0175
100
AcDbLine
 10
126.150002
 20
149.029993
 30
0.0
 11
126.85
 21
149.029992
 31
0.0
  0
LINE
  5
111
330
A
100
AcDbEntity
  8
Hawa6
 62
     3
 48
0.097796
100
AcDbLine
 10
126.150002
 20
149.029993
 30
0.0
 11
123.9
 21
145.829994
 31
0.0
  0
LINE
  5
112
330
A
100
AcDbEntity
  8
Hawa6
 62
     3
 48
0.05125
100
AcDbLine
 10
123.9
 20
145.829994
 30
0.0
 11
121.849998
 21
145.829995
 31
0.0
  0
LINE
  5
113
330
A
100
AcDbEntity
  8
Hawa6
 62
     3
 48
0.008
100
AcDbLine
 10
121.849998
 20
145.829995
 30
0.0
 11
121.849998
 21
146.149995
 31
0.0
  0
LINE
  5
114
330
A
100
AcDbEntity
  8
Hawa4
 62
     4
 48
0.076014
100
AcDbLine
 10
121.849998
 20
146.149995
 30
0.0
 11
124.0
 21
148.299994
 31
0.0
  0
LINE
  5
115
330
A
100
AcDbEntity
  8
Hawa6
 62
     3
 48
0.12575
100
AcDbLine
 10
124.0
 20
148.299994
 30
0.0
 11
124.000002
 21
153.329994
 31
0.0
  0
LINE
  5
116
330
A
100
AcDbEntity
  8
Hawa6
 62
     3
 48
0.0175
100
AcDbLine
 10
126.849998
 20
145.829992
 30
0.0
 11
126.15
 21
145.829993
 31
0.0
  0
LINE
  5
117
330
A
100
AcDbEntity
  8
Hawa6
 62
     3
 48
0.08
100
AcDbLine
 10
126.15
 20
145.829993
 30
0.0
 11
126.150002
 21
149.029993
 31
0.0
  0
LINE
  5
118
330
A
100
AcDbEntity
  8
Hawa6
 62
     3
 48
0.05625
100
AcDbLine
 10
126.15
 20
145.829993
 30
0.0
 11
123.9
 21
145.829994
 31
0.0
  0
LINE
  5
119
330
A
100
AcDbEntity
  8
Hawa6
 62
     3
 48
0.05625
100
AcDbLine
 10
129.099998
 20
145.829991
 30
0.0
 11
126.849998
 21
145.829992
 31
0.0
  0
LINE
  5
11A
330
A
100
AcDbEntity
  8
Hawa6
 62
     3
 48
0.08
100
AcDbLine
 10
126.849998
 20
145.829992
 30
0.0
 11
126.85
 21
149.029992
 31
0.0
  0
LINE
  5
11B
330
A
100
AcDbEntity
  8
Hawa6
 62
     3
 48
0.010825
100
AcDbLine
 10
124.433001
 20
149.604993
 30
0.0
 11
124.000002
 21
149.604994
 31
0.0
  0
LINE
  5
11C
330
A
100
AcDbEntity
  8
Hawa6
 62
     3
 48
0.010825
100
AcDbLine
 10
129.000002
 20
149.604991
 30
0.0
 11
128.567001
 21
149.604992
 31
0.0
  0
LINE
  5
11D
330
A
100
AcDbEntity
  8
Hawa6
 62
     3
 48
0.10395
100
AcDbLine
 10
128.567001
 20
149.604992
 30
0.0
 11
128.567003
 21
153.762991
 31
0.0
  0
LINE
  5
11E
330
A
100
AcDbEntity
  8
Hawa6
  6
DASHED
 62
     3
 48
0.02165
100
AcDbLine
 10
129.0
 20
148.855013
 30
0.0
 11
128.567001
 21
149.604992
 31
0.0
  0
LINE
  5
11F
330
A
100
AcDbEntity
  8
Hawa6
 62
     3
 48
0.10395
100
AcDbLine
 10
124.433001
 20
149.604993
 30
0.0
 11
124.433002
 21
153.762993
 31
0.0
  0
LINE
  5
120
330
A
100
AcDbEntity
  8
Hawa6
  6
DASHED
 62
     3
 48
0.02165
100
AcDbLine
 10
124.0
 20
148.8550159999999
 30
0.0
 11
124.433001
 21
149.604993
 31
0.0
  0
LINE
  5
1CA
330
A
100
AcDbEntity
  8
Hawa2
 62
     9
 48
0.037958
100
AcDbLine
 10
108.426372
 20
109.499966
 30
0.0
 11
109.5
 21
110.573593
 31
0.0
  0
LINE
  5
1CB
330
A
100
AcDbEntity
  8
Hawa2
 62
     9
 48
0.106066
100
AcDbLine
 10
105.597945
 20
109.499966
 30
0.0
 11
108.597945
 21
112.499966
 31
0.0
  0
LINE
  5
1CC
330
A
100
AcDbEntity
  8
Hawa2
 62
     9
 48
0.106066
100
AcDbLine
 10
102.769518
 20
109.499966
 30
0.0
 11
105.769518
 21
112.499966
 31
0.0
  0
LINE
  5
1CD
330
A
100
AcDbEntity
  8
Hawa2
 62
     9
 48
0.161182
100
AcDbLine
 10
99.94109100000001
 20
109.499966
 30
0.0
 11
104.5
 21
114.058876
 31
0.0
  0
LINE
  5
1CE
330
A
100
AcDbEntity
  8
Hawa2
 62
     9
 48
0.046186
100
AcDbLine
 10
98.50000000000001
 20
110.887302
 30
0.0
 11
99.80633199999999
 21
112.193634
 31
0.0
  0
LINE
  5
1CF
330
A
100
AcDbEntity
  8
Hawa2
 62
     9
 48
0.141421
100
AcDbLine
 10
100.5
 20
112.887302
 30
0.0
 11
104.5
 21
116.887302
 31
0.0
  0
LINE
  5
1D0
330
A
100
AcDbEntity
  8
Hawa2
 62
     9
 48
0.120763
100
AcDbLine
 10
100.476431
 20
115.692162
 30
0.0
 11
103.892118
 21
119.107847
 31
0.0
  0
LINE
  5
1D1
330
A
100
AcDbEntity
  8
Hawa2
 62
     9
 48
0.121295
100
AcDbLine
 10
99.077905
 20
117.122061
 30
0.0
 11
102.508658
 21
120.552814
 31
0.0
  0
LINE
  5
1D2
330
A
100
AcDbEntity
  8
Hawa2
 62
     9
 48
0.141421
100
AcDbLine
 10
98.50000000000001
 20
119.372583
 30
0.0
 11
102.5
 21
123.372583
 31
0.0
  0
LINE
  5
1D3
330
A
100
AcDbEntity
  8
Hawa2
 62
     9
 48
0.141421
100
AcDbLine
 10
98.50000000000001
 20
122.20101
 30
0.0
 11
102.5
 21
126.20101
 31
0.0
  0
LINE
  5
1D4
330
A
100
AcDbEntity
  8
Hawa2
 62
     9
 48
0.08381
100
AcDbLine
 10
98.50000000000001
 20
125.029438
 30
0.0
 11
100.870493
 21
127.399931
 31
0.0
  0
LINE
  5
1D5
330
A
100
AcDbEntity
  8
Hawa2
 62
     9
 48
0.025825
100
AcDbLine
 10
141.769554
 20
148.5
 30
0.0
 11
142.5
 21
149.230447
 31
0.0
  0
LINE
  5
1D6
330
A
100
AcDbEntity
  8
Hawa2
 62
     9
 48
0.106401
100
AcDbLine
 10
138.941124
 20
148.5
 30
0.0
 11
141.950596
 21
151.509472
 31
0.0
  0
LINE
  5
1D7
330
A
100
AcDbEntity
  8
Hawa2
 62
     9
 48
0.179716
100
AcDbLine
 10
136.112698
 20
148.5
 30
0.0
 11
141.195843
 21
153.583144
 31
0.0
  0
LINE
  5
1D8
330
A
100
AcDbEntity
  8
Hawa2
 62
     9
 48
0.251426
100
AcDbLine
 10
133.284271
 20
148.5
 30
0.0
 11
140.395664
 21
155.611393
 31
0.0
  0
LINE
  5
1D9
330
A
100
AcDbEntity
  8
Hawa2
 62
     9
 48
0.024955
100
AcDbLine
 10
131.75
 20
149.794156
 30
0.0
 11
132.455845
 21
150.5
 31
0.0
  0
LINE
  5
1DA
330
A
100
AcDbEntity
  8
Hawa2
 62
     9
 48
0.113344
100
AcDbLine
 10
135.25
 20
153.294156
 30
0.0
 11
138.455845
 21
156.5
 31
0.0
  0
LINE
  5
1DB
330
A
100
AcDbEntity
  8
Hawa2
 62
     9
 48
0.070711
100
AcDbLine
 10
133.627417
 20
154.5
 30
0.0
 11
135.627415
 21
156.499998
 31
0.0
  0
LINE
  5
1DC
330
A
100
AcDbEntity
  8
Hawa2
 62
     9
 48
0.07071
100
AcDbLine
 10
130.79899
 20
154.5
 30
0.0
 11
132.798985
 21
156.4999949999999
 31
0.0
  0
LINE
  5
1DD
330
A
100
AcDbEntity
  8
Hawa2
 62
     9
 48
0.07071
100
AcDbLine
 10
127.970562
 20
154.5
 30
0.0
 11
129.970556
 21
156.499992
 31
0.0
  0
LINE
  5
1DE
330
A
100
AcDbEntity
  8
Hawa2
 62
     9
 48
0.067279
100
AcDbLine
 10
119.142136
 20
148.5
 30
0.0
 11
121.045059
 21
150.402923
 31
0.0
  0
LINE
  5
1DF
330
A
100
AcDbEntity
  8
Hawa2
 62
     9
 48
0.07071
100
AcDbLine
 10
125.142136
 20
154.5
 30
0.0
 11
127.142126
 21
156.49999
 31
0.0
  0
LINE
  5
1E0
330
A
100
AcDbEntity
  8
Hawa2
 62
     9
 48
0.038409
100
AcDbLine
 10
101.413639
 20
133.599931
 30
0.0
 11
102.5
 21
134.6862919999999
 31
0.0
  0
LINE
  5
1E1
330
A
100
AcDbEntity
  8
Hawa2
 62
     9
 48
0.070711
100
AcDbLine
 10
116.313708
 20
148.5
 30
0.0
 11
118.313708
 21
150.5
 31
0.0
  0
LINE
  5
1E2
330
A
100
AcDbEntity
  8
Hawa2
 62
     9
 48
0.07071
100
AcDbLine
 10
122.313709
 20
154.5
 30
0.0
 11
124.313696
 21
156.499988
 31
0.0
  0
LINE
  5
1E3
330
A
100
AcDbEntity
  8
Hawa2
 62
     9
 48
0.138409
100
AcDbLine
 10
98.585212
 20
133.599931
 30
0.0
 11
102.5
 21
137.514719
 31
0.0
  0
LINE
  5
1E4
330
A
100
AcDbEntity
  8
Hawa2
 62
     9
 48
0.035877
100
AcDbLine
 10
108.485247
 20
143.499965
 30
0.0
 11
109.5
 21
144.514719
 31
0.0
  0
LINE
  5
1E5
330
A
100
AcDbEntity
  8
Hawa2
 62
     9
 48
0.150781
100
AcDbLine
 10
113.485281
 20
148.5
 30
0.0
 11
117.75
 21
152.764719
 31
0.0
  0
LINE
  5
1E6
330
A
100
AcDbEntity
  8
Hawa2
 62
     9
 48
0.07071
100
AcDbLine
 10
119.485281
 20
154.5
 30
0.0
 11
121.485266
 21
156.499985
 31
0.0
  0
LINE
  5
1E7
330
A
100
AcDbEntity
  8
Hawa2
 62
     9
 48
0.141421
100
AcDbLine
 10
98.50000000000001
 20
136.343145
 30
0.0
 11
102.5
 21
140.343145
 31
0.0
  0
LINE
  5
1E8
330
A
100
AcDbEntity
  8
Hawa2
 62
     9
 48
0.136905
100
AcDbLine
 10
105.456164
 20
143.29931
 30
0.0
 11
109.328427
 21
147.171573
 31
0.0
  0
LINE
  5
1E9
330
A
100
AcDbEntity
  8
Hawa2
 62
     9
 48
0.276776
100
AcDbLine
 10
110.828427
 20
148.671573
 30
0.0
 11
118.656837
 21
156.499983
 31
0.0
  0
LINE
  5
1EA
330
A
100
AcDbEntity
  8
Hawa2
 62
     9
100
AcDbLine
 10
98.50000000000001
 20
139.171573
 30
0.0
 11
115.828407
 21
156.49998
 31
0.0
  0
LINE
  5
1EB
330
A
100
AcDbEntity
  8
Hawa2
 62
     9
100
AcDbLine
 10
98.50000000000001
 20
142.0
 30
0.0
 11
112.999978
 21
156.499978
 31
0.0
  0
LINE
  5
1EC
330
A
100
AcDbEntity
  8
Hawa2
 62
     9
 48
0.274321
100
AcDbLine
 10
98.50000000000001
 20
144.828427
 30
0.0
 11
106.258958
 21
152.587385
 31
0.0
  0
LINE
  5
1ED
330
A
100
AcDbEntity
  8
Hawa2
 62
     9
 48
0.218458
100
AcDbLine
 10
98.50000000000001
 20
147.656854
 30
0.0
 11
104.678916
 21
153.83577
 31
0.0
  0
LINE
  5
1EE
330
A
100
AcDbEntity
  8
Hawa2
 62
     9
 48
0.097747
100
AcDbLine
 10
100.5
 20
152.485281
 30
0.0
 11
103.264702
 21
155.249984
 31
0.0
  0
LINE
  5
1EF
330
A
100
AcDbEntity
  8
Hawa2
 62
     9
 48
0.11083
100
AcDbLine
 10
98.50000000000001
 20
153.313708
 30
0.0
 11
101.634744
 21
156.448452
 31
0.0
  0
LINE
  5
1F0
330
A
100
AcDbEntity
  8
Hawa2
 62
     9
 48
0.012651
100
AcDbLine
 10
98.50000000000001
 20
156.142136
 30
0.0
 11
98.85783000000001
 21
156.499966
 31
0.0
  0
LINE
  5
1F1
330
A
100
AcDbEntity
  8
Hawa2
 62
     9
 48
0.075394
100
AcDbLine
 10
141.367519
 20
108.499985
 30
0.0
 11
143.499985
 21
110.63245
 31
0.0
  0
LINE
  5
1F2
330
A
100
AcDbEntity
  8
Hawa2
 62
     9
 48
0.175394
100
AcDbLine
 10
138.539093
 20
108.499989
 30
0.0
 11
143.499985
 21
113.46088
 31
0.0
  0
LINE
  5
1F3
330
A
100
AcDbEntity
  8
Hawa2
 62
     9
 48
0.275394
100
AcDbLine
 10
135.710667
 20
108.499989
 30
0.0
 11
143.499985
 21
116.289307
 31
0.0
  0
LINE
  5
1F4
330
A
100
AcDbEntity
  8
Hawa2
 62
     9
 48
0.093527
100
AcDbLine
 10
133.236897
 20
108.854645
 30
0.0
 11
135.882238
 21
111.4999889999999
 31
0.0
  0
LINE
  5
1F5
330
A
100
AcDbEntity
  8
Hawa2
 62
     9
 48
0.038263
100
AcDbLine
 10
136.799984
 20
112.417732
 30
0.0
 11
137.882236
 21
113.499989
 31
0.0
  0
LINE
  5
1F6
330
A
100
AcDbEntity
  8
Hawa2
 62
     9
 48
0.102531
100
AcDbLine
 10
140.599987
 20
116.217735
 30
0.0
 11
143.499989
 21
119.117737
 31
0.0
  0
LINE
  5
1F7
330
A
100
AcDbEntity
  8
Hawa2
 62
     9
 48
0.102531
100
AcDbLine
 10
140.599987
 20
119.046164
 30
0.0
 11
143.499989
 21
121.946165
 31
0.0
  0
LINE
  5
1F8
330
A
100
AcDbEntity
  8
Hawa2
 62
     9
 48
0.102531
100
AcDbLine
 10
140.599987
 20
121.874592
 30
0.0
 11
143.499989
 21
124.774593
 31
0.0
  0
LINE
  5
1F9
330
A
100
AcDbEntity
  8
Hawa2
 62
     9
 48
0.102531
100
AcDbLine
 10
140.599991
 20
124.70302
 30
0.0
 11
143.499992
 21
127.603022
 31
0.0
  0
LINE
  5
1FA
330
A
100
AcDbEntity
  8
Hawa2
 62
     9
 48
0.102531
100
AcDbLine
 10
140.599991
 20
127.531448
 30
0.0
 11
143.499992
 21
130.43145
 31
0.0
  0
LINE
  5
1FB
330
A
100
AcDbEntity
  8
Hawa2
 62
     9
 48
0.102531
100
AcDbLine
 10
140.599991
 20
130.359877
 30
0.0
 11
143.499992
 21
133.259878
 31
0.0
  0
LINE
  5
1FC
330
A
100
AcDbEntity
  8
Hawa2
 62
     9
 48
0.102531
100
AcDbLine
 10
140.599995
 20
133.188305
 30
0.0
 11
143.499996
 21
136.088306
 31
0.0
  0
LINE
  5
1FD
330
A
100
AcDbEntity
  8
Hawa2
 62
     9
 48
0.102531
100
AcDbLine
 10
140.599995
 20
136.016734
 30
0.0
 11
143.499996
 21
138.916735
 31
0.0
  0
LINE
  5
1FE
330
A
100
AcDbEntity
  8
Hawa2
 62
     9
 48
0.102531
100
AcDbLine
 10
140.599995
 20
138.845162
 30
0.0
 11
143.499996
 21
141.745163
 31
0.0
  0
LINE
  5
1FF
330
A
100
AcDbEntity
  8
Hawa2
 62
     9
 48
0.102531
100
AcDbLine
 10
140.599998
 20
141.673591
 30
0.0
 11
143.5
 21
144.573592
 31
0.0
  0
LINE
  5
200
330
A
100
AcDbEntity
  8
Hawa2
 62
     9
 48
0.107768
100
AcDbLine
 10
140.451862
 20
144.353882
 30
0.0
 11
143.5
 21
147.40202
 31
0.0
  0
LINE
  5
201
330
A
100
AcDbEntity
  8
Hawa2
 62
     9
 48
0.103163
100
AcDbLine
 10
138.851658
 20
145.582105
 30
0.0
 11
141.7695389999999
 21
148.499986
 31
0.0
  0
LINE
  5
202
330
A
100
AcDbEntity
  8
Hawa2
 62
     9
 48
0.10253
100
AcDbLine
 10
136.041113
 20
145.599988
 30
0.0
 11
138.941113
 21
148.499987
 31
0.0
  0
LINE
  5
203
330
A
100
AcDbEntity
  8
Hawa2
 62
     9
 48
0.10253
100
AcDbLine
 10
133.212688
 20
145.599989
 30
0.0
 11
136.112686
 21
148.499988
 31
0.0
  0
LINE
  5
204
330
A
100
AcDbEntity
  8
Hawa2
 62
     9
 48
0.079271
100
AcDbLine
 10
131.042131
 20
146.257859
 30
0.0
 11
133.28426
 21
148.499989
 31
0.0
  0
LINE
  5
205
330
A
100
AcDbEntity
  8
Hawa2
 62
     9
 48
0.029271
100
AcDbLine
 10
129.627918
 20
147.672073
 30
0.0
 11
130.455835
 21
148.499991
 31
0.0
  0
LINE
  5
206
330
A
100
AcDbEntity
  8
Hawa2
 62
     9
 48
0.044545
100
AcDbLine
 10
118.740105
 20
108.499989
 30
0.0
 11
120.000017
 21
109.759903
 31
0.0
  0
LINE
  5
207
330
A
100
AcDbEntity
  8
Hawa2
 62
     9
 48
0.106066
100
AcDbLine
 10
115.911675
 20
108.499989
 30
0.0
 11
118.911677
 21
111.4999889999999
 31
0.0
  0
LINE
  5
208
330
A
100
AcDbEntity
  8
Hawa2
 62
     9
 48
0.113493
100
AcDbLine
 10
113.083247
 20
108.499985
 30
0.0
 11
116.293302
 21
111.710041
 31
0.0
  0
LINE
  5
209
330
A
100
AcDbEntity
  8
Hawa2
 62
     9
 48
0.175788
100
AcDbLine
 10
110.280222
 20
108.525387
 30
0.0
 11
115.252255
 21
113.497421
 31
0.0
  0
LINE
  5
20A
330
A
100
AcDbEntity
  8
Hawa2
 62
     9
 48
0.12373
100
AcDbLine
 10
109.500017
 20
110.573608
 30
0.0
 11
112.999639
 21
114.073231
 31
0.0
  0
LINE
  5
20B
330
A
100
AcDbEntity
  8
Hawa2
 62
     9
 48
0.10253
100
AcDbLine
 10
109.500016
 20
113.402035
 30
0.0
 11
112.400014
 21
116.302036
 31
0.0
  0
LINE
  5
20C
330
A
100
AcDbEntity
  8
Hawa2
 62
     9
 48
0.10253
100
AcDbLine
 10
109.500014
 20
116.230461
 30
0.0
 11
112.400013
 21
119.130461
 31
0.0
  0
LINE
  5
20D
330
A
100
AcDbEntity
  8
Hawa2
 62
     9
 48
0.10253
100
AcDbLine
 10
109.500013
 20
119.058887
 30
0.0
 11
112.400012
 21
121.958885
 31
0.0
  0
LINE
  5
20E
330
A
100
AcDbEntity
  8
Hawa2
 62
     9
 48
0.10253
100
AcDbLine
 10
109.500011
 20
121.887314
 30
0.0
 11
112.40001
 21
124.787312
 31
0.0
  0
LINE
  5
20F
330
A
100
AcDbEntity
  8
Hawa2
 62
     9
 48
0.10253
100
AcDbLine
 10
109.50001
 20
124.715738
 30
0.0
 11
112.400009
 21
127.615738
 31
0.0
  0
LINE
  5
210
330
A
100
AcDbEntity
  8
Hawa2
 62
     9
 48
0.10253
100
AcDbLine
 10
109.500009
 20
127.544165
 30
0.0
 11
112.400008
 21
130.444164
 31
0.0
  0
LINE
  5
211
330
A
100
AcDbEntity
  8
Hawa2
 62
     9
 48
0.10253
100
AcDbLine
 10
109.500008
 20
130.372591
 30
0.0
 11
112.400006
 21
133.27259
 31
0.0
  0
LINE
  5
212
330
A
100
AcDbEntity
  8
Hawa2
 62
     9
 48
0.10253
100
AcDbLine
 10
109.500007
 20
133.201016
 30
0.0
 11
112.400005
 21
136.101015
 31
0.0
  0
LINE
  5
213
330
A
100
AcDbEntity
  8
Hawa2
 62
     9
 48
0.10253
100
AcDbLine
 10
109.500005
 20
136.029443
 30
0.0
 11
112.400004
 21
138.929441
 31
0.0
  0
LINE
  5
214
330
A
100
AcDbEntity
  8
Hawa2
 62
     9
 48
0.102531
100
AcDbLine
 10
119.070552
 20
145.599989
 30
0.0
 11
121.970552
 21
148.49999
 31
0.0
  0
LINE
  5
215
330
A
100
AcDbEntity
  8
Hawa2
 62
     9
 48
0.10253
100
AcDbLine
 10
109.500004
 20
138.857868
 30
0.0
 11
112.400002
 21
141.757867
 31
0.0
  0
LINE
  5
216
330
A
100
AcDbEntity
  8
Hawa2
 62
     9
 48
0.102531
100
AcDbLine
 10
116.242124
 20
145.599988
 30
0.0
 11
119.142125
 21
148.499989
 31
0.0
  0
LINE
  5
217
330
A
100
AcDbEntity
  8
Hawa2
 62
     9
 48
0.2409
100
AcDbLine
 10
109.500003
 20
141.686294
 30
0.0
 11
116.313696
 21
148.499988
 31
0.0
  0
LINE
  5
218
330
A
100
AcDbEntity
  8
Hawa2
 62
     9
 48
0.1409
100
AcDbLine
 10
109.500001
 20
144.51472
 30
0.0
 11
113.485268
 21
148.499987
 31
0.0
  0
LINE
  5
219
330
A
100
AcDbEntity
  8
Hawa2
 62
     9
 48
0.0409
100
AcDbLine
 10
109.5
 20
147.343146
 30
0.0
 11
110.656839
 21
148.499985
 31
0.0
  0
INSERT
  5
258
330
A
100
AcDbEntity
  8
HAWA1
100
AcDbBlockReference
  2
HAWA
 10
0.0
 20
0.0
 30
0.0
  0
VIEWPORT
  5
121
102
{ACAD_XDICTIONARY
360
2BE
102
}
330
B
100
AcDbEntity
 67
     1
  8
HAWA1
 62
     0
100
AcDbViewport
 10
0.0
 20
0.0
 30
0.0
 40
1000.0
 41
1000.0
 68
     1
 69
     1
 12
0.0
 22
0.0
 13
0.0
 23
0.0
 14
1.0
 24
1.0
 15
1.0
 25
1.0
 16
0.0
 26
0.0
 36
1.0
 17
0.0
 27
0.0
 37
0.0
 42
50.0
 43
0.0
 44
0.0
 45
1000.0
 50
0.0
 51
0.0
 72
   100
 90
   557216
  1

281
     0
 71
     1
 74
     0
110
0.0
120
0.0
130
0.0
111
1.0
121
0.0
131
0.0
112
0.0
122
1.0
132
0.0
 79
     0
146
0.0
  0
ENDSEC
  0
SECTION
  2
OBJECTS
  0
DICTIONARY
  5
19
330
0
100
AcDbDictionary
281
     1
  3
ACAD_COLOR
350
23B
  3
ACAD_GROUP
350
1A
  3
ACAD_LAYOUT
350
1C7
  3
ACAD_MATERIAL
350
226
  3
ACAD_MLINESTYLE
350
1B
  3
ACAD_PLOTSETTINGS
350
23E
  3
ACAD_PLOTSTYLENAME
350
21F
  3
ACAD_TABLESTYLE
350
23C
  3
ACAD_VISUALSTYLE
350
22A
  3
AcDbVariableDictionary
350
2B8
  3
DWGPROPS
350
2BD
  0
DICTIONARY
  5
2BE
330
121
100
AcDbDictionary
280
     1
281
     1
  3
ACAD_XREC_ROUNDTRIP
360
2BF
  0
DICTIONARY
  5
23B
102
{ACAD_REACTORS
330
19
102
}
330
19
100
AcDbDictionary
281
     1
  0
DICTIONARY
  5
1A
102
{ACAD_REACTORS
330
19
102
}
330
19
100
AcDbDictionary
281
     1
  3
*A1
350
24A
  3
*A10
350
253
  3
*A11
350
254
  3
*A2
350
24B
  3
*A3
350
24C
  3
*A4
350
24D
  3
*A5
350
24E
  3
*A6
350
24F
  3
*A7
350
250
  3
*A8
350
251
  3
*A9
350
252
  0
DICTIONARY
  5
1C7
102
{ACAD_REACTORS
330
19
102
}
330
19
100
AcDbDictionary
281
     1
  3
Layout1
350
1C9
  3
Model
350
1C8
  0
DICTIONARY
  5
226
102
{ACAD_REACTORS
330
19
102
}
330
19
100
AcDbDictionary
281
     1
  3
ByBlock
350
228
  3
ByLayer
350
227
  3
Global
350
229
  0
DICTIONARY
  5
1B
102
{ACAD_REACTORS
330
19
102
}
330
19
100
AcDbDictionary
281
     1
  3
STANDARD
350
1C
  0
DICTIONARY
  5
23E
102
{ACAD_REACTORS
330
19
102
}
330
19
100
AcDbDictionary
281
     1
  0
ACDBDICTIONARYWDFLT
  5
21F
102
{ACAD_REACTORS
330
19
102
}
330
19
100
AcDbDictionary
281
     1
  3
Normal
350
220
100
AcDbDictionaryWithDefault
340
220
  0
DICTIONARY
  5
23C
102
{ACAD_REACTORS
330
19
102
}
330
19
100
AcDbDictionary
281
     1
  3
Standard
350
23D
  0
DICTIONARY
  5
22A
102
{ACAD_REACTORS
330
19
102
}
330
19
100
AcDbDictionary
281
     1
  3
2dWireframe
350
230
  3
3D Hidden
350
232
  3
3dWireframe
350
231
  3
Basic
350
22F
  3
Brighten
350
236
  3
ColorChange
350
23A
  3
Conceptual
350
233
  3
Dim
350
235
  3
Facepattern
350
239
  3
Flat
350
22B
  3
FlatWithEdges
350
22C
  3
Gouraud
350
22D
  3
GouraudWithEdges
350
22E
  3
Linepattern
350
238
  3
Realistic
350
234
  3
Thicken
350
237
  0
DICTIONARY
  5
2B8
102
{ACAD_REACTORS
330
19
102
}
330
19
100
AcDbDictionary
281
     1
  3
CTABLESTYLE
350
2B9
  3
DIMASSOC
350
2BC
  3
INDEXCTL
350
2BB
  3
SORTENTS
350
2BA
  0
XRECORD
  5
2BD
102
{ACAD_REACTORS
330
19
102
}
330
19
100
AcDbXrecord
280
     1
  1
DWGPROPS COOKIE
  2

  3

  4

  6

  7

  8
rhu
  9

300
=
301
=
302
=
303
=
304
=
305
=
306
=
307
=
308
=
309
=
 40
0.0002306018518519
 41
2447893.0
 42
2455224.390801887
  1

 90
        0
  0
XRECORD
  5
2BF
102
{ACAD_REACTORS
330
2BE
102
}
330
2BE
100
AcDbXrecord
280
     1
102
SHADEPLOT
 70
     0
  0
GROUP
  5
24A
102
{ACAD_REACTORS
330
1A
102
}
330
1A
100
AcDbGroup
300

 70
     1
 71
     1
  0
GROUP
  5
253
102
{ACAD_REACTORS
330
1A
102
}
330
1A
100
AcDbGroup
300

 70
     1
 71
     1
  0
GROUP
  5
254
102
{ACAD_REACTORS
330
1A
102
}
330
1A
100
AcDbGroup
300

 70
     1
 71
     1
  0
GROUP
  5
24B
102
{ACAD_REACTORS
330
1A
102
}
330
1A
100
AcDbGroup
300

 70
     1
 71
     1
  0
GROUP
  5
24C
102
{ACAD_REACTORS
330
1A
102
}
330
1A
100
AcDbGroup
300

 70
     1
 71
     1
  0
GROUP
  5
24D
102
{ACAD_REACTORS
330
1A
102
}
330
1A
100
AcDbGroup
300

 70
     1
 71
     1
  0
GROUP
  5
24E
102
{ACAD_REACTORS
330
1A
102
}
330
1A
100
AcDbGroup
300

 70
     1
 71
     1
  0
GROUP
  5
24F
102
{ACAD_REACTORS
330
1A
102
}
330
1A
100
AcDbGroup
300

 70
     1
 71
     1
  0
GROUP
  5
250
102
{ACAD_REACTORS
330
1A
102
}
330
1A
100
AcDbGroup
300

 70
     1
 71
     1
  0
GROUP
  5
251
102
{ACAD_REACTORS
330
1A
102
}
330
1A
100
AcDbGroup
300

 70
     1
 71
     1
  0
GROUP
  5
252
102
{ACAD_REACTORS
330
1A
102
}
330
1A
100
AcDbGroup
300

 70
     1
 71
     1
  0
LAYOUT
  5
1C9
102
{ACAD_XDICTIONARY
360
2C2
102
}
102
{ACAD_REACTORS
330
1C7
102
}
330
1C7
100
AcDbPlotSettings
  1

  2
none_device
  4

  6

 40
0.0
 41
0.0
 42
0.0
 43
0.0
 44
0.0
 45
0.0
 46
0.0
 47
0.0
 48
0.0
 49
0.0
140
0.0
141
0.0
142
1.0
143
1.0
 70
   688
 72
     0
 73
     0
 74
     5
  7

 75
    16
147
1.0
148
0.0
149
0.0
100
AcDbLayout
  1
Layout1
 70
     1
 71
     1
 10
0.0
 20
0.0
 11
420.0
 21
297.0
 12
0.0
 22
0.0
 32
0.0
 14
0.0
 24
0.0
 34
0.0
 15
38.56066099999999
 25
25.235146
 35
2.0
146
0.0
 13
0.0
 23
0.0
 33
0.0
 16
1.0
 26
0.0
 36
0.0
 17
0.0
 27
1.0
 37
0.0
 76
     0
330
B
331
121
  0
LAYOUT
  5
1C8
102
{ACAD_XDICTIONARY
360
2C0
102
}
102
{ACAD_REACTORS
330
1C7
102
}
330
1C7
100
AcDbPlotSettings
  1

  2
none_device
  4

  6

 40
0.0
 41
0.0
 42
0.0
 43
0.0
 44
0.0
 45
0.0
 46
0.0
 47
0.0
 48
0.0
 49
0.0
140
0.0
141
0.0
142
1.0
143
1.0
 70
   688
 72
     0
 73
     0
 74
     5
  7

 75
    16
147
1.0
148
0.0
149
0.0
100
AcDbLayout
  1
Model
 70
     1
 71
     0
 10
0.0
 20
0.0
 11
0.0
 21
0.0
 12
0.0
 22
0.0
 32
0.0
 14
0.0
 24
0.0
 34
0.0
 15
0.0
 25
0.0
 35
0.0
146
0.0
 13
0.0
 23
0.0
 33
0.0
 16
1.0
 26
0.0
 36
0.0
 17
0.0
 27
1.0
 37
0.0
 76
     0
330
A
331
15
  0
MATERIAL
  5
228
102
{ACAD_XDICTIONARY
360
2C6
102
}
102
{ACAD_REACTORS
330
226
102
}
330
226
100
AcDbMaterial
  1
ByBlock
  0
MATERIAL
  5
227
102
{ACAD_XDICTIONARY
360
2C4
102
}
102
{ACAD_REACTORS
330
226
102
}
330
226
100
AcDbMaterial
  1
ByLayer
  0
MATERIAL
  5
229
102
{ACAD_XDICTIONARY
360
2C8
102
}
102
{ACAD_REACTORS
330
226
102
}
330
226
100
AcDbMaterial
  1
Global
  0
MLINESTYLE
  5
1C
102
{ACAD_REACTORS
330
1B
102
}
330
1B
100
AcDbMlineStyle
  2
STANDARD
 70
     0
  3

 62
     0
 51
90.0
 52
90.0
 71
     2
 49
0.5
 62
   256
  6
BYLAYER
 49
-0.5
 62
   256
  6
BYLAYER
  0
ACDBPLACEHOLDER
  5
220
102
{ACAD_REACTORS
330
21F
102
}
330
21F
  0
TABLESTYLE
  5
23D
102
{ACAD_XDICTIONARY
360
2CA
102
}
102
{ACAD_REACTORS
330
23C
102
}
330
23C
100
AcDbTableStyle
  3
Standard
 70
     0
 71
     0
 40
1.5
 41
1.5
280
     0
281
     0
  7
STANDARD
140
4.5
170
     2
 62
     0
 63
     7
283
     0
274
    -2
284
     1
 64
     0
275
    -2
285
     1
 65
     0
276
    -2
286
     1
 66
     0
277
    -2
287
     1
 67
     0
278
    -2
288
     1
 68
     0
279
    -2
289
     1
 69
     0
  7
STANDARD
140
6.0
170
     5
 62
     0
 63
     7
283
     0
274
    -2
284
     1
 64
     0
275
    -2
285
     1
 65
     0
276
    -2
286
     1
 66
     0
277
    -2
287
     1
 67
     0
278
    -2
288
     1
 68
     0
279
    -2
289
     1
 69
     0
  7
STANDARD
140
4.5
170
     5
 62
     0
 63
     7
283
     0
274
    -2
284
     1
 64
     0
275
    -2
285
     1
 65
     0
276
    -2
286
     1
 66
     0
277
    -2
287
     1
 67
     0
278
    -2
288
     1
 68
     0
279
    -2
289
     1
 69
     0
  0
VISUALSTYLE
  5
230
102
{ACAD_REACTORS
330
22A
102
}
330
22A
100
AcDbVisualStyle
  2
2dWireframe
 70
     4
 71
     0
 72
     2
 73
     0
 90
        0
 40
-0.6
 41
-30.0
 62
     5
 63
     7
 74
     1
 91
        4
 64
     7
 65
   257
 75
     1
175
     1
 42
1.0
 92
        0
 66
   257
 43
1.0
 76
     1
 77
     6
 78
     2
 67
     7
 79
     5
170
     0
171
     0
290
     0
174
     0
 93
        1
 44
0.0
173
     0
291
     0
 45
0.0
1001
ACAD
1000
AcDbSavedByObjectVersion
1070
     0
  0
VISUALSTYLE
  5
232
102
{ACAD_REACTORS
330
22A
102
}
330
22A
100
AcDbVisualStyle
  2
3D Hidden
 70
     6
 71
     1
 72
     2
 73
     2
 90
        0
 40
-0.6
 41
-30.0
 62
     5
 63
     7
 74
     2
 91
        2
 64
     7
 65
   257
 75
     2
175
     1
 42
40.0
 92
        0
 66
   257
 43
1.0
 76
     1
 77
     6
 78
     2
 67
     7
 79
     3
170
     0
171
     0
290
     0
174
     0
 93
        1
 44
0.0
173
     0
291
     0
 45
0.0
1001
ACAD
1000
AcDbSavedByObjectVersion
1070
     0
  0
VISUALSTYLE
  5
231
102
{ACAD_REACTORS
330
22A
102
}
330
22A
100
AcDbVisualStyle
  2
3dWireframe
 70
     5
 71
     0
 72
     2
 73
     0
 90
        0
 40
-0.6
 41
-30.0
 62
     5
 63
     7
 74
     1
 91
        4
 64
     7
 65
   257
 75
     1
175
     1
 42
1.0
 92
        0
 66
   257
 43
1.0
 76
     1
 77
     6
 78
     2
 67
     7
 79
     5
170
     0
171
     0
290
     0
174
     0
 93
        1
 44
0.0
173
     0
291
     0
 45
0.0
1001
ACAD
1000
AcDbSavedByObjectVersion
1070
     0
  0
VISUALSTYLE
  5
22F
102
{ACAD_REACTORS
330
22A
102
}
330
22A
100
AcDbVisualStyle
  2
Basic
 70
     7
 71
     1
 72
     0
 73
     1
 90
        0
 40
-0.6
 41
-30.0
 62
     5
 63
     7
 74
     0
 91
        4
 64
     7
 65
   257
 75
     1
175
     1
 42
1.0
 92
        8
 66
     7
 43
1.0
 76
     1
 77
     6
 78
     2
 67
     7
 79
     5
170
     0
171
     0
290
     0
174
     0
 93
        1
 44
0.0
173
     0
291
     1
 45
0.0
1001
ACAD
1000
AcDbSavedByObjectVersion
1070
     0
  0
VISUALSTYLE
  5
236
102
{ACAD_REACTORS
330
22A
102
}
330
22A
100
AcDbVisualStyle
  2
Brighten
 70
    12
 71
     2
 72
     2
 73
     0
 90
        0
 40
-0.6
 41
-30.0
 62
     5
 63
     7
 74
     1
 91
        4
 64
     7
 65
   257
 75
     1
175
     1
 42
1.0
 92
        8
 66
     7
 43
1.0
 76
     1
 77
     6
 78
     2
 67
     7
 79
     5
170
     0
171
     0
290
     0
174
     0
 93
        1
 44
50.0
173
     0
291
     1
 45
0.0
1001
ACAD
1000
AcDbSavedByObjectVersion
1070
     0
  0
VISUALSTYLE
  5
23A
102
{ACAD_REACTORS
330
22A
102
}
330
22A
100
AcDbVisualStyle
  2
ColorChange
 70
    16
 71
     2
 72
     2
 73
     3
 90
        0
 40
-0.6
 41
-30.0
 62
     5
 63
     8
 74
     1
 91
        4
 64
     7
 65
   257
 75
     1
175
     1
 42
1.0
 92
        8
 66
     8
 43
1.0
 76
     1
 77
     6
 78
     2
 67
     7
 79
     5
170
     0
171
     0
290
     0
174
     0
 93
        1
 44
0.0
173
     0
291
     1
 45
0.0
1001
ACAD
1000
AcDbSavedByObjectVersion
1070
     0
  0
VISUALSTYLE
  5
233
102
{ACAD_REACTORS
330
22A
102
}
330
22A
100
AcDbVisualStyle
  2
Conceptual
 70
     9
 71
     3
 72
     2
 73
     0
 90
        0
 40
-0.6
 41
-30.0
 62
     5
 63
     7
 74
     2
 91
        2
 64
     7
 65
   257
 75
     1
175
     1
 42
40.0
 92
        8
 66
     7
 43
1.0
 76
     1
 77
     6
 78
     2
 67
     7
 79
     3
170
     0
171
     0
290
     0
174
     0
 93
        1
 44
0.0
173
     0
291
     0
 45
0.0
1001
ACAD
1000
AcDbSavedByObjectVersion
1070
     0
  0
VISUALSTYLE
  5
235
102
{ACAD_REACTORS
330
22A
102
}
330
22A
100
AcDbVisualStyle
  2
Dim
 70
    11
 71
     2
 72
     2
 73
     0
 90
        0
 40
-0.6
 41
-30.0
 62
     5
 63
     7
 74
     1
 91
        4
 64
     7
 65
   257
 75
     1
175
     1
 42
1.0
 92
        8
 66
     7
 43
1.0
 76
     1
 77
     6
 78
     2
 67
     7
 79
     5
170
     0
171
     0
290
     0
174
     0
 93
        1
 44
-50.0
173
     0
291
     1
 45
0.0
1001
ACAD
1000
AcDbSavedByObjectVersion
1070
     0
  0
VISUALSTYLE
  5
239
102
{ACAD_REACTORS
330
22A
102
}
330
22A
100
AcDbVisualStyle
  2
Facepattern
 70
    15
 71
     2
 72
     2
 73
     0
 90
        0
 40
-0.6
 41
-30.0
 62
     5
 63
     7
 74
     1
 91
        4
 64
     7
 65
   257
 75
     1
175
     1
 42
1.0
 92
        8
 66
     7
 43
1.0
 76
     1
 77
     6
 78
     2
 67
     7
 79
     5
170
     0
171
     0
290
     0
174
     0
 93
        1
 44
0.0
173
     0
291
     1
 45
0.0
1001
ACAD
1000
AcDbSavedByObjectVersion
1070
     0
  0
VISUALSTYLE
  5
22B
102
{ACAD_REACTORS
330
22A
102
}
330
22A
100
AcDbVisualStyle
  2
Flat
 70
     0
 71
     2
 72
     1
 73
     1
 90
        2
 40
-0.6
 41
30.0
 62
     5
 63
     7
 74
     0
 91
        4
 64
     7
 65
   257
 75
     1
175
     1
 42
1.0
 92
        8
 66
     7
 43
1.0
 76
     1
 77
     6
 78
     2
 67
     7
 79
     5
170
     0
171
     0
290
     0
174
     0
 93
       13
 44
0.0
173
     0
291
     1
 45
0.0
1001
ACAD
1000
AcDbSavedByObjectVersion
1070
     0
  0
VISUALSTYLE
  5
22C
102
{ACAD_REACTORS
330
22A
102
}
330
22A
100
AcDbVisualStyle
  2
FlatWithEdges
 70
     1
 71
     2
 72
     1
 73
     1
 90
        2
 40
-0.6
 41
30.0
 62
     5
 63
     7
 74
     1
 91
        4
 64
     7
 65
   257
 75
     1
175
     1
 42
1.0
 92
        0
 66
   257
 43
1.0
 76
     1
 77
     6
 78
     2
 67
     7
 79
     5
170
     0
171
     0
290
     0
174
     0
 93
       13
 44
0.0
173
     0
291
     1
 45
0.0
1001
ACAD
1000
AcDbSavedByObjectVersion
1070
     0
  0
VISUALSTYLE
  5
22D
102
{ACAD_REACTORS
330
22A
102
}
330
22A
100
AcDbVisualStyle
  2
Gouraud
 70
     2
 71
     2
 72
     2
 73
     1
 90
        2
 40
-0.6
 41
30.0
 62
     5
 63
     7
 74
     0
 91
        4
 64
     7
 65
   257
 75
     1
175
     1
 42
1.0
 92
        0
 66
     7
 43
1.0
 76
     1
 77
     6
 78
     2
 67
     7
 79
     5
170
     0
171
     0
290
     0
174
     0
 93
       13
 44
0.0
173
     0
291
     1
 45
0.0
1001
ACAD
1000
AcDbSavedByObjectVersion
1070
     0
  0
VISUALSTYLE
  5
22E
102
{ACAD_REACTORS
330
22A
102
}
330
22A
100
AcDbVisualStyle
  2
GouraudWithEdges
 70
     3
 71
     2
 72
     2
 73
     1
 90
        2
 40
-0.6
 41
30.0
 62
     5
 63
     7
 74
     1
 91
        4
 64
     7
 65
   257
 75
     1
175
     1
 42
1.0
 92
        0
 66
   257
 43
1.0
 76
     1
 77
     6
 78
     2
 67
     7
 79
     5
170
     0
171
     0
290
     0
174
     0
 93
       13
 44
0.0
173
     0
291
     1
 45
0.0
1001
ACAD
1000
AcDbSavedByObjectVersion
1070
     0
  0
VISUALSTYLE
  5
238
102
{ACAD_REACTORS
330
22A
102
}
330
22A
100
AcDbVisualStyle
  2
Linepattern
 70
    14
 71
     2
 72
     2
 73
     0
 90
        0
 40
-0.6
 41
-30.0
 62
     5
 63
     7
 74
     1
 91
        4
 64
     7
 65
   257
 75
     7
175
     7
 42
1.0
 92
        8
 66
     7
 43
1.0
 76
     1
 77
     6
 78
     2
 67
     7
 79
     5
170
     0
171
     0
290
     0
174
     0
 93
        1
 44
0.0
173
     0
291
     1
 45
0.0
1001
ACAD
1000
AcDbSavedByObjectVersion
1070
     0
  0
VISUALSTYLE
  5
234
102
{ACAD_REACTORS
330
22A
102
}
330
22A
100
AcDbVisualStyle
  2
Realistic
 70
     8
 71
     2
 72
     2
 73
     0
 90
        0
 40
-0.6
 41
-30.0
 62
     5
 63
     7
 74
     1
 91
        0
 64
     7
 65
   257
 75
     1
175
     1
 42
1.0
 92
        8
 66
     8
 43
1.0
 76
     1
 77
     6
 78
     2
 67
     7
 79
     5
170
     0
171
     0
290
     0
174
     0
 93
       13
 44
0.0
173
     0
291
     0
 45
0.0
1001
ACAD
1000
AcDbSavedByObjectVersion
1070
     0
  0
VISUALSTYLE
  5
237
102
{ACAD_REACTORS
330
22A
102
}
330
22A
100
AcDbVisualStyle
  2
Thicken
 70
    13
 71
     2
 72
     2
 73
     0
 90
        0
 40
-0.6
 41
-30.0
 62
     5
 63
     7
 74
     1
 91
        4
 64
     7
 65
   257
 75
     1
175
     1
 42
1.0
 92
       12
 66
     7
 43
1.0
 76
     1
 77
     6
 78
     2
 67
     7
 79
     5
170
     0
171
     0
290
     0
174
     0
 93
        1
 44
0.0
173
     0
291
     1
 45
0.0
1001
ACAD
1000
AcDbSavedByObjectVersion
1070
     0
  0
DICTIONARYVAR
  5
2B9
102
{ACAD_REACTORS
330
2B8
102
}
330
2B8
100
DictionaryVariables
280
     0
  1
STANDARD
  0
DICTIONARYVAR
  5
2BC
102
{ACAD_REACTORS
330
2B8
102
}
330
2B8
100
DictionaryVariables
280
     0
  1
1
  0
DICTIONARYVAR
  5
2BB
102
{ACAD_REACTORS
330
2B8
102
}
330
2B8
100
DictionaryVariables
280
     0
  1
0
  0
DICTIONARYVAR
  5
2BA
102
{ACAD_REACTORS
330
2B8
102
}
330
2B8
100
DictionaryVariables
280
     0
  1
127
  0
DICTIONARY
  5
2C2
330
1C9
100
AcDbDictionary
280
     1
281
     1
  3
ACAD_XREC_ROUNDTRIP
360
2C3
  0
DICTIONARY
  5
2C0
330
1C8
100
AcDbDictionary
280
     1
281
     1
  3
ACAD_XREC_ROUNDTRIP
360
2C1
  0
DICTIONARY
  5
2C6
330
228
100
AcDbDictionary
280
     1
281
     1
  3
ACAD_XREC_ROUNDTRIP
360
2C7
  0
DICTIONARY
  5
2C4
330
227
100
AcDbDictionary
280
     1
281
     1
  3
ACAD_XREC_ROUNDTRIP
360
2C5
  0
DICTIONARY
  5
2C8
330
229
100
AcDbDictionary
280
     1
281
     1
  3
ACAD_XREC_ROUNDTRIP
360
2C9
  0
DICTIONARY
  5
2CA
330
23D
100
AcDbDictionary
280
     1
281
     1
  3
ACAD_XREC_ROUNDTRIP
360
2CB
  0
XRECORD
  5
2C3
102
{ACAD_REACTORS
330
2C2
102
}
330
2C2
100
AcDbXrecord
280
     1
102
SHADEPLOT
 70
     0
102
SHADEPLOTRESLEVEL
 70
     2
102
SHADEPLOTCUSTOMDPI
 70
   300
  0
XRECORD
  5
2C1
102
{ACAD_REACTORS
330
2C0
102
}
330
2C0
100
AcDbXrecord
280
     1
102
SHADEPLOT
 70
     0
102
SHADEPLOTRESLEVEL
 70
     2
102
SHADEPLOTCUSTOMDPI
 70
   300
  0
XRECORD
  5
2C7
102
{ACAD_REACTORS
330
2C6
102
}
330
2C6
100
AcDbXrecord
280
     1
102
MATERIAL
148
0.0
149
0.0
149
0.0
 93
        0
 94
       63
282
     0
 72
     1
 77
     1
171
     1
175
     1
179
     1
273
     0
  0
XRECORD
  5
2C5
102
{ACAD_REACTORS
330
2C4
102
}
330
2C4
100
AcDbXrecord
280
     1
102
MATERIAL
148
0.0
149
0.0
149
0.0
 93
        0
 94
       63
282
     0
 72
     1
 77
     1
171
     1
175
     1
179
     1
273
     0
  0
XRECORD
  5
2C9
102
{ACAD_REACTORS
330
2C8
102
}
330
2C8
100
AcDbXrecord
280
     1
102
MATERIAL
148
0.0
149
0.0
149
0.0
 93
        0
 94
       63
282
     0
 72
     1
 77
     1
171
     1
175
     1
179
     1
273
     0
  0
XRECORD
  5
2CB
102
{ACAD_REACTORS
330
2CA
102
}
330
2CA
100
AcDbXrecord
280
     1
102
ACAD_ROUNDTRIP_PRE2007_TABLESTYLE
 90
      512
 91
        0
  1

 92
      512
 93
        0
  2

 94
      512
 95
        0
  3

  0
ENDSEC
  0
EOF
