  0
SECTION
  2
HEADER
  9
$ACADVER
  1
AC1015
  9
$ACADMAINTVER
 70
    20
  9
$DWGCODEPAGE
  3
ANSI_1252
  9
$INSBASE
 10
0.0
 20
0.0
 30
0.0
  9
$EXTMIN
 10
3.287659673122334
 20
37.94526745931398
 30
-0.0000610304997082
  9
$EXTMAX
 10
275.7531746380883
 20
151.7402806737696
 30
0.000091555062788
  9
$LIMMIN
 10
0.0
 20
0.0
  9
$LIMMAX
 10
420.0
 20
297.0
  9
$ORTHOMODE
 70
     0
  9
$REGENMODE
 70
     1
  9
$FILLMODE
 70
     1
  9
$QTEXTMODE
 70
     0
  9
$MIRRTEXT
 70
     1
  9
$LTSCALE
 40
1.0
  9
$ATTMODE
 70
     1
  9
$TEXTSIZE
 40
2.5
  9
$TRACEWID
 40
1.0
  9
$TEXTSTYLE
  7
STANDARD
  9
$CLAYER
  8
0
  9
$CELTYPE
  6
BYLAYER
  9
$CECOLOR
 62
   256
  9
$CELTSCALE
 40
1.0
  9
$DISPSILH
 70
     0
  9
$DIMSCALE
 40
1.0
  9
$DIMASZ
 40
2.0
  9
$DIMEXO
 40
2.0
  9
$DIMDLI
 40
0.0
  9
$DIMRND
 40
0.0
  9
$DIMDLE
 40
1.0
  9
$DIMEXE
 40
1.0
  9
$DIMTP
 40
0.0
  9
$DIMTM
 40
0.0
  9
$DIMTXT
 40
3.5
  9
$DIMCEN
 40
0.0
  9
$DIMTSZ
 40
0.0
  9
$DIMTOL
 70
     0
  9
$DIMLIM
 70
     0
  9
$DIMTIH
 70
     0
  9
$DIMTOH
 70
     0
  9
$DIMSE1
 70
     0
  9
$DIMSE2
 70
     0
  9
$DIMTAD
 70
     1
  9
$DIMZIN
 70
     8
  9
$DIMBLK
  1

  9
$DIMASO
 70
     1
  9
$DIMSHO
 70
     1
  9
$DIMPOST
  1

  9
$DIMAPOST
  1

  9
$DIMALT
 70
     1
  9
$DIMALTD
 70
     5
  9
$DIMALTF
 40
0.039370078740157
  9
$DIMLFAC
 40
1.0
  9
$DIMTOFL
 70
     1
  9
$DIMTVP
 40
0.0
  9
$DIMTIX
 70
     0
  9
$DIMSOXD
 70
     0
  9
$DIMSAH
 70
     1
  9
$DIMBLK1
  1
Oblique
  9
$DIMBLK2
  1
Oblique
  9
$DIMSTYLE
  2
HAWA-Strich
  9
$DIMCLRD
 70
   256
  9
$DIMCLRE
 70
   256
  9
$DIMCLRT
 70
   256
  9
$DIMTFAC
 40
0.7114285714285719
  9
$DIMGAP
 40
1.0
  9
$DIMJUST
 70
     0
  9
$DIMSD1
 70
     0
  9
$DIMSD2
 70
     0
  9
$DIMTOLJ
 70
     1
  9
$DIMTZIN
 70
     8
  9
$DIMALTZ
 70
     8
  9
$DIMALTTZ
 70
     8
  9
$DIMUPT
 70
     0
  9
$DIMDEC
 70
     1
  9
$DIMTDEC
 70
     1
  9
$DIMALTU
 70
     4
  9
$DIMALTTD
 70
     5
  9
$DIMTXSTY
  7
Beschlag
  9
$DIMAUNIT
 70
     0
  9
$DIMADEC
 70
     1
  9
$DIMALTRND
 40
0.0
  9
$DIMAZIN
 70
     2
  9
$DIMDSEP
 70
    46
  9
$DIMATFIT
 70
     3
  9
$DIMFRAC
 70
     0
  9
$DIMLDRBLK
  1
Oblique
  9
$DIMLUNIT
 70
     2
  9
$DIMLWD
 70
    -2
  9
$DIMLWE
 70
    -2
  9
$DIMTMOVE
 70
     0
  9
$LUNITS
 70
     2
  9
$LUPREC
 70
     4
  9
$SKETCHINC
 40
1.0
  9
$FILLETRAD
 40
2.5
  9
$AUNITS
 70
     0
  9
$AUPREC
 70
     0
  9
$MENU
  1
.
  9
$ELEVATION
 40
0.0
  9
$PELEVATION
 40
0.0
  9
$THICKNESS
 40
0.0
  9
$LIMCHECK
 70
     0
  9
$CHAMFERA
 40
2.5
  9
$CHAMFERB
 40
2.5
  9
$CHAMFERC
 40
0.0
  9
$CHAMFERD
 40
0.0
  9
$SKPOLY
 70
     0
  9
$TDCREATE
 40
2447893.000000000
  9
$TDUCREATE
 40
2447892.916666666
  9
$TDUPDATE
 40
2455790.550452141
  9
$TDUUPDATE
 40
2455790.467118808
  9
$TDINDWG
 40
0.0714940972
  9
$TDUSRTIMER
 40
0.0714934375
  9
$USRTIMER
 70
     1
  9
$ANGBASE
 50
0.0
  9
$ANGDIR
 70
     0
  9
$PDMODE
 70
     0
  9
$PDSIZE
 40
0.0
  9
$PLINEWID
 40
0.0
  9
$SPLFRAME
 70
     0
  9
$SPLINETYPE
 70
     6
  9
$SPLINESEGS
 70
     8
  9
$HANDSEED
  5
830
  9
$SURFTAB1
 70
     6
  9
$SURFTAB2
 70
     6
  9
$SURFTYPE
 70
     6
  9
$SURFU
 70
     6
  9
$SURFV
 70
     6
  9
$UCSBASE
  2

  9
$UCSNAME
  2

  9
$UCSORG
 10
0.0
 20
0.0
 30
0.0
  9
$UCSXDIR
 10
1.0
 20
0.0
 30
0.0
  9
$UCSYDIR
 10
0.0
 20
1.0
 30
0.0
  9
$UCSORTHOREF
  2

  9
$UCSORTHOVIEW
 70
     0
  9
$UCSORGTOP
 10
0.0
 20
0.0
 30
0.0
  9
$UCSORGBOTTOM
 10
0.0
 20
0.0
 30
0.0
  9
$UCSORGLEFT
 10
0.0
 20
0.0
 30
0.0
  9
$UCSORGRIGHT
 10
0.0
 20
0.0
 30
0.0
  9
$UCSORGFRONT
 10
0.0
 20
0.0
 30
0.0
  9
$UCSORGBACK
 10
0.0
 20
0.0
 30
0.0
  9
$PUCSBASE
  2

  9
$PUCSNAME
  2

  9
$PUCSORG
 10
0.0
 20
0.0
 30
0.0
  9
$PUCSXDIR
 10
1.0
 20
0.0
 30
0.0
  9
$PUCSYDIR
 10
0.0
 20
1.0
 30
0.0
  9
$PUCSORTHOREF
  2

  9
$PUCSORTHOVIEW
 70
     0
  9
$PUCSORGTOP
 10
0.0
 20
0.0
 30
0.0
  9
$PUCSORGBOTTOM
 10
0.0
 20
0.0
 30
0.0
  9
$PUCSORGLEFT
 10
0.0
 20
0.0
 30
0.0
  9
$PUCSORGRIGHT
 10
0.0
 20
0.0
 30
0.0
  9
$PUCSORGFRONT
 10
0.0
 20
0.0
 30
0.0
  9
$PUCSORGBACK
 10
0.0
 20
0.0
 30
0.0
  9
$USERI1
 70
     0
  9
$USERI2
 70
     0
  9
$USERI3
 70
     0
  9
$USERI4
 70
     0
  9
$USERI5
 70
     0
  9
$USERR1
 40
0.0
  9
$USERR2
 40
0.0
  9
$USERR3
 40
0.0
  9
$USERR4
 40
0.0
  9
$USERR5
 40
0.0
  9
$WORLDVIEW
 70
     1
  9
$SHADEDGE
 70
     3
  9
$SHADEDIF
 70
    70
  9
$TILEMODE
 70
     1
  9
$MAXACTVP
 70
    48
  9
$PINSBASE
 10
0.0
 20
0.0
 30
0.0
  9
$PLIMCHECK
 70
     0
  9
$PEXTMIN
 10
0.0
 20
0.0
 30
0.0
  9
$PEXTMAX
 10
168.075607
 20
203.970047
 30
2.0
  9
$PLIMMIN
 10
0.0
 20
0.0
  9
$PLIMMAX
 10
420.0
 20
297.0
  9
$UNITMODE
 70
     0
  9
$VISRETAIN
 70
     0
  9
$PLINEGEN
 70
     0
  9
$PSLTSCALE
 70
     1
  9
$TREEDEPTH
 70
  3020
  9
$CMLSTYLE
  2
STANDARD
  9
$CMLJUST
 70
     0
  9
$CMLSCALE
 40
20.0
  9
$PROXYGRAPHICS
 70
     1
  9
$MEASUREMENT
 70
     1
  9
$CELWEIGHT
370
    -1
  9
$ENDCAPS
280
     0
  9
$JOINSTYLE
280
     0
  9
$LWDISPLAY
290
     0
  9
$INSUNITS
 70
     0
  9
$HYPERLINKBASE
  1

  9
$STYLESHEET
  1

  9
$XEDIT
290
     1
  9
$CEPSNTYPE
380
     0
  9
$PSTYLEMODE
290
     1
  9
$FINGERPRINTGUID
  2
{53B2B697-D52D-4802-9DD4-7EDB6C4CCDDD}
  9
$VERSIONGUID
  2
{5D87A02E-B140-464C-BC29-992E43C47B6B}
  9
$EXTNAMES
290
     1
  9
$PSVPSCALE
 40
0.0
  9
$OLESTARTUP
290
     0
  0
ENDSEC
  0
SECTION
  2
CLASSES
  0
CLASS
  1
LWPOLYLINE
  2
AcDbPolyline
  3
ObjectDBX Classes
 90
        0
280
     0
281
     1
  0
CLASS
  1
IMAGE
  2
AcDbRasterImage
  3
ISM
 90
    34943
280
     0
281
     1
  0
CLASS
  1
OLE2FRAME
  2
AcDbOle2Frame
  3
ObjectDBX Classes
 90
    32768
280
     0
281
     1
  0
CLASS
  1
HATCH
  2
AcDbHatch
  3
ObjectDBX Classes
 90
    32768
280
     0
281
     1
  0
CLASS
  1
DICTIONARYVAR
  2
AcDbDictionaryVar
  3
ObjectDBX Classes
 90
        0
280
     0
281
     0
  0
CLASS
  1
RASTERVARIABLES
  2
AcDbRasterVariables
  3
ISM
 90
    32768
280
     0
281
     0
  0
CLASS
  1
IMAGEDEF
  2
AcDbRasterImageDef
  3
ISM
 90
    32768
280
     0
281
     0
  0
CLASS
  1
IMAGEDEF_REACTOR
  2
AcDbRasterImageDefReactor
  3
ISM
 90
    32769
280
     0
281
     0
  0
CLASS
  1
IDBUFFER
  2
AcDbIdBuffer
  3
ObjectDBX Classes
 90
    32768
280
     0
281
     0
  0
CLASS
  1
SPATIAL_FILTER
  2
AcDbSpatialFilter
  3
ObjectDBX Classes
 90
    32768
280
     0
281
     0
  0
CLASS
  1
XRECORD
  2
AcDbXrecord
  3
ObjectDBX Classes
 90
        0
280
     0
281
     0
  0
CLASS
  1
SORTENTSTABLE
  2
AcDbSortentsTable
  3
ObjectDBX Classes
 90
    32768
280
     0
281
     0
  0
CLASS
  1
LAYER_INDEX
  2
AcDbLayerIndex
  3
ObjectDBX Classes
 90
    32768
280
     0
281
     0
  0
CLASS
  1
SPATIAL_INDEX
  2
AcDbSpatialIndex
  3
ObjectDBX Classes
 90
    32768
280
     0
281
     0
  0
CLASS
  1
OBJECT_PTR
  2
CAseDLPNTableRecord
  3
ASE-LPNTableRecord
 90
    32769
280
     0
281
     0
  0
CLASS
  1
LAYOUT
  2
AcDbLayout
  3
ObjectDBX Classes
 90
        0
280
     0
281
     0
  0
CLASS
  1
PLOTSETTINGS
  2
AcDbPlotSettings
  3
ObjectDBX Classes
 90
    32768
280
     0
281
     0
  0
CLASS
  1
ACDBDICTIONARYWDFLT
  2
AcDbDictionaryWithDefault
  3
ObjectDBX Classes
 90
        0
280
     0
281
     0
  0
CLASS
  1
ACDBPLACEHOLDER
  2
AcDbPlaceHolder
  3
ObjectDBX Classes
 90
        0
280
     0
281
     0
  0
CLASS
  1
VBA_PROJECT
  2
AcDbVbaProject
  3
acad
 90
    32768
280
     0
281
     0
  0
CLASS
  1
WIPEOUT
  2
AcDbWipeout
  3
"WipeOut|Product Desc: Object Enabler for WipeOut entity                        |Company: Autodesk, Inc.                        |WEB Address: www.autodesk.com"
 90
    34943
280
     0
281
     1
  0
CLASS
  1
WIPEOUTVARIABLES
  2
AcDbWipeoutVariables
  3
"WipeOut|Product Desc:     WipeOut Dbx Application|Company:          Autodesk, Inc.|WEB Address:      www.autodesk.com"
 90
    32768
280
     0
281
     0
  0
CLASS
  1
RTEXT
  2
RText
  3
RText|AutoCAD Express Tool|expresstools@autodesk.com
 90
    32768
280
     0
281
     1
  0
CLASS
  1
ARCALIGNEDTEXT
  2
AcDbArcAlignedText
  3
ATEXT|AutoCAD Express Tool|expresstools@autodesk.com
 90
    32768
280
     0
281
     1
  0
CLASS
  1
SCALE
  2
AcDbScale
  3
ObjectDBX Classes
 90
     1153
280
     0
281
     0
  0
CLASS
  1
MATERIAL
  2
AcDbMaterial
  3
ObjectDBX Classes
 90
     1024
280
     0
281
     0
  0
CLASS
  1
VISUALSTYLE
  2
AcDbVisualStyle
  3
ObjectDBX Classes
 90
     4095
280
     0
281
     0
  0
CLASS
  1
TABLESTYLE
  2
AcDbTableStyle
  3
ObjectDBX Classes
 90
     4095
280
     0
281
     0
  0
ENDSEC
  0
SECTION
  2
TABLES
  0
TABLE
  2
VPORT
  5
7
330
0
100
AcDbSymbolTable
 70
     1
  0
VPORT
  5
15
330
7
100
AcDbSymbolTableRecord
100
AcDbViewportTableRecord
  2
*ACTIVE
 70
     0
 10
0.0
 20
0.0
 11
1.0
 21
1.0
 12
139.5204171556052
 22
94.84277406654179
 13
0.0
 23
0.0
 14
1.0
 24
1.0
 15
0.0
 25
0.0
 16
0.0
 26
0.0
 36
1.0
 17
0.0
 27
0.0
 37
0.0
 40
139.4618599262112
 41
1.960129310344827
 42
50.0
 43
0.0
 44
0.0
 50
0.0
 51
0.0
 71
     0
 72
   100
 73
     1
 74
     1
 75
     0
 76
     0
 77
     0
 78
     0
281
     0
 65
     1
110
0.0
120
0.0
130
0.0
111
1.0
121
0.0
131
0.0
112
0.0
122
1.0
132
0.0
 79
     0
146
0.0
  0
ENDTAB
  0
TABLE
  2
LTYPE
  5
4
330
0
100
AcDbSymbolTable
 70
     3
  0
LTYPE
  5
11
330
4
100
AcDbSymbolTableRecord
100
AcDbLinetypeTableRecord
  2
BYBLOCK
 70
     0
  3

 72
    65
 73
     0
 40
0.0
  0
LTYPE
  5
12
330
4
100
AcDbSymbolTableRecord
100
AcDbLinetypeTableRecord
  2
BYLAYER
 70
     0
  3

 72
    65
 73
     0
 40
0.0
  0
LTYPE
  5
13
330
4
100
AcDbSymbolTableRecord
100
AcDbLinetypeTableRecord
  2
CONTINUOUS
 70
     0
  3
Solid line
 72
    65
 73
     0
 40
0.0
  0
LTYPE
  5
1D
330
4
100
AcDbSymbolTableRecord
100
AcDbLinetypeTableRecord
  2
DASHDOT
 70
     0
  3
 __ . __ . __ . __ . __ . __ . __ . 
 72
    65
 73
     4
 40
18.5
 49
12.0
 74
     0
 49
-3.0
 74
     0
 49
0.5
 74
     0
 49
-3.0
 74
     0
  0
LTYPE
  5
1E
330
4
100
AcDbSymbolTableRecord
100
AcDbLinetypeTableRecord
  2
PHANTOM
 70
     0
  3
____________    ____    ____   _
 72
    65
 73
     6
 40
20.0
 49
10.0
 74
     0
 49
-2.0
 74
     0
 49
2.0
 74
     0
 49
-2.0
 74
     0
 49
2.0
 74
     0
 49
-2.0
 74
     0
  0
ENDTAB
  0
TABLE
  2
LAYER
  5
2
330
0
100
AcDbSymbolTable
 70
     7
  0
LAYER
  5
14
330
2
100
AcDbSymbolTableRecord
100
AcDbLayerTableRecord
  2
0
 70
     0
 62
     7
  6
CONTINUOUS
370
    -3
390
4FC
  0
LAYER
  5
4ED
330
2
100
AcDbSymbolTableRecord
100
AcDbLayerTableRecord
  2
Hawa1
 70
     0
 62
     2
  6
CONTINUOUS
370
     0
390
4FC
  0
LAYER
  5
4EE
330
2
100
AcDbSymbolTableRecord
100
AcDbLayerTableRecord
  2
Hawa2
 70
     0
 62
     9
  6
CONTINUOUS
370
     0
390
4FC
  0
LAYER
  5
4EF
330
2
100
AcDbSymbolTableRecord
100
AcDbLayerTableRecord
  2
Hawa4
 70
     0
 62
     4
  6
CONTINUOUS
370
     0
390
4FC
  0
LAYER
  5
4F0
330
2
100
AcDbSymbolTableRecord
100
AcDbLayerTableRecord
  2
Hawa5
 70
     0
 62
     1
  6
CONTINUOUS
370
    -3
390
4FC
  0
LAYER
  5
4F1
330
2
100
AcDbSymbolTableRecord
100
AcDbLayerTableRecord
  2
Hawa6
 70
     0
 62
     3
  6
CONTINUOUS
370
    -3
390
4FC
  0
LAYER
  5
518
330
2
100
AcDbSymbolTableRecord
100
AcDbLayerTableRecord
  2
Defpoints
 70
     0
 62
     7
  6
CONTINUOUS
290
     0
370
    -3
390
4FC
  0
ENDTAB
  0
TABLE
  2
STYLE
  5
3
330
0
100
AcDbSymbolTable
 70
     3
  0
STYLE
  5
17
330
3
100
AcDbSymbolTableRecord
100
AcDbTextStyleTableRecord
  2
STANDARD
 70
     0
 40
0.0
 41
1.0
 50
0.0
 71
     0
 42
2.5
  3
isocp.shx
  4

  0
STYLE
  5
1F
330
3
100
AcDbSymbolTableRecord
100
AcDbTextStyleTableRecord
  2
GDT
 70
     0
 40
0.0
 41
1.0
 50
0.0
 71
     0
 42
2.5
  3
gdt.shx
  4

  0
STYLE
  5
51A
330
3
100
AcDbSymbolTableRecord
100
AcDbTextStyleTableRecord
  2
Beschlag
 70
     0
 40
0.0
 41
0.9
 50
0.0
 71
     0
 42
3.5
  3
arial.ttf
  4

1001
ACAD
1000
Arial
1071
       34
  0
ENDTAB
  0
TABLE
  2
VIEW
  5
5
330
0
100
AcDbSymbolTable
 70
     0
  0
ENDTAB
  0
TABLE
  2
UCS
  5
6
330
0
100
AcDbSymbolTable
 70
     0
  0
ENDTAB
  0
TABLE
  2
APPID
  5
8
330
0
100
AcDbSymbolTable
 70
     1
  0
APPID
  5
16
330
8
100
AcDbSymbolTableRecord
100
AcDbRegAppTableRecord
  2
ACAD
 70
     0
  0
ENDTAB
  0
TABLE
  2
DIMSTYLE
  5
9
330
0
100
AcDbSymbolTable
 70
     2
100
AcDbDimStyleTable
 71
     2
340
519
340
18
  0
DIMSTYLE
105
18
330
9
100
AcDbSymbolTableRecord
100
AcDbDimStyleTableRecord
  2
STANDARD
 70
     0
 41
2.5
 42
0.625
 43
3.75
 44
1.25
 73
     0
 74
     0
 77
     1
 78
     8
140
2.5
141
2.5
143
0.03937
147
0.625
171
     3
172
     1
271
     2
272
     2
274
     3
283
     0
284
     8
289
     0
340
17
  0
DIMSTYLE
105
519
102
{ACAD_REACTORS
330
41
330
3F
330
3D
330
3B
330
39
330
37
330
35
330
33
330
31
330
2F
330
2D
330
2B
330
29
330
27
330
25
330
23
330
21
102
}
330
9
100
AcDbSymbolTableRecord
100
AcDbDimStyleTableRecord
  2
HAWA-Strich
 70
     0
 41
2.0
 42
2.0
 43
0.0
 44
1.0
 46
1.0
 73
     0
 74
     0
 77
     1
 78
     8
 79
     2
140
3.5
141
0.0
143
0.039370078740157
146
0.7114285714285719
147
1.0
170
     1
171
     5
172
     1
173
     1
176
   256
177
   256
178
   256
179
     1
271
     1
272
     1
273
     4
274
     5
284
     8
285
     8
286
     8
340
51A
341
51B
343
51B
344
51B
  0
ENDTAB
  0
TABLE
  2
BLOCK_RECORD
  5
1
330
0
100
AcDbSymbolTable
 70
    36
  0
BLOCK_RECORD
  5
A
330
1
100
AcDbSymbolTableRecord
100
AcDbBlockTableRecord
  2
*MODEL_SPACE
340
438
  0
BLOCK_RECORD
  5
B
330
1
100
AcDbSymbolTableRecord
100
AcDbBlockTableRecord
  2
*PAPER_SPACE
340
439
  0
BLOCK_RECORD
  5
20
330
1
100
AcDbSymbolTableRecord
100
AcDbBlockTableRecord
  2
*D0
340
0
  0
BLOCK_RECORD
  5
22
330
1
100
AcDbSymbolTableRecord
100
AcDbBlockTableRecord
  2
*D1
340
0
  0
BLOCK_RECORD
  5
24
330
1
100
AcDbSymbolTableRecord
100
AcDbBlockTableRecord
  2
*D2
340
0
  0
BLOCK_RECORD
  5
26
330
1
100
AcDbSymbolTableRecord
100
AcDbBlockTableRecord
  2
*D3
340
0
  0
BLOCK_RECORD
  5
28
330
1
100
AcDbSymbolTableRecord
100
AcDbBlockTableRecord
  2
*D4
340
0
  0
BLOCK_RECORD
  5
2A
330
1
100
AcDbSymbolTableRecord
100
AcDbBlockTableRecord
  2
*D5
340
0
  0
BLOCK_RECORD
  5
2C
330
1
100
AcDbSymbolTableRecord
100
AcDbBlockTableRecord
  2
*D6
340
0
  0
BLOCK_RECORD
  5
2E
330
1
100
AcDbSymbolTableRecord
100
AcDbBlockTableRecord
  2
*D7
340
0
  0
BLOCK_RECORD
  5
30
330
1
100
AcDbSymbolTableRecord
100
AcDbBlockTableRecord
  2
*D8
340
0
  0
BLOCK_RECORD
  5
32
330
1
100
AcDbSymbolTableRecord
100
AcDbBlockTableRecord
  2
*D9
340
0
  0
BLOCK_RECORD
  5
34
330
1
100
AcDbSymbolTableRecord
100
AcDbBlockTableRecord
  2
*D10
340
0
  0
BLOCK_RECORD
  5
36
330
1
100
AcDbSymbolTableRecord
100
AcDbBlockTableRecord
  2
*D11
340
0
  0
BLOCK_RECORD
  5
38
330
1
100
AcDbSymbolTableRecord
100
AcDbBlockTableRecord
  2
*D12
340
0
  0
BLOCK_RECORD
  5
3A
330
1
100
AcDbSymbolTableRecord
100
AcDbBlockTableRecord
  2
*D13
340
0
  0
BLOCK_RECORD
  5
3C
330
1
100
AcDbSymbolTableRecord
100
AcDbBlockTableRecord
  2
*D14
340
0
  0
BLOCK_RECORD
  5
3E
330
1
100
AcDbSymbolTableRecord
100
AcDbBlockTableRecord
  2
*D15
340
0
  0
BLOCK_RECORD
  5
40
330
1
100
AcDbSymbolTableRecord
100
AcDbBlockTableRecord
  2
*D16
340
0
  0
BLOCK_RECORD
  5
281
330
1
100
AcDbSymbolTableRecord
100
AcDbBlockTableRecord
  2
BLOCK1
340
0
  0
BLOCK_RECORD
  5
282
330
1
100
AcDbSymbolTableRecord
100
AcDbBlockTableRecord
  2
BLOCK2
340
0
  0
BLOCK_RECORD
  5
283
330
1
100
AcDbSymbolTableRecord
100
AcDbBlockTableRecord
  2
BLOCK3
340
0
  0
BLOCK_RECORD
  5
284
330
1
100
AcDbSymbolTableRecord
100
AcDbBlockTableRecord
  2
BLOCK4
340
0
  0
BLOCK_RECORD
  5
285
330
1
100
AcDbSymbolTableRecord
100
AcDbBlockTableRecord
  2
BLOCK5
340
0
  0
BLOCK_RECORD
  5
286
330
1
100
AcDbSymbolTableRecord
100
AcDbBlockTableRecord
  2
BLOCK6
340
0
  0
BLOCK_RECORD
  5
287
330
1
100
AcDbSymbolTableRecord
100
AcDbBlockTableRecord
  2
BLOCK7
340
0
  0
BLOCK_RECORD
  5
288
330
1
100
AcDbSymbolTableRecord
100
AcDbBlockTableRecord
  2
BLOCK8
340
0
  0
BLOCK_RECORD
  5
289
330
1
100
AcDbSymbolTableRecord
100
AcDbBlockTableRecord
  2
BLOCK9
340
0
  0
BLOCK_RECORD
  5
28A
330
1
100
AcDbSymbolTableRecord
100
AcDbBlockTableRecord
  2
BLOCK10
340
0
  0
BLOCK_RECORD
  5
28B
330
1
100
AcDbSymbolTableRecord
100
AcDbBlockTableRecord
  2
BLOCK11
340
0
  0
BLOCK_RECORD
  5
28C
330
1
100
AcDbSymbolTableRecord
100
AcDbBlockTableRecord
  2
BLOCK12
340
0
  0
BLOCK_RECORD
  5
28D
330
1
100
AcDbSymbolTableRecord
100
AcDbBlockTableRecord
  2
BLOCK13
340
0
  0
BLOCK_RECORD
  5
28E
330
1
100
AcDbSymbolTableRecord
100
AcDbBlockTableRecord
  2
BLOCK14
340
0
  0
BLOCK_RECORD
  5
28F
330
1
100
AcDbSymbolTableRecord
100
AcDbBlockTableRecord
  2
BLOCK15
340
0
  0
BLOCK_RECORD
  5
290
330
1
100
AcDbSymbolTableRecord
100
AcDbBlockTableRecord
  2
BLOCK16
340
0
  0
BLOCK_RECORD
  5
291
330
1
100
AcDbSymbolTableRecord
100
AcDbBlockTableRecord
  2
BLOCK17
340
0
  0
BLOCK_RECORD
  5
292
330
1
100
AcDbSymbolTableRecord
100
AcDbBlockTableRecord
  2
BLOCK18
340
0
  0
BLOCK_RECORD
  5
51B
330
1
100
AcDbSymbolTableRecord
100
AcDbBlockTableRecord
  2
_Oblique
340
0
310
2800000020000000200000000100080000000000000400000000000000000000000000000000000000000000000080000080000000808000800000008000800080800000C0C0C000C0DCC000F0CAA6000020400000206000002080000020A0000020C0000020E00000400000004020000040400000406000004080000040A0
310
000040C0000040E00000600000006020000060400000606000006080000060A0000060C0000060E00000800000008020000080400000806000008080000080A0000080C0000080E00000A0000000A0200000A0400000A0600000A0800000A0A00000A0C00000A0E00000C0000000C0200000C0400000C0600000C0800000C0
310
A00000C0C00000C0E00000E0000000E0200000E0400000E0600000E0800000E0A00000E0C00000E0E00040000000400020004000400040006000400080004000A0004000C0004000E00040200000402020004020400040206000402080004020A0004020C0004020E000404000004040200040404000404060004040800040
310
40A0004040C0004040E00040600000406020004060400040606000406080004060A0004060C0004060E00040800000408020004080400040806000408080004080A0004080C0004080E00040A0000040A0200040A0400040A0600040A0800040A0A00040A0C00040A0E00040C0000040C0200040C0400040C0600040C08000
310
40C0A00040C0C00040C0E00040E0000040E0200040E0400040E0600040E0800040E0A00040E0C00040E0E00080000000800020008000400080006000800080008000A0008000C0008000E00080200000802020008020400080206000802080008020A0008020C0008020E00080400000804020008040400080406000804080
310
008040A0008040C0008040E00080600000806020008060400080606000806080008060A0008060C0008060E00080800000808020008080400080806000808080008080A0008080C0008080E00080A0000080A0200080A0400080A0600080A0800080A0A00080A0C00080A0E00080C0000080C0200080C0400080C0600080C0
310
800080C0A00080C0C00080C0E00080E0000080E0200080E0400080E0600080E0800080E0A00080E0C00080E0E000C0000000C0002000C0004000C0006000C0008000C000A000C000C000C000E000C0200000C0202000C0204000C0206000C0208000C020A000C020C000C020E000C0400000C0402000C0404000C0406000C0
310
408000C040A000C040C000C040E000C0600000C0602000C0604000C0606000C0608000C060A000C060C000C060E000C0800000C0802000C0804000C0806000C0808000C080A000C080C000C080E000C0A00000C0A02000C0A04000C0A06000C0A08000C0A0A000C0A0C000C0A0E000C0C00000C0C02000C0C04000C0C06000
310
C0C08000C0C0A000F0FBFF00A4A0A000808080000000FF0000FF000000FFFF00FF000000FF00FF00FFFF0000FFFFFF00000000000000000000000000000000000000000000000000000000000000000000FF0000000000000000000000000000000000000000000000000000000000000000FF000000000000000000000000
310
0000000000000000000000000000000000000000FF0000000000000000000000000000000000000000000000000000000000000000FF0000000000000000000000000000000000000000000000000000000000000000FF0000000000000000000000000000000000000000000000000000000000000000FF00000000000000
310
00000000000000000000000000000000000000000000000000FF0000000000000000000000000000000000000000000000000000000000000000FF0000000000000000000000000000000000000000000000000000000000000000FF0000000000000000000000000000000000000000000000000000000000000000FF0000
310
000000000000000000000000000000000000000000000000000000000000FF0000000000000000000000000000000000000000000000000000000000000000FF0000000000000000000000000000000000000000000000000000000000000000FF000000000000000000000000000000000000000000000000000000000000
310
0000FF0000000000000000000000000000000000000000000000000000000000000000FF0000000000000000000000000000000000000000000000000000000000000000FF0000000000000000000000000000000000000000000000000000000000000000FF00000000000000000000000000000000000000000000000000
310
00000000000000FF0000000000000000000000000000000000000000000000000000000000000000FF0000000000000000000000000000000000000000000000000000000000000000FF0000000000000000000000000000000000000000000000000000000000000000FF0000000000000000000000000000000000000000
310
000000000000000000000000FF0000000000000000000000000000000000000000000000000000000000000000FF0000000000000000000000000000000000000000000000000000000000000000FF0000000000000000000000000000000000000000000000000000000000000000FF000000000000000000000000000000
310
0000000000000000000000000000000000FF0000000000000000000000000000000000000000000000000000000000000000FF0000000000000000000000000000000000000000000000000000000000000000FF0000000000000000000000000000000000000000000000000000000000000000FF00000000000000000000
310
00000000000000000000000000000000000000000000FF000000000000000000000000000000000000000000000000000000000000000000
102
{BLKREFS
331
5C9
331
5CA
331
5E5
331
5E6
331
61F
331
620
331
643
331
644
331
64C
331
64D
331
656
331
657
331
660
331
661
331
67E
331
67F
331
6A6
331
6A7
331
6B0
331
6B1
331
6BA
331
6BB
331
6C3
331
6C4
331
7DF
331
7E0
331
7E9
331
7EA
331
7F3
331
7F4
331
811
331
812
331
81B
331
81C
102
}
  0
ENDTAB
  0
ENDSEC
  0
SECTION
  2
BLOCKS
  0
BLOCK
  5
D
330
A
100
AcDbEntity
  8
0
100
AcDbBlockBegin
  2
*MODEL_SPACE
 70
     0
 10
0.0
 20
0.0
 30
0.0
  3
*MODEL_SPACE
  1

  0
ENDBLK
  5
E
330
A
100
AcDbEntity
  8
0
100
AcDbBlockEnd
  0
BLOCK
  5
F
330
B
100
AcDbEntity
 67
     1
  8
0
100
AcDbBlockBegin
  2
*PAPER_SPACE
 70
     0
 10
0.0
 20
0.0
 30
0.0
  3
*PAPER_SPACE
  1

  0
ENDBLK
  5
10
330
B
100
AcDbEntity
 67
     1
  8
0
100
AcDbBlockEnd
  0
BLOCK
  5
293
330
20
100
AcDbEntity
  8
Hawa1
100
AcDbBlockBegin
  2
*D0
 70
     1
 10
0.0
 20
0.0
 30
0.0
  3
*D0
  1

  0
LINE
  5
65C
330
20
100
AcDbEntity
  8
Hawa1
370
    -2
100
AcDbLine
 10
259.2386466991178
 20
109.3712410002772
 30
0.0
 11
259.2384718662922
 21
98.87104914342479
 31
0.0
  0
LINE
  5
65D
330
20
100
AcDbEntity
  8
Hawa1
370
    -2
100
AcDbLine
 10
256.7387133008821
 20
88.07540399972277
 30
0.0
 11
256.7389263547105
 21
100.8710907622372
 31
0.0
  0
LINE
  5
65E
330
20
100
AcDbEntity
  8
Hawa1
370
    -2
100
AcDbLine
 10
260.2384885165947
 20
99.8710324928451
 30
0.0
 11
256.7389097042694
 21
99.87109076237587
 31
0.0
  0
LINE
  5
65F
330
20
100
AcDbEntity
  8
Hawa1
370
    -2
100
AcDbLine
 10
256.7389097042694
 20
99.87109076237587
 30
0.0
 11
238.4707890071428
 21
99.87139493464292
 31
0.0
  0
INSERT
  5
660
330
20
100
AcDbEntity
  8
Hawa1
370
    -2
100
AcDbBlockReference
  2
_Oblique
 10
259.2384885167332
 20
99.87104914328618
 30
0.0
 41
2.0
 42
2.0
 43
2.0
 50
359.999046
  0
INSERT
  5
661
330
20
100
AcDbEntity
  8
Hawa1
370
    -2
100
AcDbBlockReference
  2
_Oblique
 10
256.7389097042694
 20
99.87109076237587
 30
0.0
 41
2.0
 42
2.0
 43
2.0
 50
179.999046
  0
MTEXT
  5
662
330
20
100
AcDbEntity
  8
Hawa1
100
AcDbMText
 10
246.6049233703786
 20
104.316459098266
 30
0.0
 40
3.5
 41
0.0
 71
     5
 72
     1
  1
\A1;2.5 [{\H0.711429x;\S3/32;}"]
  7
Beschlag
 11
0.9999999998613814
 21
-0.0000166504410634
 31
0.0
 73
     1
 44
1.0
1001
ACAD
1000
MTEXTBEGIN
1070
    73
1070
     1
1070
    44
1040
1.0
1070
    74
1070
     0
1000
MTEXTEND
  0
POINT
  5
663
330
20
100
AcDbEntity
  8
Defpoints
 62
     0
100
AcDbPoint
 10
259.23868
 20
111.371241
 30
0.0
  0
POINT
  5
664
330
20
100
AcDbEntity
  8
Defpoints
 62
     0
100
AcDbPoint
 10
256.73868
 20
86.07540400000001
 30
0.0
  0
POINT
  5
665
330
20
100
AcDbEntity
  8
Defpoints
 62
     0
100
AcDbPoint
 10
256.7389097042694
 20
99.87109076237587
 30
0.0
  0
ENDBLK
  5
29E
330
20
100
AcDbEntity
  8
Hawa1
100
AcDbBlockEnd
  0
BLOCK
  5
29F
330
22
100
AcDbEntity
  8
Hawa1
100
AcDbBlockBegin
  2
*D1
 70
     1
 10
0.0
 20
0.0
 30
0.0
  3
*D1
  1

  0
LINE
  5
652
330
22
100
AcDbEntity
  8
Hawa1
370
    -2
100
AcDbLine
 10
245.2386133982357
 20
66.32540400110895
 30
0.0
 11
245.2382675331713
 21
55.93934086316107
 31
0.0
  0
LINE
  5
653
330
22
100
AcDbEntity
  8
Hawa1
370
    -2
100
AcDbLine
 10
259.2387466017643
 20
50.43963099889105
 30
0.0
 11
259.2389963331925
 21
57.93887462765037
 31
0.0
  0
LINE
  5
654
330
22
100
AcDbEntity
  8
Hawa1
370
    -2
100
AcDbLine
 10
244.2383008346079
 20
56.93937416348872
 30
0.0
 11
259.2389630323104
 21
56.93887462820485
 31
0.0
  0
LINE
  5
655
330
22
100
AcDbEntity
  8
Hawa1
370
    -2
100
AcDbLine
 10
259.2389630323104
 20
56.93887462820485
 30
0.0
 11
275.746208439017
 21
56.9383249223711
 31
0.0
  0
INSERT
  5
656
330
22
100
AcDbEntity
  8
Hawa1
370
    -2
100
AcDbBlockReference
  2
_Oblique
 10
245.2383008340534
 20
56.9393408626066
 30
0.0
 41
2.0
 42
2.0
 43
2.0
 50
179.998092
  0
INSERT
  5
657
330
22
100
AcDbEntity
  8
Hawa1
370
    -2
100
AcDbBlockReference
  2
_Oblique
 10
259.2389630323104
 20
56.93887462820485
 30
0.0
 41
2.0
 42
2.0
 43
2.0
 50
359.998092
  0
MTEXT
  5
658
330
22
100
AcDbEntity
  8
Hawa1
100
AcDbMText
 10
268.4927337076155
 20
61.38206757153276
 30
0.0
 40
3.5
 41
0.0
 71
     5
 72
     1
  1
\A1;14 [{\H0.711429x;\S9/16;}"]
  7
Beschlag
 11
0.9999999994455256
 21
-0.0000333008821221
 31
0.0
 73
     1
 44
1.0
1001
ACAD
1000
MTEXTBEGIN
1070
    73
1070
     1
1070
    44
1040
1.0
1070
    74
1070
     0
1000
MTEXTEND
  0
POINT
  5
659
330
22
100
AcDbEntity
  8
Defpoints
 62
     0
100
AcDbPoint
 10
245.23868
 20
68.325404
 30
0.0
  0
POINT
  5
65A
330
22
100
AcDbEntity
  8
Defpoints
 62
     0
100
AcDbPoint
 10
259.23868
 20
48.439631
 30
0.0
  0
POINT
  5
65B
330
22
100
AcDbEntity
  8
Defpoints
 62
     0
100
AcDbPoint
 10
259.2389630323104
 20
56.93887462820485
 30
0.0
  0
ENDBLK
  5
2AA
330
22
100
AcDbEntity
  8
Hawa1
100
AcDbBlockEnd
  0
BLOCK
  5
2AB
330
24
100
AcDbEntity
  8
Hawa1
100
AcDbBlockBegin
  2
*D2
 70
     1
 10
0.0
 20
0.0
 30
0.0
  3
*D2
  1

  0
LINE
  5
649
330
24
100
AcDbEntity
  8
Hawa1
370
    -2
100
AcDbLine
 10
32.71383800000001
 20
83.325404
 30
0.0
 11
10.74880400000001
 21
83.32540400000002
 31
0.0
  0
LINE
  5
64A
330
24
100
AcDbEntity
  8
Hawa1
370
    -2
100
AcDbLine
 10
32.71383800000001
 20
121.325404
 30
0.0
 11
10.74880400000002
 21
121.325404
 31
0.0
  0
LINE
  5
64B
330
24
100
AcDbEntity
  8
Hawa1
370
    -2
100
AcDbLine
 10
11.74880400000001
 20
82.32540400000003
 30
0.0
 11
11.74880400000002
 21
122.325404
 31
0.0
  0
INSERT
  5
64C
330
24
100
AcDbEntity
  8
Hawa1
370
    -2
100
AcDbBlockReference
  2
_Oblique
 10
11.74880400000001
 20
83.32540400000002
 30
0.0
 41
2.0
 42
2.0
 43
2.0
 50
270.0
  0
INSERT
  5
64D
330
24
100
AcDbEntity
  8
Hawa1
370
    -2
100
AcDbBlockReference
  2
_Oblique
 10
11.74880400000002
 20
121.325404
 30
0.0
 41
2.0
 42
2.0
 43
2.0
 50
90.0
  0
MTEXT
  5
64E
330
24
100
AcDbEntity
  8
Hawa1
100
AcDbMText
 10
7.347765408935878
 20
102.325404
 30
0.0
 40
3.5
 41
0.0
 71
     5
 72
     1
  1
\A1;38 [1{\H0.711429x;\S1/2;}"]
  7
Beschlag
 11
0.0000000000000001
 21
1.0
 31
0.0
 73
     1
 44
1.0
1001
ACAD
1000
MTEXTBEGIN
1070
    73
1070
     1
1070
    44
1040
1.0
1070
    74
1070
     0
1000
MTEXTEND
  0
POINT
  5
64F
330
24
100
AcDbEntity
  8
Defpoints
 62
     0
100
AcDbPoint
 10
34.713838
 20
83.325404
 30
0.0
  0
POINT
  5
650
330
24
100
AcDbEntity
  8
Defpoints
 62
     0
100
AcDbPoint
 10
34.713838
 20
121.325404
 30
0.0
  0
POINT
  5
651
330
24
100
AcDbEntity
  8
Defpoints
 62
     0
100
AcDbPoint
 10
11.74880400000002
 20
121.325404
 30
0.0
  0
ENDBLK
  5
2B8
330
24
100
AcDbEntity
  8
Hawa1
100
AcDbBlockEnd
  0
BLOCK
  5
2B9
330
26
100
AcDbEntity
  8
Hawa1
100
AcDbBlockBegin
  2
*D3
 70
     1
 10
0.0
 20
0.0
 30
0.0
  3
*D3
  1

  0
LINE
  5
640
330
26
100
AcDbEntity
  8
Hawa1
370
    -2
100
AcDbLine
 10
55.68739530088213
 20
120.8010539997227
 30
0.0
 11
55.68778555220418
 21
144.2389509606418
 31
0.0
  0
LINE
  5
641
330
26
100
AcDbEntity
  8
Hawa1
370
    -2
100
AcDbLine
 10
34.71387130088213
 20
123.3254039997228
 30
0.0
 11
34.71421952647793
 21
144.2393001797669
 31
0.0
  0
LINE
  5
642
330
26
100
AcDbEntity
  8
Hawa1
370
    -2
100
AcDbLine
 10
56.68776890162451
 20
143.2389343103394
 30
0.0
 11
33.71420287617549
 21
143.2393168303466
 31
0.0
  0
INSERT
  5
643
330
26
100
AcDbEntity
  8
Hawa1
370
    -2
100
AcDbBlockReference
  2
_Oblique
 10
55.68776890176312
 20
143.2389509607804
 30
0.0
 41
2.0
 42
2.0
 43
2.0
 50
359.999046
  0
INSERT
  5
644
330
26
100
AcDbEntity
  8
Hawa1
370
    -2
100
AcDbBlockReference
  2
_Oblique
 10
34.71420287603687
 20
143.2393001799055
 30
0.0
 41
2.0
 42
2.0
 43
2.0
 50
179.999046
  0
MTEXT
  5
645
330
26
100
AcDbEntity
  8
Hawa1
100
AcDbMText
 10
45.20105988929355
 20
147.6834759194882
 30
0.0
 40
3.5
 41
0.0
 71
     5
 72
     1
  1
\A1;21 [{\H0.711429x;\S13/16;}"]
  7
Beschlag
 11
0.9999999998613814
 21
-0.0000166504410634
 31
0.0
 73
     1
 44
1.0
1001
ACAD
1000
MTEXTBEGIN
1070
    73
1070
     1
1070
    44
1040
1.0
1070
    74
1070
     0
1000
MTEXTEND
  0
POINT
  5
646
330
26
100
AcDbEntity
  8
Defpoints
 62
     0
100
AcDbPoint
 10
55.687362
 20
118.801054
 30
0.0
  0
POINT
  5
647
330
26
100
AcDbEntity
  8
Defpoints
 62
     0
100
AcDbPoint
 10
34.71383800000001
 20
121.325404
 30
0.0
  0
POINT
  5
648
330
26
100
AcDbEntity
  8
Defpoints
 62
     0
100
AcDbPoint
 10
34.71420287603687
 20
143.2393001799055
 30
0.0
  0
ENDBLK
  5
2C5
330
26
100
AcDbEntity
  8
Hawa1
100
AcDbBlockEnd
  0
BLOCK
  5
2C6
330
28
100
AcDbEntity
  8
Hawa1
100
AcDbBlockBegin
  2
*D4
 70
     1
 10
0.0
 20
0.0
 30
0.0
  3
*D4
  1

  0
LINE
  5
6C0
330
28
100
AcDbEntity
  8
Hawa1
370
    -2
100
AcDbLine
 10
184.2682179993761
 20
102.3253540486768
 30
0.0
 11
212.7102834655701
 21
102.3246436892744
 31
0.0
  0
LINE
  5
6C1
330
28
100
AcDbEntity
  8
Hawa1
370
    -2
100
AcDbLine
 10
206.4076949993761
 20
76.8253540486768
 30
0.0
 11
212.7096466000099
 21
76.82519665326619
 31
0.0
  0
LINE
  5
6C2
330
28
100
AcDbEntity
  8
Hawa1
370
    -2
100
AcDbLine
 10
211.7103084415436
 20
103.3246686646241
 30
0.0
 11
211.7096216246602
 21
75.82522162923968
 31
0.0
  0
INSERT
  5
6C3
330
28
100
AcDbEntity
  8
Hawa1
370
    -2
100
AcDbBlockReference
  2
_Oblique
 10
211.710283465882
 20
102.324668664936
 30
0.0
 41
2.0
 42
2.0
 43
2.0
 50
89.99856899999997
  0
INSERT
  5
6C4
330
28
100
AcDbEntity
  8
Hawa1
370
    -2
100
AcDbBlockReference
  2
_Oblique
 10
211.7096466003218
 20
76.82522162892779
 30
0.0
 41
2.0
 42
2.0
 43
2.0
 50
269.998569
  0
MTEXT
  5
6C5
330
28
100
AcDbEntity
  8
Hawa1
100
AcDbMText
 10
208.4669493930727
 20
89.27651545998648
 30
0.0
 40
3.5
 41
0.0
 71
     5
 72
     1
  1
\A1;25.5 [1"]
  7
Beschlag
 11
0.0000249756615941
 21
0.9999999996881081
 31
0.0
 73
     1
 44
1.0
1001
ACAD
1000
MTEXTBEGIN
1070
    73
1070
     1
1070
    44
1040
1.0
1070
    74
1070
     0
1000
MTEXTEND
  0
POINT
  5
6C6
330
28
100
AcDbEntity
  8
Defpoints
 62
     0
100
AcDbPoint
 10
182.2682179999999
 20
102.325404
 30
0.0
  0
POINT
  5
6C7
330
28
100
AcDbEntity
  8
Defpoints
 62
     0
100
AcDbPoint
 10
204.407695
 20
76.82540399999999
 30
0.0
  0
POINT
  5
6C8
330
28
100
AcDbEntity
  8
Defpoints
 62
     0
100
AcDbPoint
 10
211.7096466003218
 20
76.82522162892779
 30
0.0
  0
ENDBLK
  5
2D0
330
28
100
AcDbEntity
  8
Hawa1
100
AcDbBlockEnd
  0
BLOCK
  5
2D1
330
2A
100
AcDbEntity
  8
Hawa1
100
AcDbBlockBegin
  2
*D5
 70
     1
 10
0.0
 20
0.0
 30
0.0
  3
*D5
  1

  0
LINE
  5
817
330
2A
100
AcDbEntity
  8
Hawa1
370
    -2
100
AcDbLine
 10
180.4036579993762
 20
97.32535404867681
 30
0.0
 11
192.4524741321007
 21
97.32505312152236
 31
0.0
  0
LINE
  5
818
330
2A
100
AcDbEntity
  8
Hawa1
370
    -2
100
AcDbLine
 10
202.3708820006237
 20
81.82545395132315
 30
0.0
 11
190.4520870261679
 21
81.82575163111314
 31
0.0
  0
LINE
  5
819
330
2A
100
AcDbEntity
  8
Hawa1
370
    -2
100
AcDbLine
 10
191.452087025856
 20
81.82572665545155
 30
0.0
 11
191.4524991080742
 21
98.32507809687207
 31
0.0
  0
LINE
  5
81A
330
2A
100
AcDbEntity
  8
Hawa1
370
    -2
100
AcDbLine
 10
191.4524741324126
 20
97.32507809718395
 30
0.0
 11
191.4535234430714
 21
139.3384059317724
 31
0.0
  0
INSERT
  5
81B
330
2A
100
AcDbEntity
  8
Hawa1
370
    -2
100
AcDbBlockReference
  2
_Oblique
 10
191.452087025856
 20
81.82572665545155
 30
0.0
 41
2.0
 42
2.0
 43
2.0
 50
269.998569
  0
INSERT
  5
81C
330
2A
100
AcDbEntity
  8
Hawa1
370
    -2
100
AcDbBlockReference
  2
_Oblique
 10
191.4524741324126
 20
97.32507809718395
 30
0.0
 41
2.0
 42
2.0
 43
2.0
 50
89.99856899999997
  0
MTEXT
  5
81D
330
2A
100
AcDbEntity
  8
Hawa1
100
AcDbMText
 10
187.0790320907527
 20
130.1164994957623
 30
0.0
 40
3.5
 41
0.0
 71
     5
 72
     1
  1
\A1;-15,5 [{\H0.7x;\S5/8;}"]
  7
Beschlag
 11
0.0000249756615941
 21
0.9999999996881081
 31
0.0
 73
     1
 44
1.0
1001
ACAD
1000
MTEXTBEGIN
1070
    73
1070
     1
1070
    44
1040
1.0
1070
    74
1070
     0
1000
MTEXTEND
  0
POINT
  5
81E
330
2A
100
AcDbEntity
  8
Defpoints
 62
     0
100
AcDbPoint
 10
178.4036579999999
 20
97.32540399999997
 30
0.0
  0
POINT
  5
81F
330
2A
100
AcDbEntity
  8
Defpoints
 62
     0
100
AcDbPoint
 10
204.3708819999999
 20
81.82540399999998
 30
0.0
  0
POINT
  5
820
330
2A
100
AcDbEntity
  8
Defpoints
 62
     0
100
AcDbPoint
 10
191.452087025856
 20
81.82572665545155
 30
0.0
  0
ENDBLK
  5
2DD
330
2A
100
AcDbEntity
  8
Hawa1
100
AcDbBlockEnd
  0
BLOCK
  5
2DE
330
2C
100
AcDbEntity
  8
Hawa1
100
AcDbBlockBegin
  2
*D6
 70
     1
 10
0.0
 20
0.0
 30
0.0
  3
*D6
  1

  0
LINE
  5
80D
330
2C
100
AcDbEntity
  8
Hawa1
370
    -2
100
AcDbLine
 10
180.4036579993762
 20
97.32535404867681
 30
0.0
 11
192.452669022163
 21
97.32505311665484
 31
0.0
  0
LINE
  5
80E
330
2C
100
AcDbEntity
  8
Hawa1
370
    -2
100
AcDbLine
 10
202.3708820006237
 20
81.82545395132315
 30
0.0
 11
190.4522819162301
 21
81.82575162624564
 31
0.0
  0
LINE
  5
80F
330
2C
100
AcDbEntity
  8
Hawa1
370
    -2
100
AcDbLine
 10
191.4522819159182
 20
81.82572665058405
 30
0.0
 11
191.4526939981365
 21
98.32507809200457
 31
0.0
  0
LINE
  5
810
330
2C
100
AcDbEntity
  8
Hawa1
370
    -2
100
AcDbLine
 10
191.4526690224749
 20
97.32507809231645
 30
0.0
 11
191.4532494498209
 21
120.5647966338645
 31
0.0
  0
INSERT
  5
811
330
2C
100
AcDbEntity
  8
Hawa1
370
    -2
100
AcDbBlockReference
  2
_Oblique
 10
191.4522819159182
 20
81.82572665058405
 30
0.0
 41
2.0
 42
2.0
 43
2.0
 50
269.998569
  0
INSERT
  5
812
330
2C
100
AcDbEntity
  8
Hawa1
370
    -2
100
AcDbBlockReference
  2
_Oblique
 10
191.4526690224749
 20
97.32507809231645
 30
0.0
 41
2.0
 42
2.0
 43
2.0
 50
89.99856899999997
  0
MTEXT
  5
813
330
2C
100
AcDbEntity
  8
Hawa1
100
AcDbMText
 10
187.0570362762442
 20
111.5015725275968
 30
0.0
 40
3.5
 41
0.0
 71
     5
 72
     1
  1
\A1;14,5 [{\H0.7x;\S9/16;}"]
  7
Beschlag
 11
0.0000249756615941
 21
0.9999999996881081
 31
0.0
 73
     1
 44
1.0
1001
ACAD
1000
MTEXTBEGIN
1070
    73
1070
     1
1070
    44
1040
1.0
1070
    74
1070
     0
1000
MTEXTEND
  0
POINT
  5
814
330
2C
100
AcDbEntity
  8
Defpoints
 62
     0
100
AcDbPoint
 10
178.4036579999999
 20
97.32540399999997
 30
0.0
  0
POINT
  5
815
330
2C
100
AcDbEntity
  8
Defpoints
 62
     0
100
AcDbPoint
 10
204.3708819999999
 20
81.82540399999998
 30
0.0
  0
POINT
  5
816
330
2C
100
AcDbEntity
  8
Defpoints
 62
     0
100
AcDbPoint
 10
191.4522819159182
 20
81.82572665058405
 30
0.0
  0
ENDBLK
  5
2E9
330
2C
100
AcDbEntity
  8
Hawa1
100
AcDbBlockEnd
  0
BLOCK
  5
2EA
330
2E
100
AcDbEntity
  8
Hawa1
100
AcDbBlockBegin
  2
*D7
 70
     1
 10
0.0
 20
0.0
 30
0.0
  3
*D7
  1

  0
LINE
  5
61C
330
2E
100
AcDbEntity
  8
Hawa1
370
    -2
100
AcDbLine
 10
179.4036913008821
 20
108.3254039997228
 30
0.0
 11
179.4038853657145
 21
119.9806407353262
 31
0.0
  0
LINE
  5
61D
330
2E
100
AcDbEntity
  8
Hawa1
370
    -2
100
AcDbLine
 10
129.4036913008821
 20
85.97540399972276
 30
0.0
 11
129.4042575169341
 21
119.981473251183
 31
0.0
  0
LINE
  5
61E
330
2E
100
AcDbEntity
  8
Hawa1
370
    -2
100
AcDbLine
 10
180.4038687151348
 20
118.9806240850238
 30
0.0
 11
128.4042408666317
 21
118.9814899017627
 31
0.0
  0
INSERT
  5
61F
330
2E
100
AcDbEntity
  8
Hawa1
370
    -2
100
AcDbBlockReference
  2
_Oblique
 10
179.4038687152735
 20
118.9806407354648
 30
0.0
 41
2.0
 42
2.0
 43
2.0
 50
359.999046
  0
INSERT
  5
620
330
2E
100
AcDbEntity
  8
Hawa1
370
    -2
100
AcDbBlockReference
  2
_Oblique
 10
129.404240866493
 20
118.9814732513216
 30
0.0
 41
2.0
 42
2.0
 43
2.0
 50
179.999046
  0
MTEXT
  5
621
330
2E
100
AcDbEntity
  8
Hawa1
100
AcDbMText
 10
154.4041288054172
 20
123.4262565927088
 30
0.0
 40
3.5
 41
0.0
 71
     5
 72
     1
  1
\A1;=>50 [1{\H0.711429x;\S31/32;}"]
  7
Beschlag
 11
0.9999999998613814
 21
-0.0000166504410634
 31
0.0
 73
     1
 44
1.0
1001
ACAD
1000
MTEXTBEGIN
1070
    73
1070
     1
1070
    44
1040
1.0
1070
    74
1070
     0
1000
MTEXTEND
  0
POINT
  5
622
330
2E
100
AcDbEntity
  8
Defpoints
 62
     0
100
AcDbPoint
 10
179.403658
 20
106.325404
 30
0.0
  0
POINT
  5
623
330
2E
100
AcDbEntity
  8
Defpoints
 62
     0
100
AcDbPoint
 10
129.403658
 20
83.975404
 30
0.0
  0
POINT
  5
624
330
2E
100
AcDbEntity
  8
Defpoints
 62
     0
100
AcDbPoint
 10
129.404240866493
 20
118.9814732513216
 30
0.0
  0
ENDBLK
  5
300
330
2E
100
AcDbEntity
  8
Hawa1
100
AcDbBlockEnd
  0
BLOCK
  5
301
330
30
100
AcDbEntity
  8
Hawa1
100
AcDbBlockBegin
  2
*D8
 70
     1
 10
0.0
 20
0.0
 30
0.0
  3
*D8
  1

  0
LINE
  5
7DB
330
30
100
AcDbEntity
  8
Hawa1
370
    -2
100
AcDbLine
 10
92.50522
 20
107.325404
 30
0.0
 11
78.83499002433464
 21
107.325404
 31
0.0
  0
LINE
  5
7DC
330
30
100
AcDbEntity
  8
Hawa1
370
    -2
100
AcDbLine
 10
92.50522
 20
97.32540400000001
 30
0.0
 11
78.83499002433464
 21
97.32540400000001
 31
0.0
  0
LINE
  5
7DD
330
30
100
AcDbEntity
  8
Hawa1
370
    -2
100
AcDbLine
 10
79.83499002433465
 20
97.32540400000001
 30
0.0
 11
79.83499002433465
 21
108.325404
 31
0.0
  0
LINE
  5
7DE
330
30
100
AcDbEntity
  8
Hawa1
370
    -2
100
AcDbLine
 10
79.83499002433465
 20
107.325404
 30
0.0
 11
79.83499002433465
 21
139.6822158464351
 31
0.0
  0
INSERT
  5
7DF
330
30
100
AcDbEntity
  8
Hawa1
370
    -2
100
AcDbBlockReference
  2
_Oblique
 10
79.83499002433465
 20
97.32540400000001
 30
0.0
 41
2.0
 42
2.0
 43
2.0
 50
270.0
  0
INSERT
  5
7E0
330
30
100
AcDbEntity
  8
Hawa1
370
    -2
100
AcDbBlockReference
  2
_Oblique
 10
79.83499002433465
 20
107.325404
 30
0.0
 41
2.0
 42
2.0
 43
2.0
 50
90.0
  0
MTEXT
  5
7E1
330
30
100
AcDbEntity
  8
Hawa1
100
AcDbMText
 10
75.48063781310225
 20
130.4605773624651
 30
0.0
 40
3.5
 41
0.0
 71
     5
 72
     1
  1
\A1;-12,7 [{\H0.7x;\S1/2;\H1.429x;"]}
  7
Beschlag
 11
0.0000000000000001
 21
1.0
 31
0.0
 73
     1
 44
1.0
1001
ACAD
1000
MTEXTBEGIN
1070
    73
1070
     1
1070
    44
1040
1.0
1070
    74
1070
     0
1000
MTEXTEND
  0
POINT
  5
7E2
330
30
100
AcDbEntity
  8
Defpoints
 62
     0
100
AcDbPoint
 10
94.50521999999999
 20
107.325404
 30
0.0
  0
POINT
  5
7E3
330
30
100
AcDbEntity
  8
Defpoints
 62
     0
100
AcDbPoint
 10
94.50521999999999
 20
97.32540400000001
 30
0.0
  0
POINT
  5
7E4
330
30
100
AcDbEntity
  8
Defpoints
 62
     0
100
AcDbPoint
 10
79.83499002433465
 20
97.32540400000001
 30
0.0
  0
ENDBLK
  5
30C
330
30
100
AcDbEntity
  8
Hawa1
100
AcDbBlockEnd
  0
BLOCK
  5
30D
330
32
100
AcDbEntity
  8
Hawa1
100
AcDbBlockBegin
  2
*D9
 70
     1
 10
0.0
 20
0.0
 30
0.0
  3
*D9
  1

  0
LINE
  5
67A
330
32
100
AcDbEntity
  8
Hawa1
370
    -2
100
AcDbLine
 10
92.50522
 20
107.325404
 30
0.0
 11
78.83499002433466
 21
107.325404
 31
0.0
  0
LINE
  5
67B
330
32
100
AcDbEntity
  8
Hawa1
370
    -2
100
AcDbLine
 10
92.50522
 20
97.32540400000001
 30
0.0
 11
78.83499002433466
 21
97.32540400000001
 31
0.0
  0
LINE
  5
67C
330
32
100
AcDbEntity
  8
Hawa1
370
    -2
100
AcDbLine
 10
79.83499002433465
 20
97.32540400000001
 30
0.0
 11
79.83499002433465
 21
108.325404
 31
0.0
  0
LINE
  5
67D
330
32
100
AcDbEntity
  8
Hawa1
370
    -2
100
AcDbLine
 10
79.83499002433465
 20
107.325404
 30
0.0
 11
79.83499002433465
 21
124.4734199856753
 31
0.0
  0
INSERT
  5
67E
330
32
100
AcDbEntity
  8
Hawa1
370
    -2
100
AcDbBlockReference
  2
_Oblique
 10
79.83499002433465
 20
97.32540400000001
 30
0.0
 41
2.0
 42
2.0
 43
2.0
 50
270.0
  0
INSERT
  5
67F
330
32
100
AcDbEntity
  8
Hawa1
370
    -2
100
AcDbBlockReference
  2
_Oblique
 10
79.83499002433465
 20
107.325404
 30
0.0
 41
2.0
 42
2.0
 43
2.0
 50
90.0
  0
MTEXT
  5
680
330
32
100
AcDbEntity
  8
Hawa1
100
AcDbMText
 10
75.46058324284306
 20
116.8994119928376
 30
0.0
 40
3.5
 41
0.0
 71
     5
 72
     1
  1
\A1;8 [{\H0.7x;\S5/16;\H1.429x;"] -}
  7
Beschlag
 11
0.0000000000000001
 21
1.0
 31
0.0
 73
     1
 44
1.0
1001
ACAD
1000
MTEXTBEGIN
1070
    73
1070
     1
1070
    44
1040
1.0
1070
    74
1070
     0
1000
MTEXTEND
  0
POINT
  5
681
330
32
100
AcDbEntity
  8
Defpoints
 62
     0
100
AcDbPoint
 10
94.50521999999999
 20
107.325404
 30
0.0
  0
POINT
  5
682
330
32
100
AcDbEntity
  8
Defpoints
 62
     0
100
AcDbPoint
 10
94.50521999999999
 20
97.32540400000001
 30
0.0
  0
POINT
  5
683
330
32
100
AcDbEntity
  8
Defpoints
 62
     0
100
AcDbPoint
 10
79.83499002433465
 20
97.32540400000001
 30
0.0
  0
ENDBLK
  5
317
330
32
100
AcDbEntity
  8
Hawa1
100
AcDbBlockEnd
  0
BLOCK
  5
318
330
34
100
AcDbEntity
  8
Hawa1
100
AcDbBlockBegin
  2
*D10
 70
     1
 10
0.0
 20
0.0
 30
0.0
  3
*D10
  1

  0
LINE
  5
6A2
330
34
100
AcDbEntity
  8
Hawa1
370
    -2
100
AcDbLine
 10
128.403658
 20
68.675404
 30
0.0
 11
105.5406468224718
 21
68.675404
 31
0.0
  0
LINE
  5
6A3
330
34
100
AcDbEntity
  8
Hawa1
370
    -2
100
AcDbLine
 10
128.403658
 20
84.975404
 30
0.0
 11
105.5406468224718
 21
84.975404
 31
0.0
  0
LINE
  5
6A4
330
34
100
AcDbEntity
  8
Hawa1
370
    -2
100
AcDbLine
 10
106.5406468224718
 20
84.975404
 30
0.0
 11
106.5406468224718
 21
67.675404
 31
0.0
  0
LINE
  5
6A5
330
34
100
AcDbEntity
  8
Hawa1
370
    -2
100
AcDbLine
 10
106.5406468224718
 20
68.675404
 30
0.0
 11
106.5406468224718
 21
48.31014823894953
 31
0.0
  0
INSERT
  5
6A6
330
34
100
AcDbEntity
  8
Hawa1
370
    -2
100
AcDbBlockReference
  2
_Oblique
 10
106.5406468224718
 20
84.975404
 30
0.0
 41
2.0
 42
2.0
 43
2.0
 50
90.0
  0
INSERT
  5
6A7
330
34
100
AcDbEntity
  8
Hawa1
370
    -2
100
AcDbBlockReference
  2
_Oblique
 10
106.5406468224718
 20
68.675404
 30
0.0
 41
2.0
 42
2.0
 43
2.0
 50
270.0
  0
MTEXT
  5
6A8
330
34
100
AcDbEntity
  8
Hawa1
100
AcDbMText
 10
102.1175277269738
 20
57.49277611947478
 30
0.0
 40
3.5
 41
0.0
 71
     5
 72
     1
  1
\A1;16.3 [{\H0.711429x;\S21/32;}"]
  7
Beschlag
 11
0.0000000000000001
 21
1.0
 31
0.0
 73
     1
 44
1.0
1001
ACAD
1000
MTEXTBEGIN
1070
    73
1070
     1
1070
    44
1040
1.0
1070
    74
1070
     0
1000
MTEXTEND
  0
POINT
  5
6A9
330
34
100
AcDbEntity
  8
Defpoints
 62
     0
100
AcDbPoint
 10
130.403658
 20
68.675404
 30
0.0
  0
POINT
  5
6AA
330
34
100
AcDbEntity
  8
Defpoints
 62
     0
100
AcDbPoint
 10
130.403658
 20
84.975404
 30
0.0
  0
POINT
  5
6AB
330
34
100
AcDbEntity
  8
Defpoints
 62
     0
100
AcDbPoint
 10
106.5406468224718
 20
84.975404
 30
0.0
  0
ENDBLK
  5
324
330
34
100
AcDbEntity
  8
Hawa1
100
AcDbBlockEnd
  0
BLOCK
  5
325
330
36
100
AcDbEntity
  8
Hawa1
100
AcDbBlockBegin
  2
*D11
 70
     1
 10
0.0
 20
0.0
 30
0.0
  3
*D11
  1

  0
LINE
  5
6B6
330
36
100
AcDbEntity
  8
Hawa1
370
    -2
100
AcDbLine
 10
129.4035913982357
 20
67.67540400110895
 30
0.0
 11
129.4032143900718
 21
56.35413742564578
 31
0.0
  0
LINE
  5
6B7
330
36
100
AcDbEntity
  8
Hawa1
370
    -2
100
AcDbLine
 10
136.1035913982358
 20
70.72540400110895
 30
0.0
 11
136.1031128149515
 21
56.35391431311798
 31
0.0
  0
LINE
  5
6B8
330
36
100
AcDbEntity
  8
Hawa1
370
    -2
100
AcDbLine
 10
136.1031461158336
 20
57.35391431256351
 30
0.0
 11
128.4032476915084
 21
57.35417072597343
 31
0.0
  0
LINE
  5
6B9
330
36
100
AcDbEntity
  8
Hawa1
370
    -2
100
AcDbLine
 10
129.4032476909539
 20
57.3541374250913
 30
0.0
 11
112.8073107961997
 21
57.35469008442986
 31
0.0
  0
INSERT
  5
6BA
330
36
100
AcDbEntity
  8
Hawa1
370
    -2
100
AcDbBlockReference
  2
_Oblique
 10
136.1031461158336
 20
57.35391431256351
 30
0.0
 41
2.0
 42
2.0
 43
2.0
 50
359.998092
  0
INSERT
  5
6BB
330
36
100
AcDbEntity
  8
Hawa1
370
    -2
100
AcDbBlockReference
  2
_Oblique
 10
129.4032476909539
 20
57.3541374250913
 30
0.0
 41
2.0
 42
2.0
 43
2.0
 50
179.998092
  0
MTEXT
  5
6BC
330
36
100
AcDbEntity
  8
Hawa1
100
AcDbMText
 10
120.1054256329139
 20
61.75039014324619
 30
0.0
 40
3.5
 41
0.0
 71
     5
 72
     1
  1
\A1;6.7 [{\H0.711429x;\S1/4;}"]
  7
Beschlag
 11
0.9999999994455256
 21
-0.0000333008821221
 31
0.0
 73
     1
 44
1.0
1001
ACAD
1000
MTEXTBEGIN
1070
    73
1070
     1
1070
    44
1040
1.0
1070
    74
1070
     0
1000
MTEXTEND
  0
POINT
  5
6BD
330
36
100
AcDbEntity
  8
Defpoints
 62
     0
100
AcDbPoint
 10
129.403658
 20
69.675404
 30
0.0
  0
POINT
  5
6BE
330
36
100
AcDbEntity
  8
Defpoints
 62
     0
100
AcDbPoint
 10
136.103658
 20
72.72540400000001
 30
0.0
  0
POINT
  5
6BF
330
36
100
AcDbEntity
  8
Defpoints
 62
     0
100
AcDbPoint
 10
136.1031461158336
 20
57.35391431256351
 30
0.0
  0
ENDBLK
  5
331
330
36
100
AcDbEntity
  8
Hawa1
100
AcDbBlockEnd
  0
BLOCK
  5
332
330
38
100
AcDbEntity
  8
Hawa1
100
AcDbBlockBegin
  2
*D12
 70
     1
 10
0.0
 20
0.0
 30
0.0
  3
*D12
  1

  0
LINE
  5
6AC
330
38
100
AcDbEntity
  8
Hawa1
370
    -2
100
AcDbLine
 10
129.4035913982357
 20
67.67540400110895
 30
0.0
 11
129.4028704651591
 21
46.02633555812704
 31
0.0
  0
LINE
  5
6AD
330
38
100
AcDbEntity
  8
Hawa1
370
    -2
100
AcDbLine
 10
136.8535913982357
 20
70.41474300110895
 30
0.0
 11
136.8527792344923
 21
46.02608746959315
 31
0.0
  0
LINE
  5
6AE
330
38
100
AcDbEntity
  8
Hawa1
370
    -2
100
AcDbLine
 10
136.8528125353744
 20
47.02608746903868
 30
0.0
 11
128.4029037665957
 21
47.02636885845469
 31
0.0
  0
LINE
  5
6AF
330
38
100
AcDbEntity
  8
Hawa1
370
    -2
100
AcDbLine
 10
129.4029037660412
 20
47.02633555757256
 30
0.0
 11
111.2142851228521
 21
47.0269412546183
 31
0.0
  0
INSERT
  5
6B0
330
38
100
AcDbEntity
  8
Hawa1
370
    -2
100
AcDbBlockReference
  2
_Oblique
 10
136.8528125353744
 20
47.02608746903868
 30
0.0
 41
2.0
 42
2.0
 43
2.0
 50
359.998092
  0
INSERT
  5
6B1
330
38
100
AcDbEntity
  8
Hawa1
370
    -2
100
AcDbBlockReference
  2
_Oblique
 10
129.4029037660412
 20
47.02633555757256
 30
0.0
 41
2.0
 42
2.0
 43
2.0
 50
179.998092
  0
MTEXT
  5
6B2
330
38
100
AcDbEntity
  8
Hawa1
100
AcDbMText
 10
119.3087424457882
 20
51.47102205427454
 30
0.0
 40
3.5
 41
0.0
 71
     5
 72
     1
  1
\A1;7.4 [{\H0.711429x;\S9/32;}"]
  7
Beschlag
 11
0.9999999994455256
 21
-0.0000333008821221
 31
0.0
 73
     1
 44
1.0
1001
ACAD
1000
MTEXTBEGIN
1070
    73
1070
     1
1070
    44
1040
1.0
1070
    74
1070
     0
1000
MTEXTEND
  0
POINT
  5
6B3
330
38
100
AcDbEntity
  8
Defpoints
 62
     0
100
AcDbPoint
 10
129.403658
 20
69.675404
 30
0.0
  0
POINT
  5
6B4
330
38
100
AcDbEntity
  8
Defpoints
 62
     0
100
AcDbPoint
 10
136.853658
 20
72.414743
 30
0.0
  0
POINT
  5
6B5
330
38
100
AcDbEntity
  8
Defpoints
 62
     0
100
AcDbPoint
 10
136.8528125353744
 20
47.02608746903868
 30
0.0
  0
ENDBLK
  5
33E
330
38
100
AcDbEntity
  8
Hawa1
100
AcDbBlockEnd
  0
BLOCK
  5
33F
330
3A
100
AcDbEntity
  8
Hawa1
100
AcDbBlockBegin
  2
*D13
 70
     1
 10
0.0
 20
0.0
 30
0.0
  3
*D13
  1

  0
LINE
  5
5E1
330
3A
100
AcDbEntity
  8
Hawa1
370
    -2
100
AcDbLine
 10
129.4035913982357
 20
67.67540400110895
 30
0.0
 11
129.4026019884161
 21
37.96418447729431
 31
0.0
  0
LINE
  5
5E2
330
3A
100
AcDbEntity
  8
Hawa1
370
    -2
100
AcDbLine
 10
143.4035913982357
 20
67.17540400110895
 30
0.0
 11
143.4026186233319
 21
37.96371826439039
 31
0.0
  0
LINE
  5
5E3
330
3A
100
AcDbEntity
  8
Hawa1
370
    -2
100
AcDbLine
 10
128.4026352898527
 20
38.96421777762196
 30
0.0
 11
143.402651924214
 21
38.96371826383592
 31
0.0
  0
LINE
  5
5E4
330
3A
100
AcDbEntity
  8
Hawa1
370
    -2
100
AcDbLine
 10
143.402651924214
 20
38.96371826383592
 30
0.0
 11
159.9098973309206
 21
38.96316855800216
 31
0.0
  0
INSERT
  5
5E5
330
3A
100
AcDbEntity
  8
Hawa1
370
    -2
100
AcDbBlockReference
  2
_Oblique
 10
129.4026352892982
 20
38.96418447673984
 30
0.0
 41
2.0
 42
2.0
 43
2.0
 50
179.998092
  0
INSERT
  5
5E6
330
3A
100
AcDbEntity
  8
Hawa1
370
    -2
100
AcDbBlockReference
  2
_Oblique
 10
143.402651924214
 20
38.96371826383592
 30
0.0
 41
2.0
 42
2.0
 43
2.0
 50
359.998092
  0
MTEXT
  5
5E7
330
3A
100
AcDbEntity
  8
Hawa1
100
AcDbMText
 10
152.6564225995192
 20
43.40691120716383
 30
0.0
 40
3.5
 41
0.0
 71
     5
 72
     1
  1
\A1;14 [{\H0.711429x;\S9/16;}"]
  7
Beschlag
 11
0.9999999994455256
 21
-0.0000333008821221
 31
0.0
 73
     1
 44
1.0
1001
ACAD
1000
MTEXTBEGIN
1070
    73
1070
     1
1070
    44
1040
1.0
1070
    74
1070
     0
1000
MTEXTEND
  0
POINT
  5
5E8
330
3A
100
AcDbEntity
  8
Defpoints
 62
     0
100
AcDbPoint
 10
129.403658
 20
69.675404
 30
0.0
  0
POINT
  5
5E9
330
3A
100
AcDbEntity
  8
Defpoints
 62
     0
100
AcDbPoint
 10
143.403658
 20
69.175404
 30
0.0
  0
POINT
  5
5EA
330
3A
100
AcDbEntity
  8
Defpoints
 62
     0
100
AcDbPoint
 10
143.402651924214
 20
38.96371826383592
 30
0.0
  0
ENDBLK
  5
34B
330
3A
100
AcDbEntity
  8
Hawa1
100
AcDbBlockEnd
  0
BLOCK
  5
34C
330
3C
100
AcDbEntity
  8
Hawa1
100
AcDbBlockBegin
  2
*D14
 70
     1
 10
0.0
 20
0.0
 30
0.0
  3
*D14
  1

  0
LINE
  5
7E5
330
3C
100
AcDbEntity
  8
Hawa1
370
    -2
100
AcDbLine
 10
237.6813790006238
 20
81.82545395132317
 30
0.0
 11
225.0195211528569
 21
81.82577018960001
 31
0.0
  0
LINE
  5
7E6
330
3C
100
AcDbEntity
  8
Hawa1
370
    -2
100
AcDbLine
 10
216.3708819993761
 20
71.8253540486768
 30
0.0
 11
227.0192713798289
 21
71.82508809810702
 31
0.0
  0
LINE
  5
7E7
330
3C
100
AcDbEntity
  8
Hawa1
370
    -2
100
AcDbLine
 10
226.0192713801408
 20
71.82511307376862
 30
0.0
 11
226.0195461282065
 21
82.82574521362654
 31
0.0
  0
LINE
  5
7E8
330
3C
100
AcDbEntity
  8
Hawa1
370
    -2
100
AcDbLine
 10
226.0195211525449
 20
81.82574521393844
 30
0.0
 11
226.0199684823714
 21
99.73637491162524
 31
0.0
  0
INSERT
  5
7E9
330
3C
100
AcDbEntity
  8
Hawa1
370
    -2
100
AcDbBlockReference
  2
_Oblique
 10
226.0192713801408
 20
71.82511307376862
 30
0.0
 41
2.0
 42
2.0
 43
2.0
 50
269.998569
  0
INSERT
  5
7EA
330
3C
100
AcDbEntity
  8
Hawa1
370
    -2
100
AcDbBlockReference
  2
_Oblique
 10
226.0195211525449
 20
81.82574521393844
 30
0.0
 41
2.0
 42
2.0
 43
2.0
 50
89.99856899999997
  0
MTEXT
  5
7EB
330
3C
100
AcDbEntity
  8
Hawa1
100
AcDbMText
 10
221.6454079661092
 20
93.58104622898116
 30
0.0
 40
3.5
 41
0.0
 71
     5
 72
     1
  1
\A1;8 [{\H0.7x;\S5/16;\H1.429x;"]}
  7
Beschlag
 11
0.0000249756615941
 21
0.9999999996881081
 31
0.0
 73
     1
 44
1.0
1001
ACAD
1000
MTEXTBEGIN
1070
    73
1070
     1
1070
    44
1040
1.0
1070
    74
1070
     0
1000
MTEXTEND
  0
POINT
  5
7EC
330
3C
100
AcDbEntity
  8
Defpoints
 62
     0
100
AcDbPoint
 10
239.6813789999999
 20
81.82540399999998
 30
0.0
  0
POINT
  5
7ED
330
3C
100
AcDbEntity
  8
Defpoints
 62
     0
100
AcDbPoint
 10
214.370882
 20
71.82540399999997
 30
0.0
  0
POINT
  5
7EE
330
3C
100
AcDbEntity
  8
Defpoints
 62
     0
100
AcDbPoint
 10
226.0192713801408
 20
71.82511307376862
 30
0.0
  0
ENDBLK
  5
356
330
3C
100
AcDbEntity
  8
Hawa1
100
AcDbBlockEnd
  0
BLOCK
  5
357
330
3E
100
AcDbEntity
  8
Hawa1
100
AcDbBlockBegin
  2
*D15
 70
     1
 10
0.0
 20
0.0
 30
0.0
  3
*D15
  1

  0
LINE
  5
7EF
330
3E
100
AcDbEntity
  8
Hawa1
370
    -2
100
AcDbLine
 10
216.3708819999307
 20
71.82538734955894
 30
0.0
 11
227.0196336257846
 21
71.82529869635326
 31
0.0
  0
LINE
  5
7F0
330
3E
100
AcDbEntity
  8
Hawa1
370
    -2
100
AcDbLine
 10
237.6813790000693
 20
81.82542065044106
 30
0.0
 11
225.0197168798135
 21
81.82552606157051
 31
0.0
  0
LINE
  5
7F1
330
3E
100
AcDbEntity
  8
Hawa1
370
    -2
100
AcDbLine
 10
226.0196253005988
 20
70.82530702160844
 30
0.0
 11
226.0197168797789
 21
81.82551773634999
 31
0.0
  0
LINE
  5
7F2
330
3E
100
AcDbEntity
  8
Hawa1
370
    -2
100
AcDbLine
 10
226.0197168797789
 20
81.82551773634999
 30
0.0
 11
226.0200015397339
 21
116.0179999511084
 31
0.0
  0
INSERT
  5
7F3
330
3E
100
AcDbEntity
  8
Hawa1
370
    -2
100
AcDbBlockReference
  2
_Oblique
 10
226.0196336258193
 20
71.82530702157379
 30
0.0
 41
2.0
 42
2.0
 43
2.0
 50
269.9995229999999
  0
INSERT
  5
7F4
330
3E
100
AcDbEntity
  8
Hawa1
370
    -2
100
AcDbBlockReference
  2
_Oblique
 10
226.0197168797789
 20
81.82551773634999
 30
0.0
 41
2.0
 42
2.0
 43
2.0
 50
89.999523
  0
MTEXT
  5
7F5
330
3E
100
AcDbEntity
  8
Hawa1
100
AcDbMText
 10
221.6229649029623
 20
107.794363625677
 30
0.0
 40
3.5
 41
0.0
 71
     5
 72
     1
  1
\A1;-12 [{\H0.7x;\S15/32;\H1.429x;"]}
  7
Beschlag
 11
0.000008325220532
 21
0.9999999999653454
 31
0.0
 73
     1
 44
1.0
1001
ACAD
1000
MTEXTBEGIN
1070
    73
1070
     1
1070
    44
1040
1.0
1070
    74
1070
     0
1000
MTEXTEND
  0
POINT
  5
7F6
330
3E
100
AcDbEntity
  8
Defpoints
 62
     0
100
AcDbPoint
 10
214.370882
 20
71.82540399999999
 30
0.0
  0
POINT
  5
7F7
330
3E
100
AcDbEntity
  8
Defpoints
 62
     0
100
AcDbPoint
 10
239.6813789999999
 20
81.82540399999998
 30
0.0
  0
POINT
  5
7F8
330
3E
100
AcDbEntity
  8
Defpoints
 62
     0
100
AcDbPoint
 10
226.0197168797789
 20
81.82551773634999
 30
0.0
  0
ENDBLK
  5
362
330
3E
100
AcDbEntity
  8
Hawa1
100
AcDbBlockEnd
  0
BLOCK
  5
363
330
40
100
AcDbEntity
  8
Hawa1
100
AcDbBlockBegin
  2
*D16
 70
     1
 10
0.0
 20
0.0
 30
0.0
  3
*D16
  1

  0
LINE
  5
5C6
330
40
100
AcDbEntity
  8
Hawa1
370
    -2
100
AcDbLine
 10
260.73868
 20
87.32540400000001
 30
0.0
 11
270.161682
 21
87.32540400000001
 31
0.0
  0
LINE
  5
5C7
330
40
100
AcDbEntity
  8
Hawa1
370
    -2
100
AcDbLine
 10
260.73868
 20
66.325404
 30
0.0
 11
270.161682
 21
66.325404
 31
0.0
  0
LINE
  5
5C8
330
40
100
AcDbEntity
  8
Hawa1
370
    -2
100
AcDbLine
 10
269.161682
 20
88.325404
 30
0.0
 11
269.161682
 21
65.32540400000001
 31
0.0
  0
INSERT
  5
5C9
330
40
100
AcDbEntity
  8
Hawa1
370
    -2
100
AcDbBlockReference
  2
_Oblique
 10
269.161682
 20
87.32540400000001
 30
0.0
 41
2.0
 42
2.0
 43
2.0
 50
90.0
  0
INSERT
  5
5CA
330
40
100
AcDbEntity
  8
Hawa1
370
    -2
100
AcDbBlockReference
  2
_Oblique
 10
269.161682
 20
66.325404
 30
0.0
 41
2.0
 42
2.0
 43
2.0
 50
270.0
  0
MTEXT
  5
5CB
330
40
100
AcDbEntity
  8
Hawa1
100
AcDbMText
 10
264.7173316502387
 20
76.82540400000005
 30
0.0
 40
3.5
 41
0.0
 71
     5
 72
     1
  1
\A1;21 [{\H0.711429x;\S13/16;}"]
  7
Beschlag
 11
0.0000000000000001
 21
1.0
 31
0.0
 73
     1
 44
1.0
1001
ACAD
1000
MTEXTBEGIN
1070
    73
1070
     1
1070
    44
1040
1.0
1070
    74
1070
     0
1000
MTEXTEND
  0
POINT
  5
5CC
330
40
100
AcDbEntity
  8
Defpoints
 62
     0
100
AcDbPoint
 10
258.73868
 20
87.32540400000001
 30
0.0
  0
POINT
  5
5CD
330
40
100
AcDbEntity
  8
Defpoints
 62
     0
100
AcDbPoint
 10
258.73868
 20
66.325404
 30
0.0
  0
POINT
  5
5CE
330
40
100
AcDbEntity
  8
Defpoints
 62
     0
100
AcDbPoint
 10
269.161682
 20
66.325404
 30
0.0
  0
ENDBLK
  5
36F
330
40
100
AcDbEntity
  8
Hawa1
100
AcDbBlockEnd
  0
BLOCK
  5
370
330
281
100
AcDbEntity
  8
0
100
AcDbBlockBegin
  2
BLOCK1
 70
     0
 10
0.0
 20
0.0
 30
0.0
  3
BLOCK1
  1

  0
LINE
  5
371
330
281
100
AcDbEntity
  8
Hawa4
  6
DASHDOT
 62
     4
 48
0.039
100
AcDbLine
 10
151.947693
 20
123.539421
 30
0.0
 11
150.38768
 21
123.539421
 31
0.0
  0
LINE
  5
372
330
281
100
AcDbEntity
  8
Hawa4
  6
DASHDOT
 62
     4
 48
0.039
100
AcDbLine
 10
151.167694
 20
124.31942
 30
0.0
 11
151.167694
 21
122.759422
 31
0.0
  0
ENDBLK
  5
373
330
281
100
AcDbEntity
  8
0
100
AcDbBlockEnd
  0
BLOCK
  5
374
330
282
100
AcDbEntity
  8
0
100
AcDbBlockBegin
  2
BLOCK2
 70
     0
 10
0.0
 20
0.0
 30
0.0
  3
BLOCK2
  1

  0
LINE
  5
375
330
282
100
AcDbEntity
  8
Hawa4
  6
DASHDOT
 62
     4
 48
0.039
100
AcDbLine
 10
151.947693
 20
138.839417
 30
0.0
 11
150.38768
 21
138.839417
 31
0.0
  0
LINE
  5
376
330
282
100
AcDbEntity
  8
Hawa4
  6
DASHDOT
 62
     4
 48
0.039
100
AcDbLine
 10
151.167694
 20
139.619415
 30
0.0
 11
151.167694
 21
138.059418
 31
0.0
  0
ENDBLK
  5
377
330
282
100
AcDbEntity
  8
0
100
AcDbBlockEnd
  0
BLOCK
  5
378
330
283
100
AcDbEntity
  8
0
100
AcDbBlockBegin
  2
BLOCK3
 70
     0
 10
0.0
 20
0.0
 30
0.0
  3
BLOCK3
  1

  0
LINE
  5
379
330
283
100
AcDbEntity
  8
Hawa4
  6
DASHDOT
 62
     4
 48
0.00975
100
AcDbLine
 10
32.916939
 20
141.822739
 30
0.0
 11
32.526939
 21
141.822739
 31
0.0
  0
LINE
  5
37A
330
283
100
AcDbEntity
  8
Hawa4
  6
DASHDOT
 62
     4
 48
0.00975
100
AcDbLine
 10
32.721939
 20
142.017746
 30
0.0
 11
32.721939
 21
141.627747
 31
0.0
  0
ENDBLK
  5
37B
330
283
100
AcDbEntity
  8
0
100
AcDbBlockEnd
  0
BLOCK
  5
37C
330
284
100
AcDbEntity
  8
0
100
AcDbBlockBegin
  2
BLOCK4
 70
     0
 10
0.0
 20
0.0
 30
0.0
  3
BLOCK4
  1

  0
LINE
  5
37D
330
284
100
AcDbEntity
  8
Hawa4
  6
DASHDOT
 62
     4
 48
0.0325
100
AcDbLine
 10
31.006929
 20
151.178452
 30
0.0
 11
29.70693
 21
151.178452
 31
0.0
  0
LINE
  5
37E
330
284
100
AcDbEntity
  8
Hawa4
  6
DASHDOT
 62
     4
 48
0.0325
100
AcDbLine
 10
30.35693
 20
151.828445
 30
0.0
 11
30.35693
 21
150.528458
 31
0.0
  0
ENDBLK
  5
37F
330
284
100
AcDbEntity
  8
0
100
AcDbBlockEnd
  0
BLOCK
  5
380
330
285
100
AcDbEntity
  8
0
100
AcDbBlockBegin
  2
BLOCK5
 70
     0
 10
0.0
 20
0.0
 30
0.0
  3
BLOCK5
  1

  0
LINE
  5
381
330
285
100
AcDbEntity
  8
Hawa4
  6
DASHDOT
 62
     4
 48
0.00975
100
AcDbLine
 10
28.142019
 20
141.834213
 30
0.0
 11
27.75202
 21
141.834213
 31
0.0
  0
LINE
  5
382
330
285
100
AcDbEntity
  8
Hawa4
  6
DASHDOT
 62
     4
 48
0.00975
100
AcDbLine
 10
27.94702
 20
142.029205
 30
0.0
 11
27.94702
 21
141.639206
 31
0.0
  0
ENDBLK
  5
383
330
285
100
AcDbEntity
  8
0
100
AcDbBlockEnd
  0
BLOCK
  5
384
330
286
100
AcDbEntity
  8
0
100
AcDbBlockBegin
  2
BLOCK6
 70
     0
 10
0.0
 20
0.0
 30
0.0
  3
BLOCK6
  1

  0
LINE
  5
385
330
286
100
AcDbEntity
  8
Hawa4
  6
DASHDOT
 62
     4
 48
0.13
100
AcDbLine
 10
32.937241
 20
142.97847
 30
0.0
 11
27.737242
 21
142.97847
 31
0.0
  0
LINE
  5
386
330
286
100
AcDbEntity
  8
Hawa4
  6
DASHDOT
 62
     4
 48
0.13
100
AcDbLine
 10
30.33724
 20
145.578476
 30
0.0
 11
30.33724
 21
140.378479
 31
0.0
  0
ENDBLK
  5
387
330
286
100
AcDbEntity
  8
0
100
AcDbBlockEnd
  0
BLOCK
  5
388
330
287
100
AcDbEntity
  8
0
100
AcDbBlockBegin
  2
BLOCK7
 70
     0
 10
0.0
 20
0.0
 30
0.0
  3
BLOCK7
  1

  0
LINE
  5
389
330
287
100
AcDbEntity
  8
Hawa4
  6
DASHDOT
 62
     4
 48
0.00975
100
AcDbLine
 10
32.916939
 20
141.822739
 30
0.0
 11
32.526939
 21
141.822739
 31
0.0
  0
LINE
  5
38A
330
287
100
AcDbEntity
  8
Hawa4
  6
DASHDOT
 62
     4
 48
0.00975
100
AcDbLine
 10
32.721939
 20
142.017746
 30
0.0
 11
32.721939
 21
141.627747
 31
0.0
  0
ENDBLK
  5
38B
330
287
100
AcDbEntity
  8
0
100
AcDbBlockEnd
  0
BLOCK
  5
38C
330
288
100
AcDbEntity
  8
0
100
AcDbBlockBegin
  2
BLOCK8
 70
     0
 10
0.0
 20
0.0
 30
0.0
  3
BLOCK8
  1

  0
LINE
  5
38D
330
288
100
AcDbEntity
  8
Hawa4
  6
DASHDOT
 62
     4
 48
0.052
100
AcDbLine
 10
31.396929
 20
151.178452
 30
0.0
 11
29.316929
 21
151.178452
 31
0.0
  0
LINE
  5
38E
330
288
100
AcDbEntity
  8
Hawa4
  6
DASHDOT
 62
     4
 48
0.052
100
AcDbLine
 10
30.35693
 20
152.218445
 30
0.0
 11
30.35693
 21
150.138443
 31
0.0
  0
ENDBLK
  5
38F
330
288
100
AcDbEntity
  8
0
100
AcDbBlockEnd
  0
BLOCK
  5
390
330
289
100
AcDbEntity
  8
0
100
AcDbBlockBegin
  2
BLOCK9
 70
     0
 10
0.0
 20
0.0
 30
0.0
  3
BLOCK9
  1

  0
LINE
  5
391
330
289
100
AcDbEntity
  8
Hawa4
  6
DASHDOT
 62
     4
 48
0.00975
100
AcDbLine
 10
28.142019
 20
141.834213
 30
0.0
 11
27.75202
 21
141.834213
 31
0.0
  0
LINE
  5
392
330
289
100
AcDbEntity
  8
Hawa4
  6
DASHDOT
 62
     4
 48
0.00975
100
AcDbLine
 10
27.94702
 20
142.029205
 30
0.0
 11
27.94702
 21
141.639206
 31
0.0
  0
ENDBLK
  5
393
330
289
100
AcDbEntity
  8
0
100
AcDbBlockEnd
  0
BLOCK
  5
394
330
28A
100
AcDbEntity
  8
0
100
AcDbBlockBegin
  2
BLOCK10
 70
     0
 10
0.0
 20
0.0
 30
0.0
  3
BLOCK10
  1

  0
LINE
  5
395
330
28A
100
AcDbEntity
  8
Hawa2
 62
     9
 48
0.073078
100
AcDbLine
 10
143.115768
 20
122.756386
 30
0.0
 11
145.182724
 21
120.689423
 31
0.0
  0
LINE
  5
396
330
28A
100
AcDbEntity
  8
Hawa2
 62
     9
 48
0.06092
100
AcDbLine
 10
146.288071
 20
122.412498
 30
0.0
 11
148.011154
 21
120.689423
 31
0.0
  0
LINE
  5
397
330
28A
100
AcDbEntity
  8
Hawa2
 62
     9
 48
0.07955
100
AcDbLine
 10
148.589584
 20
122.939423
 30
0.0
 11
150.839584
 21
120.689423
 31
0.0
  0
LINE
  5
398
330
28A
100
AcDbEntity
  8
Hawa2
 62
     9
 48
0.07955
100
AcDbLine
 10
151.418015
 20
122.939423
 30
0.0
 11
153.668015
 21
120.689423
 31
0.0
  0
LINE
  5
399
330
28A
100
AcDbEntity
  8
Hawa2
 62
     9
 48
0.080215
100
AcDbLine
 10
154.227615
 20
122.958237
 30
0.0
 11
156.496429
 21
120.689423
 31
0.0
  0
LINE
  5
39A
330
28A
100
AcDbEntity
  8
Hawa2
 62
     9
 48
0.088388
100
AcDbLine
 10
154.591949
 20
125.422333
 30
0.0
 11
157.091949
 21
122.922333
 31
0.0
  0
LINE
  5
39B
330
28A
100
AcDbEntity
  8
Hawa2
 62
     9
 48
0.011008
100
AcDbLine
 10
143.091949
 20
139.7507629999999
 30
0.0
 11
143.40329
 21
139.439423
 31
0.0
  0
LINE
  5
39C
330
28A
100
AcDbEntity
  8
Hawa2
 62
     9
 48
0.088388
100
AcDbLine
 10
154.591949
 20
128.250763
 30
0.0
 11
157.091949
 21
125.750763
 31
0.0
  0
LINE
  5
39D
330
28A
100
AcDbEntity
  8
Hawa2
 62
     9
 48
0.064275
100
AcDbLine
 10
143.98172
 20
141.689423
 30
0.0
 11
145.799698
 21
139.871445
 31
0.0
  0
LINE
  5
39E
330
28A
100
AcDbEntity
  8
Hawa2
 62
     9
 48
0.085034
100
AcDbLine
 10
154.686829
 20
130.984299
 30
0.0
 11
157.091949
 21
128.579193
 31
0.0
  0
LINE
  5
39F
330
28A
100
AcDbEntity
  8
Hawa2
 62
     9
 48
0.076147
100
AcDbLine
 10
146.81015
 20
141.689423
 30
0.0
 11
148.963913
 21
139.53566
 31
0.0
  0
LINE
  5
3A0
330
28A
100
AcDbEntity
  8
Hawa2
 62
     9
 48
0.088388
100
AcDbLine
 10
154.591949
 20
133.907608
 30
0.0
 11
157.091949
 21
131.407608
 31
0.0
  0
LINE
  5
3A1
330
28A
100
AcDbEntity
  8
Hawa2
 62
     9
 48
0.07955
100
AcDbLine
 10
149.638565
 20
141.689423
 30
0.0
 11
151.888565
 21
139.439423
 31
0.0
  0
LINE
  5
3A2
330
28A
100
AcDbEntity
  8
Hawa2
 62
     9
 48
0.088388
100
AcDbLine
 10
154.591949
 20
136.736038
 30
0.0
 11
157.091949
 21
134.236038
 31
0.0
  0
LINE
  5
3A3
330
28A
100
AcDbEntity
  8
Hawa2
 62
     9
 48
0.163517
100
AcDbLine
 10
152.466995
 20
141.689423
 30
0.0
 11
157.091949
 21
137.064468
 31
0.0
  0
LINE
  5
3A4
330
28A
100
AcDbEntity
  8
Hawa2
 62
     9
 48
0.063517
100
AcDbLine
 10
155.295425
 20
141.689423
 30
0.0
 11
157.091949
 21
139.892899
 31
0.0
  0
ENDBLK
  5
3A5
330
28A
100
AcDbEntity
  8
0
100
AcDbBlockEnd
  0
BLOCK
  5
3A6
330
28B
100
AcDbEntity
  8
0
100
AcDbBlockBegin
  2
BLOCK11
 70
     0
 10
0.0
 20
0.0
 30
0.0
  3
BLOCK11
  1

  0
LINE
  5
3A7
330
28B
100
AcDbEntity
  8
Hawa2
 62
     9
 48
0.01902
100
AcDbLine
 10
151.226654
 20
122.94239
 30
0.0
 11
151.764618
 21
123.480339
 31
0.0
  0
LINE
  5
3A8
330
28B
100
AcDbEntity
  8
Hawa2
 62
     9
 48
0.062809
100
AcDbLine
 10
148.395264
 20
122.939423
 30
0.0
 11
150.171783
 21
124.715935
 31
0.0
  0
LINE
  5
3A9
330
28B
100
AcDbEntity
  8
Hawa2
 62
     9
 48
0.045947
100
AcDbLine
 10
145.46727
 20
122.839844
 30
0.0
 11
146.766846
 21
124.13942
 31
0.0
  0
LINE
  5
3AA
330
28B
100
AcDbEntity
  8
Hawa2
 62
     9
 48
0.011246
100
AcDbLine
 10
148.311356
 20
125.683937
 30
0.0
 11
148.629456
 21
126.002029
 31
0.0
  0
LINE
  5
3AB
330
28B
100
AcDbEntity
  8
Hawa2
 62
     9
 48
0.085838
100
AcDbLine
 10
141.510544
 20
121.711548
 30
0.0
 11
143.938416
 21
124.13942
 31
0.0
  0
LINE
  5
3AC
330
28B
100
AcDbEntity
  8
Hawa2
 62
     9
 48
0.017689
100
AcDbLine
 10
144.551544
 20
124.752548
 30
0.0
 11
145.051865
 21
125.252876
 31
0.0
  0
LINE
  5
3AD
330
28B
100
AcDbEntity
  8
Hawa2
 62
     9
 48
0.043236
100
AcDbLine
 10
140.171906
 20
123.20134
 30
0.0
 11
141.394806
 21
124.424248
 31
0.0
  0
LINE
  5
3AE
330
28B
100
AcDbEntity
  8
Hawa2
 62
     9
 48
0.00244
100
AcDbLine
 10
142.955963
 20
125.985397
 30
0.0
 11
143.024979
 21
126.0544129999999
 31
0.0
  0
LINE
  5
3AF
330
28B
100
AcDbEntity
  8
Hawa2
 62
     9
 48
0.031943
100
AcDbLine
 10
138.722977
 20
124.580841
 30
0.0
 11
139.626465
 21
125.484322
 31
0.0
  0
LINE
  5
3B0
330
28B
100
AcDbEntity
  8
Hawa2
 62
     9
 48
0.008517
100
AcDbLine
 10
137.26001
 20
125.946297
 30
0.0
 11
137.500916
 21
126.18721
 31
0.0
  0
ENDBLK
  5
3B1
330
28B
100
AcDbEntity
  8
0
100
AcDbBlockEnd
  0
BLOCK
  5
3B2
330
28C
100
AcDbEntity
  8
0
100
AcDbBlockBegin
  2
BLOCK12
 70
     0
 10
0.0
 20
0.0
 30
0.0
  3
BLOCK12
  1

  0
LINE
  5
3B3
330
28C
100
AcDbEntity
  8
Hawa2
 62
     9
 48
0.054883
100
AcDbLine
 10
149.20079
 20
137.887085
 30
0.0
 11
150.753128
 21
139.439423
 31
0.0
  0
LINE
  5
3B4
330
28C
100
AcDbEntity
  8
Hawa2
 62
     9
 48
0.042426
100
AcDbLine
 10
146.724701
 20
138.239426
 30
0.0
 11
147.924698
 21
139.439423
 31
0.0
  0
LINE
  5
3B5
330
28C
100
AcDbEntity
  8
Hawa2
 62
     9
 48
0.042427
100
AcDbLine
 10
143.896271
 20
138.239426
 30
0.0
 11
145.096283
 21
139.439423
 31
0.0
  0
LINE
  5
3B6
330
28C
100
AcDbEntity
  8
Hawa2
 62
     9
 48
0.092985
100
AcDbLine
 10
139.895172
 20
137.066742
 30
0.0
 11
142.525192
 21
139.696762
 31
0.0
  0
ENDBLK
  5
3B7
330
28C
100
AcDbEntity
  8
0
100
AcDbBlockEnd
  0
BLOCK
  5
3B8
330
28D
100
AcDbEntity
  8
0
100
AcDbBlockBegin
  2
BLOCK13
 70
     0
 10
0.0
 20
0.0
 30
0.0
  3
BLOCK13
  1

  0
LINE
  5
3B9
330
28D
100
AcDbEntity
  8
Hawa2
 62
     9
 48
0.086222
100
AcDbLine
 10
27.256929
 20
125.478134
 30
0.0
 11
29.695642
 21
123.039421
 31
0.0
  0
LINE
  5
3BA
330
28D
100
AcDbEntity
  8
Hawa2
 62
     9
 48
0.186222
100
AcDbLine
 10
27.256929
 20
128.306564
 30
0.0
 11
32.524071
 21
123.039421
 31
0.0
  0
LINE
  5
3BB
330
28D
100
AcDbEntity
  8
Hawa2
 62
     9
 48
0.286222
100
AcDbLine
 10
27.256929
 20
131.134995
 30
0.0
 11
35.352497
 21
123.039421
 31
0.0
  0
LINE
  5
3BC
330
28D
100
AcDbEntity
  8
Hawa2
 62
     9
 48
0.23675
100
AcDbLine
 10
27.256929
 20
133.963409
 30
0.0
 11
33.953243
 21
127.267105
 31
0.0
  0
LINE
  5
3BD
330
28D
100
AcDbEntity
  8
Hawa2
 62
     9
 48
0.068943
100
AcDbLine
 10
36.230923
 20
124.989426
 30
0.0
 11
38.180923
 21
123.039421
 31
0.0
  0
LINE
  5
3BE
330
28D
100
AcDbEntity
  8
Hawa2
 62
     9
 48
0.041543
100
AcDbLine
 10
27.256929
 20
136.7918399999999
 30
0.0
 11
28.431929
 21
135.616837
 31
0.0
  0
LINE
  5
3BF
330
28D
100
AcDbEntity
  8
Hawa2
 62
     9
 48
0.099107
100
AcDbLine
 10
31.153755
 20
132.89502
 30
0.0
 11
33.95692800000001
 21
130.091843
 31
0.0
  0
LINE
  5
3C0
330
28D
100
AcDbEntity
  8
Hawa2
 62
     9
 48
0.053205
100
AcDbLine
 10
39.459351
 20
124.589424
 30
0.0
 11
40.964218
 21
123.084557
 31
0.0
  0
LINE
  5
3C1
330
28D
100
AcDbEntity
  8
Hawa2
 62
     9
 48
0.034868
100
AcDbLine
 10
27.704363
 20
139.172836
 30
0.0
 11
28.690569
 21
138.18663
 31
0.0
  0
LINE
  5
3C2
330
28D
100
AcDbEntity
  8
Hawa2
 62
     9
 48
0.05922
100
AcDbLine
 10
32.281929
 20
134.595276
 30
0.0
 11
33.95692800000001
 21
132.920273
 31
0.0
  0
LINE
  5
3C3
330
28D
100
AcDbEntity
  8
Hawa2
 62
     9
 48
0.052149
100
AcDbLine
 10
32.281929
 20
137.423691
 30
0.0
 11
33.756927
 21
135.9487
 31
0.0
  0
LINE
  5
3C4
330
28D
100
AcDbEntity
  8
Hawa2
 62
     9
 48
0.068943
100
AcDbLine
 10
33.19463300000001
 20
139.339417
 30
0.0
 11
35.14463
 21
137.38942
 31
0.0
  0
LINE
  5
3C5
330
28D
100
AcDbEntity
  8
Hawa2
 62
     9
 48
0.068129
100
AcDbLine
 10
36.02306
 20
139.339417
 30
0.0
 11
37.95003100000001
 21
137.412445
 31
0.0
  0
LINE
  5
3C6
330
28D
100
AcDbEntity
  8
Hawa2
 62
     9
 48
0.068877
100
AcDbLine
 10
38.851486
 20
139.339417
 30
0.0
 11
40.799618
 21
137.391296
 31
0.0
  0
ENDBLK
  5
3C7
330
28D
100
AcDbEntity
  8
0
100
AcDbBlockEnd
  0
BLOCK
  5
3C8
330
28E
100
AcDbEntity
  8
0
100
AcDbBlockBegin
  2
BLOCK14
 70
     0
 10
0.0
 20
0.0
 30
0.0
  3
BLOCK14
  1

  0
LINE
  5
3C9
330
28E
100
AcDbEntity
  8
Hawa2
 62
     9
 48
0.046466
100
AcDbLine
 10
39.73661
 20
124.589424
 30
0.0
 11
41.050873
 21
125.903687
 31
0.0
  0
LINE
  5
3CA
330
28E
100
AcDbEntity
  8
Hawa2
 62
     9
 48
0.036325
100
AcDbLine
 10
37.308182
 20
124.989426
 30
0.0
 11
38.335613
 21
126.016853
 31
0.0
  0
LINE
  5
3CB
330
28E
100
AcDbEntity
  8
Hawa2
 62
     9
 48
0.0246
100
AcDbLine
 10
34.483204
 20
124.992867
 30
0.0
 11
35.179001
 21
125.688667
 31
0.0
  0
LINE
  5
3CC
330
28E
100
AcDbEntity
  8
Hawa2
 62
     9
 48
0.026517
100
AcDbLine
 10
33.95692800000001
 20
127.295021
 30
0.0
 11
34.70692800000001
 21
128.045029
 31
0.0
  0
LINE
  5
3CD
330
28E
100
AcDbEntity
  8
Hawa2
 62
     9
 48
0.026517
100
AcDbLine
 10
33.95692800000001
 20
130.123459
 30
0.0
 11
34.70692800000001
 21
130.873459
 31
0.0
  0
LINE
  5
3CE
330
28E
100
AcDbEntity
  8
Hawa2
 62
     9
 48
0.023534
100
AcDbLine
 10
40.496284
 20
136.662811
 30
0.0
 11
41.161934
 21
137.328461
 31
0.0
  0
LINE
  5
3CF
330
28E
100
AcDbEntity
  8
Hawa2
 62
     9
 48
0.026517
100
AcDbLine
 10
33.95692800000001
 20
132.951874
 30
0.0
 11
34.70692800000001
 21
133.701874
 31
0.0
  0
LINE
  5
3D0
330
28E
100
AcDbEntity
  8
Hawa2
 62
     9
 48
0.052467
100
AcDbLine
 10
37.31049
 20
136.305435
 30
0.0
 11
38.794472
 21
137.789429
 31
0.0
  0
LINE
  5
3D1
330
28E
100
AcDbEntity
  8
Hawa2
 62
     9
 48
0.025918
100
AcDbLine
 10
33.773872
 20
135.597244
 30
0.0
 11
34.50692700000001
 21
136.330307
 31
0.0
  0
LINE
  5
3D2
330
28E
100
AcDbEntity
  8
Hawa2
 62
     9
 48
0.024722
100
AcDbLine
 10
34.866798
 20
136.69017
 30
0.0
 11
35.566048
 21
137.38942
 31
0.0
  0
ENDBLK
  5
3D3
330
28E
100
AcDbEntity
  8
0
100
AcDbBlockEnd
  0
BLOCK
  5
3D4
330
28F
100
AcDbEntity
  8
0
100
AcDbBlockBegin
  2
BLOCK15
 70
     0
 10
0.0
 20
0.0
 30
0.0
  3
BLOCK15
  1

  0
LINE
  5
3D5
330
28F
100
AcDbEntity
  8
Hawa2
 62
     9
 48
0.067487
100
AcDbLine
 10
29.445517
 20
134.097321
 30
0.0
 11
31.354338
 21
136.006149
 31
0.0
  0
LINE
  5
3D6
330
28F
100
AcDbEntity
  8
Hawa2
 62
     9
 48
0.00331
100
AcDbLine
 10
28.415449
 20
135.895676
 30
0.0
 11
28.50906
 21
135.989288
 31
0.0
  0
LINE
  5
3D7
330
28F
100
AcDbEntity
  8
Hawa2
 62
     9
 48
0.091919
100
AcDbLine
 10
28.977495
 20
136.457733
 30
0.0
 11
31.577354
 21
139.057587
 31
0.0
  0
LINE
  5
3D8
330
28F
100
AcDbEntity
  8
Hawa2
 62
     9
 48
0.019438
100
AcDbLine
 10
32.010872
 20
139.491104
 30
0.0
 11
32.560669
 21
140.040894
 31
0.0
  0
LINE
  5
3D9
330
28F
100
AcDbEntity
  8
Hawa2
 62
     9
 48
0.058809
100
AcDbLine
 10
29.040983
 20
139.34964
 30
0.0
 11
30.704357
 21
141.013016
 31
0.0
  0
LINE
  5
3DA
330
28F
100
AcDbEntity
  8
Hawa2
 62
     9
 48
0.018678
100
AcDbLine
 10
32.303101
 20
142.611755
 30
0.0
 11
32.831402
 21
143.14006
 31
0.0
  0
LINE
  5
3DB
330
28F
100
AcDbEntity
  8
Hawa2
 62
     9
 48
0.020214
100
AcDbLine
 10
28.125326
 20
141.262405
 30
0.0
 11
28.697067
 21
141.834152
 31
0.0
  0
LINE
  5
3DC
330
28F
100
AcDbEntity
  8
Hawa2
 62
     9
 48
0.012664
100
AcDbLine
 10
31.481237
 20
144.618317
 30
0.0
 11
31.839436
 21
144.976517
 31
0.0
  0
LINE
  5
3DD
330
28F
100
AcDbEntity
  8
Hawa2
 62
     9
 48
0.099943
100
AcDbLine
 10
28.075314
 20
144.040833
 30
0.0
 11
30.902128
 21
146.867645
 31
0.0
  0
LINE
  5
3DE
330
28F
100
AcDbEntity
  8
Hawa2
 62
     9
 48
0.027725
100
AcDbLine
 10
29.931143
 20
148.725082
 30
0.0
 11
30.715338
 21
149.509277
 31
0.0
  0
ENDBLK
  5
3DF
330
28F
100
AcDbEntity
  8
0
100
AcDbBlockEnd
  0
BLOCK
  5
3E0
330
290
100
AcDbEntity
  8
0
100
AcDbBlockBegin
  2
BLOCK16
 70
     0
 10
0.0
 20
0.0
 30
0.0
  3
BLOCK16
  1

  0
LINE
  5
3E1
330
290
100
AcDbEntity
  8
Hawa2
 62
     9
 48
0.009598
100
AcDbLine
 10
32.831402
 20
143.14006
 30
0.0
 11
33.102875
 21
143.41153
 31
0.0
  0
LINE
  5
3E2
330
290
100
AcDbEntity
  8
Hawa2
 62
     9
 48
0.007536
100
AcDbLine
 10
31.839436
 20
144.976517
 30
0.0
 11
32.052582
 21
145.189667
 31
0.0
  0
LINE
  5
3E3
330
290
100
AcDbEntity
  8
Hawa2
 62
     9
 48
0.016812
100
AcDbLine
 10
27.599813
 20
143.565323
 30
0.0
 11
28.075314
 21
144.040833
 31
0.0
  0
LINE
  5
3E4
330
290
100
AcDbEntity
  8
Hawa2
 62
     9
 48
0.009931
100
AcDbLine
 10
30.902128
 20
146.867645
 30
0.0
 11
31.183016
 21
147.148529
 31
0.0
  0
LINE
  5
3E5
330
290
100
AcDbEntity
  8
Hawa2
 62
     9
 48
0.011506
100
AcDbLine
 10
29.605705
 20
148.399643
 30
0.0
 11
29.931143
 21
148.725082
 31
0.0
  0
LINE
  5
3E6
330
290
100
AcDbEntity
  8
Hawa2
 62
     9
 48
0.009931
100
AcDbLine
 10
30.715338
 20
149.509277
 30
0.0
 11
30.996225
 21
149.790161
 31
0.0
  0
LINE
  5
3E7
330
290
100
AcDbEntity
  8
Hawa2
 62
     9
 48
0.028239
100
AcDbLine
 10
29.557281
 20
151.179642
 30
0.0
 11
30.356005
 21
151.978363
 31
0.0
  0
ENDBLK
  5
3E8
330
290
100
AcDbEntity
  8
0
100
AcDbBlockEnd
  0
BLOCK
  5
3E9
330
291
100
AcDbEntity
  8
0
100
AcDbBlockBegin
  2
BLOCK17
 70
     0
 10
0.0
 20
0.0
 30
0.0
  3
BLOCK17
  1

  0
LINE
  5
3EA
330
291
100
AcDbEntity
  8
Hawa2
 62
     9
 48
0.008986
100
AcDbLine
 10
-67.43289200000001
 20
138.14357
 30
0.0
 11
-67.178741
 21
137.88942
 31
0.0
  0
LINE
  5
3EB
330
291
100
AcDbEntity
  8
Hawa2
 62
     9
 48
0.09932
100
AcDbLine
 10
-67.159508
 20
140.698608
 30
0.0
 11
-64.350319
 21
137.88942
 31
0.0
  0
LINE
  5
3EC
330
291
100
AcDbEntity
  8
Hawa2
 62
     9
 48
0.191308
100
AcDbLine
 10
-66.93289200000001
 20
143.300415
 30
0.0
 11
-61.521889
 21
137.88942
 31
0.0
  0
LINE
  5
3ED
330
291
100
AcDbEntity
  8
Hawa2
 62
     9
 48
0.106117
100
AcDbLine
 10
-66.93289200000001
 20
146.128845
 30
0.0
 11
-63.931458
 21
143.127411
 31
0.0
  0
LINE
  5
3EE
330
291
100
AcDbEntity
  8
Hawa2
 62
     9
 48
0.099046
100
AcDbLine
 10
-61.49489599999999
 20
140.690857
 30
0.0
 11
-58.69346199999999
 21
137.88942
 31
0.0
  0
LINE
  5
3EF
330
291
100
AcDbEntity
  8
Hawa2
 62
     9
 48
0.106066
100
AcDbLine
 10
-66.93289200000001
 20
148.957275
 30
0.0
 11
-63.932892
 21
145.957275
 31
0.0
  0
LINE
  5
3F0
330
291
100
AcDbEntity
  8
Hawa2
 62
     9
 48
0.098995
100
AcDbLine
 10
-58.665035
 20
140.689423
 30
0.0
 11
-55.865036
 21
137.88942
 31
0.0
  0
LINE
  5
3F1
330
291
100
AcDbEntity
  8
Hawa2
 62
     9
 48
0.106066
100
AcDbLine
 10
-66.93289200000001
 20
151.785706
 30
0.0
 11
-63.932892
 21
148.785706
 31
0.0
  0
LINE
  5
3F2
330
291
100
AcDbEntity
  8
Hawa2
 62
     9
 48
0.109717
100
AcDbLine
 10
-56.139862
 20
140.992676
 30
0.0
 11
-53.03660999999999
 21
137.88942
 31
0.0
  0
LINE
  5
3F3
330
291
100
AcDbEntity
  8
Hawa2
 62
     9
 48
0.106066
100
AcDbLine
 10
-66.93289200000001
 20
154.614136
 30
0.0
 11
-63.932892
 21
151.614136
 31
0.0
  0
LINE
  5
3F4
330
291
100
AcDbEntity
  8
Hawa2
 62
     9
 48
0.166125
100
AcDbLine
 10
-54.906902
 20
142.58815
 30
0.0
 11
-50.208183
 21
137.88942
 31
0.0
  0
LINE
  5
3F5
330
291
100
AcDbEntity
  8
Hawa2
 62
     9
 48
0.106066
100
AcDbLine
 10
-66.93289200000001
 20
157.442551
 30
0.0
 11
-63.932892
 21
154.442551
 31
0.0
  0
LINE
  5
3F6
330
291
100
AcDbEntity
  8
Hawa2
 62
     9
 48
0.106066
100
AcDbLine
 10
-54.83289
 20
145.34256
 30
0.0
 11
-51.83289
 21
142.34256
 31
0.0
  0
LINE
  5
3F7
330
291
100
AcDbEntity
  8
Hawa2
 62
     9
 48
0.092136
100
AcDbLine
 10
-50.17975599999999
 20
140.689423
 30
0.0
 11
-47.57377199999999
 21
138.083435
 31
0.0
  0
LINE
  5
3F8
330
291
100
AcDbEntity
  8
Hawa2
 62
     9
 48
0.106066
100
AcDbLine
 10
-66.93289200000001
 20
160.270981
 30
0.0
 11
-63.932892
 21
157.270981
 31
0.0
  0
LINE
  5
3F9
330
291
100
AcDbEntity
  8
Hawa2
 62
     9
 48
0.106066
100
AcDbLine
 10
-54.83289
 20
148.17099
 30
0.0
 11
-51.83289
 21
145.17099
 31
0.0
  0
LINE
  5
3FA
330
291
100
AcDbEntity
  8
Hawa2
 62
     9
 48
0.077644
100
AcDbLine
 10
-48.632889
 20
141.970978
 30
0.0
 11
-46.436779
 21
139.774872
 31
0.0
  0
LINE
  5
3FB
330
291
100
AcDbEntity
  8
Hawa2
 62
     9
 48
0.106066
100
AcDbLine
 10
-66.93289200000001
 20
163.099411
 30
0.0
 11
-63.932892
 21
160.099411
 31
0.0
  0
LINE
  5
3FC
330
291
100
AcDbEntity
  8
Hawa2
 62
     9
 48
0.059751
100
AcDbLine
 10
-53.52289999999999
 20
149.689423
 30
0.0
 11
-51.83289
 21
147.999405
 31
0.0
  0
LINE
  5
3FD
330
291
100
AcDbEntity
  8
Hawa2
 62
     9
 48
0.060073
100
AcDbLine
 10
-48.632889
 20
144.799408
 30
0.0
 11
-46.933765
 21
143.100296
 31
0.0
  0
LINE
  5
3FE
330
291
100
AcDbEntity
  8
Hawa2
 62
     9
 48
0.106066
100
AcDbLine
 10
-66.93289200000001
 20
165.927841
 30
0.0
 11
-63.932892
 21
162.927841
 31
0.0
  0
LINE
  5
3FF
330
291
100
AcDbEntity
  8
Hawa2
 62
     9
 48
0.106066
100
AcDbLine
 10
-66.93289200000001
 20
168.756271
 30
0.0
 11
-63.932892
 21
165.756271
 31
0.0
  0
LINE
  5
400
330
291
100
AcDbEntity
  8
Hawa2
 62
     9
 48
0.106066
100
AcDbLine
 10
-66.93289200000001
 20
171.584686
 30
0.0
 11
-63.932892
 21
168.584686
 31
0.0
  0
LINE
  5
401
330
291
100
AcDbEntity
  8
Hawa2
 62
     9
 48
0.131291
100
AcDbLine
 10
-67.43289200000001
 20
174.913116
 30
0.0
 11
-63.71943299999999
 21
171.199661
 31
0.0
  0
LINE
  5
402
330
291
100
AcDbEntity
  8
Hawa2
 62
     9
 48
0.1038
100
AcDbLine
 10
-65.180763
 20
175.489426
 30
0.0
 11
-62.244854
 21
172.553513
 31
0.0
  0
LINE
  5
403
330
291
100
AcDbEntity
  8
Hawa2
 62
     9
 48
0.05134
100
AcDbLine
 10
-54.83289
 20
165.141541
 30
0.0
 11
-53.380764
 21
163.689423
 31
0.0
  0
LINE
  5
404
330
291
100
AcDbEntity
  8
Hawa2
 62
     9
 48
0.098995
100
AcDbLine
 10
-62.352337
 20
175.489426
 30
0.0
 11
-59.552338
 21
172.689423
 31
0.0
  0
LINE
  5
405
330
291
100
AcDbEntity
  8
Hawa2
 62
     9
 48
0.106066
100
AcDbLine
 10
-54.83289
 20
167.969971
 30
0.0
 11
-51.83289
 21
164.969971
 31
0.0
  0
LINE
  5
406
330
291
100
AcDbEntity
  8
Hawa2
 62
     9
 48
0.102696
100
AcDbLine
 10
-59.52391099999999
 20
175.489426
 30
0.0
 11
-56.619236
 21
172.584747
 31
0.0
  0
LINE
  5
407
330
291
100
AcDbEntity
  8
Hawa2
 62
     9
 48
0.109767
100
AcDbLine
 10
-54.93756499999999
 20
170.903076
 30
0.0
 11
-51.83289
 21
167.798401
 31
0.0
  0
LINE
  5
408
330
291
100
AcDbEntity
  8
Hawa2
 62
     9
 48
0.171919
100
AcDbLine
 10
-56.695484
 20
175.489426
 30
0.0
 11
-51.83289
 21
170.626831
 31
0.0
  0
LINE
  5
409
330
291
100
AcDbEntity
  8
Hawa2
 62
     9
 48
0.098995
100
AcDbLine
 10
-53.86705799999999
 20
175.489426
 30
0.0
 11
-51.067055
 21
172.689423
 31
0.0
  0
LINE
  5
40A
330
291
100
AcDbEntity
  8
Hawa2
 62
     9
 48
0.05124
100
AcDbLine
 10
-48.632889
 20
170.255249
 30
0.0
 11
-47.183609
 21
168.805969
 31
0.0
  0
LINE
  5
40B
330
291
100
AcDbEntity
  8
Hawa2
 62
     9
 48
0.150648
100
AcDbLine
 10
-51.038628
 20
175.489426
 30
0.0
 11
-46.77765299999999
 21
171.2284389999999
 31
0.0
  0
LINE
  5
40C
330
291
100
AcDbEntity
  8
Hawa2
 62
     9
 48
0.061798
100
AcDbLine
 10
-48.19546500000001
 20
175.474686
 30
0.0
 11
-46.447552
 21
173.726776
 31
0.0
  0
ENDBLK
  5
40D
330
291
100
AcDbEntity
  8
0
100
AcDbBlockEnd
  0
BLOCK
  5
40E
330
292
100
AcDbEntity
  8
0
100
AcDbBlockBegin
  2
BLOCK18
 70
     0
 10
0.0
 20
0.0
 30
0.0
  3
BLOCK18
  1

  0
LINE
  5
40F
330
292
100
AcDbEntity
  8
Hawa2
 62
     9
 48
0.023043
100
AcDbLine
 10
-49.284657
 20
143.048386
 30
0.0
 11
-48.632889
 21
143.70015
 31
0.0
  0
LINE
  5
410
330
292
100
AcDbEntity
  8
Hawa2
 62
     9
 48
0.089601
100
AcDbLine
 10
-51.167198
 20
143.994278
 30
0.0
 11
-48.632889
 21
146.52858
 31
0.0
  0
LINE
  5
411
330
292
100
AcDbEntity
  8
Hawa2
 62
     9
 48
0.018824
100
AcDbLine
 10
-51.83289
 20
146.157013
 30
0.0
 11
-51.30047600000001
 21
146.689423
 31
0.0
  0
LINE
  5
412
330
292
100
AcDbEntity
  8
Hawa2
 62
     9
 48
0.111034
100
AcDbLine
 10
-50.53791799999999
 20
147.451981
 30
0.0
 11
-47.397415
 21
150.592484
 31
0.0
  0
LINE
  5
413
330
292
100
AcDbEntity
  8
Hawa2
 62
     9
 48
0.160965
100
AcDbLine
 10
-51.140202
 20
149.678131
 30
0.0
 11
-46.587421
 21
154.230911
 31
0.0
  0
LINE
  5
414
330
292
100
AcDbEntity
  8
Hawa2
 62
     9
 48
0.021623
100
AcDbLine
 10
-55.44447299999999
 20
148.202286
 30
0.0
 11
-54.83289
 21
148.813858
 31
0.0
  0
LINE
  5
415
330
292
100
AcDbEntity
  8
Hawa2
 62
     9
 48
0.070711
100
AcDbLine
 10
-53.957329
 20
149.689423
 30
0.0
 11
-51.957329
 21
151.689423
 31
0.0
  0
LINE
  5
416
330
292
100
AcDbEntity
  8
Hawa2
 62
     9
 48
0.10578
100
AcDbLine
 10
-49.43289199999999
 20
154.213867
 30
0.0
 11
-46.44098999999999
 21
157.205765
 31
0.0
  0
LINE
  5
417
330
292
100
AcDbEntity
  8
Hawa2
 62
     9
 48
0.087265
100
AcDbLine
 10
-57.25397099999999
 20
149.221207
 30
0.0
 11
-54.785759
 21
151.689423
 31
0.0
  0
LINE
  5
418
330
292
100
AcDbEntity
  8
Hawa2
 62
     9
 48
0.097366
100
AcDbLine
 10
-49.43289199999999
 20
157.042297
 30
0.0
 11
-46.678963
 21
159.796219
 31
0.0
  0
LINE
  5
419
330
292
100
AcDbEntity
  8
Hawa2
 62
     9
 48
0.050662
100
AcDbLine
 10
-59.04712299999999
 20
150.256485
 30
0.0
 11
-57.614185
 21
151.689423
 31
0.0
  0
LINE
  5
41A
330
292
100
AcDbEntity
  8
Hawa2
 62
     9
 48
0.079247
100
AcDbLine
 10
-49.43289199999999
 20
159.870712
 30
0.0
 11
-47.191456
 21
162.112152
 31
0.0
  0
LINE
  5
41B
330
292
100
AcDbEntity
  8
Hawa2
 62
     9
 48
0.035355
100
AcDbLine
 10
-59.83289
 20
152.299149
 30
0.0
 11
-58.83289
 21
153.299149
 31
0.0
  0
LINE
  5
41C
330
292
100
AcDbEntity
  8
Hawa2
 62
     9
 48
0.089186
100
AcDbLine
 10
-50.442612
 20
161.689423
 30
0.0
 11
-47.920052
 21
164.21199
 31
0.0
  0
LINE
  5
41D
330
292
100
AcDbEntity
  8
Hawa2
 62
     9
 48
0.035355
100
AcDbLine
 10
-59.83289
 20
155.127579
 30
0.0
 11
-58.83289
 21
156.127579
 31
0.0
  0
LINE
  5
41E
330
292
100
AcDbEntity
  8
Hawa2
 62
     9
 48
0.07073
100
AcDbLine
 10
-53.27103799999999
 20
161.689423
 30
0.0
 11
-51.270496
 21
163.689972
 31
0.0
  0
LINE
  5
41F
330
292
100
AcDbEntity
  8
Hawa2
 62
     9
 48
0.059793
100
AcDbLine
 10
-50.288982
 20
164.671478
 30
0.0
 11
-48.597794
 21
166.362671
 31
0.0
  0
LINE
  5
420
330
292
100
AcDbEntity
  8
Hawa2
 62
     9
 48
0.035355
100
AcDbLine
 10
-59.83289
 20
157.955994
 30
0.0
 11
-58.83289
 21
158.955994
 31
0.0
  0
LINE
  5
421
330
292
100
AcDbEntity
  8
Hawa2
 62
     9
 48
0.070711
100
AcDbLine
 10
-56.099464
 20
161.689423
 30
0.0
 11
-54.099464
 21
163.689423
 31
0.0
  0
LINE
  5
422
330
292
100
AcDbEntity
  8
Hawa2
 62
     9
 48
0.087207
100
AcDbLine
 10
-51.099464
 20
166.689423
 30
0.0
 11
-48.632889
 21
169.156006
 31
0.0
  0
LINE
  5
423
330
292
100
AcDbEntity
  8
Hawa2
 62
     9
 48
0.155329
100
AcDbLine
 10
-59.83289
 20
160.784424
 30
0.0
 11
-55.43951800000001
 21
165.177795
 31
0.0
  0
ENDBLK
  5
424
330
292
100
AcDbEntity
  8
0
100
AcDbBlockEnd
  0
BLOCK
  5
51C
330
51B
100
AcDbEntity
  8
0
100
AcDbBlockBegin
  2
_Oblique
 70
     0
 10
0.0
 20
0.0
 30
0.0
  3
_Oblique
  1

  0
LINE
  5
51D
330
51B
100
AcDbEntity
  8
0
 62
     0
370
    -2
100
AcDbLine
 10
-0.5
 20
-0.5
 30
0.0
 11
0.5
 21
0.5
 31
0.0
  0
ENDBLK
  5
51E
330
51B
100
AcDbEntity
  8
0
100
AcDbBlockEnd
  0
ENDSEC
  0
SECTION
  2
ENTITIES
  0
DIMENSION
  5
21
330
A
100
AcDbEntity
  8
Hawa1
 62
     0
100
AcDbDimension
  2
*D0
 10
256.7389097042694
 20
99.87109076237587
 30
0.0
 11
246.6049233703786
 21
104.316459098266
 31
0.0
 70
    32
 71
     5
 42
2.499578812810341
 52
89.999523
  3
HAWA-Strich
100
AcDbAlignedDimension
 13
259.23868
 23
111.371241
 33
0.0
 14
256.73868
 24
86.07540400000001
 34
0.0
 50
179.999046
100
AcDbRotatedDimension
  0
DIMENSION
  5
23
330
A
100
AcDbEntity
  8
Hawa1
 62
     0
100
AcDbDimension
  2
*D1
 10
259.2389630323104
 20
56.93887462820485
 30
0.0
 11
268.4927337076155
 21
61.38206757153276
 31
0.0
 70
    32
 71
     5
 42
14.00066220601994
 52
89.999523
  3
HAWA-Strich
100
AcDbAlignedDimension
 13
245.23868
 23
68.325404
 33
0.0
 14
259.23868
 24
48.43963099999999
 34
0.0
 50
359.998092
100
AcDbRotatedDimension
  0
DIMENSION
  5
25
330
A
100
AcDbEntity
  8
Hawa1
 62
     0
100
AcDbDimension
  2
*D2
 10
11.74880400000002
 20
121.325404
 30
0.0
 11
7.347765408935878
 21
102.325404
 31
0.0
 70
    33
 71
     5
 42
38.0
 52
89.999523
  3
HAWA-Strich
100
AcDbAlignedDimension
 13
34.713838
 23
83.325404
 33
0.0
 14
34.713838
 24
121.325404
 34
0.0
  0
DIMENSION
  5
27
330
A
100
AcDbEntity
  8
Hawa1
 62
     0
100
AcDbDimension
  2
*D3
 10
34.71420287603687
 20
143.2393001799055
 30
0.0
 11
45.20105988929355
 21
147.6834759194882
 31
0.0
 70
    32
 71
     5
 42
20.97356602863358
 52
89.999523
  3
HAWA-Strich
100
AcDbAlignedDimension
 13
55.687362
 23
118.801054
 33
0.0
 14
34.713838
 24
121.325404
 34
0.0
 50
179.999046
100
AcDbRotatedDimension
  0
DIMENSION
  5
29
330
A
100
AcDbEntity
  8
Hawa1
 62
     0
100
AcDbDimension
  2
*D4
 10
211.7096466003218
 20
76.82522162892779
 30
0.0
 11
211.7099575776001
 21
89.27643446371149
 31
0.0
 70
   160
 71
     5
 42
25.49944704396134
 52
89.999523
  3
HAWA-Strich
100
AcDbAlignedDimension
 13
182.268218
 23
102.325404
 33
0.0
 14
204.407695
 24
76.825404
 34
0.0
 50
269.998569
100
AcDbRotatedDimension
  0
DIMENSION
  5
2B
330
A
100
AcDbEntity
  8
Hawa1
 62
     0
100
AcDbDimension
  2
*D5
 10
191.452087025856
 20
81.82572665545155
 30
0.0
 11
191.4532931171283
 21
130.1163902456991
 31
0.0
 70
   160
  1
-15,5 [{\H0.7x;\S5/8;}"]
 71
     5
 42
15.49935144656652
 52
89.999523
  3
HAWA-Strich
100
AcDbAlignedDimension
 13
178.403658
 23
97.32540400000001
 33
0.0
 14
204.370882
 24
81.825404
 34
0.0
 50
269.998569
100
AcDbRotatedDimension
  0
DIMENSION
  5
2D
330
A
100
AcDbEntity
  8
Hawa1
 62
     0
100
AcDbDimension
  2
*D6
 10
191.4522819159182
 20
81.82572665058405
 30
0.0
 11
191.4530230870605
 21
111.5014627349178
 31
0.0
 70
   160
  1
14,5 [{\H0.7x;\S9/16;}"]
 71
     5
 42
15.49935144656652
 52
89.999523
  3
HAWA-Strich
100
AcDbAlignedDimension
 13
178.403658
 23
97.32540400000001
 33
0.0
 14
204.370882
 24
81.825404
 34
0.0
 50
269.998569
100
AcDbRotatedDimension
  0
DIMENSION
  5
2F
330
A
100
AcDbEntity
  8
Hawa1
 62
     0
100
AcDbDimension
  2
*D7
 10
129.404240866493
 20
118.9814732513216
 30
0.0
 11
154.4041288054172
 21
123.4262565927088
 31
0.0
 70
    32
  1
=><>
 71
     5
 42
49.99962785571128
 52
89.999523
  3
HAWA-Strich
100
AcDbAlignedDimension
 13
179.403658
 23
106.325404
 33
0.0
 14
129.403658
 24
83.975404
 34
0.0
 50
179.999046
100
AcDbRotatedDimension
  0
DIMENSION
  5
31
330
A
100
AcDbEntity
  8
Hawa1
 62
     0
100
AcDbDimension
  2
*D8
 10
79.83499002433465
 20
97.32540400000001
 30
0.0
 11
79.83499002433463
 21
130.4605773624651
 31
0.0
 70
   161
  1
-12,7 [{\H0.7x;\S1/2;\H1.429x;"]}
 71
     5
 42
10.0
 52
89.999523
  3
HAWA-Strich
100
AcDbAlignedDimension
 13
94.50521999999999
 23
107.325404
 33
0.0
 14
94.50521999999999
 24
97.32540400000001
 34
0.0
  0
DIMENSION
  5
33
330
A
100
AcDbEntity
  8
Hawa1
 62
     0
100
AcDbDimension
  2
*D9
 10
79.83499002433465
 20
97.32540400000001
 30
0.0
 11
79.83499002433465
 21
116.8994119928376
 31
0.0
 70
   161
  1
8 [{\H0.7x;\S5/16;\H1.429x;"] -}
 71
     5
 42
10.0
 52
89.999523
  3
HAWA-Strich
100
AcDbAlignedDimension
 13
94.50521999999999
 23
107.325404
 33
0.0
 14
94.50521999999999
 24
97.32540400000001
 34
0.0
  0
DIMENSION
  5
35
330
A
100
AcDbEntity
  8
Hawa1
 62
     0
100
AcDbDimension
  2
*D10
 10
106.5406468224718
 20
84.975404
 30
0.0
 11
106.5406468224718
 21
57.49277611947478
 31
0.0
 70
   161
 71
     5
 42
16.3
 52
89.999523
  3
HAWA-Strich
100
AcDbAlignedDimension
 13
130.403658
 23
68.675404
 33
0.0
 14
130.403658
 24
84.975404
 34
0.0
  0
DIMENSION
  5
37
330
A
100
AcDbEntity
  8
Hawa1
 62
     0
100
AcDbDimension
  2
*D11
 10
136.1031461158336
 20
57.35391431256351
 30
0.0
 11
120.1052792441313
 21
57.3544470556427
 31
0.0
 70
   160
 71
     5
 42
6.699898428594536
 52
89.999523
  3
HAWA-Strich
100
AcDbAlignedDimension
 13
129.403658
 23
69.675404
 33
0.0
 14
136.103658
 24
72.725404
 34
0.0
 50
359.998092
100
AcDbRotatedDimension
  0
DIMENSION
  5
39
330
A
100
AcDbEntity
  8
Hawa1
 62
     0
100
AcDbDimension
  2
*D12
 10
136.8528125353744
 20
47.02608746903868
 30
0.0
 11
119.3085944450011
 21
47.02667170697756
 31
0.0
 70
   160
 71
     5
 42
7.449908773464017
 52
89.999523
  3
HAWA-Strich
100
AcDbAlignedDimension
 13
129.403658
 23
69.675404
 33
0.0
 14
136.853658
 24
72.414743
 34
0.0
 50
359.998092
100
AcDbRotatedDimension
  0
DIMENSION
  5
3B
330
A
100
AcDbEntity
  8
Hawa1
 62
     0
100
AcDbDimension
  2
*D13
 10
143.402651924214
 20
38.96371826383592
 30
0.0
 11
152.6564225995192
 21
43.40691120716383
 31
0.0
 70
    32
 71
     5
 42
14.00001664267842
 52
89.999523
  3
HAWA-Strich
100
AcDbAlignedDimension
 13
129.403658
 23
69.675404
 33
0.0
 14
143.403658
 24
69.175404
 34
0.0
 50
359.998092
100
AcDbRotatedDimension
  0
DIMENSION
  5
3D
330
A
100
AcDbEntity
  8
Hawa1
 62
     0
100
AcDbDimension
  2
*D14
 10
226.0192713801408
 20
71.82511307376862
 30
0.0
 11
226.0198147462364
 21
93.58093697527769
 31
0.0
 70
   160
  1
8 [{\H0.7x;\S5/16;\H1.429x;"]}
 71
     5
 42
10.00063214328892
 52
89.999523
  3
HAWA-Strich
100
AcDbAlignedDimension
 13
239.681379
 23
81.825404
 33
0.0
 14
214.370882
 24
71.825404
 34
0.0
 50
269.998569
100
AcDbRotatedDimension
  0
DIMENSION
  5
3F
330
A
100
AcDbEntity
  8
Hawa1
 62
     0
100
AcDbDimension
  2
*D15
 10
226.0197168797789
 20
81.82551773634999
 30
0.0
 11
226.0199330758431
 21
107.7943270199473
 31
0.0
 70
   160
  1
-12 [{\H0.7x;\S15/32;\H1.429x;"]}
 71
     5
 42
10.00021071512276
 52
89.999523
  3
HAWA-Strich
100
AcDbAlignedDimension
 13
214.370882
 23
71.825404
 33
0.0
 14
239.681379
 24
81.825404
 34
0.0
 50
89.999523
100
AcDbRotatedDimension
  0
DIMENSION
  5
41
330
A
100
AcDbEntity
  8
Hawa1
 62
     0
100
AcDbDimension
  2
*D16
 10
269.161682
 20
66.325404
 30
0.0
 11
264.7173316502387
 21
76.82540400000005
 31
0.0
 70
    33
 71
     5
 42
21.0
 52
89.999523
  3
HAWA-Strich
100
AcDbAlignedDimension
 13
258.73868
 23
87.32540400000001
 33
0.0
 14
258.73868
 24
66.325404
 34
0.0
  0
LINE
  5
42
330
A
100
AcDbEntity
  8
Hawa5
  6
DASHDOT
 62
     1
100
AcDbLine
 10
204.407692
 20
76.825404
 30
0.0
 11
129.2739639999999
 21
76.825404
 31
0.0
  0
LINE
  5
43
330
A
100
AcDbEntity
  8
Hawa5
  6
DASHDOT
 62
     1
100
AcDbLine
 10
256.575454
 20
76.825404
 30
0.0
 11
214.279724
 21
76.825404
 31
0.0
  0
LINE
  5
44
330
A
100
AcDbEntity
  8
Hawa5
  6
DASHDOT
 62
     1
100
AcDbLine
 10
54.03469799999999
 20
102.325404
 30
0.0
 11
94.939447
 21
102.325404
 31
0.0
  0
LINE
  5
45
330
A
100
AcDbEntity
  8
Hawa5
  6
DASHDOT
 62
     1
100
AcDbLine
 10
104.478826
 20
102.325404
 30
0.0
 11
182.268219
 21
102.325404
 31
0.0
  0
LINE
  5
46
330
A
100
AcDbEntity
  8
Hawa5
  6
PHANTOM
 62
     1
100
AcDbLine
 10
214.370882
 20
92.26238499999999
 30
0.0
 11
214.370882
 21
61.39662399999999
 31
0.0
  0
LINE
  5
47
330
A
100
AcDbEntity
  8
Hawa5
  6
PHANTOM
 62
     1
100
AcDbLine
 10
204.370882
 20
92.26238499999999
 30
0.0
 11
204.370882
 21
61.39662399999999
 31
0.0
  0
LINE
  5
48
330
A
100
AcDbEntity
  8
Hawa5
  6
PHANTOM
 62
     1
 48
0.479073
100
AcDbLine
 10
104.50522
 20
111.378047
 30
0.0
 11
104.50522
 21
92.215144
 31
0.0
  0
LINE
  5
49
330
A
100
AcDbEntity
  8
Hawa5
  6
PHANTOM
 62
     1
 48
0.479073
100
AcDbLine
 10
94.50521999999999
 20
111.378047
 30
0.0
 11
94.50521999999999
 21
92.215144
 31
0.0
  0
LINE
  5
4A
330
A
100
AcDbEntity
  8
Hawa5
 62
     1
100
AcDbLine
 10
259.23868
 20
53.825404
 30
0.0
 11
259.23868
 21
133.825404
 31
0.0
  0
LINE
  5
4B
330
A
100
AcDbEntity
  8
Hawa4
 62
     4
 48
0.075032
100
AcDbLine
 10
253.7372
 20
77.125404
 30
0.0
 11
256.738467
 21
77.125404
 31
0.0
  0
LINE
  5
4C
330
A
100
AcDbEntity
  8
Hawa6
 62
     3
 48
0.004997
100
AcDbLine
 10
129.403658
 20
84.575404
 30
0.0
 11
129.603518
 21
84.575404
 31
0.0
  0
LINE
  5
4D
330
A
100
AcDbEntity
  8
Hawa4
 62
     4
 48
0.001134
100
AcDbLine
 10
133.706803
 20
84.575404
 30
0.0
 11
133.752179
 21
84.575404
 31
0.0
  0
LINE
  5
4E
330
A
100
AcDbEntity
  8
Hawa4
 62
     4
 48
0.00026
100
AcDbLine
 10
143.393256
 20
84.575404
 30
0.0
 11
143.403647
 21
84.575404
 31
0.0
  0
LINE
  5
4F
330
A
100
AcDbEntity
  8
Hawa4
 62
     4
 48
0.070827
100
AcDbLine
 10
253.905598
 20
84.575404
 30
0.0
 11
256.738677
 21
84.575404
 31
0.0
  0
LINE
  5
50
330
A
100
AcDbEntity
  8
Hawa6
 62
     3
 48
0.015
100
AcDbLine
 10
129.403658
 20
84.575404
 30
0.0
 11
129.403658
 21
83.975404
 31
0.0
  0
LINE
  5
51
330
A
100
AcDbEntity
  8
Hawa4
 62
     4
 48
0.00125
100
AcDbLine
 10
136.852179
 20
77.125404
 30
0.0
 11
136.902179
 21
77.125404
 31
0.0
  0
LINE
  5
52
330
A
100
AcDbEntity
  8
Hawa4
 62
     4
 48
0.082526
100
AcDbLine
 10
253.7372
 20
76.825404
 30
0.0
 11
257.038257
 21
76.825404
 31
0.0
  0
LINE
  5
53
330
A
100
AcDbEntity
  8
Hawa4
 62
     4
 48
0.075037
100
AcDbLine
 10
253.7372
 20
76.52540400000001
 30
0.0
 11
256.738676
 21
76.52540400000001
 31
0.0
  0
LINE
  5
54
330
A
100
AcDbEntity
  8
Hawa4
 62
     4
 48
0.075032
100
AcDbLine
 10
253.7372
 20
74.70528900000001
 30
0.0
 11
256.738466
 21
74.70528900000001
 31
0.0
  0
LINE
  5
55
330
A
100
AcDbEntity
  8
Hawa4
 62
     4
 48
0.082526
100
AcDbLine
 10
253.7372
 20
74.405289
 30
0.0
 11
257.038256
 21
74.405289
 31
0.0
  0
LINE
  5
56
330
A
100
AcDbEntity
  8
Hawa4
 62
     4
 48
0.075037
100
AcDbLine
 10
253.7372
 20
74.105289
 30
0.0
 11
256.738676
 21
74.105289
 31
0.0
  0
LINE
  5
57
330
A
100
AcDbEntity
  8
Hawa4
 62
     4
 48
0.00125
100
AcDbLine
 10
136.852179
 20
74.105289
 30
0.0
 11
136.902179
 21
74.105289
 31
0.0
  0
LINE
  5
58
330
A
100
AcDbEntity
  8
Hawa6
 62
     3
 48
0.013625
100
AcDbLine
 10
129.403658
 20
69.62040899999999
 30
0.0
 11
129.403658
 21
69.07540400000001
 31
0.0
  0
LINE
  5
59
330
A
100
AcDbEntity
  8
Hawa6
 62
     3
 48
0.004973
100
AcDbLine
 10
129.403658
 20
69.07540400000001
 30
0.0
 11
129.602569
 21
69.07540400000001
 31
0.0
  0
LINE
  5
5A
330
A
100
AcDbEntity
  8
Hawa4
 62
     4
 48
0.070787
100
AcDbLine
 10
253.905719
 20
69.07540400000001
 30
0.0
 11
256.7372
 21
69.07540400000001
 31
0.0
  0
LINE
  5
5B
330
A
100
AcDbEntity
  8
Hawa6
 62
     3
 48
0.0125
100
AcDbLine
 10
129.403658
 20
84.575404
 30
0.0
 11
129.403658
 21
85.07540400000001
 31
0.0
  0
LINE
  5
5C
330
A
100
AcDbEntity
  8
Hawa6
 62
     3
 48
0.0125
100
AcDbLine
 10
129.403658
 20
86.825404
 30
0.0
 11
129.403658
 21
87.32540400000001
 31
0.0
  0
LINE
  5
5D
330
A
100
AcDbEntity
  8
Hawa6
 62
     3
 48
0.03625
100
AcDbLine
 10
129.403658
 20
85.37540400000001
 30
0.0
 11
129.403658
 21
86.825404
 31
0.0
  0
LINE
  5
5E
330
A
100
AcDbEntity
  8
Hawa6
 62
     3
 48
0.0075
100
AcDbLine
 10
129.403658
 20
85.07540400000001
 30
0.0
 11
129.403658
 21
85.37540400000001
 31
0.0
  0
LINE
  5
5F
330
A
100
AcDbEntity
  8
Hawa6
 62
     3
 48
0.0125
100
AcDbLine
 10
129.403658
 20
68.57540400000001
 30
0.0
 11
129.403658
 21
69.07540400000001
 31
0.0
  0
LINE
  5
60
330
A
100
AcDbEntity
  8
Hawa6
 62
     3
 48
0.0075
100
AcDbLine
 10
129.403658
 20
68.27540400000001
 30
0.0
 11
129.403658
 21
68.57540400000001
 31
0.0
  0
LINE
  5
61
330
A
100
AcDbEntity
  8
Hawa6
 62
     3
 48
0.03625
100
AcDbLine
 10
129.403658
 20
68.27540400000001
 30
0.0
 11
129.403658
 21
66.825404
 31
0.0
  0
LINE
  5
62
330
A
100
AcDbEntity
  8
Hawa6
 62
     3
 48
0.0125
100
AcDbLine
 10
129.403658
 20
66.325404
 30
0.0
 11
129.403658
 21
66.825404
 31
0.0
  0
LINE
  5
63
330
A
100
AcDbEntity
  8
Hawa4
 62
     4
 48
0.007464
100
AcDbLine
 10
135.803633
 20
76.825404
 30
0.0
 11
136.102178
 21
76.825404
 31
0.0
  0
LINE
  5
64
330
A
100
AcDbEntity
  8
Hawa4
 62
     4
 48
0.00125
100
AcDbLine
 10
136.852178
 20
76.825404
 30
0.0
 11
136.902178
 21
76.825404
 31
0.0
  0
LINE
  5
65
330
A
100
AcDbEntity
  8
Hawa4
 62
     4
 48
0.00125
100
AcDbLine
 10
136.852178
 20
74.405289
 30
0.0
 11
136.902178
 21
74.405289
 31
0.0
  0
LINE
  5
66
330
A
100
AcDbEntity
  8
Hawa6
 62
     3
100
AcDbLine
 10
129.403658
 20
66.325404
 30
0.0
 11
204.370882
 21
66.325404
 31
0.0
  0
LINE
  5
67
330
A
100
AcDbEntity
  8
Hawa6
 62
     3
100
AcDbLine
 10
214.370882
 20
66.325404
 30
0.0
 11
245.700334
 21
66.325404
 31
0.0
  0
LINE
  5
68
330
A
100
AcDbEntity
  8
Hawa4
 62
     4
 48
0.011721
100
AcDbLine
 10
258.769834
 20
66.325404
 30
0.0
 11
259.23868
 21
66.325404
 31
0.0
  0
LINE
  5
69
330
A
100
AcDbEntity
  8
Hawa6
 62
     3
 48
0.014848
100
AcDbLine
 10
129.403658
 20
87.32540400000001
 30
0.0
 11
129.997592
 21
87.32540400000001
 31
0.0
  0
LINE
  5
6A
330
A
100
AcDbEntity
  8
Hawa6
 62
     3
 48
0.076486
100
AcDbLine
 10
130.953586
 20
87.32540400000001
 30
0.0
 11
134.01303
 21
87.32540400000001
 31
0.0
  0
LINE
  5
6B
330
A
100
AcDbEntity
  8
Hawa6
 62
     3
100
AcDbLine
 10
134.970347
 20
87.32540400000001
 30
0.0
 11
204.370882
 21
87.32540400000001
 31
0.0
  0
LINE
  5
6C
330
A
100
AcDbEntity
  8
Hawa6
 62
     3
100
AcDbLine
 10
214.370882
 20
87.32540400000001
 30
0.0
 11
245.737208
 21
87.32540400000001
 31
0.0
  0
LINE
  5
6D
330
A
100
AcDbEntity
  8
Hawa4
 62
     4
 48
0.0125
100
AcDbLine
 10
258.738679
 20
87.32540400000001
 30
0.0
 11
259.23868
 21
87.32540400000001
 31
0.0
  0
LINE
  5
6E
330
A
100
AcDbEntity
  8
Hawa6
 62
     3
 48
0.02313
100
AcDbLine
 10
129.403658
 20
86.825404
 30
0.0
 11
130.328866
 21
86.825404
 31
0.0
  0
LINE
  5
6F
330
A
100
AcDbEntity
  8
Hawa6
 62
     3
 48
0.044797
100
AcDbLine
 10
131.587048
 20
86.825404
 30
0.0
 11
133.378909
 21
86.825404
 31
0.0
  0
LINE
  5
70
330
A
100
AcDbEntity
  8
Hawa6
 62
     3
 48
0.219147
100
AcDbLine
 10
134.637761
 20
86.825404
 30
0.0
 11
143.403657
 21
86.825404
 31
0.0
  0
LINE
  5
71
330
A
100
AcDbEntity
  8
Hawa6
 62
     3
 48
0.011638
100
AcDbLine
 10
129.403658
 20
85.37540400000001
 30
0.0
 11
129.869176
 21
85.37540400000001
 31
0.0
  0
LINE
  5
72
330
A
100
AcDbEntity
  8
Hawa6
 62
     3
 48
0.205412
100
AcDbLine
 10
135.187174
 20
85.37540400000001
 30
0.0
 11
143.403656
 21
85.37540400000001
 31
0.0
  0
LINE
  5
73
330
A
100
AcDbEntity
  8
Hawa4
 62
     4
 48
0.016158
100
AcDbLine
 10
248.013708
 20
85.37540400000001
 30
0.0
 11
248.660026
 21
85.37540400000001
 31
0.0
  0
LINE
  5
74
330
A
100
AcDbEntity
  8
Hawa4
 62
     4
 48
0.021141
100
AcDbLine
 10
251.314374
 20
85.37540400000001
 30
0.0
 11
252.160009
 21
85.37540400000001
 31
0.0
  0
LINE
  5
75
330
A
100
AcDbEntity
  8
Hawa6
 62
     3
 48
0.007382
100
AcDbLine
 10
129.403658
 20
85.07540400000001
 30
0.0
 11
129.698944
 21
85.07540400000001
 31
0.0
  0
LINE
  5
76
330
A
100
AcDbEntity
  8
Hawa4
 62
     4
 48
0.012775
100
AcDbLine
 10
130.644202
 20
85.07540400000001
 30
0.0
 11
131.155209
 21
85.07540400000001
 31
0.0
  0
LINE
  5
77
330
A
100
AcDbEntity
  8
Hawa4
 62
     4
 48
0.015891
100
AcDbLine
 10
133.798966
 20
85.07540400000001
 30
0.0
 11
134.434606
 21
85.07540400000001
 31
0.0
  0
LINE
  5
78
330
A
100
AcDbEntity
  8
Hawa6
 62
     3
 48
0.202759
100
AcDbLine
 10
135.293289
 20
85.07540400000001
 30
0.0
 11
143.403655
 21
85.07540400000001
 31
0.0
  0
LINE
  5
79
330
A
100
AcDbEntity
  8
Hawa6
 62
     3
 48
0.35
100
AcDbLine
 10
129.403658
 20
68.57540400000001
 30
0.0
 11
143.403655
 21
68.57540400000001
 31
0.0
  0
LINE
  5
7A
330
A
100
AcDbEntity
  8
Hawa4
 62
     4
 48
0.000889
100
AcDbLine
 10
256.238679
 20
68.57540400000001
 30
0.0
 11
256.274242
 21
68.57540400000001
 31
0.0
  0
LINE
  5
7B
330
A
100
AcDbEntity
  8
Hawa6
 62
     3
 48
0.35
100
AcDbLine
 10
129.403658
 20
68.27540400000001
 30
0.0
 11
143.403656
 21
68.27540400000001
 31
0.0
  0
LINE
  5
7C
330
A
100
AcDbEntity
  8
Hawa4
 62
     4
 48
0.016213
100
AcDbLine
 10
248.01441
 20
68.27540400000001
 30
0.0
 11
248.662919
 21
68.27540400000001
 31
0.0
  0
LINE
  5
7D
330
A
100
AcDbEntity
  8
Hawa4
 62
     4
 48
0.021286
100
AcDbLine
 10
251.311481
 20
68.27540400000001
 30
0.0
 11
252.162903
 21
68.27540400000001
 31
0.0
  0
LINE
  5
7E
330
A
100
AcDbEntity
  8
Hawa6
 62
     3
 48
0.35
100
AcDbLine
 10
129.403658
 20
66.825404
 30
0.0
 11
143.403657
 21
66.825404
 31
0.0
  0
LINE
  5
7F
330
A
100
AcDbEntity
  8
Hawa4
 62
     4
 48
0.00125
100
AcDbLine
 10
136.852179
 20
76.52540400000001
 30
0.0
 11
136.902179
 21
76.52540400000001
 31
0.0
  0
LINE
  5
80
330
A
100
AcDbEntity
  8
Hawa4
 62
     4
 48
0.00125
100
AcDbLine
 10
136.852179
 20
74.70528900000001
 30
0.0
 11
136.902179
 21
74.70528900000001
 31
0.0
  0
LINE
  5
81
330
A
100
AcDbEntity
  8
Hawa5
 62
     1
 48
0.2
100
AcDbLine
 10
253.73868
 20
72.82540400000001
 30
0.0
 11
253.73868
 21
80.825404
 31
0.0
  0
LINE
  5
82
330
A
100
AcDbEntity
  8
Hawa5
 62
     1
 48
0.035355
100
AcDbLine
 10
253.73868
 20
72.82540400000001
 30
0.0
 11
252.73868
 21
71.825404
 31
0.0
  0
LINE
  5
83
330
A
100
AcDbEntity
  8
Hawa5
 62
     1
100
AcDbLine
 10
137.903658
 20
71.825404
 30
0.0
 11
204.370882
 21
71.825404
 31
0.0
  0
LINE
  5
84
330
A
100
AcDbEntity
  8
Hawa5
 62
     1
100
AcDbLine
 10
214.370882
 20
71.825404
 30
0.0
 11
252.73868
 21
71.825404
 31
0.0
  0
LINE
  5
85
330
A
100
AcDbEntity
  8
Hawa5
 62
     1
 48
0.035355
100
AcDbLine
 10
136.903658
 20
72.82540400000001
 30
0.0
 11
137.903658
 21
71.825404
 31
0.0
  0
LINE
  5
86
330
A
100
AcDbEntity
  8
Hawa5
 62
     1
 48
0.2
100
AcDbLine
 10
136.903658
 20
72.82540400000001
 30
0.0
 11
136.903658
 21
80.825404
 31
0.0
  0
LINE
  5
87
330
A
100
AcDbEntity
  8
Hawa5
 62
     1
 48
0.035355
100
AcDbLine
 10
136.903658
 20
80.825404
 30
0.0
 11
137.903658
 21
81.825404
 31
0.0
  0
LINE
  5
88
330
A
100
AcDbEntity
  8
Hawa5
 62
     1
100
AcDbLine
 10
137.903658
 20
81.825404
 30
0.0
 11
204.370882
 21
81.825404
 31
0.0
  0
LINE
  5
89
330
A
100
AcDbEntity
  8
Hawa5
 62
     1
100
AcDbLine
 10
214.370882
 20
81.825404
 30
0.0
 11
252.73868
 21
81.825404
 31
0.0
  0
LINE
  5
8A
330
A
100
AcDbEntity
  8
Hawa5
 62
     1
 48
0.035355
100
AcDbLine
 10
253.73868
 20
80.825404
 30
0.0
 11
252.73868
 21
81.825404
 31
0.0
  0
LINE
  5
8B
330
A
100
AcDbEntity
  8
Hawa4
 62
     4
 48
0.03625
100
AcDbLine
 10
245.23868
 20
68.27540400000001
 30
0.0
 11
245.23868
 21
66.825404
 31
0.0
  0
ARC
  5
8C
330
A
100
AcDbEntity
  8
Hawa4
 62
     4
100
AcDbCircle
 10
245.53868
 20
68.27540400000001
 30
0.0
 40
0.3
100
AcDbArc
 50
90.0
 51
180.0
  0
LINE
  5
8D
330
A
100
AcDbEntity
  8
Hawa4
 62
     4
 48
0.049393
100
AcDbLine
 10
245.53868
 20
68.57540400000001
 30
0.0
 11
247.514416
 21
68.57540400000001
 31
0.0
  0
LINE
  5
8E
330
A
100
AcDbEntity
  8
Hawa4
 62
     4
 48
0.018107
100
AcDbLine
 10
247.514416
 20
68.57540400000001
 30
0.0
 11
248.026548
 21
68.063272
 31
0.0
  0
ARC
  5
8F
330
A
100
AcDbEntity
  8
Hawa4
 62
     4
100
AcDbCircle
 10
248.23868
 20
68.27540400000001
 30
0.0
 40
0.3
100
AcDbArc
 50
225.0
 51
315.0
  0
LINE
  5
90
330
A
100
AcDbEntity
  8
Hawa4
 62
     4
 48
0.018107
100
AcDbLine
 10
248.450812
 20
68.063272
 30
0.0
 11
248.962944
 21
68.57540400000001
 31
0.0
  0
LINE
  5
91
330
A
100
AcDbEntity
  8
Hawa4
 62
     4
 48
0.051286
100
AcDbLine
 10
248.962944
 20
68.57540400000001
 30
0.0
 11
251.014399
 21
68.57540400000001
 31
0.0
  0
LINE
  5
92
330
A
100
AcDbEntity
  8
Hawa4
 62
     4
 48
0.018107
100
AcDbLine
 10
251.014399
 20
68.57540400000001
 30
0.0
 11
251.526531
 21
68.063272
 31
0.0
  0
ARC
  5
93
330
A
100
AcDbEntity
  8
Hawa4
 62
     4
100
AcDbCircle
 10
251.738663
 20
68.27540400000001
 30
0.0
 40
0.3
100
AcDbArc
 50
225.0
 51
315.0
  0
LINE
  5
94
330
A
100
AcDbEntity
  8
Hawa4
 62
     4
 48
0.018107
100
AcDbLine
 10
251.950795
 20
68.063272
 30
0.0
 11
252.462927
 21
68.57540400000001
 31
0.0
  0
LINE
  5
95
330
A
100
AcDbEntity
  8
Hawa4
 62
     4
 48
0.094394
100
AcDbLine
 10
252.462927
 20
68.57540400000001
 30
0.0
 11
256.23868
 21
68.57540400000001
 31
0.0
  0
ARC
  5
96
330
A
100
AcDbEntity
  8
Hawa4
 62
     4
100
AcDbCircle
 10
256.23868
 20
69.07540400000001
 30
0.0
 40
0.5
100
AcDbArc
 50
270.0
 51
360.0
  0
LINE
  5
97
330
A
100
AcDbEntity
  8
Hawa4
 62
     4
 48
0.125747
100
AcDbLine
 10
256.73868
 20
74.105289
 30
0.0
 11
256.73868
 21
69.07540400000001
 31
0.0
  0
LINE
  5
98
330
A
100
AcDbEntity
  8
Hawa4
 62
     4
 48
0.010607
100
AcDbLine
 10
257.03868
 20
74.405289
 30
0.0
 11
256.73868
 21
74.105289
 31
0.0
  0
LINE
  5
99
330
A
100
AcDbEntity
  8
Hawa4
 62
     4
 48
0.010607
100
AcDbLine
 10
256.73868
 20
74.70528900000001
 30
0.0
 11
257.03868
 21
74.405289
 31
0.0
  0
LINE
  5
9A
330
A
100
AcDbEntity
  8
Hawa4
 62
     4
 48
0.045503
100
AcDbLine
 10
256.73868
 20
76.52540400000001
 30
0.0
 11
256.73868
 21
74.70528900000001
 31
0.0
  0
LINE
  5
9B
330
A
100
AcDbEntity
  8
Hawa4
 62
     4
 48
0.010607
100
AcDbLine
 10
257.03868
 20
76.825404
 30
0.0
 11
256.73868
 21
76.52540400000001
 31
0.0
  0
LINE
  5
9C
330
A
100
AcDbEntity
  8
Hawa4
 62
     4
 48
0.010607
100
AcDbLine
 10
256.73868
 20
77.125404
 30
0.0
 11
257.03868
 21
76.825404
 31
0.0
  0
LINE
  5
9D
330
A
100
AcDbEntity
  8
Hawa4
 62
     4
 48
0.18625
100
AcDbLine
 10
256.73868
 20
84.575404
 30
0.0
 11
256.73868
 21
77.125404
 31
0.0
  0
ARC
  5
9E
330
A
100
AcDbEntity
  8
Hawa4
 62
     4
100
AcDbCircle
 10
256.23868
 20
84.575404
 30
0.0
 40
0.5
100
AcDbArc
 50
360.0
 51
450.0
  0
LINE
  5
9F
330
A
100
AcDbEntity
  8
Hawa4
 62
     4
 48
0.094394
100
AcDbLine
 10
256.23868
 20
85.07540400000001
 30
0.0
 11
252.462927
 21
85.07540400000001
 31
0.0
  0
LINE
  5
A0
330
A
100
AcDbEntity
  8
Hawa4
 62
     4
 48
0.018107
100
AcDbLine
 10
251.950795
 20
85.58753600000001
 30
0.0
 11
252.462927
 21
85.07540400000001
 31
0.0
  0
ARC
  5
A1
330
A
100
AcDbEntity
  8
Hawa4
 62
     4
100
AcDbCircle
 10
251.738663
 20
85.37540400000001
 30
0.0
 40
0.3
100
AcDbArc
 50
45.0
 51
135.0
  0
LINE
  5
A2
330
A
100
AcDbEntity
  8
Hawa4
 62
     4
 48
0.018107
100
AcDbLine
 10
251.014399
 20
85.07540400000001
 30
0.0
 11
251.526531
 21
85.58753600000001
 31
0.0
  0
LINE
  5
A3
330
A
100
AcDbEntity
  8
Hawa4
 62
     4
 48
0.051286
100
AcDbLine
 10
251.014399
 20
85.07540400000001
 30
0.0
 11
248.962944
 21
85.07540400000001
 31
0.0
  0
LINE
  5
A4
330
A
100
AcDbEntity
  8
Hawa4
 62
     4
 48
0.018107
100
AcDbLine
 10
248.450812
 20
85.58753600000001
 30
0.0
 11
248.962944
 21
85.07540400000001
 31
0.0
  0
ARC
  5
A5
330
A
100
AcDbEntity
  8
Hawa4
 62
     4
100
AcDbCircle
 10
248.23868
 20
85.37540400000001
 30
0.0
 40
0.3
100
AcDbArc
 50
45.0
 51
135.0
  0
LINE
  5
A6
330
A
100
AcDbEntity
  8
Hawa4
 62
     4
 48
0.018107
100
AcDbLine
 10
247.514416
 20
85.07540400000001
 30
0.0
 11
248.026548
 21
85.58753600000001
 31
0.0
  0
LINE
  5
A7
330
A
100
AcDbEntity
  8
Hawa4
 62
     4
 48
0.049393
100
AcDbLine
 10
247.514416
 20
85.07540400000001
 30
0.0
 11
245.53868
 21
85.07540400000001
 31
0.0
  0
ARC
  5
A8
330
A
100
AcDbEntity
  8
Hawa4
 62
     4
100
AcDbCircle
 10
245.53868
 20
85.37540400000001
 30
0.0
 40
0.3
100
AcDbArc
 50
180.0
 51
270.0
  0
LINE
  5
A9
330
A
100
AcDbEntity
  8
Hawa4
 62
     4
 48
0.03625
100
AcDbLine
 10
245.23868
 20
86.825404
 30
0.0
 11
245.23868
 21
85.37540400000001
 31
0.0
  0
ARC
  5
AA
330
A
100
AcDbEntity
  8
Hawa4
 62
     4
100
AcDbCircle
 10
245.73868
 20
86.825404
 30
0.0
 40
0.5
100
AcDbArc
 50
90.0
 51
180.0
  0
LINE
  5
AB
330
A
100
AcDbEntity
  8
Hawa4
 62
     4
 48
0.325
100
AcDbLine
 10
245.73868
 20
87.32540400000001
 30
0.0
 11
258.73868
 21
87.32540400000001
 31
0.0
  0
ARC
  5
AC
330
A
100
AcDbEntity
  8
Hawa4
 62
     4
100
AcDbCircle
 10
258.73868
 20
86.825404
 30
0.0
 40
0.5
100
AcDbArc
 50
360.0
 51
450.0
  0
LINE
  5
AD
330
A
100
AcDbEntity
  8
Hawa4
 62
     4
100
AcDbLine
 10
259.23868
 20
86.825404
 30
0.0
 11
259.23868
 21
66.825404
 31
0.0
  0
ARC
  5
AE
330
A
100
AcDbEntity
  8
Hawa4
 62
     4
100
AcDbCircle
 10
258.73868
 20
66.825404
 30
0.0
 40
0.5
100
AcDbArc
 50
270.0
 51
360.0
  0
LINE
  5
AF
330
A
100
AcDbEntity
  8
Hawa4
 62
     4
 48
0.325
100
AcDbLine
 10
245.73868
 20
66.325404
 30
0.0
 11
258.73868
 21
66.325404
 31
0.0
  0
ARC
  5
B0
330
A
100
AcDbEntity
  8
Hawa4
 62
     4
100
AcDbCircle
 10
245.73868
 20
66.825404
 30
0.0
 40
0.5
100
AcDbArc
 50
180.0
 51
270.0
  0
LINE
  5
B1
330
A
100
AcDbEntity
  8
Hawa6
 62
     3
100
AcDbLine
 10
143.403658
 20
66.496166
 30
0.0
 11
204.370882
 21
66.496166
 31
0.0
  0
LINE
  5
B2
330
A
100
AcDbEntity
  8
Hawa4
 62
     4
 48
0.000492
100
AcDbLine
 10
143.403658
 20
66.496166
 30
0.0
 11
143.403658
 21
66.515845
 31
0.0
  0
LINE
  5
B3
330
A
100
AcDbEntity
  8
Hawa4
 62
     4
 48
0.010949
100
AcDbLine
 10
143.403658
 20
66.95380400000001
 30
0.0
 11
143.403658
 21
66.515845
 31
0.0
  0
LINE
  5
B4
330
A
100
AcDbEntity
  8
Hawa6
 62
     3
100
AcDbLine
 10
143.403658
 20
66.95380400000001
 30
0.0
 11
204.370882
 21
66.95380400000001
 31
0.0
  0
LINE
  5
B5
330
A
100
AcDbEntity
  8
Hawa4
 62
     4
 48
0.09629
100
AcDbLine
 10
143.403658
 20
66.95380400000001
 30
0.0
 11
143.403658
 21
70.805419
 31
0.0
  0
LINE
  5
B6
330
A
100
AcDbEntity
  8
Hawa4
 62
     4
 48
0.001382
100
AcDbLine
 10
143.403658
 20
71.27003000000001
 30
0.0
 11
143.403658
 21
71.32530600000001
 31
0.0
  0
LINE
  5
B7
330
A
100
AcDbEntity
  8
Hawa6
 62
     3
100
AcDbLine
 10
143.403658
 20
71.32530600000001
 30
0.0
 11
204.370882
 21
71.32530600000001
 31
0.0
  0
LINE
  5
B8
330
A
100
AcDbEntity
  8
Hawa4
 62
     4
 48
0.012502
100
AcDbLine
 10
143.403658
 20
71.825404
 30
0.0
 11
143.403658
 21
71.32530600000001
 31
0.0
  0
LINE
  5
B9
330
A
100
AcDbEntity
  8
Hawa6
 62
     3
100
AcDbLine
 10
204.370882
 20
66.515845
 30
0.0
 11
143.403658
 21
66.515845
 31
0.0
  0
LINE
  5
BA
330
A
100
AcDbEntity
  8
Hawa6
 62
     3
100
AcDbLine
 10
204.370882
 20
87.154641
 30
0.0
 11
143.403658
 21
87.154641
 31
0.0
  0
LINE
  5
BB
330
A
100
AcDbEntity
  8
Hawa4
 62
     4
 48
0.000492
100
AcDbLine
 10
143.403658
 20
87.154641
 30
0.0
 11
143.403658
 21
87.13496199999999
 31
0.0
  0
LINE
  5
BC
330
A
100
AcDbEntity
  8
Hawa6
 62
     3
100
AcDbLine
 10
204.370882
 20
86.697003
 30
0.0
 11
143.403658
 21
86.697003
 31
0.0
  0
LINE
  5
BD
330
A
100
AcDbEntity
  8
Hawa4
 62
     4
 48
0.010949
100
AcDbLine
 10
143.403658
 20
86.697003
 30
0.0
 11
143.403658
 21
87.134963
 31
0.0
  0
LINE
  5
BE
330
A
100
AcDbEntity
  8
Hawa6
 62
     3
100
AcDbLine
 10
204.370882
 20
82.325501
 30
0.0
 11
143.403658
 21
82.325501
 31
0.0
  0
LINE
  5
BF
330
A
100
AcDbEntity
  8
Hawa4
 62
     4
 48
0.096558
100
AcDbLine
 10
143.403658
 20
82.834681
 30
0.0
 11
143.403658
 21
86.697003
 31
0.0
  0
LINE
  5
C0
330
A
100
AcDbEntity
  8
Hawa4
 62
     4
 48
0.001238
100
AcDbLine
 10
143.403658
 20
82.325501
 30
0.0
 11
143.403658
 21
82.37502199999999
 31
0.0
  0
LINE
  5
C1
330
A
100
AcDbEntity
  8
Hawa5
 62
     1
100
AcDbLine
 10
204.370882
 20
81.825404
 30
0.0
 11
143.403658
 21
81.825404
 31
0.0
  0
LINE
  5
C2
330
A
100
AcDbEntity
  8
Hawa4
 62
     4
 48
0.012502
100
AcDbLine
 10
143.403658
 20
81.825404
 30
0.0
 11
143.403658
 21
82.325501
 31
0.0
  0
LINE
  5
C3
330
A
100
AcDbEntity
  8
Hawa6
 62
     3
100
AcDbLine
 10
143.403658
 20
87.134963
 30
0.0
 11
204.370882
 21
87.134963
 31
0.0
  0
ARC
  5
C4
330
A
100
AcDbEntity
  8
Hawa4
 62
     4
100
AcDbCircle
 10
253.314416
 20
69.175404
 30
0.0
 40
0.6
100
AcDbArc
 50
270.0
 51
450.0
  0
LINE
  5
C5
330
A
100
AcDbEntity
  8
Hawa4
 62
     4
 48
0.125
100
AcDbLine
 10
253.314416
 20
68.57540400000001
 30
0.0
 11
248.314416
 21
68.57540400000001
 31
0.0
  0
LINE
  5
C6
330
A
100
AcDbEntity
  8
Hawa4
 62
     4
 48
0.014142
100
AcDbLine
 10
247.914416
 20
68.175404
 30
0.0
 11
248.314416
 21
68.57540400000001
 31
0.0
  0
LINE
  5
C7
330
A
100
AcDbEntity
  8
Hawa4
 62
     4
 48
0.014142
100
AcDbLine
 10
247.514416
 20
68.57540400000001
 30
0.0
 11
247.914416
 21
68.175404
 31
0.0
  0
LINE
  5
C8
330
A
100
AcDbEntity
  8
Hawa4
 62
     4
 48
0.05875
100
AcDbLine
 10
247.514416
 20
68.57540400000001
 30
0.0
 11
245.164416
 21
68.57540400000001
 31
0.0
  0
ARC
  5
C9
330
A
100
AcDbEntity
  8
Hawa4
 62
     4
100
AcDbCircle
 10
245.164416
 20
67.97540399999999
 30
0.0
 40
0.6
100
AcDbArc
 50
90.0
 51
215.079116
  0
LINE
  5
CA
330
A
100
AcDbEntity
  8
Hawa4
 62
     4
 48
0.033058
100
AcDbLine
 10
245.352855
 20
66.496166
 30
0.0
 11
244.6734
 21
67.63057899999999
 31
0.0
  0
LINE
  5
CB
330
A
100
AcDbEntity
  8
Hawa4
 62
     4
 48
0.006371
100
AcDbLine
 10
245.352855
 20
66.496166
 30
0.0
 11
245.098894
 21
66.517108
 31
0.0
  0
ARC
  5
CC
330
A
100
AcDbEntity
  8
Hawa4
 62
     4
100
AcDbCircle
 10
245.037335
 20
68.015845
 30
0.0
 40
1.5
100
AcDbArc
 50
225.074603
 51
272.35207
  0
ARC
  5
CD
330
A
100
AcDbEntity
  8
Hawa4
 62
     4
100
AcDbCircle
 10
224.113134
 20
51.146653
 30
0.0
 40
25.386531
100
AcDbArc
 50
38.51038300000001
 51
52.641488
  0
ARC
  5
CE
330
A
100
AcDbEntity
  8
Hawa4
 62
     4
100
AcDbCircle
 10
239.681379
 20
71.54858199999999
 30
0.0
 40
0.2768219999999999
100
AcDbArc
 50
90.0
 51
233.762158
  0
SPLINE
  5
CF
330
A
100
AcDbEntity
  8
Hawa4
 62
     4
100
AcDbSpline
210
0.0
220
0.0
230
1.0
 70
     8
 71
     3
 72
    26
 73
    22
 74
     0
 42
0.0000000001
 43
0.0000000001
 40
0.0
 40
0.0
 40
0.0
 40
0.0
 40
0.2799053032571495
 40
0.5569766701720558
 40
0.8318028465371243
 40
1.10514872481035
 40
1.377820895543437
 40
1.650486016717686
 40
1.923735672973514
 40
2.198064096823335
 40
2.473320467761501
 40
2.748944347686588
 40
3.024366183839371
 40
3.299380517134514
 40
3.573530225836808
 40
3.846544756545418
 40
4.119001624977699
 40
4.391841238306758
 40
4.665771665432004
 40
4.940870125284896
 40
5.217302632576782
 40
5.217302632576782
 40
5.217302632576782
 40
5.217302632576782
 10
239.6813792167125
 20
71.82540356911577
 30
0.0
 10
239.7745766755379
 20
71.82031010846113
 30
0.0
 10
239.9596487556777
 20
71.80426227453928
 30
0.0
 10
240.2338528677206
 20
71.76161450202769
 30
0.0
 10
240.5022368886428
 20
71.70024364909131
 30
0.0
 10
240.7641561304728
 20
71.62030678752545
 30
0.0
 10
241.0191647196124
 20
71.52254728417426
 30
0.0
 10
241.2671916105783
 20
71.4083925747003
 30
0.0
 10
241.5087117793982
 20
71.2799758726935
 30
0.0
 10
241.7447476110862
 20
71.14013831581861
 30
0.0
 10
241.9766879351234
 20
70.99220925335671
 30
0.0
 10
242.2061087038556
 20
70.83978747415442
 30
0.0
 10
242.4348347492385
 20
70.68647976867584
 30
0.0
 10
242.6647314316844
 20
70.53580340005796
 30
0.0
 10
242.8975090284166
 20
70.3910773173987
 30
0.0
 10
243.1346602135757
 20
70.25526817661438
 30
0.0
 10
243.3774828349465
 20
70.13075494657837
 30
0.0
 10
243.6269239164961
 20
70.01927491746535
 30
0.0
 10
243.8832063415353
 20
69.92202983352547
 30
0.0
 10
244.1459461722101
 20
69.83974776676804
 30
0.0
 10
244.3243915732632
 20
69.79517921915739
 30
0.0
 10
244.4144155321961
 20
69.775403569115
 30
0.0
  0
LINE
  5
D0
330
A
100
AcDbEntity
  8
Hawa4
 62
     4
 48
0.072553
100
AcDbLine
 10
244.414416
 20
69.77540400000001
 30
0.0
 11
247.316551
 21
69.77540400000001
 31
0.0
  0
ARC
  5
D1
330
A
100
AcDbEntity
  8
Hawa4
 62
     4
100
AcDbCircle
 10
238.749909
 20
61.75361999999999
 30
0.0
 40
11.736401
100
AcDbArc
 50
43.11875599999999
 51
57.468423
  0
LINE
  5
D2
330
A
100
AcDbEntity
  8
Hawa4
 62
     4
 48
0.0125
100
AcDbLine
 10
245.06149
 20
71.648779
 30
0.0
 11
245.529255
 21
71.825404
 31
0.0
  0
SPLINE
  5
D3
330
A
100
AcDbEntity
  8
Hawa4
 62
     4
100
AcDbSpline
210
0.0
220
0.0
230
1.0
 70
     8
 71
     3
 72
    14
 73
    10
 74
     0
 42
0.0000000001
 43
0.0000000001
 40
0.0
 40
0.0
 40
0.0
 40
0.0
 40
0.5567912818920769
 40
1.117595884496572
 40
1.677108816236269
 40
2.233208358225138
 40
2.788559517683196
 40
3.343697473209628
 40
3.899247083813459
 40
3.899247083813459
 40
3.899247083813459
 40
3.899247083813459
 10
248.8398516163146
 20
69.77540356911423
 30
0.0
 10
248.6877824276465
 20
69.88180624727803
 30
0.0
 10
248.381920671931
 20
70.09447887322412
 30
0.0
 10
247.9209872566041
 20
70.41081266907745
 30
0.0
 10
247.4575116026824
 20
70.72300861012597
 30
0.0
 10
246.9905573953246
 20
71.0267141210129
 30
0.0
 10
246.5162455370436
 20
71.31613848047097
 30
0.0
 10
246.0302470749442
 20
71.58532132797578
 30
0.0
 10
245.6976318003309
 20
71.7482193450952
 30
0.0
 10
245.5292550934757
 20
71.8254035691148
 30
0.0
  0
LINE
  5
D4
330
A
100
AcDbEntity
  8
Hawa4
 62
     4
 48
0.068158
100
AcDbLine
 10
248.839852
 20
69.77540400000001
 30
0.0
 11
251.56617
 21
69.77540400000001
 31
0.0
  0
SPLINE
  5
D5
330
A
100
AcDbEntity
  8
Hawa4
 62
     4
100
AcDbSpline
210
0.0
220
0.0
230
1.0
 70
     8
 71
     3
 72
    14
 73
    10
 74
     0
 42
0.0000000001
 43
0.0000000001
 40
0.0
 40
0.0
 40
0.0
 40
0.0
 40
0.3551788021910713
 40
0.710709687838294
 40
1.06644447295021
 40
1.42207890468193
 40
1.776811573561935
 40
2.131418462505438
 40
2.486903502558118
 40
2.486903502558118
 40
2.486903502558118
 40
2.486903502558118
 10
251.566169737029
 20
69.77540356911379
 30
0.0
 10
251.5054041256323
 20
69.87702063954576
 30
0.0
 10
251.3812300668396
 20
70.07879645387987
 30
0.0
 10
251.1872115113605
 20
70.37671298563738
 30
0.0
 10
250.9849156388689
 20
70.66926791324094
 30
0.0
 10
250.7728941244615
 20
70.95457181858733
 30
0.0
 10
250.5478351293428
 20
71.22933172444023
 30
0.0
 10
250.3057308148535
 20
71.48930210057395
 30
0.0
 10
250.1321298121464
 20
71.65045615251696
 30
0.0
 10
250.042370512962
 20
71.72789759831151
 30
0.0
  0
LINE
  5
D6
330
A
100
AcDbEntity
  8
Hawa4
 62
     4
 48
0.0125
100
AcDbLine
 10
250.042371
 20
71.727898
 30
0.0
 11
250.534774
 21
71.814722
 31
0.0
  0
ARC
  5
D7
330
A
100
AcDbEntity
  8
Hawa4
 62
     4
100
AcDbCircle
 10
240.454782
 20
57.695537
 30
0.0
 40
17.348387
100
AcDbArc
 50
44.131026
 51
54.476135
  0
LINE
  5
D8
330
A
100
AcDbEntity
  8
Hawa4
 62
     4
 48
0.010192
100
AcDbLine
 10
252.906738
 20
69.77540400000001
 30
0.0
 11
253.314416
 21
69.77540400000001
 31
0.0
  0
LINE
  5
D9
330
A
100
AcDbEntity
  8
Hawa4
 62
     4
 48
0.010192
100
AcDbLine
 10
252.906738
 20
83.875404
 30
0.0
 11
253.314416
 21
83.875404
 31
0.0
  0
ARC
  5
DA
330
A
100
AcDbEntity
  8
Hawa4
 62
     4
100
AcDbCircle
 10
240.454782
 20
95.95527
 30
0.0
 40
17.348387
100
AcDbArc
 50
305.523865
 51
315.868974
  0
LINE
  5
DB
330
A
100
AcDbEntity
  8
Hawa4
 62
     4
 48
0.0125
100
AcDbLine
 10
250.042371
 20
81.92291
 30
0.0
 11
250.534774
 21
81.836085
 31
0.0
  0
SPLINE
  5
DC
330
A
100
AcDbEntity
  8
Hawa4
 62
     4
100
AcDbSpline
210
0.0
220
0.0
230
1.0
 70
     8
 71
     3
 72
    14
 73
    10
 74
     0
 42
0.0000000001
 43
0.0000000001
 40
0.0
 40
0.0
 40
0.0
 40
0.0
 40
0.3551788021934668
 40
0.7107096878429939
 40
1.066444472957253
 40
1.42207890469052
 40
1.776811573564159
 40
2.131418462503368
 40
2.486903502557997
 40
2.486903502557997
 40
2.486903502557997
 40
2.486903502557997
 10
251.5661697370991
 20
83.8754035691138
 30
0.0
 10
251.5054041257019
 20
83.77378649868115
 30
0.0
 10
251.381230066908
 20
83.57201068434596
 30
0.0
 10
251.1872115114277
 20
83.27409415258646
 30
0.0
 10
250.9849156389346
 20
82.98153922498139
 30
0.0
 10
250.7728941245273
 20
82.69623531963588
 30
0.0
 10
250.547835129411
 20
82.421475413785
 30
0.0
 10
250.3057308149227
 20
82.16150503765428
 30
0.0
 10
250.1321298122165
 20
82.00035098571149
 30
0.0
 10
250.0423705130315
 20
81.92290953991657
 30
0.0
  0
LINE
  5
DD
330
A
100
AcDbEntity
  8
Hawa4
 62
     4
 48
0.068158
100
AcDbLine
 10
248.839852
 20
83.875404
 30
0.0
 11
251.56617
 21
83.875404
 31
0.0
  0
SPLINE
  5
DE
330
A
100
AcDbEntity
  8
Hawa4
 62
     4
100
AcDbSpline
210
0.0
220
0.0
230
1.0
 70
     8
 71
     3
 72
    14
 73
    10
 74
     0
 42
0.0000000001
 43
0.0000000001
 40
0.0
 40
0.0
 40
0.0
 40
0.0
 40
0.5567912819089667
 40
1.11759588669878
 40
1.67710881967691
 40
2.233208360891604
 40
2.788559519471449
 40
3.343697474116488
 40
3.899247083813636
 40
3.899247083813636
 40
3.899247083813636
 40
3.899247083813636
 10
248.8398516163846
 20
83.87540356911427
 30
0.0
 10
248.6877824277119
 20
83.76900089094727
 30
0.0
 10
248.3819206713898
 20
83.55632826458757
 30
0.0
 10
247.9209872551049
 20
83.23999446810342
 30
0.0
 10
247.4575116004471
 20
82.92779852656654
 30
0.0
 10
246.9905573931659
 20
82.6240930158144
 30
0.0
 10
246.5162455355625
 20
82.33466865686773
 30
0.0
 10
246.0302470742098
 20
82.06548580985099
 30
0.0
 10
245.6976318001254
 20
81.90258779300828
 30
0.0
 10
245.5292550935451
 20
81.82540356911479
 30
0.0
  0
LINE
  5
DF
330
A
100
AcDbEntity
  8
Hawa4
 62
     4
 48
0.0125
100
AcDbLine
 10
245.06149
 20
82.00202799999999
 30
0.0
 11
245.529255
 21
81.825404
 31
0.0
  0
ARC
  5
E0
330
A
100
AcDbEntity
  8
Hawa4
 62
     4
100
AcDbCircle
 10
238.749909
 20
91.897187
 30
0.0
 40
11.736401
100
AcDbArc
 50
302.531577
 51
316.881244
  0
LINE
  5
E1
330
A
100
AcDbEntity
  8
Hawa4
 62
     4
 48
0.072553
100
AcDbLine
 10
244.414416
 20
83.875404
 30
0.0
 11
247.316551
 21
83.875404
 31
0.0
  0
SPLINE
  5
E2
330
A
100
AcDbEntity
  8
Hawa4
 62
     4
100
AcDbSpline
210
0.0
220
0.0
230
1.0
 70
     8
 71
     3
 72
    26
 73
    22
 74
     0
 42
0.0000000001
 43
0.0000000001
 40
0.0
 40
0.0
 40
0.0
 40
0.0
 40
0.2799053032833589
 40
0.5569766701983989
 40
0.8318028465425491
 40
1.10514872479792
 40
1.377820895537162
 40
1.650486016740629
 40
1.923735673014089
 40
2.19806409684754
 40
2.473320467750556
 40
2.748944347653269
 40
3.024366183816999
 40
3.299380517142771
 40
3.573530225849143
 40
3.846544756525601
 40
4.119001624915046
 40
4.391841238224656
 40
4.665771665368334
 40
4.940870125253808
 40
5.217302632578729
 40
5.217302632578729
 40
5.217302632578729
 40
5.217302632578729
 10
239.681379216782
 20
81.8254035691158
 30
0.0
 10
239.7745766756162
 20
81.83049702977088
 30
0.0
 10
239.9596487557647
 20
81.84654486369348
 30
0.0
 10
240.2338528678098
 20
81.88919263620212
 30
0.0
 10
240.5022368887198
 20
81.95056348913452
 30
0.0
 10
240.7641561305387
 20
82.0305003507001
 30
0.0
 10
241.0191647196823
 20
82.12825985405672
 30
0.0
 10
241.267191610664
 20
82.24241456353858
 30
0.0
 10
241.5087117794928
 20
82.37083126555043
 30
0.0
 10
241.7447476111717
 20
82.51066882241847
 30
0.0
 10
241.9766879351876
 20
82.65859788486787
 30
0.0
 10
242.2061087039062
 20
82.81101966406268
 30
0.0
 10
242.4348347492938
 20
82.9643273695458
 30
0.0
 10
242.664731431753
 20
83.11500373817111
 30
0.0
 10
242.8975090284843
 20
83.2597298208333
 30
0.0
 10
243.1346602136209
 20
83.39553896160939
 30
0.0
 10
243.377482834963
 20
83.5200521916324
 30
0.0
 10
243.6269239164995
 20
83.63153222073879
 30
0.0
 10
243.8832063415476
 20
83.72877730468482
 30
0.0
 10
244.1459461722482
 20
83.81105937145385
 30
0.0
 10
244.3243915733225
 20
83.85562791907025
 30
0.0
 10
244.4144155322662
 20
83.87540356911499
 30
0.0
  0
ARC
  5
E3
330
A
100
AcDbEntity
  8
Hawa4
 62
     4
100
AcDbCircle
 10
239.681379
 20
82.102225
 30
0.0
 40
0.2768219999999999
100
AcDbArc
 50
126.2378419999999
 51
270.0
  0
ARC
  5
E4
330
A
100
AcDbEntity
  8
Hawa4
 62
     4
100
AcDbCircle
 10
224.113134
 20
102.504154
 30
0.0
 40
25.386531
100
AcDbArc
 50
307.358512
 51
321.4896170000001
  0
ARC
  5
E5
330
A
100
AcDbEntity
  8
Hawa4
 62
     4
100
AcDbCircle
 10
245.037335
 20
85.634963
 30
0.0
 40
1.5
100
AcDbArc
 50
87.64793
 51
134.925397
  0
LINE
  5
E6
330
A
100
AcDbEntity
  8
Hawa4
 62
     4
 48
0.006371
100
AcDbLine
 10
245.352855
 20
87.154641
 30
0.0
 11
245.098894
 21
87.133699
 31
0.0
  0
LINE
  5
E7
330
A
100
AcDbEntity
  8
Hawa4
 62
     4
 48
0.033058
100
AcDbLine
 10
245.352855
 20
87.154641
 30
0.0
 11
244.6734
 21
86.020228
 31
0.0
  0
ARC
  5
E8
330
A
100
AcDbEntity
  8
Hawa4
 62
     4
100
AcDbCircle
 10
245.164416
 20
85.675404
 30
0.0
 40
0.6
100
AcDbArc
 50
144.920884
 51
270.0
  0
LINE
  5
E9
330
A
100
AcDbEntity
  8
Hawa4
 62
     4
 48
0.05875
100
AcDbLine
 10
247.514416
 20
85.07540400000001
 30
0.0
 11
245.164416
 21
85.07540400000001
 31
0.0
  0
LINE
  5
EA
330
A
100
AcDbEntity
  8
Hawa4
 62
     4
 48
0.014142
100
AcDbLine
 10
247.514416
 20
85.07540400000001
 30
0.0
 11
247.914416
 21
85.475404
 31
0.0
  0
LINE
  5
EB
330
A
100
AcDbEntity
  8
Hawa4
 62
     4
 48
0.014142
100
AcDbLine
 10
247.914416
 20
85.475404
 30
0.0
 11
248.314416
 21
85.07540400000001
 31
0.0
  0
LINE
  5
EC
330
A
100
AcDbEntity
  8
Hawa4
 62
     4
 48
0.125
100
AcDbLine
 10
253.314416
 20
85.07540400000001
 30
0.0
 11
248.314416
 21
85.07540400000001
 31
0.0
  0
ARC
  5
ED
330
A
100
AcDbEntity
  8
Hawa4
 62
     4
100
AcDbCircle
 10
253.314416
 20
84.47540399999999
 30
0.0
 40
0.6
100
AcDbArc
 50
270.0
 51
450.0
  0
SPLINE
  5
EE
330
A
100
AcDbEntity
  8
Hawa4
 62
     4
100
AcDbSpline
210
0.0
220
0.0
230
1.0
 70
     8
 71
     3
 72
    26
 73
    22
 74
     0
 42
0.0000000001
 43
0.0000000001
 40
0.0
 40
0.0
 40
0.0
 40
0.0
 40
0.2852896173035391
 40
0.5647955282442352
 40
0.8399198313648499
 40
1.112128606397981
 40
1.382861347886387
 40
1.653398149363984
 40
1.924707996812438
 40
2.197320498875034
 40
2.471289199182991
 40
2.746268081625304
 40
3.021668222390583
 40
3.296853380787111
 40
3.571335182313596
 40
3.844930520204751
 40
4.117845379057672
 40
4.390655143983906
 40
4.664192364005195
 40
4.939414517303482
 40
5.217301580200913
 40
5.217301580200913
 40
5.217301580200913
 40
5.217301580200913
 10
239.6813792167128
 20
71.8254035691157
 30
0.0
 10
239.7763709272709
 20
71.82021204837744
 30
0.0
 10
239.9640355334262
 20
71.80382275308804
 30
0.0
 10
240.2408488418996
 20
71.76030178680185
 30
0.0
 10
240.509625029721
 20
71.69825764824425
 30
0.0
 10
240.7704989912146
 20
71.61808042339419
 30
0.0
 10
241.0237371942352
 20
71.52056438836615
 30
0.0
 10
241.2698396261829
 20
71.40702960773274
 30
0.0
 10
241.5096126354989
 20
71.27944023801898
 30
0.0
 10
241.7442310903656
 20
71.14044534868398
 30
0.0
 10
241.9751621935986
 20
70.99319595318107
 30
0.0
 10
242.2040554794186
 20
70.84115732842898
 30
0.0
 10
242.432643474485
 20
70.68794060290251
 30
0.0
 10
242.6626487577785
 20
70.53713771779294
 30
0.0
 10
242.8956926221888
 20
70.39215614785482
 30
0.0
 10
243.1331997775721
 20
70.25604830985592
 30
0.0
 10
243.3762957396157
 20
70.13133022283753
 30
0.0
 10
243.6257194558456
 20
70.01978375468535
 30
0.0
 10
243.8818767873414
 20
69.92249186058114
 30
0.0
 10
244.144966910612
 20
69.84000478116323
 30
0.0
 10
244.3239175783094
 20
69.79528334208689
 30
0.0
 10
244.4144155321965
 20
69.77540356911489
 30
0.0
  0
SPLINE
  5
EF
330
A
100
AcDbEntity
  8
Hawa4
 62
     4
100
AcDbSpline
210
0.0
220
0.0
230
1.0
 70
     8
 71
     3
 72
    14
 73
    10
 74
     0
 42
0.0000000001
 43
0.0000000001
 40
0.0
 40
0.0
 40
0.0
 40
0.0
 40
0.5563202239734196
 40
1.113387449801112
 40
1.670982285656705
 40
2.228598060610857
 40
2.785688833762121
 40
3.342273949627319
 40
3.899246304631838
 40
3.899246304631838
 40
3.899246304631838
 40
3.899246304631838
 10
248.8398516163149
 20
69.77540356911415
 30
0.0
 10
248.6879110786217
 20
69.88171623030348
 30
0.0
 10
248.3832034603443
 20
70.09359144049627
 30
0.0
 10
247.9239575001266
 20
70.40877489389962
 30
0.0
 10
247.4616586544172
 20
70.72024761941145
 30
0.0
 10
246.9943976513621
 20
71.02429881993344
 30
0.0
 10
246.5188205662956
 20
71.31466009145917
 30
0.0
 10
246.0315279558866
 20
71.5846807230469
 30
0.0
 10
245.6980632057156
 20
71.74802158799164
 30
0.0
 10
245.529255093476
 20
71.8254035691147
 30
0.0
  0
ARC
  5
F1
330
A
100
AcDbEntity
  8
Hawa4
 62
     4
100
AcDbCircle
 10
224.056242
 20
102.571498
 30
0.0
 40
25.474625
100
AcDbArc
 50
307.36831
 51
313.791102
  0
ARC
  5
F2
330
A
100
AcDbEntity
  8
Hawa4
 62
     4
100
AcDbCircle
 10
238.687719
 20
91.978524
 30
0.0
 40
11.838594
100
AcDbArc
 50
302.573644
 51
313.749319
  0
ARC
  5
F3
330
A
100
AcDbEntity
  8
Hawa4
 62
     4
100
AcDbCircle
 10
246.853126
 20
85.61966299999999
 30
0.0
 40
4.882341999999999
100
AcDbArc
 50
310.784833
 51
313.272977
  0
ARC
  5
F4
330
A
100
AcDbEntity
  8
Hawa4
 62
     4
100
AcDbCircle
 10
240.556226
 20
95.82987499999999
 30
0.0
 40
17.187257
100
AcDbArc
 50
305.49152
 51
313.548096
  0
LINE
  5
F5
330
A
100
AcDbEntity
  8
Hawa4
 62
     4
 48
0.01375
100
AcDbLine
 10
130.953658
 20
84.975404
 30
0.0
 11
130.403658
 21
84.975404
 31
0.0
  0
ARC
  5
F6
330
A
100
AcDbEntity
  8
Hawa4
 62
     4
100
AcDbCircle
 10
130.953658
 20
84.675404
 30
0.0
 40
0.3
100
AcDbArc
 50
360.0
 51
450.0
  0
LINE
  5
F7
330
A
100
AcDbEntity
  8
Hawa4
 62
     4
 48
0.01625
100
AcDbLine
 10
131.253658
 20
84.02540400000001
 30
0.0
 11
131.253658
 21
84.675404
 31
0.0
  0
ARC
  5
F8
330
A
100
AcDbEntity
  8
Hawa4
 62
     4
100
AcDbCircle
 10
131.053658
 20
84.02540400000001
 30
0.0
 40
0.2
100
AcDbArc
 50
270.0
 51
360.0
  0
LINE
  5
F9
330
A
100
AcDbEntity
  8
Hawa4
 62
     4
 48
0.004375
100
AcDbLine
 10
130.878658
 20
83.82540400000001
 30
0.0
 11
131.053658
 21
83.82540400000001
 31
0.0
  0
ARC
  5
FA
330
A
100
AcDbEntity
  8
Hawa4
 62
     4
100
AcDbCircle
 10
130.878658
 20
83.525404
 30
0.0
 40
0.3
100
AcDbArc
 50
90.0
 51
180.0
  0
LINE
  5
FB
330
A
100
AcDbEntity
  8
Hawa4
 62
     4
 48
0.11
100
AcDbLine
 10
130.578658
 20
83.525404
 30
0.0
 11
130.578658
 21
79.12540400000001
 31
0.0
  0
ARC
  5
FC
330
A
100
AcDbEntity
  8
Hawa4
 62
     4
100
AcDbCircle
 10
130.878658
 20
79.12540400000001
 30
0.0
 40
0.3
100
AcDbArc
 50
180.0
 51
270.0
  0
LINE
  5
FD
330
A
100
AcDbEntity
  8
Hawa4
 62
     4
 48
0.010233
100
AcDbLine
 10
131.287972
 20
78.825404
 30
0.0
 11
130.878658
 21
78.825404
 31
0.0
  0
ARC
  5
FE
330
A
100
AcDbEntity
  8
Hawa4
 62
     4
100
AcDbCircle
 10
131.287972
 20
78.625404
 30
0.0
 40
0.2
100
AcDbArc
 50
45.0
 51
90.0
  0
LINE
  5
FF
330
A
100
AcDbEntity
  8
Hawa4
 62
     4
 48
0.006464
100
AcDbLine
 10
131.612236
 20
78.58398199999999
 30
0.0
 11
131.429394
 21
78.766825
 31
0.0
  0
ARC
  5
100
330
A
100
AcDbEntity
  8
Hawa4
 62
     4
100
AcDbCircle
 10
131.753658
 20
78.725404
 30
0.0
 40
0.2
100
AcDbArc
 50
225.0
 51
315.0
  0
LINE
  5
101
330
A
100
AcDbEntity
  8
Hawa4
 62
     4
 48
0.006464
100
AcDbLine
 10
132.077922
 20
78.766825
 30
0.0
 11
131.895079
 21
78.58398199999999
 31
0.0
  0
ARC
  5
102
330
A
100
AcDbEntity
  8
Hawa4
 62
     4
100
AcDbCircle
 10
132.219343
 20
78.625404
 30
0.0
 40
0.2
100
AcDbArc
 50
90.0
 51
135.0
  0
LINE
  5
103
330
A
100
AcDbEntity
  8
Hawa4
 62
     4
 48
0.014216
100
AcDbLine
 10
132.787972
 20
78.825404
 30
0.0
 11
132.219343
 21
78.825404
 31
0.0
  0
ARC
  5
104
330
A
100
AcDbEntity
  8
Hawa4
 62
     4
100
AcDbCircle
 10
132.787972
 20
78.625404
 30
0.0
 40
0.2
100
AcDbArc
 50
45.0
 51
90.0
  0
LINE
  5
105
330
A
100
AcDbEntity
  8
Hawa4
 62
     4
 48
0.006464
100
AcDbLine
 10
133.112236
 20
78.58398199999999
 30
0.0
 11
132.929394
 21
78.766825
 31
0.0
  0
ARC
  5
106
330
A
100
AcDbEntity
  8
Hawa4
 62
     4
100
AcDbCircle
 10
133.253658
 20
78.725404
 30
0.0
 40
0.2
100
AcDbArc
 50
225.0
 51
315.0
  0
LINE
  5
107
330
A
100
AcDbEntity
  8
Hawa4
 62
     4
 48
0.006464
100
AcDbLine
 10
133.577922
 20
78.766825
 30
0.0
 11
133.395079
 21
78.58398199999999
 31
0.0
  0
ARC
  5
108
330
A
100
AcDbEntity
  8
Hawa4
 62
     4
100
AcDbCircle
 10
133.719343
 20
78.625404
 30
0.0
 40
0.2
100
AcDbArc
 50
90.0
 51
135.0
  0
LINE
  5
109
330
A
100
AcDbEntity
  8
Hawa4
 62
     4
 48
0.010233
100
AcDbLine
 10
134.128658
 20
78.825404
 30
0.0
 11
133.719343
 21
78.825404
 31
0.0
  0
ARC
  5
10A
330
A
100
AcDbEntity
  8
Hawa4
 62
     4
100
AcDbCircle
 10
134.128658
 20
79.12540400000001
 30
0.0
 40
0.3
100
AcDbArc
 50
270.0
 51
360.0
  0
LINE
  5
10B
330
A
100
AcDbEntity
  8
Hawa4
 62
     4
 48
0.11
100
AcDbLine
 10
134.428658
 20
83.525404
 30
0.0
 11
134.428658
 21
79.12540400000001
 31
0.0
  0
ARC
  5
10C
330
A
100
AcDbEntity
  8
Hawa4
 62
     4
100
AcDbCircle
 10
134.128658
 20
83.525404
 30
0.0
 40
0.3
100
AcDbArc
 50
360.0
 51
450.0
  0
LINE
  5
10D
330
A
100
AcDbEntity
  8
Hawa4
 62
     4
 48
0.004375
100
AcDbLine
 10
133.953658
 20
83.82540400000001
 30
0.0
 11
134.128658
 21
83.82540400000001
 31
0.0
  0
ARC
  5
10E
330
A
100
AcDbEntity
  8
Hawa4
 62
     4
100
AcDbCircle
 10
133.953658
 20
84.02540400000001
 30
0.0
 40
0.2
100
AcDbArc
 50
180.0
 51
270.0
  0
LINE
  5
10F
330
A
100
AcDbEntity
  8
Hawa4
 62
     4
 48
0.01625
100
AcDbLine
 10
133.753658
 20
84.675404
 30
0.0
 11
133.753658
 21
84.02540400000001
 31
0.0
  0
ARC
  5
110
330
A
100
AcDbEntity
  8
Hawa4
 62
     4
100
AcDbCircle
 10
134.053658
 20
84.675404
 30
0.0
 40
0.3
100
AcDbArc
 50
90.0
 51
180.0
  0
LINE
  5
111
330
A
100
AcDbEntity
  8
Hawa4
 62
     4
 48
0.22125
100
AcDbLine
 10
142.903658
 20
84.975404
 30
0.0
 11
134.053658
 21
84.975404
 31
0.0
  0
ARC
  5
112
330
A
100
AcDbEntity
  8
Hawa4
 62
     4
100
AcDbCircle
 10
142.903658
 20
84.47540399999999
 30
0.0
 40
0.5
100
AcDbArc
 50
0.0
 51
90.0
  0
LINE
  5
113
330
A
100
AcDbEntity
  8
Hawa4
 62
     4
 48
0.02375
100
AcDbLine
 10
143.403658
 20
83.525404
 30
0.0
 11
143.403658
 21
84.47540399999999
 31
0.0
  0
ARC
  5
114
330
A
100
AcDbEntity
  8
Hawa4
 62
     4
100
AcDbCircle
 10
142.903658
 20
83.525404
 30
0.0
 40
0.5
100
AcDbArc
 50
270.0
 51
360.0
  0
LINE
  5
115
330
A
100
AcDbEntity
  8
Hawa4
 62
     4
 48
0.0075
100
AcDbLine
 10
142.603658
 20
83.02540400000001
 30
0.0
 11
142.903658
 21
83.02540400000001
 31
0.0
  0
ARC
  5
116
330
A
100
AcDbEntity
  8
Hawa4
 62
     4
100
AcDbCircle
 10
142.603658
 20
83.22540399999999
 30
0.0
 40
0.2
100
AcDbArc
 50
180.0
 51
270.0
  0
ARC
  5
117
330
A
100
AcDbEntity
  8
Hawa4
 62
     4
100
AcDbCircle
 10
142.203658
 20
83.22540399999999
 30
0.0
 40
0.2
100
AcDbArc
 50
360.0
 51
450.0
  0
LINE
  5
118
330
A
100
AcDbEntity
  8
Hawa4
 62
     4
 48
0.045
100
AcDbLine
 10
140.403658
 20
83.425404
 30
0.0
 11
142.203658
 21
83.425404
 31
0.0
  0
ARC
  5
119
330
A
100
AcDbEntity
  8
Hawa4
 62
     4
100
AcDbCircle
 10
140.403658
 20
83.22540399999999
 30
0.0
 40
0.2
100
AcDbArc
 50
90.0
 51
180.0
  0
ARC
  5
11A
330
A
100
AcDbEntity
  8
Hawa4
 62
     4
100
AcDbCircle
 10
140.003658
 20
83.22540399999999
 30
0.0
 40
0.2
100
AcDbArc
 50
270.0
 51
360.0
  0
LINE
  5
11B
330
A
100
AcDbEntity
  8
Hawa4
 62
     4
 48
0.09
100
AcDbLine
 10
136.403658
 20
83.02540400000001
 30
0.0
 11
140.003658
 21
83.02540400000001
 31
0.0
  0
ARC
  5
11C
330
A
100
AcDbEntity
  8
Hawa4
 62
     4
100
AcDbCircle
 10
136.403658
 20
82.525404
 30
0.0
 40
0.5
100
AcDbArc
 50
90.0
 51
180.0
  0
LINE
  5
11D
330
A
100
AcDbEntity
  8
Hawa4
 62
     4
 48
0.034393
100
AcDbLine
 10
135.903658
 20
81.14966800000001
 30
0.0
 11
135.903658
 21
82.525404
 31
0.0
  0
ARC
  5
11E
330
A
100
AcDbEntity
  8
Hawa4
 62
     4
100
AcDbCircle
 10
136.203658
 20
81.14966800000001
 30
0.0
 40
0.3
100
AcDbArc
 50
180.0
 51
225.0
  0
LINE
  5
11F
330
A
100
AcDbEntity
  8
Hawa4
 62
     4
 48
0.000858
100
AcDbLine
 10
136.01579
 20
80.913272
 30
0.0
 11
135.991526
 21
80.93753599999999
 31
0.0
  0
ARC
  5
120
330
A
100
AcDbEntity
  8
Hawa4
 62
     4
100
AcDbCircle
 10
135.803658
 20
80.70114000000002
 30
0.0
 40
0.3
100
AcDbArc
 50
0.0
 51
45.0
  0
LINE
  5
121
330
A
100
AcDbEntity
  8
Hawa4
 62
     4
 48
0.089393
100
AcDbLine
 10
136.103658
 20
77.125404
 30
0.0
 11
136.103658
 21
80.70114000000002
 31
0.0
  0
LINE
  5
122
330
A
100
AcDbEntity
  8
Hawa4
 62
     4
 48
0.010607
100
AcDbLine
 10
136.103658
 20
77.125404
 30
0.0
 11
135.803658
 21
76.825404
 31
0.0
  0
LINE
  5
123
330
A
100
AcDbEntity
  8
Hawa4
 62
     4
 48
0.010607
100
AcDbLine
 10
136.103658
 20
76.52540400000001
 30
0.0
 11
135.803658
 21
76.825404
 31
0.0
  0
LINE
  5
124
330
A
100
AcDbEntity
  8
Hawa4
 62
     4
 48
0.089393
100
AcDbLine
 10
136.103658
 20
72.949668
 30
0.0
 11
136.103658
 21
76.52540400000001
 31
0.0
  0
ARC
  5
125
330
A
100
AcDbEntity
  8
Hawa4
 62
     4
100
AcDbCircle
 10
135.803658
 20
72.949668
 30
0.0
 40
0.3
100
AcDbArc
 50
315.0
 51
360.0
  0
LINE
  5
126
330
A
100
AcDbEntity
  8
Hawa4
 62
     4
 48
0.000858
100
AcDbLine
 10
135.991526
 20
72.713272
 30
0.0
 11
136.01579
 21
72.73753599999999
 31
0.0
  0
ARC
  5
127
330
A
100
AcDbEntity
  8
Hawa4
 62
     4
100
AcDbCircle
 10
136.203658
 20
72.50114
 30
0.0
 40
0.3
100
AcDbArc
 50
135.0
 51
180.0
  0
LINE
  5
128
330
A
100
AcDbEntity
  8
Hawa4
 62
     4
 48
0.034393
100
AcDbLine
 10
135.903658
 20
71.125404
 30
0.0
 11
135.903658
 21
72.50114
 31
0.0
  0
ARC
  5
129
330
A
100
AcDbEntity
  8
Hawa4
 62
     4
100
AcDbCircle
 10
136.403658
 20
71.125404
 30
0.0
 40
0.5
100
AcDbArc
 50
180.0
 51
270.0
  0
LINE
  5
12A
330
A
100
AcDbEntity
  8
Hawa4
 62
     4
 48
0.09
100
AcDbLine
 10
140.003658
 20
70.625404
 30
0.0
 11
136.403658
 21
70.625404
 31
0.0
  0
ARC
  5
12B
330
A
100
AcDbEntity
  8
Hawa4
 62
     4
100
AcDbCircle
 10
140.003658
 20
70.425404
 30
0.0
 40
0.2
100
AcDbArc
 50
360.0
 51
450.0
  0
ARC
  5
12C
330
A
100
AcDbEntity
  8
Hawa4
 62
     4
100
AcDbCircle
 10
140.403658
 20
70.425404
 30
0.0
 40
0.2
100
AcDbArc
 50
180.0
 51
270.0
  0
LINE
  5
12D
330
A
100
AcDbEntity
  8
Hawa4
 62
     4
 48
0.045
100
AcDbLine
 10
142.203658
 20
70.225404
 30
0.0
 11
140.403658
 21
70.225404
 31
0.0
  0
ARC
  5
12E
330
A
100
AcDbEntity
  8
Hawa4
 62
     4
100
AcDbCircle
 10
142.203658
 20
70.425404
 30
0.0
 40
0.2
100
AcDbArc
 50
270.0
 51
360.0
  0
ARC
  5
12F
330
A
100
AcDbEntity
  8
Hawa4
 62
     4
100
AcDbCircle
 10
142.603658
 20
70.425404
 30
0.0
 40
0.2
100
AcDbArc
 50
90.0
 51
180.0
  0
LINE
  5
130
330
A
100
AcDbEntity
  8
Hawa4
 62
     4
 48
0.0075
100
AcDbLine
 10
142.903658
 20
70.625404
 30
0.0
 11
142.603658
 21
70.625404
 31
0.0
  0
ARC
  5
131
330
A
100
AcDbEntity
  8
Hawa4
 62
     4
100
AcDbCircle
 10
142.903658
 20
70.125404
 30
0.0
 40
0.5
100
AcDbArc
 50
0.0
 51
90.0
  0
LINE
  5
132
330
A
100
AcDbEntity
  8
Hawa4
 62
     4
 48
0.02375
100
AcDbLine
 10
143.403658
 20
69.175404
 30
0.0
 11
143.403658
 21
70.125404
 31
0.0
  0
ARC
  5
133
330
A
100
AcDbEntity
  8
Hawa4
 62
     4
100
AcDbCircle
 10
142.903658
 20
69.175404
 30
0.0
 40
0.5
100
AcDbArc
 50
270.0
 51
360.0
  0
LINE
  5
134
330
A
100
AcDbEntity
  8
Hawa4
 62
     4
 48
0.3125
100
AcDbLine
 10
130.403658
 20
68.675404
 30
0.0
 11
142.903658
 21
68.675404
 31
0.0
  0
ARC
  5
135
330
A
100
AcDbEntity
  8
Hawa4
 62
     4
100
AcDbCircle
 10
130.403658
 20
69.675404
 30
0.0
 40
1.0
100
AcDbArc
 50
180.0
 51
270.0
  0
LINE
  5
136
330
A
100
AcDbEntity
  8
Hawa4
 62
     4
 48
0.3575
100
AcDbLine
 10
129.403658
 20
83.975404
 30
0.0
 11
129.403658
 21
69.675404
 31
0.0
  0
ARC
  5
137
330
A
100
AcDbEntity
  8
Hawa6
 62
     3
100
AcDbCircle
 10
130.403658
 20
83.975404
 30
0.0
 40
1.0
100
AcDbArc
 50
90.0
 51
180.0
  0
LINE
  5
138
330
A
100
AcDbEntity
  8
Hawa4
 62
     4
 48
0.088096
100
AcDbLine
 10
140.227501
 20
83.02540400000001
 30
0.0
 11
136.703658
 21
83.02540400000001
 31
0.0
  0
ARC
  5
139
330
A
100
AcDbEntity
  8
Hawa4
 62
     4
100
AcDbCircle
 10
140.227501
 20
83.22540399999999
 30
0.0
 40
0.2
100
AcDbArc
 50
270.0
 51
359.999998
  0
ARC
  5
13A
330
A
100
AcDbEntity
  8
Hawa4
 62
     4
100
AcDbCircle
 10
140.627501
 20
83.22540399999999
 30
0.0
 40
0.2
100
AcDbArc
 50
90.0
 51
180.000002
  0
LINE
  5
13B
330
A
100
AcDbEntity
  8
Hawa4
 62
     4
 48
0.035
100
AcDbLine
 10
142.027501
 20
83.425404
 30
0.0
 11
140.627501
 21
83.425404
 31
0.0
  0
ARC
  5
13C
330
A
100
AcDbEntity
  8
Hawa4
 62
     4
100
AcDbCircle
 10
142.027501
 20
83.22540399999999
 30
0.0
 40
0.2
100
AcDbArc
 50
360.0
 51
450.0
  0
ARC
  5
13D
330
A
100
AcDbEntity
  8
Hawa4
 62
     4
100
AcDbCircle
 10
142.427501
 20
83.22540399999999
 30
0.0
 40
0.2
100
AcDbArc
 50
180.0
 51
270.0
  0
LINE
  5
13E
330
A
100
AcDbEntity
  8
Hawa4
 62
     4
 48
0.0175
100
AcDbLine
 10
143.127501
 20
83.02540400000001
 30
0.0
 11
142.427501
 21
83.02540400000001
 31
0.0
  0
ARC
  5
13F
330
A
100
AcDbEntity
  8
Hawa4
 62
     4
100
AcDbCircle
 10
143.127501
 20
82.725404
 30
0.0
 40
0.3
100
AcDbArc
 50
360.0
 51
450.0
  0
LINE
  5
140
330
A
100
AcDbEntity
  8
Hawa4
 62
     4
 48
0.004822
100
AcDbLine
 10
143.427501
 20
82.725404
 30
0.0
 11
143.427501
 21
82.53251
 31
0.0
  0
ARC
  5
141
330
A
100
AcDbEntity
  8
Hawa4
 62
     4
100
AcDbCircle
 10
142.927501
 20
82.53251
 30
0.0
 40
0.5
100
AcDbArc
 50
305.233887
 51
360.0
  0
LINE
  5
142
330
A
100
AcDbEntity
  8
Hawa4
 62
     4
 48
0.012944
100
AcDbLine
 10
143.215959
 20
82.12410799999998
 30
0.0
 11
142.793049
 21
81.825404
 31
0.0
  0
LINE
  5
143
330
A
100
AcDbEntity
  8
Hawa4
 62
     4
 48
0.011616
100
AcDbLine
 10
142.793049
 20
81.825404
 30
0.0
 11
142.3284149999999
 21
81.825404
 31
0.0
  0
LINE
  5
144
330
A
100
AcDbEntity
  8
Hawa4
 62
     4
 48
0.011486
100
AcDbLine
 10
142.646503
 20
82.15692299999998
 30
0.0
 11
142.3284149999999
 21
81.825404
 31
0.0
  0
ARC
  5
145
330
A
100
AcDbEntity
  8
Hawa4
 62
     4
100
AcDbCircle
 10
142.574346
 20
82.226157
 30
0.0
 40
0.1
100
AcDbArc
 50
316.184434
 51
450.0
  0
LINE
  5
146
330
A
100
AcDbEntity
  8
Hawa4
 62
     4
 48
0.041928
100
AcDbLine
 10
140.897215
 20
82.326157
 30
0.0
 11
142.574346
 21
82.326157
 31
0.0
  0
ARC
  5
147
330
A
100
AcDbEntity
  8
Hawa4
 62
     4
100
AcDbCircle
 10
140.897215
 20
82.12615699999998
 30
0.0
 40
0.2
100
AcDbArc
 50
90.0
 51
144.314665
  0
ARC
  5
148
330
A
100
AcDbEntity
  8
Hawa4
 62
     4
100
AcDbCircle
 10
139.922536
 20
82.82615699999999
 30
0.0
 40
1.0
100
AcDbArc
 50
215.685335
 51
324.314665
  0
ARC
  5
149
330
A
100
AcDbEntity
  8
Hawa4
 62
     4
100
AcDbCircle
 10
138.947856
 20
82.12615699999998
 30
0.0
 40
0.2
100
AcDbArc
 50
35.685335
 51
90.0
  0
LINE
  5
14A
330
A
100
AcDbEntity
  8
Hawa4
 62
     4
 48
0.052529
100
AcDbLine
 10
136.846678
 20
82.326157
 30
0.0
 11
138.947856
 21
82.326157
 31
0.0
  0
ARC
  5
14B
330
A
100
AcDbEntity
  8
Hawa4
 62
     4
100
AcDbCircle
 10
136.853658
 20
82.12627799999999
 30
0.0
 40
0.2
100
AcDbArc
 50
92.0
 51
180.0
  0
LINE
  5
14C
330
A
100
AcDbEntity
  8
Hawa4
 62
     4
 48
0.012078
100
AcDbLine
 10
136.653658
 20
82.12627799999999
 30
0.0
 11
136.653658
 21
81.64317099999999
 31
0.0
  0
ARC
  5
14D
330
A
100
AcDbEntity
  8
Hawa4
 62
     4
100
AcDbCircle
 10
136.953658
 20
81.64317099999999
 30
0.0
 40
0.3
100
AcDbArc
 50
180.0
 51
225.0
  0
LINE
  5
14E
330
A
100
AcDbEntity
  8
Hawa4
 62
     4
 48
0.001893
100
AcDbLine
 10
136.741526
 20
81.431038
 30
0.0
 11
136.795079
 21
81.37748499999998
 31
0.0
  0
ARC
  5
14F
330
A
100
AcDbEntity
  8
Hawa4
 62
     4
100
AcDbCircle
 10
136.653658
 20
81.23606399999999
 30
0.0
 40
0.2
100
AcDbArc
 50
0.0
 51
45.0
  0
LINE
  5
150
330
A
100
AcDbEntity
  8
Hawa4
 62
     4
 48
0.110267
100
AcDbLine
 10
136.853658
 20
76.825404
 30
0.0
 11
136.853658
 21
81.23606399999999
 31
0.0
  0
LINE
  5
151
330
A
100
AcDbEntity
  8
Hawa4
 62
     4
 48
0.110267
100
AcDbLine
 10
136.853658
 20
72.414743
 30
0.0
 11
136.853658
 21
76.825404
 31
0.0
  0
ARC
  5
152
330
A
100
AcDbEntity
  8
Hawa4
 62
     4
100
AcDbCircle
 10
136.653658
 20
72.414743
 30
0.0
 40
0.2
100
AcDbArc
 50
315.0
 51
360.0
  0
LINE
  5
153
330
A
100
AcDbEntity
  8
Hawa4
 62
     4
 48
0.001893
100
AcDbLine
 10
136.741526
 20
72.219769
 30
0.0
 11
136.795079
 21
72.27332199999999
 31
0.0
  0
ARC
  5
154
330
A
100
AcDbEntity
  8
Hawa4
 62
     4
100
AcDbCircle
 10
136.953658
 20
72.007637
 30
0.0
 40
0.3
100
AcDbArc
 50
135.0
 51
180.0
  0
LINE
  5
155
330
A
100
AcDbEntity
  8
Hawa4
 62
     4
 48
0.012078
100
AcDbLine
 10
136.653658
 20
72.007637
 30
0.0
 11
136.653658
 21
71.524529
 31
0.0
  0
ARC
  5
156
330
A
100
AcDbEntity
  8
Hawa4
 62
     4
100
AcDbCircle
 10
136.853658
 20
71.524529
 30
0.0
 40
0.2
100
AcDbArc
 50
180.0
 51
268.0
  0
LINE
  5
157
330
A
100
AcDbEntity
  8
Hawa4
 62
     4
 48
0.052529
100
AcDbLine
 10
136.846678
 20
71.32465
 30
0.0
 11
138.947856
 21
71.32465
 31
0.0
  0
ARC
  5
158
330
A
100
AcDbEntity
  8
Hawa4
 62
     4
100
AcDbCircle
 10
138.947856
 20
71.52464999999999
 30
0.0
 40
0.2
100
AcDbArc
 50
270.0
 51
324.314665
  0
ARC
  5
159
330
A
100
AcDbEntity
  8
Hawa4
 62
     4
100
AcDbCircle
 10
139.922536
 20
70.82465
 30
0.0
 40
1.0
100
AcDbArc
 50
35.685335
 51
144.314665
  0
ARC
  5
15A
330
A
100
AcDbEntity
  8
Hawa4
 62
     4
100
AcDbCircle
 10
140.897215
 20
71.52464999999999
 30
0.0
 40
0.2
100
AcDbArc
 50
215.685335
 51
270.0
  0
LINE
  5
15B
330
A
100
AcDbEntity
  8
Hawa4
 62
     4
 48
0.041928
100
AcDbLine
 10
140.897215
 20
71.32465
 30
0.0
 11
142.574346
 21
71.32465
 31
0.0
  0
ARC
  5
15C
330
A
100
AcDbEntity
  8
Hawa4
 62
     4
100
AcDbCircle
 10
142.574346
 20
71.42465
 30
0.0
 40
0.1
100
AcDbArc
 50
270.0
 51
403.815566
  0
LINE
  5
15D
330
A
100
AcDbEntity
  8
Hawa4
 62
     4
 48
0.011486
100
AcDbLine
 10
142.646503
 20
71.49388399999999
 30
0.0
 11
142.3284149999999
 21
71.825404
 31
0.0
  0
LINE
  5
15E
330
A
100
AcDbEntity
  8
Hawa4
 62
     4
 48
0.011616
100
AcDbLine
 10
142.793049
 20
71.825404
 30
0.0
 11
142.3284149999999
 21
71.825404
 31
0.0
  0
LINE
  5
15F
330
A
100
AcDbEntity
  8
Hawa4
 62
     4
 48
0.012944
100
AcDbLine
 10
143.215959
 20
71.52669899999999
 30
0.0
 11
142.793049
 21
71.825404
 31
0.0
  0
ARC
  5
160
330
A
100
AcDbEntity
  8
Hawa4
 62
     4
100
AcDbCircle
 10
142.927501
 20
71.118297
 30
0.0
 40
0.5
100
AcDbArc
 50
360.0
 51
414.7661129999999
  0
LINE
  5
161
330
A
100
AcDbEntity
  8
Hawa4
 62
     4
 48
0.004822
100
AcDbLine
 10
143.427501
 20
71.118297
 30
0.0
 11
143.427501
 21
70.925404
 31
0.0
  0
ARC
  5
162
330
A
100
AcDbEntity
  8
Hawa4
 62
     4
100
AcDbCircle
 10
143.127501
 20
70.925404
 30
0.0
 40
0.3
100
AcDbArc
 50
270.0
 51
360.0
  0
LINE
  5
163
330
A
100
AcDbEntity
  8
Hawa4
 62
     4
 48
0.0175
100
AcDbLine
 10
143.127501
 20
70.625404
 30
0.0
 11
142.427501
 21
70.625404
 31
0.0
  0
ARC
  5
164
330
A
100
AcDbEntity
  8
Hawa4
 62
     4
100
AcDbCircle
 10
142.427501
 20
70.425404
 30
0.0
 40
0.2
100
AcDbArc
 50
90.0
 51
180.0
  0
ARC
  5
165
330
A
100
AcDbEntity
  8
Hawa4
 62
     4
100
AcDbCircle
 10
142.027501
 20
70.425404
 30
0.0
 40
0.2
100
AcDbArc
 50
270.0
 51
360.0
  0
LINE
  5
166
330
A
100
AcDbEntity
  8
Hawa4
 62
     4
 48
0.035
100
AcDbLine
 10
142.027501
 20
70.225404
 30
0.0
 11
140.627501
 21
70.225404
 31
0.0
  0
ARC
  5
167
330
A
100
AcDbEntity
  8
Hawa4
 62
     4
100
AcDbCircle
 10
140.627501
 20
70.425404
 30
0.0
 40
0.2
100
AcDbArc
 50
179.999998
 51
270.0
  0
ARC
  5
168
330
A
100
AcDbEntity
  8
Hawa4
 62
     4
100
AcDbCircle
 10
140.227501
 20
70.425404
 30
0.0
 40
0.2
100
AcDbArc
 50
0.000002
 51
90.0
  0
LINE
  5
169
330
A
100
AcDbEntity
  8
Hawa4
 62
     4
 48
0.088096
100
AcDbLine
 10
140.227501
 20
70.625404
 30
0.0
 11
136.703658
 21
70.625404
 31
0.0
  0
ARC
  5
16A
330
A
100
AcDbEntity
  8
Hawa4
 62
     4
100
AcDbCircle
 10
136.703658
 20
71.425404
 30
0.0
 40
0.8
100
AcDbArc
 50
180.0
 51
270.0
  0
LINE
  5
16B
330
A
100
AcDbEntity
  8
Hawa4
 62
     4
 48
0.022322
100
AcDbLine
 10
135.903658
 20
72.318297
 30
0.0
 11
135.903658
 21
71.425404
 31
0.0
  0
ARC
  5
16C
330
A
100
AcDbEntity
  8
Hawa4
 62
     4
100
AcDbCircle
 10
136.203658
 20
72.318297
 30
0.0
 40
0.3
100
AcDbArc
 50
135.0
 51
180.0
  0
LINE
  5
16D
330
A
100
AcDbEntity
  8
Hawa4
 62
     4
 48
0.001893
100
AcDbLine
 10
135.991526
 20
72.530429
 30
0.0
 11
136.045079
 21
72.58398199999999
 31
0.0
  0
ARC
  5
16E
330
A
100
AcDbEntity
  8
Hawa4
 62
     4
100
AcDbCircle
 10
135.903658
 20
72.725404
 30
0.0
 40
0.2
100
AcDbArc
 50
315.0
 51
360.0
  0
LINE
  5
16F
330
A
100
AcDbEntity
  8
Hawa4
 62
     4
 48
0.1025
100
AcDbLine
 10
136.103658
 20
76.825404
 30
0.0
 11
136.103658
 21
72.725404
 31
0.0
  0
LINE
  5
170
330
A
100
AcDbEntity
  8
Hawa4
 62
     4
 48
0.1025
100
AcDbLine
 10
136.103658
 20
80.925404
 30
0.0
 11
136.103658
 21
76.825404
 31
0.0
  0
ARC
  5
171
330
A
100
AcDbEntity
  8
Hawa4
 62
     4
100
AcDbCircle
 10
135.903658
 20
80.925404
 30
0.0
 40
0.2
100
AcDbArc
 50
0.0
 51
45.0
  0
LINE
  5
172
330
A
100
AcDbEntity
  8
Hawa4
 62
     4
 48
0.001893
100
AcDbLine
 10
135.991526
 20
81.12037800000001
 30
0.0
 11
136.045079
 21
81.06682499999999
 31
0.0
  0
ARC
  5
173
330
A
100
AcDbEntity
  8
Hawa4
 62
     4
100
AcDbCircle
 10
136.203658
 20
81.33250999999999
 30
0.0
 40
0.3
100
AcDbArc
 50
180.0
 51
225.0
  0
LINE
  5
174
330
A
100
AcDbEntity
  8
Hawa4
 62
     4
 48
0.022322
100
AcDbLine
 10
135.903658
 20
82.22540399999999
 30
0.0
 11
135.903658
 21
81.33250999999999
 31
0.0
  0
ARC
  5
175
330
A
100
AcDbEntity
  8
Hawa4
 62
     4
100
AcDbCircle
 10
136.703658
 20
82.22540399999999
 30
0.0
 40
0.8
100
AcDbArc
 50
90.0
 51
180.0
  0
ARC
  5
176
330
A
100
AcDbEntity
  8
Hawa4
 62
     4
100
AcDbCircle
 10
130.627515
 20
84.72343100000001
 30
0.0
 40
1.0
100
AcDbArc
 50
107.762171
 51
155.925478
  0
ARC
  5
177
330
A
100
AcDbEntity
  8
Hawa4
 62
     4
100
AcDbCircle
 10
129.897102
 20
85.04977099999999
 30
0.0
 40
0.2
100
AcDbArc
 50
155.925478
 51
304.752566
  0
ARC
  5
178
330
A
100
AcDbEntity
  8
Hawa4
 62
     4
100
AcDbCircle
 10
130.125116
 20
84.72112199999999
 30
0.0
 40
0.2
100
AcDbArc
 50
105.852745
 51
124.752566
  0
LINE
  5
179
330
A
100
AcDbEntity
  8
Hawa4
 62
     4
 48
0.022439
100
AcDbLine
 10
130.933904
 20
85.158698
 30
0.0
 11
130.070482
 21
84.91351599999999
 31
0.0
  0
ARC
  5
17A
330
A
100
AcDbEntity
  8
Hawa4
 62
     4
100
AcDbCircle
 10
130.988537
 20
84.966305
 30
0.0
 40
0.2
100
AcDbArc
 50
7.435120999999999
 51
105.852745
  0
LINE
  5
17B
330
A
100
AcDbEntity
  8
Hawa4
 62
     4
 48
0.04835
100
AcDbLine
 10
131.437123
 20
83.074437
 30
0.0
 11
131.186855
 21
84.99218499999999
 31
0.0
  0
ARC
  5
17C
330
A
100
AcDbEntity
  8
Hawa4
 62
     4
100
AcDbCircle
 10
131.238805
 20
83.04855699999999
 30
0.0
 40
0.2
100
AcDbArc
 50
189.698609
 51
367.435121
  0
LINE
  5
17D
330
A
100
AcDbEntity
  8
Hawa4
 62
     4
 48
0.0145
100
AcDbLine
 10
130.943953
 20
83.586574
 30
0.0
 11
131.041663
 21
83.014863
 31
0.0
  0
ARC
  5
17E
330
A
100
AcDbEntity
  8
Hawa4
 62
     4
100
AcDbCircle
 10
130.746812
 20
83.552881
 30
0.0
 40
0.2
100
AcDbArc
 50
9.698608999999999
 51
179.862433
  0
LINE
  5
17F
330
A
100
AcDbEntity
  8
Hawa4
 62
     4
 48
0.021864
100
AcDbLine
 10
130.544712
 20
82.67879200000001
 30
0.0
 11
130.546812
 21
83.553361
 31
0.0
  0
ARC
  5
180
330
A
100
AcDbEntity
  8
Hawa4
 62
     4
100
AcDbCircle
 10
130.744712
 20
82.678311
 30
0.0
 40
0.2
100
AcDbArc
 50
179.862433
 51
232.268588
  0
LINE
  5
181
330
A
100
AcDbEntity
  8
Hawa4
 62
     4
 48
0.007968
100
AcDbLine
 10
130.874407
 20
82.325078
 30
0.0
 11
130.62232
 21
82.520134
 31
0.0
  0
ARC
  5
182
330
A
100
AcDbEntity
  8
Hawa4
 62
     4
100
AcDbCircle
 10
129.650486
 20
80.743301
 30
0.0
 40
2.0
100
AcDbArc
 50
9.887052
 51
52.268582
  0
ARC
  5
183
330
A
100
AcDbEntity
  8
Hawa4
 62
     4
100
AcDbCircle
 10
131.423752
 20
81.052373
 30
0.0
 40
0.2
100
AcDbArc
 50
209.537307
 51
369.887058
  0
LINE
  5
184
330
A
100
AcDbEntity
  8
Hawa4
 62
     4
 48
0.016937
100
AcDbLine
 10
130.915757
 20
81.543202
 30
0.0
 11
131.249745
 21
80.95377499999999
 31
0.0
  0
ARC
  5
185
330
A
100
AcDbEntity
  8
Hawa4
 62
     4
100
AcDbCircle
 10
130.74175
 20
81.44460399999999
 30
0.0
 40
0.2
100
AcDbArc
 50
29.537307
 51
179.862433
  0
LINE
  5
186
330
A
100
AcDbEntity
  8
Hawa4
 62
     4
 48
0.00415
100
AcDbLine
 10
130.541352
 20
81.279067
 30
0.0
 11
130.54175
 21
81.44508399999999
 31
0.0
  0
ARC
  5
187
330
A
100
AcDbEntity
  8
Hawa4
 62
     4
100
AcDbCircle
 10
130.741351
 20
81.278587
 30
0.0
 40
0.2
100
AcDbArc
 50
179.862433
 51
215.348739
  0
LINE
  5
188
330
A
100
AcDbEntity
  8
Hawa4
 62
     4
 48
0.065578
100
AcDbLine
 10
132.095835
 20
79.023336
 30
0.0
 11
130.578222
 21
81.16287599999999
 31
0.0
  0
ARC
  5
189
330
A
100
AcDbEntity
  8
Hawa4
 62
     4
100
AcDbCircle
 10
132.503658
 20
79.312612
 30
0.0
 40
0.5
100
AcDbArc
 50
215.348739
 51
265.0413910000001
  0
ARC
  5
18A
330
A
100
AcDbEntity
  8
Hawa4
 62
     4
100
AcDbCircle
 10
132.419614
 20
79.312814
 30
0.0
 40
0.5
100
AcDbArc
 50
274.683475
 51
324.376127
  0
LINE
  5
18B
330
A
100
AcDbEntity
  8
Hawa4
 62
     4
 48
0.065578
100
AcDbLine
 10
132.826043
 20
79.02158299999999
 30
0.0
 11
134.3539129999999
 21
81.153811
 31
0.0
  0
ARC
  5
18C
330
A
100
AcDbEntity
  8
Hawa4
 62
     4
100
AcDbCircle
 10
134.191341
 20
81.27030299999999
 30
0.0
 40
0.2
100
AcDbArc
 50
324.376127
 51
359.862433
  0
LINE
  5
18D
330
A
100
AcDbEntity
  8
Hawa4
 62
     4
 48
0.00415
100
AcDbLine
 10
134.39134
 20
81.26982299999999
 30
0.0
 11
134.391739
 21
81.43584099999999
 31
0.0
  0
ARC
  5
18E
330
A
100
AcDbEntity
  8
Hawa4
 62
     4
100
AcDbCircle
 10
134.19174
 20
81.43632099999999
 30
0.0
 40
0.2
100
AcDbArc
 50
359.862433
 51
510.187558
  0
LINE
  5
18F
330
A
100
AcDbEntity
  8
Hawa4
 62
     4
 48
0.016937
100
AcDbLine
 10
134.018208
 20
81.53575299999999
 30
0.0
 11
133.681393
 21
80.947937
 31
0.0
  0
ARC
  5
190
330
A
100
AcDbEntity
  8
Hawa4
 62
     4
100
AcDbCircle
 10
133.507861
 20
81.04736899999998
 30
0.0
 40
0.2
100
AcDbArc
 50
169.837807
 51
330.187558
  0
ARC
  5
191
330
A
100
AcDbEntity
  8
Hawa4
 62
     4
100
AcDbCircle
 10
135.279623
 20
80.729786
 30
0.0
 40
2.0
100
AcDbArc
 50
127.456284
 51
169.837813
  0
LINE
  5
192
330
A
100
AcDbEntity
  8
Hawa4
 62
     4
 48
0.007968
100
AcDbLine
 10
134.063312
 20
82.31742099999999
 30
0.0
 11
134.316333
 21
82.511264
 31
0.0
  0
ARC
  5
193
330
A
100
AcDbEntity
  8
Hawa4
 62
     4
100
AcDbCircle
 10
134.194702
 20
82.670028
 30
0.0
 40
0.2
100
AcDbArc
 50
307.456277
 51
359.862433
  0
LINE
  5
194
330
A
100
AcDbEntity
  8
Hawa4
 62
     4
 48
0.021864
100
AcDbLine
 10
134.394701
 20
82.66954799999998
 30
0.0
 11
134.396801
 21
83.54411699999999
 31
0.0
  0
ARC
  5
195
330
A
100
AcDbEntity
  8
Hawa4
 62
     4
100
AcDbCircle
 10
134.196802
 20
83.54459699999999
 30
0.0
 40
0.2
100
AcDbArc
 50
359.862433
 51
530.026256
  0
LINE
  5
196
330
A
100
AcDbEntity
  8
Hawa4
 62
     4
 48
0.0145
100
AcDbLine
 10
133.999824
 20
83.579237
 30
0.0
 11
133.89937
 21
83.00800200000001
 31
0.0
  0
ARC
  5
197
330
A
100
AcDbEntity
  8
Hawa4
 62
     4
100
AcDbCircle
 10
133.702393
 20
83.04264100000001
 30
0.0
 40
0.2
100
AcDbArc
 50
172.289745
 51
350.026256
  0
LINE
  5
198
330
A
100
AcDbEntity
  8
Hawa4
 62
     4
 48
0.04835
100
AcDbLine
 10
133.504201
 20
83.069474
 30
0.0
 11
133.763674
 21
84.985999
 31
0.0
  0
ARC
  5
199
330
A
100
AcDbEntity
  8
Hawa4
 62
     4
100
AcDbCircle
 10
133.961866
 20
84.95916599999999
 30
0.0
 40
0.2
100
AcDbArc
 50
79.774326
 51
172.289745
  0
LINE
  5
19A
330
A
100
AcDbEntity
  8
Hawa4
 62
     4
 48
0.02738
100
AcDbLine
 10
135.07516
 20
84.961566
 30
0.0
 11
133.997371
 21
85.155989
 31
0.0
  0
ARC
  5
19B
330
A
100
AcDbEntity
  8
Hawa4
 62
     4
100
AcDbCircle
 10
135.110665
 20
85.158389
 30
0.0
 40
0.2
100
AcDbArc
 50
259.774326
 51
377.976407
  0
ARC
  5
19C
330
A
100
AcDbEntity
  8
Hawa4
 62
     4
100
AcDbCircle
 10
134.43846
 20
84.71395799999999
 30
0.0
 40
1.0
100
AcDbArc
 50
30.408114
 51
77.86547900000001
  0
LINE
  5
19D
330
A
100
AcDbEntity
  8
Hawa4
 62
     4
 48
0.01665
100
AcDbLine
 10
134.648667
 20
85.69161499999999
 30
0.0
 11
134.006748
 21
85.869028
 31
0.0
  0
ARC
  5
19E
330
A
100
AcDbEntity
  8
Hawa4
 62
     4
100
AcDbCircle
 10
134.060026
 20
86.06180100000001
 30
0.0
 40
0.2
100
AcDbArc
 50
121.691964
 51
254.550325
  0
ARC
  5
19F
330
A
100
AcDbEntity
  8
Hawa4
 62
     4
100
AcDbCircle
 10
132.483969
 20
88.614455
 30
0.0
 40
2.799999999999999
100
AcDbArc
 50
301.6919640000001
 51
334.143153
  0
ARC
  5
1A0
330
A
100
AcDbEntity
  8
Hawa4
 62
     4
100
AcDbCircle
 10
134.868669
 20
87.458726
 30
0.0
 40
0.15
100
AcDbArc
 50
154.143153
 51
334.143153
  0
ARC
  5
1A1
330
A
100
AcDbEntity
  8
Hawa4
 62
     4
100
AcDbCircle
 10
132.483969
 20
88.614455
 30
0.0
 40
2.5
100
AcDbArc
 50
334.143153
 51
413.22289
  0
ARC
  5
1A2
330
A
100
AcDbEntity
  8
Hawa4
 62
     4
100
AcDbCircle
 10
135.357747
 20
92.459114
 30
0.0
 40
2.299999999999999
100
AcDbArc
 50
184.044679
 51
233.22289
  0
LINE
  5
1A3
330
A
100
AcDbEntity
  8
Hawa4
 62
     4
 48
0.091779
100
AcDbLine
 10
133.063475
 20
92.29688499999999
 30
0.0
 11
132.804533
 21
95.958888
 31
0.0
  0
ARC
  5
1A4
330
A
100
AcDbEntity
  8
Hawa4
 62
     4
100
AcDbCircle
 10
133.901794
 20
96.03647600000002
 30
0.0
 40
1.1
100
AcDbArc
 50
150.907408
 51
184.044679
  0
ARC
  5
1A5
330
A
100
AcDbEntity
  8
Hawa4
 62
     4
100
AcDbCircle
 10
132.503658
 20
96.814431
 30
0.0
 40
0.5
100
AcDbArc
 50
330.907408
 51
568.817457
  0
ARC
  5
1A6
330
A
100
AcDbEntity
  8
Hawa4
 62
     4
100
AcDbCircle
 10
131.101802
 20
96.043198
 30
0.0
 40
1.1
100
AcDbArc
 50
355.680186
 51
388.817457
  0
LINE
  5
1A7
330
A
100
AcDbEntity
  8
Hawa4
 62
     4
 48
0.091779
100
AcDbLine
 10
131.922153
 20
92.299625
 30
0.0
 11
132.198677
 21
95.96034300000001
 31
0.0
  0
ARC
  5
1A8
330
A
100
AcDbEntity
  8
Hawa4
 62
     4
100
AcDbCircle
 10
129.628687
 20
92.47287
 30
0.0
 40
2.299999999999999
100
AcDbArc
 50
306.501975
 51
355.680186
  0
ARC
  5
1A9
330
A
100
AcDbEntity
  8
Hawa4
 62
     4
100
AcDbCircle
 10
132.483969
 20
88.614455
 30
0.0
 40
2.5
100
AcDbArc
 50
126.501975
 51
205.581712
  0
ARC
  5
1AA
330
A
100
AcDbEntity
  8
Hawa4
 62
     4
100
AcDbCircle
 10
130.093748
 20
87.47019100000001
 30
0.0
 40
0.15
100
AcDbArc
 50
205.581712
 51
385.5817120000001
  0
ARC
  5
1AB
330
A
100
AcDbEntity
  8
Hawa4
 62
     4
100
AcDbCircle
 10
132.483969
 20
88.614455
 30
0.0
 40
2.799999999999999
100
AcDbArc
 50
205.581713
 51
238.032901
  0
ARC
  5
1AC
330
A
100
AcDbEntity
  8
Hawa4
 62
     4
100
AcDbCircle
 10
130.895673
 20
86.06939799999999
 30
0.0
 40
0.2
100
AcDbArc
 50
287.762171
 51
418.0329009999999
  0
LINE
  5
1AD
330
A
100
AcDbEntity
  8
Hawa4
 62
     4
 48
0.01665
100
AcDbLine
 10
130.322448
 20
85.67576200000001
 30
0.0
 11
130.956686
 21
85.87893199999999
 31
0.0
  0
CIRCLE
  5
1AE
330
A
100
AcDbEntity
  8
Hawa4
 62
     4
100
AcDbCircle
 10
132.483969
 20
88.614455
 30
0.0
 40
2.0
  0
ARC
  5
1AF
330
A
100
AcDbEntity
  8
Hawa4
 62
     4
100
AcDbCircle
 10
132.503658
 20
96.814431
 30
0.0
 40
0.8
100
AcDbArc
 50
330.907408
 51
568.817457
  0
ARC
  5
1B0
330
A
100
AcDbEntity
  8
Hawa4
 62
     4
100
AcDbCircle
 10
133.901794
 20
96.03647600000002
 30
0.0
 40
0.8
100
AcDbArc
 50
150.907408
 51
184.044679
  0
LINE
  5
1B1
330
A
100
AcDbEntity
  8
Hawa4
 62
     4
 48
0.091779
100
AcDbLine
 10
133.362728
 20
92.318045
 30
0.0
 11
133.103786
 21
95.980048
 31
0.0
  0
ARC
  5
1B2
330
A
100
AcDbEntity
  8
Hawa4
 62
     4
100
AcDbCircle
 10
135.357747
 20
92.459114
 30
0.0
 40
2.0
100
AcDbArc
 50
184.044679
 51
233.22289
  0
ARC
  5
1B3
330
A
100
AcDbEntity
  8
Hawa4
 62
     4
100
AcDbCircle
 10
132.483969
 20
88.614455
 30
0.0
 40
2.799999999999999
100
AcDbArc
 50
334.143153
 51
413.22289
  0
ARC
  5
1BF
330
A
100
AcDbEntity
  8
Hawa4
 62
     4
100
AcDbCircle
 10
132.483969
 20
88.614455
 30
0.0
 40
2.799999999999999
100
AcDbArc
 50
126.501975
 51
205.581712
  0
ARC
  5
1C0
330
A
100
AcDbEntity
  8
Hawa4
 62
     4
100
AcDbCircle
 10
129.628687
 20
92.47287
 30
0.0
 40
2.0
100
AcDbArc
 50
306.501975
 51
355.680186
  0
LINE
  5
1C1
330
A
100
AcDbEntity
  8
Hawa4
 62
     4
 48
0.091779
100
AcDbLine
 10
131.623005
 20
92.322223
 30
0.0
 11
131.899529
 21
95.98294
 31
0.0
  0
ARC
  5
1C2
330
A
100
AcDbEntity
  8
Hawa4
 62
     4
100
AcDbCircle
 10
131.101802
 20
96.043198
 30
0.0
 40
0.8
100
AcDbArc
 50
355.680186
 51
388.817457
  0
LINE
  5
1C3
330
A
100
AcDbEntity
  8
Hawa5
 62
     1
 48
0.035355
100
AcDbLine
 10
179.403658
 20
106.325404
 30
0.0
 11
178.403658
 21
107.325404
 31
0.0
  0
LINE
  5
1C4
330
A
100
AcDbEntity
  8
Hawa5
 62
     1
 48
0.2
100
AcDbLine
 10
179.403658
 20
98.325404
 30
0.0
 11
179.403658
 21
106.325404
 31
0.0
  0
LINE
  5
1C5
330
A
100
AcDbEntity
  8
Hawa5
 62
     1
 48
0.035355
100
AcDbLine
 10
179.403658
 20
98.325404
 30
0.0
 11
178.403658
 21
97.32540400000001
 31
0.0
  0
LINE
  5
1C6
330
A
100
AcDbEntity
  8
Hawa5
 62
     1
100
AcDbLine
 10
57.713838
 20
97.32540400000001
 30
0.0
 11
94.50521999999999
 21
97.32540400000001
 31
0.0
  0
LINE
  5
1C7
330
A
100
AcDbEntity
  8
Hawa5
 62
     1
100
AcDbLine
 10
104.50522
 20
97.32540400000001
 30
0.0
 11
178.403658
 21
97.32540400000001
 31
0.0
  0
LINE
  5
1C8
330
A
100
AcDbEntity
  8
Hawa5
 62
     1
 48
0.035355
100
AcDbLine
 10
56.713838
 20
98.325404
 30
0.0
 11
57.713838
 21
97.32540400000001
 31
0.0
  0
LINE
  5
1C9
330
A
100
AcDbEntity
  8
Hawa5
 62
     1
 48
0.2
100
AcDbLine
 10
56.713838
 20
98.325404
 30
0.0
 11
56.713838
 21
106.325404
 31
0.0
  0
LINE
  5
1CA
330
A
100
AcDbEntity
  8
Hawa5
 62
     1
 48
0.035355
100
AcDbLine
 10
56.713838
 20
106.325404
 30
0.0
 11
57.713838
 21
107.325404
 31
0.0
  0
LINE
  5
1CB
330
A
100
AcDbEntity
  8
Hawa5
 62
     1
100
AcDbLine
 10
57.713838
 20
107.325404
 30
0.0
 11
94.50521999999999
 21
107.325404
 31
0.0
  0
LINE
  5
1CC
330
A
100
AcDbEntity
  8
Hawa5
 62
     1
100
AcDbLine
 10
104.50522
 20
107.325404
 30
0.0
 11
178.403658
 21
107.325404
 31
0.0
  0
LINE
  5
1CD
330
A
100
AcDbEntity
  8
Hawa5
 62
     1
 48
0.35
100
AcDbLine
 10
50.713838
 20
121.325404
 30
0.0
 11
50.713838
 21
135.325404
 31
0.0
  0
LINE
  5
1CE
330
A
100
AcDbEntity
  8
Hawa5
 62
     1
 48
0.4
100
AcDbLine
 10
50.713838
 20
121.325404
 30
0.0
 11
34.713838
 21
121.325404
 31
0.0
  0
LINE
  5
1CF
330
A
100
AcDbEntity
  8
Hawa5
 62
     1
100
AcDbLine
 10
34.713838
 20
83.325404
 30
0.0
 11
34.713838
 21
121.325404
 31
0.0
  0
LINE
  5
1D0
330
A
100
AcDbEntity
  8
Hawa5
 62
     1
 48
0.4
100
AcDbLine
 10
34.713838
 20
83.325404
 30
0.0
 11
50.713838
 21
83.325404
 31
0.0
  0
LINE
  5
1D1
330
A
100
AcDbEntity
  8
Hawa5
 62
     1
100
AcDbLine
 10
50.713838
 20
55.32540400000001
 30
0.0
 11
50.713838
 21
83.325404
 31
0.0
  0
LINE
  5
1D2
330
A
100
AcDbEntity
  8
Hawa4
 62
     4
 48
0.004964
100
AcDbLine
 10
50.713838
 20
83.52394699999999
 30
0.0
 11
50.713838
 21
83.325404
 31
0.0
  0
LINE
  5
1D3
330
A
100
AcDbEntity
  8
Hawa4
 62
     4
 48
0.08957
100
AcDbLine
 10
50.713838
 20
89.906755
 30
0.0
 11
50.713838
 21
86.323947
 31
0.0
  0
LINE
  5
1D4
330
A
100
AcDbEntity
  8
Hawa4
 62
     4
 48
0.089493
100
AcDbLine
 10
50.713838
 20
118.323947
 30
0.0
 11
50.713838
 21
114.744228
 31
0.0
  0
LINE
  5
1D5
330
A
100
AcDbEntity
  8
Hawa4
 62
     4
 48
0.005036
100
AcDbLine
 10
50.713838
 20
121.325404
 30
0.0
 11
50.713838
 21
121.123947
 31
0.0
  0
ARC
  5
1D6
330
A
100
AcDbEntity
  8
Hawa4
 62
     4
100
AcDbCircle
 10
34.913838
 20
118.025404
 30
0.0
 40
0.3
100
AcDbArc
 50
0.0
 51
90.0
  0
LINE
  5
1D7
330
A
100
AcDbEntity
  8
Hawa4
 62
     4
 48
0.005
100
AcDbLine
 10
34.913838
 20
118.325404
 30
0.0
 11
34.713838
 21
118.325404
 31
0.0
  0
LINE
  5
1D8
330
A
100
AcDbEntity
  8
Hawa4
 62
     4
 48
0.07
100
AcDbLine
 10
34.713838
 20
121.125404
 30
0.0
 11
34.713838
 21
118.325404
 31
0.0
  0
LINE
  5
1D9
330
A
100
AcDbEntity
  8
Hawa4
 62
     4
 48
0.475
100
AcDbLine
 10
34.713838
 20
121.125404
 30
0.0
 11
53.713838
 21
121.125404
 31
0.0
  0
ARC
  5
1DA
330
A
100
AcDbEntity
  8
Hawa4
 62
     4
100
AcDbCircle
 10
53.713838
 20
119.125404
 30
0.0
 40
2.0
100
AcDbArc
 50
350.666838
 51
450.0
  0
LINE
  5
1DB
330
A
100
AcDbEntity
  8
Hawa4
 62
     4
 48
0.106888
100
AcDbLine
 10
55.687362
 20
118.801054
 30
0.0
 11
54.993981
 21
114.582141
 31
0.0
  0
ARC
  5
1DC
330
A
100
AcDbEntity
  8
Hawa4
 62
     4
100
AcDbCircle
 10
53.513838
 20
114.825404
 30
0.0
 40
1.5
100
AcDbArc
 50
270.0
 51
350.666838
  0
LINE
  5
1DD
330
A
100
AcDbEntity
  8
Hawa4
 62
     4
 48
0.125
100
AcDbLine
 10
53.513838
 20
118.325404
 30
0.0
 11
53.513838
 21
113.325404
 31
0.0
  0
LINE
  5
1DE
330
A
100
AcDbEntity
  8
Hawa4
 62
     4
 48
0.08
100
AcDbLine
 10
53.513838
 20
118.325404
 30
0.0
 11
50.313838
 21
118.325404
 31
0.0
  0
LINE
  5
1DF
330
A
100
AcDbEntity
  8
Hawa4
 62
     4
 48
0.2
100
AcDbLine
 10
50.313838
 20
110.325404
 30
0.0
 11
50.313838
 21
118.325404
 31
0.0
  0
ARC
  5
1E0
330
A
100
AcDbEntity
  8
Hawa4
 62
     4
100
AcDbCircle
 10
49.31383799999999
 20
110.325404
 30
0.0
 40
1.0
100
AcDbArc
 50
270.0
 51
360.0
  0
LINE
  5
1E1
330
A
100
AcDbEntity
  8
Hawa4
 62
     4
 48
0.05
100
AcDbLine
 10
49.31383799999999
 20
109.325404
 30
0.0
 11
47.31383799999999
 21
109.325404
 31
0.0
  0
LINE
  5
1E2
330
A
100
AcDbEntity
  8
Hawa4
 62
     4
 48
0.1625
100
AcDbLine
 10
47.31383799999999
 20
115.825404
 30
0.0
 11
47.31383799999999
 21
109.325404
 31
0.0
  0
ARC
  5
1E3
330
A
100
AcDbEntity
  8
Hawa4
 62
     4
100
AcDbCircle
 10
44.81383799999999
 20
115.825404
 30
0.0
 40
2.5
100
AcDbArc
 50
0.0
 51
90.0
  0
LINE
  5
1E4
330
A
100
AcDbEntity
  8
Hawa4
 62
     4
 48
0.1025
100
AcDbLine
 10
44.81383799999999
 20
118.325404
 30
0.0
 11
40.713838
 21
118.325404
 31
0.0
  0
ARC
  5
1E5
330
A
100
AcDbEntity
  8
Hawa4
 62
     4
100
AcDbCircle
 10
40.713838
 20
115.825404
 30
0.0
 40
2.5
100
AcDbArc
 50
90.0
 51
180.0
  0
LINE
  5
1E6
330
A
100
AcDbEntity
  8
Hawa4
 62
     4
 48
0.33
100
AcDbLine
 10
38.213838
 20
102.625404
 30
0.0
 11
38.213838
 21
115.825404
 31
0.0
  0
LINE
  5
1E7
330
A
100
AcDbEntity
  8
Hawa4
 62
     4
 48
0.010607
100
AcDbLine
 10
38.213838
 20
102.625404
 30
0.0
 11
37.913838
 21
102.325404
 31
0.0
  0
LINE
  5
1E8
330
A
100
AcDbEntity
  8
Hawa4
 62
     4
 48
0.010607
100
AcDbLine
 10
38.213838
 20
102.025404
 30
0.0
 11
37.913838
 21
102.325404
 31
0.0
  0
LINE
  5
1E9
330
A
100
AcDbEntity
  8
Hawa4
 62
     4
 48
0.33
100
AcDbLine
 10
38.213838
 20
88.82540400000001
 30
0.0
 11
38.213838
 21
102.025404
 31
0.0
  0
ARC
  5
1EA
330
A
100
AcDbEntity
  8
Hawa4
 62
     4
100
AcDbCircle
 10
40.713838
 20
88.82540400000001
 30
0.0
 40
2.5
100
AcDbArc
 50
180.0
 51
270.0
  0
LINE
  5
1EB
330
A
100
AcDbEntity
  8
Hawa4
 62
     4
 48
0.04375
100
AcDbLine
 10
42.463838
 20
86.32540400000001
 30
0.0
 11
40.713838
 21
86.32540400000001
 31
0.0
  0
LINE
  5
1EC
330
A
100
AcDbEntity
  8
Hawa4
 62
     4
 48
0.010607
100
AcDbLine
 10
42.463838
 20
86.32540400000001
 30
0.0
 11
42.763838
 21
86.62540400000001
 31
0.0
  0
LINE
  5
1ED
330
A
100
AcDbEntity
  8
Hawa4
 62
     4
 48
0.010607
100
AcDbLine
 10
43.06383799999999
 20
86.32540400000001
 30
0.0
 11
42.763838
 21
86.62540400000001
 31
0.0
  0
LINE
  5
1EE
330
A
100
AcDbEntity
  8
Hawa4
 62
     4
 48
0.04375
100
AcDbLine
 10
44.81383799999999
 20
86.32540400000001
 30
0.0
 11
43.06383799999999
 21
86.32540400000001
 31
0.0
  0
ARC
  5
1EF
330
A
100
AcDbEntity
  8
Hawa4
 62
     4
100
AcDbCircle
 10
44.81383799999999
 20
88.82540400000001
 30
0.0
 40
2.5
100
AcDbArc
 50
270.0
 51
360.0
  0
LINE
  5
1F0
330
A
100
AcDbEntity
  8
Hawa4
 62
     4
 48
0.1625
100
AcDbLine
 10
47.31383799999999
 20
95.325404
 30
0.0
 11
47.31383799999999
 21
88.82540400000001
 31
0.0
  0
LINE
  5
1F1
330
A
100
AcDbEntity
  8
Hawa4
 62
     4
 48
0.05
100
AcDbLine
 10
49.31383799999999
 20
95.325404
 30
0.0
 11
47.31383799999999
 21
95.325404
 31
0.0
  0
ARC
  5
1F2
330
A
100
AcDbEntity
  8
Hawa4
 62
     4
100
AcDbCircle
 10
49.31383799999999
 20
94.325404
 30
0.0
 40
1.0
100
AcDbArc
 50
360.0
 51
450.0
  0
LINE
  5
1F3
330
A
100
AcDbEntity
  8
Hawa4
 62
     4
 48
0.2
100
AcDbLine
 10
50.313838
 20
86.32540400000001
 30
0.0
 11
50.313838
 21
94.325404
 31
0.0
  0
LINE
  5
1F4
330
A
100
AcDbEntity
  8
Hawa4
 62
     4
 48
0.08
100
AcDbLine
 10
53.513838
 20
86.32540400000001
 30
0.0
 11
50.313838
 21
86.32540400000001
 31
0.0
  0
LINE
  5
1F5
330
A
100
AcDbEntity
  8
Hawa4
 62
     4
 48
0.125
100
AcDbLine
 10
53.513838
 20
91.32540400000001
 30
0.0
 11
53.513838
 21
86.32540400000001
 31
0.0
  0
ARC
  5
1F6
330
A
100
AcDbEntity
  8
Hawa4
 62
     4
100
AcDbCircle
 10
53.513838
 20
89.82540400000001
 30
0.0
 40
1.5
100
AcDbArc
 50
9.333161999999999
 51
90.0
  0
LINE
  5
1F7
330
A
100
AcDbEntity
  8
Hawa4
 62
     4
 48
0.106888
100
AcDbLine
 10
55.687362
 20
85.84975400000001
 30
0.0
 11
54.993981
 21
90.068666
 31
0.0
  0
ARC
  5
1F8
330
A
100
AcDbEntity
  8
Hawa4
 62
     4
100
AcDbCircle
 10
53.713838
 20
85.52540400000001
 30
0.0
 40
2.0
100
AcDbArc
 50
270.0
 51
369.333162
  0
LINE
  5
1F9
330
A
100
AcDbEntity
  8
Hawa4
 62
     4
 48
0.475
100
AcDbLine
 10
34.713838
 20
83.525404
 30
0.0
 11
53.713838
 21
83.525404
 31
0.0
  0
LINE
  5
1FA
330
A
100
AcDbEntity
  8
Hawa4
 62
     4
 48
0.07
100
AcDbLine
 10
34.713838
 20
86.32540400000001
 30
0.0
 11
34.713838
 21
83.525404
 31
0.0
  0
LINE
  5
1FB
330
A
100
AcDbEntity
  8
Hawa4
 62
     4
 48
0.005
100
AcDbLine
 10
34.913838
 20
86.32540400000001
 30
0.0
 11
34.713838
 21
86.32540400000001
 31
0.0
  0
ARC
  5
1FC
330
A
100
AcDbEntity
  8
Hawa4
 62
     4
100
AcDbCircle
 10
34.913838
 20
86.62540400000001
 30
0.0
 40
0.3
100
AcDbArc
 50
270.0
 51
360.0
  0
LINE
  5
1FD
330
A
100
AcDbEntity
  8
Hawa4
 62
     4
 48
0.3925
100
AcDbLine
 10
35.21383800000001
 20
102.325404
 30
0.0
 11
35.21383800000001
 21
86.62540400000001
 31
0.0
  0
LINE
  5
1FE
330
A
100
AcDbEntity
  8
Hawa4
 62
     4
 48
0.3925
100
AcDbLine
 10
35.21383800000001
 20
118.025404
 30
0.0
 11
35.21383800000001
 21
102.325404
 31
0.0
  0
LINE
  5
1FF
330
A
100
AcDbEntity
  8
Hawa4
 62
     4
 48
0.085416
100
AcDbLine
 10
50.319691
 20
91.90743799999999
 30
0.0
 11
50.344926
 21
95.323989
 31
0.0
  0
LINE
  5
200
330
A
100
AcDbEntity
  8
Hawa4
 62
     4
 48
0.250007
100
AcDbLine
 10
50.359699
 20
97.32398899999999
 30
0.0
 11
50.433562
 21
107.3239889999999
 31
0.0
  0
LINE
  5
201
330
A
100
AcDbEntity
  8
Hawa4
 62
     4
 48
0.078394
100
AcDbLine
 10
50.448335
 20
109.3239889999999
 30
0.0
 11
50.471496
 21
112.459659
 31
0.0
  0
LINE
  5
202
330
A
100
AcDbEntity
  8
Hawa4
 62
     4
 48
0.004117
100
AcDbLine
 10
53.5124
 20
113.204755
 30
0.0
 11
53.677078
 21
113.203539
 31
0.0
  0
LINE
  5
203
330
A
100
AcDbEntity
  8
Hawa4
 62
     4
 48
0.026197
100
AcDbLine
 10
53.51606
 20
91.404133
 30
0.0
 11
53.5238
 21
92.45198700000001
 31
0.0
  0
LINE
  5
204
330
A
100
AcDbEntity
  8
Hawa6
 62
     3
 48
0.04574
100
AcDbLine
 10
53.663564
 20
111.373997
 30
0.0
 11
53.677078
 21
113.203539
 31
0.0
  0
LINE
  5
205
330
A
100
AcDbEntity
  8
Hawa6
 62
     3
 48
0.269178
100
AcDbLine
 10
54.420215
 20
95.292141
 30
0.0
 11
63.70478399999999
 21
89.83986299999999
 31
0.0
  0
LINE
  5
206
330
A
100
AcDbEntity
  8
Hawa6
 62
     3
 48
0.271103
100
AcDbLine
 10
54.456723
 20
109.264586
 30
0.0
 11
63.887797
 21
114.617132
 31
0.0
  0
ARC
  5
207
330
A
100
AcDbEntity
  8
Hawa6
 62
     3
100
AcDbCircle
 10
59.211473
 20
90.762049
 30
0.0
 40
1.5
100
AcDbArc
 50
50.237766
 51
68.916009
  0
LINE
  5
208
330
A
100
AcDbEntity
  8
Hawa6
 62
     3
 48
0.022301
100
AcDbLine
 10
61.98192699999999
 20
90.851588
 30
0.0
 11
62.873948
 21
90.845
 31
0.0
  0
LINE
  5
209
330
A
100
AcDbEntity
  8
Hawa6
 62
     3
 48
0.032602
100
AcDbLine
 10
63.70478399999999
 20
89.83986299999999
 30
0.0
 11
62.873948
 21
90.845
 31
0.0
  0
LINE
  5
20A
330
A
100
AcDbEntity
  8
Hawa6
 62
     3
 48
0.032602
100
AcDbLine
 10
63.04220400000001
 20
113.624378
 30
0.0
 11
63.887797
 21
114.617132
 31
0.0
  0
LINE
  5
20B
330
A
100
AcDbEntity
  8
Hawa6
 62
     3
 48
0.022301
100
AcDbLine
 10
62.150197
 20
113.630967
 30
0.0
 11
63.04220400000001
 21
113.624378
 31
0.0
  0
ARC
  5
20C
330
A
100
AcDbEntity
  8
Hawa6
 62
     3
100
AcDbCircle
 10
59.381354
 20
113.761422
 30
0.0
 40
1.5
100
AcDbArc
 50
290.240479
 51
308.9131720000001
  0
LINE
  5
20D
330
A
100
AcDbEntity
  8
Hawa6
 62
     3
 48
0.133781
100
AcDbLine
 10
55.643862
 20
86.11443299999999
 30
0.0
 11
54.776026
 21
91.394827
 31
0.0
  0
LINE
  5
20E
330
A
100
AcDbEntity
  8
Hawa6
 62
     3
 48
0.0315
100
AcDbLine
 10
54.776026
 20
91.394827
 30
0.0
 11
53.51606
 21
91.404133
 31
0.0
  0
LINE
  5
20F
330
A
100
AcDbEntity
  8
Hawa6
 62
     3
 48
0.021526
100
AcDbLine
 10
63.698425
 20
88.978859
 30
0.0
 11
63.70478399999999
 21
89.83986299999999
 31
0.0
  0
LINE
  5
210
330
A
100
AcDbEntity
  8
Hawa6
 62
     3
 48
0.213718
100
AcDbLine
 10
55.643862
 20
86.114432
 30
0.0
 11
63.698425
 21
88.978859
 31
0.0
  0
LINE
  5
211
330
A
100
AcDbEntity
  8
Hawa6
 62
     3
 48
0.0315
100
AcDbLine
 10
54.937043
 20
113.194232
 30
0.0
 11
53.677078
 21
113.203539
 31
0.0
  0
LINE
  5
212
330
A
100
AcDbEntity
  8
Hawa6
 62
     3
 48
0.133781
100
AcDbLine
 10
55.88278599999999
 20
118.46123
 30
0.0
 11
54.937043
 21
113.194232
 31
0.0
  0
LINE
  5
213
330
A
100
AcDbEntity
  8
Hawa6
 62
     3
 48
0.213718
100
AcDbLine
 10
55.88278599999999
 20
118.461231
 30
0.0
 11
63.89415699999999
 21
115.478136
 31
0.0
  0
LINE
  5
214
330
A
100
AcDbEntity
  8
Hawa6
 62
     3
 48
0.021526
100
AcDbLine
 10
63.887797
 20
114.617132
 30
0.0
 11
63.89415699999999
 21
115.478136
 31
0.0
  0
LINE
  5
215
330
A
100
AcDbEntity
  8
Hawa6
 62
     3
 48
0.000026
100
AcDbLine
 10
63.70478399999999
 20
89.83986299999999
 30
0.0
 11
63.704777
 21
89.838836
 31
0.0
  0
LINE
  5
216
330
A
100
AcDbEntity
  8
Hawa6
 62
     3
 48
0.064679
100
AcDbLine
 10
57.014051
 20
94.795075
 30
0.0
 11
58.662362
 21
92.800966
 31
0.0
  0
LINE
  5
217
330
A
100
AcDbEntity
  8
Hawa6
 62
     3
 48
0.077648
100
AcDbLine
 10
57.014051
 20
94.795075
 30
0.0
 11
55.035229
 21
97.18903199999999
 31
0.0
  0
LINE
  5
218
330
A
100
AcDbEntity
  8
Hawa6
 62
     3
 48
0.06527
100
AcDbLine
 10
57.014051
 20
94.795075
 30
0.0
 11
59.624795
 21
94.77579099999999
 31
0.0
  0
LINE
  5
219
330
A
100
AcDbEntity
  8
Hawa6
 62
     3
 48
0.127495
100
AcDbLine
 10
62.873948
 20
90.845
 30
0.0
 11
59.624795
 21
94.77579099999999
 31
0.0
  0
LINE
  5
21A
330
A
100
AcDbEntity
  8
Hawa6
 62
     3
 48
0.018457
100
AcDbLine
 10
56.65296899999999
 20
98.371074
 30
0.0
 11
56.182609
 21
98.94011
 31
0.0
  0
LINE
  5
21B
330
A
100
AcDbEntity
  8
Hawa6
 62
     3
 48
0.116613
100
AcDbLine
 10
59.624795
 20
94.77579099999999
 30
0.0
 11
56.65296899999999
 21
98.371074
 31
0.0
  0
LINE
  5
21C
330
A
100
AcDbEntity
  8
Hawa6
 62
     3
 48
0.127495
100
AcDbLine
 10
63.04220400000001
 20
113.624378
 30
0.0
 11
59.73534
 21
109.742012
 31
0.0
  0
LINE
  5
21D
330
A
100
AcDbEntity
  8
Hawa6
 62
     3
 48
0.087822
100
AcDbLine
 10
57.45747900000001
 20
107.067729
 30
0.0
 11
59.73534
 21
109.742012
 31
0.0
  0
LINE
  5
21E
330
A
100
AcDbEntity
  8
Hawa6
 62
     3
 48
0.018457
100
AcDbLine
 10
56.232015
 20
105.628995
 30
0.0
 11
56.71073
 21
106.191021
 31
0.0
  0
LINE
  5
21F
330
A
100
AcDbEntity
  8
Hawa6
 62
     3
 48
0.06527
100
AcDbLine
 10
57.124597
 20
109.761296
 30
0.0
 11
59.73534
 21
109.742012
 31
0.0
  0
LINE
  5
220
330
A
100
AcDbEntity
  8
Hawa6
 62
     3
 48
0.064678
100
AcDbLine
 10
57.124597
 20
109.761296
 30
0.0
 11
58.802156
 21
111.730806
 31
0.0
  0
LINE
  5
221
330
A
100
AcDbEntity
  8
Hawa6
 62
     3
 48
0.079356
100
AcDbLine
 10
55.066336
 20
107.344831
 30
0.0
 11
57.124597
 21
109.761296
 31
0.0
  0
LINE
  5
222
330
A
100
AcDbEntity
  8
Hawa6
 62
     3
 48
0.033405
100
AcDbLine
 10
55.31681800000001
 20
98.38094300000001
 30
0.0
 11
56.65296899999999
 21
98.371074
 31
0.0
  0
LINE
  5
223
330
A
100
AcDbEntity
  8
Hawa6
 62
     3
 48
0.018986
100
AcDbLine
 10
55.423194
 20
98.945719
 30
0.0
 11
56.182609
 21
98.94011
 31
0.0
  0
LINE
  5
224
330
A
100
AcDbEntity
  8
Hawa6
 62
     3
 48
0.019932
100
AcDbLine
 10
55.434743
 20
105.634884
 30
0.0
 11
56.232015
 21
105.628995
 31
0.0
  0
LINE
  5
225
330
A
100
AcDbEntity
  8
Hawa6
 62
     3
 48
0.034517
100
AcDbLine
 10
55.330081
 20
106.201219
 30
0.0
 11
56.71073
 21
106.191021
 31
0.0
  0
ARC
  5
226
330
A
100
AcDbEntity
  8
Hawa6
 62
     3
100
AcDbCircle
 10
50.675308
 20
102.325071
 30
0.0
 40
5.421355
100
AcDbArc
 50
359.580422
 51
385.113982
  0
ARC
  5
227
330
A
100
AcDbEntity
  8
Hawa6
 62
     3
100
AcDbCircle
 10
50.674701
 20
102.325936
 30
0.0
 40
5.421978
100
AcDbArc
 50
334.81645
 51
359.571326
  0
LINE
  5
22A
330
A
100
AcDbEntity
  8
Hawa4
 62
     4
 48
0.101731
100
AcDbLine
 10
44.04802199999999
 20
109.305322
 30
0.0
 11
44.078078
 21
113.374443
 31
0.0
  0
LINE
  5
22B
330
A
100
AcDbEntity
  8
Hawa4
 62
     4
 48
0.247408
100
AcDbLine
 10
43.96000899999999
 20
97.38956299999999
 30
0.0
 11
44.03310399999999
 21
107.285618
 31
0.0
  0
LINE
  5
22C
330
A
100
AcDbEntity
  8
Hawa4
 62
     4
 48
0.100675
100
AcDbLine
 10
43.915584
 20
91.37504300000001
 30
0.0
 11
43.945327
 21
95.40193399999999
 31
0.0
  0
LINE
  5
22D
330
A
100
AcDbEntity
  8
Hawa4
 62
     4
 48
0.125534
100
AcDbLine
 10
47.959633
 20
97.323982
 30
0.0
 11
47.99672199999999
 21
102.345198
 31
0.0
  0
LINE
  5
22E
330
A
100
AcDbEntity
  8
Hawa4
 62
     4
 48
0.05
100
AcDbLine
 10
47.99672199999999
 20
102.345198
 30
0.0
 11
49.99666699999999
 21
102.330426
 31
0.0
  0
LINE
  5
22F
330
A
100
AcDbEntity
  8
Hawa4
 62
     4
 48
0.124842
100
AcDbLine
 10
49.99666699999999
 20
102.330426
 30
0.0
 11
50.033551
 21
107.323982
 31
0.0
  0
LINE
  5
230
330
A
100
AcDbEntity
  8
Hawa4
 62
     4
 48
0.125126
100
AcDbLine
 10
49.959699
 20
97.32551200000001
 30
0.0
 11
49.99666699999999
 21
102.330426
 31
0.0
  0
LINE
  5
231
330
A
100
AcDbEntity
  8
Hawa4
 62
     4
 48
0.0375
100
AcDbLine
 10
43.90450399999999
 20
89.87508400000001
 30
0.0
 11
43.915584
 21
91.37504300000001
 31
0.0
  0
LINE
  5
232
330
A
100
AcDbEntity
  8
Hawa4
 62
     4
 48
0.0852
100
AcDbLine
 10
43.90450399999999
 20
89.87508400000001
 30
0.0
 11
47.312392
 21
89.84991200000001
 31
0.0
  0
LINE
  5
233
330
A
100
AcDbEntity
  8
Hawa4
 62
     4
 48
0.080583
100
AcDbLine
 10
44.089157
 20
114.874402
 30
0.0
 11
47.312392
 21
114.850594
 31
0.0
  0
LINE
  5
234
330
A
100
AcDbEntity
  8
Hawa4
 62
     4
 48
0.0375
100
AcDbLine
 10
44.078078
 20
113.374443
 30
0.0
 11
44.089157
 21
114.874402
 31
0.0
  0
LINE
  5
235
330
A
100
AcDbEntity
  8
Hawa4
 62
     4
 48
0.039043
100
AcDbLine
 10
43.962324
 20
105.37508
 30
0.0
 11
43.950789
 21
103.813399
 31
0.0
  0
LINE
  5
236
330
A
100
AcDbEntity
  8
Hawa4
 62
     4
 48
0.110957
100
AcDbLine
 10
43.950789
 20
103.813399
 30
0.0
 11
43.918007
 21
99.37524300000001
 31
0.0
  0
LINE
  5
237
330
A
100
AcDbEntity
  8
Hawa4
 62
     4
 48
0.022811
100
AcDbLine
 10
43.312389
 20
104.734675
 30
0.0
 11
43.962324
 21
105.37508
 31
0.0
  0
LINE
  5
238
330
A
100
AcDbEntity
  8
Hawa4
 62
     4
 48
0.021572
100
AcDbLine
 10
43.312389
 20
99.989875
 30
0.0
 11
43.918007
 21
99.37524300000001
 31
0.0
  0
LINE
  5
239
330
A
100
AcDbEntity
  8
Hawa4
 62
     4
 48
0.001417
100
AcDbLine
 10
44.018985
 20
105.374661
 30
0.0
 11
43.962324
 21
105.37508
 31
0.0
  0
LINE
  5
23A
330
A
100
AcDbEntity
  8
Hawa4
 62
     4
 48
0.001417
100
AcDbLine
 10
43.974668
 20
99.37482500000001
 30
0.0
 11
43.918007
 21
99.37524300000001
 31
0.0
  0
LINE
  5
23B
330
A
100
AcDbEntity
  8
Hawa4
 62
     4
 48
0.014142
100
AcDbLine
 10
50.01955999999999
 20
105.430337
 30
0.0
 11
50.422508
 21
105.827376
 31
0.0
  0
LINE
  5
23C
330
A
100
AcDbEntity
  8
Hawa4
 62
     4
 48
0.014142
100
AcDbLine
 10
49.97376899999999
 20
99.23051200000001
 30
0.0
 11
50.370813
 21
98.82755899999999
 31
0.0
  0
LINE
  5
23D
330
A
100
AcDbEntity
  8
Hawa4
 62
     4
 48
0.001417
100
AcDbLine
 10
43.922007
 20
99.91672800000001
 30
0.0
 11
43.97867199999999
 21
99.91630999999999
 31
0.0
  0
LINE
  5
23E
330
A
100
AcDbEntity
  8
Hawa4
 62
     4
 48
0.001417
100
AcDbLine
 10
43.95832399999999
 20
104.833594
 30
0.0
 11
44.01499
 21
104.833176
 31
0.0
  0
LINE
  5
23F
330
A
100
AcDbEntity
  8
Hawa4
 62
     4
 48
0.001416
100
AcDbLine
 10
44.018965
 20
105.374661
 30
0.0
 11
43.962324
 21
105.37508
 31
0.0
  0
ARC
  5
240
330
A
100
AcDbEntity
  8
Hawa4
 62
     4
100
AcDbCircle
 10
43.313838
 20
96.92348
 30
0.0
 40
1.0
100
AcDbArc
 50
180.0
 51
240.0
  0
LINE
  5
241
330
A
100
AcDbEntity
  8
Hawa4
 62
     4
 48
0.108253
100
AcDbLine
 10
42.81383799999999
 20
96.05745400000001
 30
0.0
 11
46.56383799999999
 21
93.89239100000001
 31
0.0
  0
ARC
  5
242
330
A
100
AcDbEntity
  8
Hawa4
 62
     4
100
AcDbCircle
 10
46.81383799999999
 20
94.325404
 30
0.0
 40
0.5
100
AcDbArc
 50
240.0
 51
360.0
  0
LINE
  5
243
330
A
100
AcDbEntity
  8
Hawa4
 62
     4
 48
0.025
100
AcDbLine
 10
47.31383799999999
 20
94.325404
 30
0.0
 11
47.31383799999999
 21
95.325404
 31
0.0
  0
LINE
  5
244
330
A
100
AcDbEntity
  8
Hawa4
 62
     4
 48
0.088604
100
AcDbLine
 10
47.31383799999999
 20
95.325404
 30
0.0
 11
50.857986
 21
95.325404
 31
0.0
  0
ARC
  5
245
330
A
100
AcDbEntity
  8
Hawa4
 62
     4
100
AcDbCircle
 10
50.857986
 20
94.325404
 30
0.0
 40
1.0
100
AcDbArc
 50
344.10419
 51
450.0
  0
ARC
  5
246
330
A
100
AcDbEntity
  8
Hawa4
 62
     4
100
AcDbCircle
 10
59.513838
 20
91.86040400000001
 30
0.0
 40
8.0
100
AcDbArc
 50
164.10419
 51
176.667805
  0
LINE
  5
247
330
A
100
AcDbEntity
  8
Hawa4
 62
     4
 48
0.017838
100
AcDbLine
 10
51.527364
 20
92.32540400000001
 30
0.0
 11
50.813838
 21
92.32540400000001
 31
0.0
  0
ARC
  5
248
330
A
100
AcDbEntity
  8
Hawa4
 62
     4
100
AcDbCircle
 10
50.813838
 20
91.825404
 30
0.0
 40
0.5
100
AcDbArc
 50
90.0
 51
180.0
  0
LINE
  5
249
330
A
100
AcDbEntity
  8
Hawa4
 62
     4
 48
0.033935
100
AcDbLine
 10
50.313838
 20
91.825404
 30
0.0
 11
50.313838
 21
90.467986
 31
0.0
  0
ARC
  5
24A
330
A
100
AcDbEntity
  8
Hawa4
 62
     4
100
AcDbCircle
 10
53.513838
 20
92.32540400000001
 30
0.0
 40
3.7
100
AcDbArc
 50
210.132722
 51
261.010701
  0
ARC
  5
24B
330
A
100
AcDbEntity
  8
Hawa4
 62
     4
100
AcDbCircle
 10
53.01383799999999
 20
89.16470699999999
 30
0.0
 40
0.5
100
AcDbArc
 50
261.010701
 51
360.0
  0
LINE
  5
24C
330
A
100
AcDbEntity
  8
Hawa4
 62
     4
 48
0.079017
100
AcDbLine
 10
53.513838
 20
89.16470699999999
 30
0.0
 11
53.513838
 21
92.32540400000001
 31
0.0
  0
ARC
  5
24D
330
A
100
AcDbEntity
  8
Hawa4
 62
     4
100
AcDbCircle
 10
59.513838
 20
91.86040400000001
 30
0.0
 40
6.017991999999999
100
AcDbArc
 50
156.067191
 51
175.568435
  0
ARC
  5
24E
330
A
100
AcDbEntity
  8
Hawa4
 62
     4
100
AcDbCircle
 10
35.934685
 20
102.325404
 30
0.0
 40
19.779154
100
AcDbArc
 50
336.0671910000001
 51
383.932809
  0
ARC
  5
24F
330
A
100
AcDbEntity
  8
Hawa4
 62
     4
100
AcDbCircle
 10
59.513838
 20
112.790404
 30
0.0
 40
6.017991999999999
100
AcDbArc
 50
184.431565
 51
203.932809
  0
LINE
  5
250
330
A
100
AcDbEntity
  8
Hawa4
 62
     4
 48
0.079017
100
AcDbLine
 10
53.513838
 20
112.325404
 30
0.0
 11
53.513838
 21
115.4861
 31
0.0
  0
ARC
  5
251
330
A
100
AcDbEntity
  8
Hawa4
 62
     4
100
AcDbCircle
 10
53.01383799999999
 20
115.4861
 30
0.0
 40
0.5
100
AcDbArc
 50
0.0
 51
98.989299
  0
ARC
  5
252
330
A
100
AcDbEntity
  8
Hawa4
 62
     4
100
AcDbCircle
 10
53.513838
 20
112.325404
 30
0.0
 40
3.7
100
AcDbArc
 50
98.989299
 51
149.867278
  0
LINE
  5
253
330
A
100
AcDbEntity
  8
Hawa4
 62
     4
 48
0.033935
100
AcDbLine
 10
50.313838
 20
114.182821
 30
0.0
 11
50.313838
 21
112.825404
 31
0.0
  0
ARC
  5
254
330
A
100
AcDbEntity
  8
Hawa4
 62
     4
100
AcDbCircle
 10
50.813838
 20
112.825404
 30
0.0
 40
0.5
100
AcDbArc
 50
180.0
 51
270.0
  0
LINE
  5
255
330
A
100
AcDbEntity
  8
Hawa4
 62
     4
 48
0.017838
100
AcDbLine
 10
51.527364
 20
112.325404
 30
0.0
 11
50.813838
 21
112.325404
 31
0.0
  0
ARC
  5
256
330
A
100
AcDbEntity
  8
Hawa4
 62
     4
100
AcDbCircle
 10
59.513838
 20
112.790404
 30
0.0
 40
8.0
100
AcDbArc
 50
183.332195
 51
195.89581
  0
ARC
  5
257
330
A
100
AcDbEntity
  8
Hawa4
 62
     4
100
AcDbCircle
 10
50.857986
 20
110.325404
 30
0.0
 40
1.0
100
AcDbArc
 50
270.0
 51
375.89581
  0
LINE
  5
258
330
A
100
AcDbEntity
  8
Hawa4
 62
     4
 48
0.088604
100
AcDbLine
 10
47.31383799999999
 20
109.325404
 30
0.0
 11
50.857986
 21
109.325404
 31
0.0
  0
LINE
  5
259
330
A
100
AcDbEntity
  8
Hawa4
 62
     4
 48
0.025
100
AcDbLine
 10
47.31383799999999
 20
109.325404
 30
0.0
 11
47.31383799999999
 21
110.325404
 31
0.0
  0
ARC
  5
25A
330
A
100
AcDbEntity
  8
Hawa4
 62
     4
100
AcDbCircle
 10
46.81383799999999
 20
110.325404
 30
0.0
 40
0.5
100
AcDbArc
 50
0.0
 51
120.0
  0
LINE
  5
25B
330
A
100
AcDbEntity
  8
Hawa4
 62
     4
 48
0.108253
100
AcDbLine
 10
42.81383799999999
 20
108.593353
 30
0.0
 11
46.56383799999999
 21
110.758416
 31
0.0
  0
ARC
  5
25C
330
A
100
AcDbEntity
  8
Hawa4
 62
     4
100
AcDbCircle
 10
43.313838
 20
107.727327
 30
0.0
 40
1.0
100
AcDbArc
 50
120.0
 51
180.0
  0
LINE
  5
25D
330
A
100
AcDbEntity
  8
Hawa4
 62
     4
 48
0.270096
100
AcDbLine
 10
42.31383799999999
 20
96.92348
 30
0.0
 11
42.31383799999999
 21
107.727327
 31
0.0
  0
LINE
  5
25E
330
A
100
AcDbEntity
  8
Hawa4
 62
     4
 48
0.185
100
AcDbLine
 10
44.31383799999999
 20
107.325404
 30
0.0
 11
51.713838
 21
107.325404
 31
0.0
  0
ARC
  5
25F
330
A
100
AcDbEntity
  8
Hawa4
 62
     4
100
AcDbCircle
 10
51.713838
 20
106.325404
 30
0.0
 40
1.0
100
AcDbArc
 50
360.0
 51
450.0
  0
LINE
  5
260
330
A
100
AcDbEntity
  8
Hawa4
 62
     4
 48
0.2
100
AcDbLine
 10
52.713838
 20
98.325404
 30
0.0
 11
52.713838
 21
106.325404
 31
0.0
  0
ARC
  5
261
330
A
100
AcDbEntity
  8
Hawa4
 62
     4
100
AcDbCircle
 10
51.713838
 20
98.325404
 30
0.0
 40
1.0
100
AcDbArc
 50
270.0
 51
360.0
  0
LINE
  5
262
330
A
100
AcDbEntity
  8
Hawa4
 62
     4
 48
0.185
100
AcDbLine
 10
51.713838
 20
97.32540400000001
 30
0.0
 11
44.31383799999999
 21
97.32540400000001
 31
0.0
  0
ARC
  5
263
330
A
100
AcDbEntity
  8
Hawa4
 62
     4
100
AcDbCircle
 10
44.31383799999999
 20
98.325404
 30
0.0
 40
1.0
100
AcDbArc
 50
180.0
 51
270.0
  0
LINE
  5
264
330
A
100
AcDbEntity
  8
Hawa4
 62
     4
 48
0.2
100
AcDbLine
 10
43.313838
 20
106.325404
 30
0.0
 11
43.313838
 21
98.325404
 31
0.0
  0
ARC
  5
265
330
A
100
AcDbEntity
  8
Hawa4
 62
     4
100
AcDbCircle
 10
44.31383799999999
 20
106.325404
 30
0.0
 40
1.0
100
AcDbArc
 50
90.0
 51
180.0
  0
LINE
  5
266
330
A
100
AcDbEntity
  8
Hawa6
 62
     3
100
AcDbLine
 10
214.370882
 20
66.496166
 30
0.0
 11
245.23868
 21
66.496166
 31
0.0
  0
LINE
  5
267
330
A
100
AcDbEntity
  8
Hawa4
 62
     4
 48
0.000196
100
AcDbLine
 10
245.23868
 20
66.496166
 30
0.0
 11
245.23868
 21
66.504013
 31
0.0
  0
LINE
  5
268
330
A
100
AcDbEntity
  8
Hawa6
 62
     3
100
AcDbLine
 10
214.370882
 20
66.95380400000001
 30
0.0
 11
243.977423
 21
66.95380400000001
 31
0.0
  0
LINE
  5
269
330
A
100
AcDbEntity
  8
Hawa4
 62
     4
 48
0.004012
100
AcDbLine
 10
245.078188
 20
66.95380400000001
 30
0.0
 11
245.23868
 21
66.95380400000001
 31
0.0
  0
LINE
  5
26A
330
A
100
AcDbEntity
  8
Hawa4
 62
     4
 48
0.00242
100
AcDbLine
 10
245.23868
 20
66.782689
 30
0.0
 11
245.23868
 21
66.68587399999999
 31
0.0
  0
LINE
  5
26B
330
A
100
AcDbEntity
  8
Hawa6
 62
     3
100
AcDbLine
 10
214.370882
 20
71.32530600000001
 30
0.0
 11
239.516915
 21
71.32530600000001
 31
0.0
  0
LINE
  5
26C
330
A
100
AcDbEntity
  8
Hawa6
 62
     3
 48
0.095464
100
AcDbLine
 10
241.420124
 20
71.32530600000001
 30
0.0
 11
245.23868
 21
71.32530600000001
 31
0.0
  0
LINE
  5
26D
330
A
100
AcDbEntity
  8
Hawa4
 62
     4
 48
0.007499
100
AcDbLine
 10
245.23868
 20
68.27540299999999
 30
0.0
 11
245.23868
 21
68.575383
 31
0.0
  0
LINE
  5
26E
330
A
100
AcDbEntity
  8
Hawa4
 62
     4
 48
0.03815
100
AcDbLine
 10
245.23868
 20
69.79929099999999
 30
0.0
 11
245.23868
 21
71.32530600000001
 31
0.0
  0
LINE
  5
26F
330
A
100
AcDbEntity
  8
Hawa4
 62
     4
 48
0.005183
100
AcDbLine
 10
245.23868
 20
71.53261399999999
 30
0.0
 11
245.23868
 21
71.32530600000001
 31
0.0
  0
LINE
  5
270
330
A
100
AcDbEntity
  8
Hawa4
 62
     4
 48
0.002735
100
AcDbLine
 10
245.23868
 20
71.825404
 30
0.0
 11
245.23868
 21
71.71600999999999
 31
0.0
  0
LINE
  5
271
330
A
100
AcDbEntity
  8
Hawa6
 62
     3
100
AcDbLine
 10
244.970659
 20
66.515845
 30
0.0
 11
214.370882
 21
66.515845
 31
0.0
  0
LINE
  5
272
330
A
100
AcDbEntity
  8
Hawa6
 62
     3
100
AcDbLine
 10
245.23868
 20
87.154641
 30
0.0
 11
214.370882
 21
87.154641
 31
0.0
  0
LINE
  5
273
330
A
100
AcDbEntity
  8
Hawa4
 62
     4
 48
0.000243
100
AcDbLine
 10
245.23868
 20
87.154641
 30
0.0
 11
245.23868
 21
87.14490500000001
 31
0.0
  0
LINE
  5
274
330
A
100
AcDbEntity
  8
Hawa4
 62
     4
 48
0.002495
100
AcDbLine
 10
245.23868
 20
86.86429100000001
 30
0.0
 11
245.23868
 21
86.964076
 31
0.0
  0
LINE
  5
275
330
A
100
AcDbEntity
  8
Hawa4
 62
     4
 48
0.004013
100
AcDbLine
 10
245.23868
 20
86.697003
 30
0.0
 11
245.078149
 21
86.697003
 31
0.0
  0
LINE
  5
276
330
A
100
AcDbEntity
  8
Hawa6
 62
     3
100
AcDbLine
 10
243.978057
 20
86.697003
 30
0.0
 11
214.370882
 21
86.697003
 31
0.0
  0
LINE
  5
277
330
A
100
AcDbEntity
  8
Hawa4
 62
     4
 48
0.007507
100
AcDbLine
 10
245.23868
 20
85.075427
 30
0.0
 11
245.23868
 21
85.375709
 31
0.0
  0
LINE
  5
278
330
A
100
AcDbEntity
  8
Hawa4
 62
     4
 48
0.038104
100
AcDbLine
 10
245.23868
 20
82.325501
 30
0.0
 11
245.23868
 21
83.849663
 31
0.0
  0
LINE
  5
279
330
A
100
AcDbEntity
  8
Hawa6
 62
     3
 48
0.095485
100
AcDbLine
 10
245.23868
 20
82.325501
 30
0.0
 11
241.419263
 21
82.325501
 31
0.0
  0
LINE
  5
27A
330
A
100
AcDbEntity
  8
Hawa6
 62
     3
100
AcDbLine
 10
239.517841
 20
82.325501
 30
0.0
 11
214.370882
 21
82.325501
 31
0.0
  0
LINE
  5
27B
330
A
100
AcDbEntity
  8
Hawa4
 62
     4
 48
0.005209
100
AcDbLine
 10
245.23868
 20
82.117129
 30
0.0
 11
245.23868
 21
82.325501
 31
0.0
  0
LINE
  5
27C
330
A
100
AcDbEntity
  8
Hawa4
 62
     4
 48
0.002729
100
AcDbLine
 10
245.23868
 20
81.825404
 30
0.0
 11
245.23868
 21
81.934578
 31
0.0
  0
LINE
  5
27D
330
A
100
AcDbEntity
  8
Hawa5
 62
     1
 48
0.138771
100
AcDbLine
 10
245.23868
 20
81.825404
 30
0.0
 11
239.687858
 21
81.825404
 31
0.0
  0
LINE
  5
27E
330
A
100
AcDbEntity
  8
Hawa5
 62
     1
100
AcDbLine
 10
239.681379
 20
81.825404
 30
0.0
 11
214.370882
 21
81.825404
 31
0.0
  0
LINE
  5
27F
330
A
100
AcDbEntity
  8
Hawa6
 62
     3
100
AcDbLine
 10
214.370882
 20
87.134963
 30
0.0
 11
245.118113
 21
87.134963
 31
0.0
  0
LINE
  5
45C
330
A
100
AcDbEntity
  8
Hawa4
  6
DASHDOT
 62
     4
 48
0.039
100
AcDbLine
 10
254.094421
 20
69.17540200000001
 30
0.0
 11
252.534408
 21
69.17540200000001
 31
0.0
  0
LINE
  5
45D
330
A
100
AcDbEntity
  8
Hawa4
  6
DASHDOT
 62
     4
 48
0.039
100
AcDbLine
 10
253.314422
 20
69.95540099999999
 30
0.0
 11
253.314422
 21
68.395403
 31
0.0
  0
LINE
  5
45E
330
A
100
AcDbEntity
  8
Hawa4
  6
DASHDOT
 62
     4
 48
0.039
100
AcDbLine
 10
254.094421
 20
84.47539799999999
 30
0.0
 11
252.534408
 21
84.47539799999999
 31
0.0
  0
LINE
  5
45F
330
A
100
AcDbEntity
  8
Hawa4
  6
DASHDOT
 62
     4
 48
0.039
100
AcDbLine
 10
253.314422
 20
85.255396
 30
0.0
 11
253.314422
 21
83.69539899999999
 31
0.0
  0
LINE
  5
460
330
A
100
AcDbEntity
  8
Hawa4
  6
DASHDOT
 62
     4
 48
0.00975
100
AcDbLine
 10
135.063667
 20
87.45872000000002
 30
0.0
 11
134.673667
 21
87.45872000000002
 31
0.0
  0
LINE
  5
461
330
A
100
AcDbEntity
  8
Hawa4
  6
DASHDOT
 62
     4
 48
0.00975
100
AcDbLine
 10
134.868667
 20
87.65372699999998
 30
0.0
 11
134.868667
 21
87.263728
 31
0.0
  0
LINE
  5
462
330
A
100
AcDbEntity
  8
Hawa4
  6
DASHDOT
 62
     4
 48
0.0325
100
AcDbLine
 10
133.153657
 20
96.81443299999999
 30
0.0
 11
131.853658
 21
96.81443299999999
 31
0.0
  0
LINE
  5
463
330
A
100
AcDbEntity
  8
Hawa4
  6
DASHDOT
 62
     4
 48
0.0325
100
AcDbLine
 10
132.503658
 20
97.46442600000001
 30
0.0
 11
132.503658
 21
96.164439
 31
0.0
  0
LINE
  5
464
330
A
100
AcDbEntity
  8
Hawa4
  6
DASHDOT
 62
     4
 48
0.00975
100
AcDbLine
 10
130.288747
 20
87.47019399999999
 30
0.0
 11
129.898748
 21
87.47019399999999
 31
0.0
  0
LINE
  5
465
330
A
100
AcDbEntity
  8
Hawa4
  6
DASHDOT
 62
     4
 48
0.00975
100
AcDbLine
 10
130.093748
 20
87.66518599999997
 30
0.0
 11
130.093748
 21
87.275187
 31
0.0
  0
LINE
  5
466
330
A
100
AcDbEntity
  8
Hawa4
  6
DASHDOT
 62
     4
 48
0.13
100
AcDbLine
 10
135.083969
 20
88.61445099999997
 30
0.0
 11
129.88397
 21
88.61445099999997
 31
0.0
  0
LINE
  5
467
330
A
100
AcDbEntity
  8
Hawa4
  6
DASHDOT
 62
     4
 48
0.13
100
AcDbLine
 10
132.483968
 20
91.214457
 30
0.0
 11
132.483968
 21
86.01446000000001
 31
0.0
  0
LINE
  5
46A
330
A
100
AcDbEntity
  8
Hawa4
  6
DASHDOT
 62
     4
 48
0.052
100
AcDbLine
 10
133.543657
 20
96.81443299999999
 30
0.0
 11
131.463657
 21
96.81443299999999
 31
0.0
  0
LINE
  5
46B
330
A
100
AcDbEntity
  8
Hawa4
  6
DASHDOT
 62
     4
 48
0.052
100
AcDbLine
 10
132.503658
 20
97.85442600000001
 30
0.0
 11
132.503658
 21
95.774424
 31
0.0
  0
LINE
  5
46E
330
A
100
AcDbEntity
  8
Hawa2
 62
     9
 48
0.073078
100
AcDbLine
 10
245.262496
 20
68.392367
 30
0.0
 11
247.329452
 21
66.325404
 31
0.0
  0
LINE
  5
46F
330
A
100
AcDbEntity
  8
Hawa2
 62
     9
 48
0.06092
100
AcDbLine
 10
248.434799
 20
68.048479
 30
0.0
 11
250.157882
 21
66.325404
 31
0.0
  0
LINE
  5
470
330
A
100
AcDbEntity
  8
Hawa2
 62
     9
 48
0.07955
100
AcDbLine
 10
250.736312
 20
68.57540400000001
 30
0.0
 11
252.986312
 21
66.325404
 31
0.0
  0
LINE
  5
471
330
A
100
AcDbEntity
  8
Hawa2
 62
     9
 48
0.07955
100
AcDbLine
 10
253.564743
 20
68.57540400000001
 30
0.0
 11
255.814743
 21
66.325404
 31
0.0
  0
LINE
  5
472
330
A
100
AcDbEntity
  8
Hawa2
 62
     9
 48
0.080215
100
AcDbLine
 10
256.374343
 20
68.59421800000001
 30
0.0
 11
258.643157
 21
66.325404
 31
0.0
  0
LINE
  5
473
330
A
100
AcDbEntity
  8
Hawa2
 62
     9
 48
0.088388
100
AcDbLine
 10
256.738677
 20
71.05831399999999
 30
0.0
 11
259.238677
 21
68.55831399999999
 31
0.0
  0
LINE
  5
474
330
A
100
AcDbEntity
  8
Hawa2
 62
     9
 48
0.011008
100
AcDbLine
 10
245.238677
 20
85.38674400000003
 30
0.0
 11
245.550018
 21
85.07540400000001
 31
0.0
  0
LINE
  5
475
330
A
100
AcDbEntity
  8
Hawa2
 62
     9
 48
0.088388
100
AcDbLine
 10
256.738677
 20
73.88674400000002
 30
0.0
 11
259.238677
 21
71.38674400000002
 31
0.0
  0
LINE
  5
476
330
A
100
AcDbEntity
  8
Hawa2
 62
     9
 48
0.064275
100
AcDbLine
 10
246.128448
 20
87.32540400000001
 30
0.0
 11
247.946426
 21
85.50742599999999
 31
0.0
  0
LINE
  5
477
330
A
100
AcDbEntity
  8
Hawa2
 62
     9
 48
0.085034
100
AcDbLine
 10
256.833557
 20
76.62028000000001
 30
0.0
 11
259.238677
 21
74.215174
 31
0.0
  0
LINE
  5
478
330
A
100
AcDbEntity
  8
Hawa2
 62
     9
 48
0.076147
100
AcDbLine
 10
248.956878
 20
87.32540400000001
 30
0.0
 11
251.110641
 21
85.17164100000002
 31
0.0
  0
LINE
  5
479
330
A
100
AcDbEntity
  8
Hawa2
 62
     9
 48
0.088388
100
AcDbLine
 10
256.738677
 20
79.54358900000002
 30
0.0
 11
259.238677
 21
77.04358900000002
 31
0.0
  0
LINE
  5
47A
330
A
100
AcDbEntity
  8
Hawa2
 62
     9
 48
0.07955
100
AcDbLine
 10
251.785293
 20
87.32540400000001
 30
0.0
 11
254.035293
 21
85.07540400000001
 31
0.0
  0
LINE
  5
47B
330
A
100
AcDbEntity
  8
Hawa2
 62
     9
 48
0.088388
100
AcDbLine
 10
256.738677
 20
82.37201900000002
 30
0.0
 11
259.238677
 21
79.87201900000002
 31
0.0
  0
LINE
  5
47C
330
A
100
AcDbEntity
  8
Hawa2
 62
     9
 48
0.163517
100
AcDbLine
 10
254.613723
 20
87.32540400000001
 30
0.0
 11
259.238677
 21
82.700449
 31
0.0
  0
LINE
  5
47D
330
A
100
AcDbEntity
  8
Hawa2
 62
     9
 48
0.063517
100
AcDbLine
 10
257.4421529999999
 20
87.32540400000001
 30
0.0
 11
259.238677
 21
85.52888000000001
 31
0.0
  0
LINE
  5
47E
330
A
100
AcDbEntity
  8
Hawa2
 62
     9
 48
0.01902
100
AcDbLine
 10
253.373382
 20
68.57837099999999
 30
0.0
 11
253.911346
 21
69.11632
 31
0.0
  0
LINE
  5
47F
330
A
100
AcDbEntity
  8
Hawa2
 62
     9
 48
0.062809
100
AcDbLine
 10
250.541992
 20
68.57540400000001
 30
0.0
 11
252.318511
 21
70.351916
 31
0.0
  0
LINE
  5
480
330
A
100
AcDbEntity
  8
Hawa2
 62
     9
 48
0.045947
100
AcDbLine
 10
247.613998
 20
68.475825
 30
0.0
 11
248.913574
 21
69.775401
 31
0.0
  0
LINE
  5
481
330
A
100
AcDbEntity
  8
Hawa2
 62
     9
 48
0.011246
100
AcDbLine
 10
250.458084
 20
71.319918
 30
0.0
 11
250.776184
 21
71.63800999999999
 31
0.0
  0
LINE
  5
482
330
A
100
AcDbEntity
  8
Hawa2
 62
     9
 48
0.085838
100
AcDbLine
 10
243.657272
 20
67.34752900000001
 30
0.0
 11
246.085144
 21
69.775401
 31
0.0
  0
LINE
  5
483
330
A
100
AcDbEntity
  8
Hawa2
 62
     9
 48
0.017689
100
AcDbLine
 10
246.698272
 20
70.38852900000001
 30
0.0
 11
247.198593
 21
70.888857
 31
0.0
  0
LINE
  5
484
330
A
100
AcDbEntity
  8
Hawa2
 62
     9
 48
0.043236
100
AcDbLine
 10
242.318634
 20
68.837321
 30
0.0
 11
243.541534
 21
70.06022900000001
 31
0.0
  0
LINE
  5
485
330
A
100
AcDbEntity
  8
Hawa2
 62
     9
 48
0.00244
100
AcDbLine
 10
245.102691
 20
71.621378
 30
0.0
 11
245.171707
 21
71.69039399999999
 31
0.0
  0
LINE
  5
486
330
A
100
AcDbEntity
  8
Hawa2
 62
     9
 48
0.031943
100
AcDbLine
 10
240.869705
 20
70.216822
 30
0.0
 11
241.773193
 21
71.120303
 31
0.0
  0
LINE
  5
487
330
A
100
AcDbEntity
  8
Hawa2
 62
     9
 48
0.008517
100
AcDbLine
 10
239.406738
 20
71.582278
 30
0.0
 11
239.647644
 21
71.823191
 31
0.0
  0
LINE
  5
488
330
A
100
AcDbEntity
  8
Hawa2
 62
     9
 48
0.054883
100
AcDbLine
 10
251.347518
 20
83.52306600000002
 30
0.0
 11
252.899856
 21
85.07540400000001
 31
0.0
  0
LINE
  5
489
330
A
100
AcDbEntity
  8
Hawa2
 62
     9
 48
0.042426
100
AcDbLine
 10
248.871429
 20
83.87540700000002
 30
0.0
 11
250.071426
 21
85.07540400000001
 31
0.0
  0
LINE
  5
48A
330
A
100
AcDbEntity
  8
Hawa2
 62
     9
 48
0.042427
100
AcDbLine
 10
246.042999
 20
83.87540700000002
 30
0.0
 11
247.243011
 21
85.07540400000001
 31
0.0
  0
LINE
  5
48B
330
A
100
AcDbEntity
  8
Hawa2
 62
     9
 48
0.092985
100
AcDbLine
 10
242.0419
 20
82.702723
 30
0.0
 11
244.67192
 21
85.33274300000002
 31
0.0
  0
LINE
  5
48C
330
A
100
AcDbEntity
  8
Hawa2
 62
     9
 48
0.086222
100
AcDbLine
 10
129.403657
 20
71.11411499999999
 30
0.0
 11
131.84237
 21
68.675402
 31
0.0
  0
LINE
  5
48D
330
A
100
AcDbEntity
  8
Hawa2
 62
     9
 48
0.186222
100
AcDbLine
 10
129.403657
 20
73.94254500000002
 30
0.0
 11
134.670799
 21
68.675402
 31
0.0
  0
LINE
  5
48E
330
A
100
AcDbEntity
  8
Hawa2
 62
     9
 48
0.286222
100
AcDbLine
 10
129.403657
 20
76.770976
 30
0.0
 11
137.499225
 21
68.675402
 31
0.0
  0
LINE
  5
48F
330
A
100
AcDbEntity
  8
Hawa2
 62
     9
 48
0.23675
100
AcDbLine
 10
129.403657
 20
79.59939000000002
 30
0.0
 11
136.0999709999999
 21
72.903086
 31
0.0
  0
LINE
  5
490
330
A
100
AcDbEntity
  8
Hawa2
 62
     9
 48
0.068943
100
AcDbLine
 10
138.377651
 20
70.62540699999999
 30
0.0
 11
140.327651
 21
68.675402
 31
0.0
  0
LINE
  5
491
330
A
100
AcDbEntity
  8
Hawa2
 62
     9
 48
0.041543
100
AcDbLine
 10
129.403657
 20
82.42782100000002
 30
0.0
 11
130.578657
 21
81.25281800000001
 31
0.0
  0
LINE
  5
492
330
A
100
AcDbEntity
  8
Hawa2
 62
     9
 48
0.099107
100
AcDbLine
 10
133.300483
 20
78.53100099999998
 30
0.0
 11
136.103656
 21
75.72782400000001
 31
0.0
  0
LINE
  5
493
330
A
100
AcDbEntity
  8
Hawa2
 62
     9
 48
0.053205
100
AcDbLine
 10
141.606079
 20
70.22540500000001
 30
0.0
 11
143.110946
 21
68.720538
 31
0.0
  0
LINE
  5
494
330
A
100
AcDbEntity
  8
Hawa2
 62
     9
 48
0.034868
100
AcDbLine
 10
129.851091
 20
84.80881699999997
 30
0.0
 11
130.837297
 21
83.82261100000002
 31
0.0
  0
LINE
  5
495
330
A
100
AcDbEntity
  8
Hawa2
 62
     9
 48
0.05922
100
AcDbLine
 10
134.428657
 20
80.23125700000001
 30
0.0
 11
136.103656
 21
78.55625400000002
 31
0.0
  0
LINE
  5
496
330
A
100
AcDbEntity
  8
Hawa2
 62
     9
 48
0.052149
100
AcDbLine
 10
134.428657
 20
83.05967199999997
 30
0.0
 11
135.903655
 21
81.584681
 31
0.0
  0
LINE
  5
497
330
A
100
AcDbEntity
  8
Hawa2
 62
     9
 48
0.068943
100
AcDbLine
 10
135.341361
 20
84.975398
 30
0.0
 11
137.291358
 21
83.02540099999999
 31
0.0
  0
LINE
  5
498
330
A
100
AcDbEntity
  8
Hawa2
 62
     9
 48
0.068129
100
AcDbLine
 10
138.169788
 20
84.975398
 30
0.0
 11
140.096759
 21
83.04842599999998
 31
0.0
  0
LINE
  5
499
330
A
100
AcDbEntity
  8
Hawa2
 62
     9
 48
0.068877
100
AcDbLine
 10
140.998214
 20
84.975398
 30
0.0
 11
142.946346
 21
83.02727700000001
 31
0.0
  0
LINE
  5
49A
330
A
100
AcDbEntity
  8
Hawa2
 62
     9
 48
0.046466
100
AcDbLine
 10
141.883338
 20
70.22540500000001
 30
0.0
 11
143.197601
 21
71.539668
 31
0.0
  0
LINE
  5
49B
330
A
100
AcDbEntity
  8
Hawa2
 62
     9
 48
0.036325
100
AcDbLine
 10
139.45491
 20
70.62540699999999
 30
0.0
 11
140.482341
 21
71.65283399999999
 31
0.0
  0
LINE
  5
49C
330
A
100
AcDbEntity
  8
Hawa2
 62
     9
 48
0.0246
100
AcDbLine
 10
136.629932
 20
70.628848
 30
0.0
 11
137.325729
 21
71.324648
 31
0.0
  0
LINE
  5
49D
330
A
100
AcDbEntity
  8
Hawa2
 62
     9
 48
0.026517
100
AcDbLine
 10
136.103656
 20
72.93100200000001
 30
0.0
 11
136.853656
 21
73.68101
 31
0.0
  0
LINE
  5
49E
330
A
100
AcDbEntity
  8
Hawa2
 62
     9
 48
0.026517
100
AcDbLine
 10
136.103656
 20
75.75943999999999
 30
0.0
 11
136.853656
 21
76.50943999999999
 31
0.0
  0
LINE
  5
49F
330
A
100
AcDbEntity
  8
Hawa2
 62
     9
 48
0.023534
100
AcDbLine
 10
142.643012
 20
82.298792
 30
0.0
 11
143.308662
 21
82.96444200000001
 31
0.0
  0
LINE
  5
4A0
330
A
100
AcDbEntity
  8
Hawa2
 62
     9
 48
0.026517
100
AcDbLine
 10
136.103656
 20
78.587855
 30
0.0
 11
136.853656
 21
79.337855
 31
0.0
  0
LINE
  5
4A1
330
A
100
AcDbEntity
  8
Hawa2
 62
     9
 48
0.052467
100
AcDbLine
 10
139.457218
 20
81.94141599999998
 30
0.0
 11
140.9412
 21
83.42541000000002
 31
0.0
  0
LINE
  5
4A2
330
A
100
AcDbEntity
  8
Hawa2
 62
     9
 48
0.025918
100
AcDbLine
 10
135.9206
 20
81.23322499999998
 30
0.0
 11
136.653655
 21
81.966288
 31
0.0
  0
LINE
  5
4A3
330
A
100
AcDbEntity
  8
Hawa2
 62
     9
 48
0.024722
100
AcDbLine
 10
137.013526
 20
82.326151
 30
0.0
 11
137.712776
 21
83.02540099999999
 31
0.0
  0
LINE
  5
4A4
330
A
100
AcDbEntity
  8
Hawa2
 62
     9
 48
0.067487
100
AcDbLine
 10
131.592245
 20
79.73330199999999
 30
0.0
 11
133.501066
 21
81.64213000000001
 31
0.0
  0
LINE
  5
4A5
330
A
100
AcDbEntity
  8
Hawa2
 62
     9
 48
0.00331
100
AcDbLine
 10
130.562177
 20
81.53165700000002
 30
0.0
 11
130.655788
 21
81.62526899999997
 31
0.0
  0
LINE
  5
4A6
330
A
100
AcDbEntity
  8
Hawa2
 62
     9
 48
0.091919
100
AcDbLine
 10
131.124223
 20
82.09371399999998
 30
0.0
 11
133.724082
 21
84.69356800000001
 31
0.0
  0
LINE
  5
4A7
330
A
100
AcDbEntity
  8
Hawa2
 62
     9
 48
0.019438
100
AcDbLine
 10
134.1576
 20
85.12708500000002
 30
0.0
 11
134.707397
 21
85.67687500000003
 31
0.0
  0
LINE
  5
4A8
330
A
100
AcDbEntity
  8
Hawa2
 62
     9
 48
0.058809
100
AcDbLine
 10
131.187711
 20
84.98562099999999
 30
0.0
 11
132.851085
 21
86.64899699999999
 31
0.0
  0
LINE
  5
4A9
330
A
100
AcDbEntity
  8
Hawa2
 62
     9
 48
0.018678
100
AcDbLine
 10
134.449829
 20
88.24773599999998
 30
0.0
 11
134.97813
 21
88.776041
 31
0.0
  0
LINE
  5
4AA
330
A
100
AcDbEntity
  8
Hawa2
 62
     9
 48
0.020214
100
AcDbLine
 10
130.272054
 20
86.89838599999999
 30
0.0
 11
130.843795
 21
87.47013299999997
 31
0.0
  0
LINE
  5
4AB
330
A
100
AcDbEntity
  8
Hawa2
 62
     9
 48
0.012664
100
AcDbLine
 10
133.627965
 20
90.25429800000001
 30
0.0
 11
133.986164
 21
90.612498
 31
0.0
  0
LINE
  5
4AC
330
A
100
AcDbEntity
  8
Hawa2
 62
     9
 48
0.099943
100
AcDbLine
 10
130.222042
 20
89.67681400000001
 30
0.0
 11
133.048856
 21
92.503626
 31
0.0
  0
LINE
  5
4AD
330
A
100
AcDbEntity
  8
Hawa2
 62
     9
 48
0.027725
100
AcDbLine
 10
132.077871
 20
94.361063
 30
0.0
 11
132.862066
 21
95.14525799999999
 31
0.0
  0
LINE
  5
4AE
330
A
100
AcDbEntity
  8
Hawa2
 62
     9
 48
0.009598
100
AcDbLine
 10
134.97813
 20
88.776041
 30
0.0
 11
135.249603
 21
89.047511
 31
0.0
  0
LINE
  5
4AF
330
A
100
AcDbEntity
  8
Hawa2
 62
     9
 48
0.007536
100
AcDbLine
 10
133.986164
 20
90.612498
 30
0.0
 11
134.19931
 21
90.825648
 31
0.0
  0
LINE
  5
4B0
330
A
100
AcDbEntity
  8
Hawa2
 62
     9
 48
0.016812
100
AcDbLine
 10
129.746541
 20
89.20130400000003
 30
0.0
 11
130.222042
 21
89.67681400000001
 31
0.0
  0
LINE
  5
4B1
330
A
100
AcDbEntity
  8
Hawa2
 62
     9
 48
0.009931
100
AcDbLine
 10
133.048856
 20
92.503626
 30
0.0
 11
133.329744
 21
92.78451
 31
0.0
  0
LINE
  5
4B2
330
A
100
AcDbEntity
  8
Hawa2
 62
     9
 48
0.011506
100
AcDbLine
 10
131.752433
 20
94.035624
 30
0.0
 11
132.077871
 21
94.361063
 31
0.0
  0
LINE
  5
4B3
330
A
100
AcDbEntity
  8
Hawa2
 62
     9
 48
0.009931
100
AcDbLine
 10
132.862066
 20
95.14525799999999
 30
0.0
 11
133.142953
 21
95.426142
 31
0.0
  0
LINE
  5
4B4
330
A
100
AcDbEntity
  8
Hawa2
 62
     9
 48
0.028239
100
AcDbLine
 10
131.704009
 20
96.81562300000001
 30
0.0
 11
132.502733
 21
97.61434399999998
 31
0.0
  0
LINE
  5
4B5
330
A
100
AcDbEntity
  8
Hawa2
 62
     9
 48
0.008986
100
AcDbLine
 10
34.713836
 20
83.77955100000001
 30
0.0
 11
34.96798699999999
 21
83.525401
 31
0.0
  0
LINE
  5
4B6
330
A
100
AcDbEntity
  8
Hawa2
 62
     9
 48
0.09932
100
AcDbLine
 10
34.98721999999999
 20
86.33458900000002
 30
0.0
 11
37.796409
 21
83.525401
 31
0.0
  0
LINE
  5
4B7
330
A
100
AcDbEntity
  8
Hawa2
 62
     9
 48
0.191308
100
AcDbLine
 10
35.213836
 20
88.93639599999998
 30
0.0
 11
40.62483899999999
 21
83.525401
 31
0.0
  0
LINE
  5
4B8
330
A
100
AcDbEntity
  8
Hawa2
 62
     9
 48
0.106117
100
AcDbLine
 10
35.213836
 20
91.76482599999999
 30
0.0
 11
38.21527000000001
 21
88.76339200000002
 31
0.0
  0
LINE
  5
4B9
330
A
100
AcDbEntity
  8
Hawa2
 62
     9
 48
0.099046
100
AcDbLine
 10
40.65183199999999
 20
86.326838
 30
0.0
 11
43.45326599999999
 21
83.525401
 31
0.0
  0
LINE
  5
4BA
330
A
100
AcDbEntity
  8
Hawa2
 62
     9
 48
0.106066
100
AcDbLine
 10
35.213836
 20
94.59325599999999
 30
0.0
 11
38.21383599999999
 21
91.593256
 31
0.0
  0
LINE
  5
4BB
330
A
100
AcDbEntity
  8
Hawa2
 62
     9
 48
0.098995
100
AcDbLine
 10
43.48169299999999
 20
86.32540400000001
 30
0.0
 11
46.28169199999999
 21
83.525401
 31
0.0
  0
LINE
  5
4BC
330
A
100
AcDbEntity
  8
Hawa2
 62
     9
 48
0.106066
100
AcDbLine
 10
35.213836
 20
97.421687
 30
0.0
 11
38.21383599999999
 21
94.42168700000001
 31
0.0
  0
LINE
  5
4BD
330
A
100
AcDbEntity
  8
Hawa2
 62
     9
 48
0.109717
100
AcDbLine
 10
46.00686599999999
 20
86.62865699999997
 30
0.0
 11
49.11011799999999
 21
83.525401
 31
0.0
  0
LINE
  5
4BE
330
A
100
AcDbEntity
  8
Hawa2
 62
     9
 48
0.106066
100
AcDbLine
 10
35.213836
 20
100.250117
 30
0.0
 11
38.21383599999999
 21
97.25011700000001
 31
0.0
  0
LINE
  5
4BF
330
A
100
AcDbEntity
  8
Hawa2
 62
     9
 48
0.166125
100
AcDbLine
 10
47.23982599999999
 20
88.22413100000002
 30
0.0
 11
51.938545
 21
83.525401
 31
0.0
  0
LINE
  5
4C0
330
A
100
AcDbEntity
  8
Hawa2
 62
     9
 48
0.106066
100
AcDbLine
 10
35.213836
 20
103.078532
 30
0.0
 11
38.21383599999999
 21
100.078532
 31
0.0
  0
LINE
  5
4C1
330
A
100
AcDbEntity
  8
Hawa2
 62
     9
 48
0.106066
100
AcDbLine
 10
47.31383799999999
 20
90.97854100000001
 30
0.0
 11
50.313838
 21
87.97854099999998
 31
0.0
  0
LINE
  5
4C2
330
A
100
AcDbEntity
  8
Hawa2
 62
     9
 48
0.092136
100
AcDbLine
 10
51.966972
 20
86.32540400000001
 30
0.0
 11
54.57295600000001
 21
83.71941600000003
 31
0.0
  0
LINE
  5
4C3
330
A
100
AcDbEntity
  8
Hawa2
 62
     9
 48
0.106066
100
AcDbLine
 10
35.213836
 20
105.906962
 30
0.0
 11
38.21383599999999
 21
102.906962
 31
0.0
  0
LINE
  5
4C4
330
A
100
AcDbEntity
  8
Hawa2
 62
     9
 48
0.106066
100
AcDbLine
 10
47.31383799999999
 20
93.806971
 30
0.0
 11
50.313838
 21
90.806971
 31
0.0
  0
LINE
  5
4C5
330
A
100
AcDbEntity
  8
Hawa2
 62
     9
 48
0.077644
100
AcDbLine
 10
53.513839
 20
87.60695899999999
 30
0.0
 11
55.70994899999998
 21
85.41085299999997
 31
0.0
  0
LINE
  5
4C6
330
A
100
AcDbEntity
  8
Hawa2
 62
     9
 48
0.106066
100
AcDbLine
 10
35.213836
 20
108.735392
 30
0.0
 11
38.21383599999999
 21
105.735392
 31
0.0
  0
LINE
  5
4C7
330
A
100
AcDbEntity
  8
Hawa2
 62
     9
 48
0.059751
100
AcDbLine
 10
48.623828
 20
95.325404
 30
0.0
 11
50.313838
 21
93.635386
 31
0.0
  0
LINE
  5
4C8
330
A
100
AcDbEntity
  8
Hawa2
 62
     9
 48
0.060073
100
AcDbLine
 10
53.513839
 20
90.43538899999999
 30
0.0
 11
55.21296299999999
 21
88.73627699999998
 31
0.0
  0
LINE
  5
4C9
330
A
100
AcDbEntity
  8
Hawa2
 62
     9
 48
0.106066
100
AcDbLine
 10
35.213836
 20
111.563822
 30
0.0
 11
38.21383599999999
 21
108.563822
 31
0.0
  0
LINE
  5
4CA
330
A
100
AcDbEntity
  8
Hawa2
 62
     9
 48
0.106066
100
AcDbLine
 10
35.213836
 20
114.392252
 30
0.0
 11
38.21383599999999
 21
111.392252
 31
0.0
  0
LINE
  5
4CB
330
A
100
AcDbEntity
  8
Hawa2
 62
     9
 48
0.106066
100
AcDbLine
 10
35.213836
 20
117.220667
 30
0.0
 11
38.21383599999999
 21
114.220667
 31
0.0
  0
LINE
  5
4CC
330
A
100
AcDbEntity
  8
Hawa2
 62
     9
 48
0.131291
100
AcDbLine
 10
34.713836
 20
120.549097
 30
0.0
 11
38.42729499999999
 21
116.835642
 31
0.0
  0
LINE
  5
4CD
330
A
100
AcDbEntity
  8
Hawa2
 62
     9
 48
0.1038
100
AcDbLine
 10
36.965965
 20
121.125407
 30
0.0
 11
39.901874
 21
118.189494
 31
0.0
  0
LINE
  5
4CE
330
A
100
AcDbEntity
  8
Hawa2
 62
     9
 48
0.05134
100
AcDbLine
 10
47.31383799999999
 20
110.777522
 30
0.0
 11
48.765964
 21
109.325404
 31
0.0
  0
LINE
  5
4CF
330
A
100
AcDbEntity
  8
Hawa2
 62
     9
 48
0.098995
100
AcDbLine
 10
39.794391
 20
121.125407
 30
0.0
 11
42.59439
 21
118.325404
 31
0.0
  0
LINE
  5
4D0
330
A
100
AcDbEntity
  8
Hawa2
 62
     9
 48
0.106066
100
AcDbLine
 10
47.31383799999999
 20
113.605952
 30
0.0
 11
50.313838
 21
110.605952
 31
0.0
  0
LINE
  5
4D1
330
A
100
AcDbEntity
  8
Hawa2
 62
     9
 48
0.102696
100
AcDbLine
 10
42.62281699999999
 20
121.125407
 30
0.0
 11
45.527492
 21
118.220728
 31
0.0
  0
LINE
  5
4D2
330
A
100
AcDbEntity
  8
Hawa2
 62
     9
 48
0.109767
100
AcDbLine
 10
47.209163
 20
116.539057
 30
0.0
 11
50.313838
 21
113.434382
 31
0.0
  0
LINE
  5
4D3
330
A
100
AcDbEntity
  8
Hawa2
 62
     9
 48
0.171919
100
AcDbLine
 10
45.451244
 20
121.125407
 30
0.0
 11
50.313838
 21
116.262812
 31
0.0
  0
LINE
  5
4D4
330
A
100
AcDbEntity
  8
Hawa2
 62
     9
 48
0.098995
100
AcDbLine
 10
48.27967000000001
 20
121.125407
 30
0.0
 11
51.07967299999999
 21
118.325404
 31
0.0
  0
LINE
  5
4D5
330
A
100
AcDbEntity
  8
Hawa2
 62
     9
 48
0.05124
100
AcDbLine
 10
53.513839
 20
115.89123
 30
0.0
 11
54.96311899999999
 21
114.44195
 31
0.0
  0
LINE
  5
4D6
330
A
100
AcDbEntity
  8
Hawa2
 62
     9
 48
0.150648
100
AcDbLine
 10
51.10809999999999
 20
121.125407
 30
0.0
 11
55.369075
 21
116.86442
 31
0.0
  0
LINE
  5
4D7
330
A
100
AcDbEntity
  8
Hawa2
 62
     9
 48
0.061798
100
AcDbLine
 10
53.951263
 20
121.110667
 30
0.0
 11
55.69917599999999
 21
119.362757
 31
0.0
  0
LINE
  5
4D8
330
A
100
AcDbEntity
  8
Hawa2
 62
     9
 48
0.023043
100
AcDbLine
 10
52.86207099999999
 20
88.68436700000001
 30
0.0
 11
53.513839
 21
89.33613100000002
 31
0.0
  0
LINE
  5
4D9
330
A
100
AcDbEntity
  8
Hawa2
 62
     9
 48
0.089601
100
AcDbLine
 10
50.97953
 20
89.63025900000003
 30
0.0
 11
53.513839
 21
92.164561
 31
0.0
  0
LINE
  5
4DA
330
A
100
AcDbEntity
  8
Hawa2
 62
     9
 48
0.018824
100
AcDbLine
 10
50.313838
 20
91.79299399999999
 30
0.0
 11
50.84625199999999
 21
92.32540400000001
 31
0.0
  0
LINE
  5
4DB
330
A
100
AcDbEntity
  8
Hawa2
 62
     9
 48
0.111034
100
AcDbLine
 10
51.60880999999999
 20
93.08796200000001
 30
0.0
 11
54.74931299999999
 21
96.22846500000001
 31
0.0
  0
LINE
  5
4DC
330
A
100
AcDbEntity
  8
Hawa2
 62
     9
 48
0.160965
100
AcDbLine
 10
51.006526
 20
95.31411199999999
 30
0.0
 11
55.559307
 21
99.866892
 31
0.0
  0
LINE
  5
4DD
330
A
100
AcDbEntity
  8
Hawa2
 62
     9
 48
0.021623
100
AcDbLine
 10
46.70225499999999
 20
93.838267
 30
0.0
 11
47.31383799999999
 21
94.449839
 31
0.0
  0
LINE
  5
4DE
330
A
100
AcDbEntity
  8
Hawa2
 62
     9
 48
0.070711
100
AcDbLine
 10
48.18939899999999
 20
95.325404
 30
0.0
 11
50.18939899999999
 21
97.32540400000001
 31
0.0
  0
LINE
  5
4DF
330
A
100
AcDbEntity
  8
Hawa2
 62
     9
 48
0.10578
100
AcDbLine
 10
52.713836
 20
99.84984799999999
 30
0.0
 11
55.705738
 21
102.841746
 31
0.0
  0
LINE
  5
4E0
330
A
100
AcDbEntity
  8
Hawa2
 62
     9
 48
0.087265
100
AcDbLine
 10
44.892757
 20
94.85718799999999
 30
0.0
 11
47.36096899999999
 21
97.32540400000001
 31
0.0
  0
LINE
  5
4E1
330
A
100
AcDbEntity
  8
Hawa2
 62
     9
 48
0.097366
100
AcDbLine
 10
52.713836
 20
102.678278
 30
0.0
 11
55.46776499999999
 21
105.4322
 31
0.0
  0
LINE
  5
4E2
330
A
100
AcDbEntity
  8
Hawa2
 62
     9
 48
0.050662
100
AcDbLine
 10
43.09960499999999
 20
95.892466
 30
0.0
 11
44.532543
 21
97.32540400000001
 31
0.0
  0
LINE
  5
4E3
330
A
100
AcDbEntity
  8
Hawa2
 62
     9
 48
0.079247
100
AcDbLine
 10
52.713836
 20
105.506693
 30
0.0
 11
54.95527199999999
 21
107.748133
 31
0.0
  0
LINE
  5
4E4
330
A
100
AcDbEntity
  8
Hawa2
 62
     9
 48
0.035355
100
AcDbLine
 10
42.31383799999999
 20
97.93513
 30
0.0
 11
43.313838
 21
98.93513
 31
0.0
  0
LINE
  5
4E5
330
A
100
AcDbEntity
  8
Hawa2
 62
     9
 48
0.089186
100
AcDbLine
 10
51.704116
 20
107.325404
 30
0.0
 11
54.226676
 21
109.847971
 31
0.0
  0
LINE
  5
4E6
330
A
100
AcDbEntity
  8
Hawa2
 62
     9
 48
0.035355
100
AcDbLine
 10
42.31383799999999
 20
100.76356
 30
0.0
 11
43.313838
 21
101.76356
 31
0.0
  0
LINE
  5
4E7
330
A
100
AcDbEntity
  8
Hawa2
 62
     9
 48
0.07073
100
AcDbLine
 10
48.87569
 20
107.325404
 30
0.0
 11
50.87623199999999
 21
109.325953
 31
0.0
  0
LINE
  5
4E8
330
A
100
AcDbEntity
  8
Hawa2
 62
     9
 48
0.059793
100
AcDbLine
 10
51.857746
 20
110.307459
 30
0.0
 11
53.54893399999999
 21
111.998652
 31
0.0
  0
LINE
  5
4E9
330
A
100
AcDbEntity
  8
Hawa2
 62
     9
 48
0.035355
100
AcDbLine
 10
42.31383799999999
 20
103.591975
 30
0.0
 11
43.313838
 21
104.591975
 31
0.0
  0
LINE
  5
4EA
330
A
100
AcDbEntity
  8
Hawa2
 62
     9
 48
0.070711
100
AcDbLine
 10
46.04726399999999
 20
107.325404
 30
0.0
 11
48.04726399999999
 21
109.325404
 31
0.0
  0
LINE
  5
4EB
330
A
100
AcDbEntity
  8
Hawa2
 62
     9
 48
0.087207
100
AcDbLine
 10
51.047264
 20
112.325404
 30
0.0
 11
53.513839
 21
114.791987
 31
0.0
  0
LINE
  5
4EC
330
A
100
AcDbEntity
  8
Hawa2
 62
     9
 48
0.155329
100
AcDbLine
 10
42.31383799999999
 20
106.420405
 30
0.0
 11
46.70720999999999
 21
110.813776
 31
0.0
  0
VIEWPORT
  5
280
102
{ACAD_XDICTIONARY
360
822
102
}
330
B
100
AcDbEntity
 67
     1
  8
0
 62
     0
100
AcDbViewport
 10
0.0
 20
0.0
 30
0.0
 40
1000.0
 41
1000.0
 68
     1
 69
     1
 12
0.0
 22
0.0
 13
0.0
 23
0.0
 14
1.0
 24
1.0
 15
1.0
 25
1.0
 16
0.0
 26
0.0
 36
1.0
 17
0.0
 27
0.0
 37
0.0
 42
50.0
 43
0.0
 44
0.0
 45
1000.0
 50
0.0
 51
0.0
 72
   100
 90
   557216
  1

281
     0
 71
     1
 74
     0
110
0.0
120
0.0
130
0.0
111
1.0
121
0.0
131
0.0
112
0.0
122
1.0
132
0.0
 79
     0
146
0.0
  0
ENDSEC
  0
SECTION
  2
OBJECTS
  0
DICTIONARY
  5
19
330
0
100
AcDbDictionary
281
     1
  3
ACAD_COLOR
350
512
  3
ACAD_GROUP
350
1A
  3
ACAD_LAYOUT
350
437
  3
ACAD_MATERIAL
350
4FD
  3
ACAD_MLEADERSTYLE
350
4F4
  3
ACAD_MLINESTYLE
350
1B
  3
ACAD_PLOTSETTINGS
350
515
  3
ACAD_PLOTSTYLENAME
350
4FB
  3
ACAD_SCALELIST
350
43A
  3
ACAD_TABLESTYLE
350
513
  3
ACAD_VISUALSTYLE
350
501
  3
AcDbVariableDictionary
350
4F2
  3
DWGPROPS
350
821
  0
DICTIONARY
  5
822
330
280
100
AcDbDictionary
280
     1
281
     1
  3
ACAD_XREC_ROUNDTRIP
360
823
  0
DICTIONARY
  5
512
102
{ACAD_REACTORS
330
19
102
}
330
19
100
AcDbDictionary
281
     1
  0
DICTIONARY
  5
1A
102
{ACAD_REACTORS
330
19
102
}
330
19
100
AcDbDictionary
281
     1
  0
DICTIONARY
  5
437
102
{ACAD_REACTORS
330
19
102
}
330
19
100
AcDbDictionary
281
     1
  3
Layout1
350
439
  3
Model
350
438
  0
DICTIONARY
  5
4FD
102
{ACAD_REACTORS
330
19
102
}
330
19
100
AcDbDictionary
281
     1
  3
ByBlock
350
4FF
  3
ByLayer
350
4FE
  3
Global
350
500
  0
DICTIONARY
  5
4F4
102
{ACAD_REACTORS
330
19
102
}
330
19
100
AcDbDictionary
281
     1
  0
DICTIONARY
  5
1B
102
{ACAD_REACTORS
330
19
102
}
330
19
100
AcDbDictionary
281
     1
  3
STANDARD
350
1C
  0
DICTIONARY
  5
515
102
{ACAD_REACTORS
330
19
102
}
330
19
100
AcDbDictionary
281
     1
  0
ACDBDICTIONARYWDFLT
  5
4FB
102
{ACAD_REACTORS
330
19
102
}
330
19
100
AcDbDictionary
281
     1
  3
Normal
350
4FC
100
AcDbDictionaryWithDefault
340
4FC
  0
DICTIONARY
  5
43A
102
{ACAD_REACTORS
330
19
102
}
330
19
100
AcDbDictionary
281
     1
  3
A0
350
43B
  3
A1
350
43C
  3
A2
350
43D
  3
A3
350
43E
  3
A4
350
43F
  3
A5
350
440
  3
A6
350
441
  3
A7
350
442
  3
A8
350
443
  3
A9
350
444
  3
B0
350
445
  3
B1
350
446
  3
B2
350
447
  3
B3
350
448
  3
B4
350
449
  3
B5
350
44A
  3
B6
350
44B
  3
B7
350
44C
  3
B8
350
44D
  3
B9
350
44E
  3
C0
350
44F
  3
C1
350
450
  3
C2
350
451
  3
C3
350
452
  3
C4
350
453
  3
C5
350
454
  3
C6
350
455
  3
C7
350
456
  3
C8
350
457
  3
C9
350
458
  3
D0
350
459
  3
D1
350
45A
  3
D2
350
45B
  0
DICTIONARY
  5
513
102
{ACAD_REACTORS
330
19
102
}
330
19
100
AcDbDictionary
281
     1
  3
Standard
350
514
  0
DICTIONARY
  5
501
102
{ACAD_REACTORS
330
19
102
}
330
19
100
AcDbDictionary
281
     1
  3
2dWireframe
350
507
  3
3D Hidden
350
509
  3
3dWireframe
350
508
  3
Basic
350
506
  3
Brighten
350
50D
  3
ColorChange
350
511
  3
Conceptual
350
50A
  3
Dim
350
50C
  3
Facepattern
350
510
  3
Flat
350
502
  3
FlatWithEdges
350
503
  3
Gouraud
350
504
  3
GouraudWithEdges
350
505
  3
Linepattern
350
50F
  3
Realistic
350
50B
  3
Thicken
350
50E
  0
DICTIONARY
  5
4F2
102
{ACAD_REACTORS
330
19
102
}
330
19
100
AcDbDictionary
281
     1
  3
CANNOSCALE
350
4F5
  3
CTABLESTYLE
350
787
  3
DIMASSOC
350
78A
  3
INDEXCTL
350
789
  3
SORTENTS
350
788
  0
XRECORD
  5
821
102
{ACAD_REACTORS
330
19
102
}
330
19
100
AcDbXrecord
280
     1
  1
DWGPROPS COOKIE
  2

  3

  4

  6

  7

  8
rhu
  9

300
=
301
=
302
=
303
=
304
=
305
=
306
=
307
=
308
=
309
=
 40
0.0714940162037037
 41
2447893.0
 42
2455790.550452141
  1

 90
        0
  0
XRECORD
  5
823
102
{ACAD_REACTORS
330
822
102
}
330
822
100
AcDbXrecord
280
     1
102
SHADEPLOT
 70
     0
  0
LAYOUT
  5
439
102
{ACAD_XDICTIONARY
360
826
102
}
102
{ACAD_REACTORS
330
437
102
}
330
437
100
AcDbPlotSettings
  1

  2
none_device
  4

  6

 40
0.0
 41
0.0
 42
0.0
 43
0.0
 44
0.0
 45
0.0
 46
0.0
 47
0.0
 48
0.0
 49
0.0
140
0.0
141
0.0
142
1.0
143
1.0
 70
   688
 72
     0
 73
     0
 74
     5
  7

 75
    16
147
1.0
148
0.0
149
0.0
100
AcDbLayout
  1
Layout1
 70
     1
 71
     1
 10
0.0
 20
0.0
 11
420.0
 21
297.0
 12
0.0
 22
0.0
 32
0.0
 14
0.0
 24
0.0
 34
0.0
 15
168.075607
 25
203.970047
 35
2.0
146
0.0
 13
0.0
 23
0.0
 33
0.0
 16
1.0
 26
0.0
 36
0.0
 17
0.0
 27
1.0
 37
0.0
 76
     0
330
B
331
280
  0
LAYOUT
  5
438
102
{ACAD_XDICTIONARY
360
824
102
}
102
{ACAD_REACTORS
330
437
102
}
330
437
100
AcDbPlotSettings
  1

  2
none_device
  4

  6

 40
0.0
 41
0.0
 42
0.0
 43
0.0
 44
0.0
 45
0.0
 46
0.0
 47
0.0
 48
0.0
 49
0.0
140
0.0
141
0.0
142
1.0
143
1.0
 70
   688
 72
     0
 73
     0
 74
     5
  7

 75
    16
147
1.0
148
0.0
149
0.0
100
AcDbLayout
  1
Model
 70
     1
 71
     0
 10
0.0
 20
0.0
 11
0.0
 21
0.0
 12
0.0
 22
0.0
 32
0.0
 14
0.0
 24
0.0
 34
0.0
 15
0.0
 25
0.0
 35
0.0
146
0.0
 13
0.0
 23
0.0
 33
0.0
 16
1.0
 26
0.0
 36
0.0
 17
0.0
 27
1.0
 37
0.0
 76
     0
330
A
331
15
  0
MATERIAL
  5
4FF
102
{ACAD_XDICTIONARY
360
82A
102
}
102
{ACAD_REACTORS
330
4FD
102
}
330
4FD
100
AcDbMaterial
  1
ByBlock
  0
MATERIAL
  5
4FE
102
{ACAD_XDICTIONARY
360
828
102
}
102
{ACAD_REACTORS
330
4FD
102
}
330
4FD
100
AcDbMaterial
  1
ByLayer
  0
MATERIAL
  5
500
102
{ACAD_XDICTIONARY
360
82C
102
}
102
{ACAD_REACTORS
330
4FD
102
}
330
4FD
100
AcDbMaterial
  1
Global
  0
MLINESTYLE
  5
1C
102
{ACAD_REACTORS
330
1B
102
}
330
1B
100
AcDbMlineStyle
  2
STANDARD
 70
     0
  3

 62
     0
 51
90.0
 52
90.0
 71
     2
 49
0.5
 62
   256
  6
BYLAYER
 49
-0.5
 62
   256
  6
BYLAYER
  0
ACDBPLACEHOLDER
  5
4FC
102
{ACAD_REACTORS
330
4FB
102
}
330
4FB
  0
SCALE
  5
43B
102
{ACAD_REACTORS
330
43A
102
}
330
43A
100
AcDbScale
 70
     0
300
1:1
140
1.0
141
1.0
290
     1
1001
ACAD
1000
AcRTDxfName
1000
SCALE
  0
SCALE
  5
43C
102
{ACAD_REACTORS
330
43A
102
}
330
43A
100
AcDbScale
 70
     0
300
1:2
140
1.0
141
2.0
290
     0
1001
ACAD
1000
AcRTDxfName
1000
SCALE
  0
SCALE
  5
43D
102
{ACAD_REACTORS
330
43A
102
}
330
43A
100
AcDbScale
 70
     0
300
1:4
140
1.0
141
4.0
290
     0
1001
ACAD
1000
AcRTDxfName
1000
SCALE
  0
SCALE
  5
43E
102
{ACAD_REACTORS
330
43A
102
}
330
43A
100
AcDbScale
 70
     0
300
1:5
140
1.0
141
5.0
290
     0
1001
ACAD
1000
AcRTDxfName
1000
SCALE
  0
SCALE
  5
43F
102
{ACAD_REACTORS
330
43A
102
}
330
43A
100
AcDbScale
 70
     0
300
1:8
140
1.0
141
8.0
290
     0
1001
ACAD
1000
AcRTDxfName
1000
SCALE
  0
SCALE
  5
440
102
{ACAD_REACTORS
330
43A
102
}
330
43A
100
AcDbScale
 70
     0
300
1:10
140
1.0
141
10.0
290
     0
1001
ACAD
1000
AcRTDxfName
1000
SCALE
  0
SCALE
  5
441
102
{ACAD_REACTORS
330
43A
102
}
330
43A
100
AcDbScale
 70
     0
300
1:16
140
1.0
141
16.0
290
     0
1001
ACAD
1000
AcRTDxfName
1000
SCALE
  0
SCALE
  5
442
102
{ACAD_REACTORS
330
43A
102
}
330
43A
100
AcDbScale
 70
     0
300
1:20
140
1.0
141
20.0
290
     0
1001
ACAD
1000
AcRTDxfName
1000
SCALE
  0
SCALE
  5
443
102
{ACAD_REACTORS
330
43A
102
}
330
43A
100
AcDbScale
 70
     0
300
1:30
140
1.0
141
30.0
290
     0
1001
ACAD
1000
AcRTDxfName
1000
SCALE
  0
SCALE
  5
444
102
{ACAD_REACTORS
330
43A
102
}
330
43A
100
AcDbScale
 70
     0
300
1:40
140
1.0
141
40.0
290
     0
1001
ACAD
1000
AcRTDxfName
1000
SCALE
  0
SCALE
  5
445
102
{ACAD_REACTORS
330
43A
102
}
330
43A
100
AcDbScale
 70
     0
300
1:50
140
1.0
141
50.0
290
     0
1001
ACAD
1000
AcRTDxfName
1000
SCALE
  0
SCALE
  5
446
102
{ACAD_REACTORS
330
43A
102
}
330
43A
100
AcDbScale
 70
     0
300
1:100
140
1.0
141
100.0
290
     0
1001
ACAD
1000
AcRTDxfName
1000
SCALE
  0
SCALE
  5
447
102
{ACAD_REACTORS
330
43A
102
}
330
43A
100
AcDbScale
 70
     0
300
2:1
140
2.0
141
1.0
290
     0
1001
ACAD
1000
AcRTDxfName
1000
SCALE
  0
SCALE
  5
448
102
{ACAD_REACTORS
330
43A
102
}
330
43A
100
AcDbScale
 70
     0
300
4:1
140
4.0
141
1.0
290
     0
1001
ACAD
1000
AcRTDxfName
1000
SCALE
  0
SCALE
  5
449
102
{ACAD_REACTORS
330
43A
102
}
330
43A
100
AcDbScale
 70
     0
300
8:1
140
8.0
141
1.0
290
     0
1001
ACAD
1000
AcRTDxfName
1000
SCALE
  0
SCALE
  5
44A
102
{ACAD_REACTORS
330
43A
102
}
330
43A
100
AcDbScale
 70
     0
300
10:1
140
10.0
141
1.0
290
     0
1001
ACAD
1000
AcRTDxfName
1000
SCALE
  0
SCALE
  5
44B
102
{ACAD_REACTORS
330
43A
102
}
330
43A
100
AcDbScale
 70
     0
300
100:1
140
100.0
141
1.0
290
     0
1001
ACAD
1000
AcRTDxfName
1000
SCALE
  0
SCALE
  5
44C
102
{ACAD_REACTORS
330
43A
102
}
330
43A
100
AcDbScale
 70
     0
300
1/128" = 1'-0"
140
0.0078125
141
12.0
290
     0
1001
ACAD
1000
AcRTDxfName
1000
SCALE
  0
SCALE
  5
44D
102
{ACAD_REACTORS
330
43A
102
}
330
43A
100
AcDbScale
 70
     0
300
1/64" = 1'-0"
140
0.015625
141
12.0
290
     0
1001
ACAD
1000
AcRTDxfName
1000
SCALE
  0
SCALE
  5
44E
102
{ACAD_REACTORS
330
43A
102
}
330
43A
100
AcDbScale
 70
     0
300
1/32" = 1'-0"
140
0.03125
141
12.0
290
     0
1001
ACAD
1000
AcRTDxfName
1000
SCALE
  0
SCALE
  5
44F
102
{ACAD_REACTORS
330
43A
102
}
330
43A
100
AcDbScale
 70
     0
300
1/16" = 1'-0"
140
0.0625
141
12.0
290
     0
1001
ACAD
1000
AcRTDxfName
1000
SCALE
  0
SCALE
  5
450
102
{ACAD_REACTORS
330
43A
102
}
330
43A
100
AcDbScale
 70
     0
300
3/32" = 1'-0"
140
0.09375
141
12.0
290
     0
1001
ACAD
1000
AcRTDxfName
1000
SCALE
  0
SCALE
  5
451
102
{ACAD_REACTORS
330
43A
102
}
330
43A
100
AcDbScale
 70
     0
300
1/8" = 1'-0"
140
0.125
141
12.0
290
     0
1001
ACAD
1000
AcRTDxfName
1000
SCALE
  0
SCALE
  5
452
102
{ACAD_REACTORS
330
43A
102
}
330
43A
100
AcDbScale
 70
     0
300
3/16" = 1'-0"
140
0.1875
141
12.0
290
     0
1001
ACAD
1000
AcRTDxfName
1000
SCALE
  0
SCALE
  5
453
102
{ACAD_REACTORS
330
43A
102
}
330
43A
100
AcDbScale
 70
     0
300
1/4" = 1'-0"
140
0.25
141
12.0
290
     0
1001
ACAD
1000
AcRTDxfName
1000
SCALE
  0
SCALE
  5
454
102
{ACAD_REACTORS
330
43A
102
}
330
43A
100
AcDbScale
 70
     0
300
3/8" = 1'-0"
140
0.375
141
12.0
290
     0
1001
ACAD
1000
AcRTDxfName
1000
SCALE
  0
SCALE
  5
455
102
{ACAD_REACTORS
330
43A
102
}
330
43A
100
AcDbScale
 70
     0
300
1/2" = 1'-0"
140
0.5
141
12.0
290
     0
1001
ACAD
1000
AcRTDxfName
1000
SCALE
  0
SCALE
  5
456
102
{ACAD_REACTORS
330
43A
102
}
330
43A
100
AcDbScale
 70
     0
300
3/4" = 1'-0"
140
0.75
141
12.0
290
     0
1001
ACAD
1000
AcRTDxfName
1000
SCALE
  0
SCALE
  5
457
102
{ACAD_REACTORS
330
43A
102
}
330
43A
100
AcDbScale
 70
     0
300
1" = 1'-0"
140
1.0
141
12.0
290
     0
1001
ACAD
1000
AcRTDxfName
1000
SCALE
  0
SCALE
  5
458
102
{ACAD_REACTORS
330
43A
102
}
330
43A
100
AcDbScale
 70
     0
300
1-1/2" = 1'-0"
140
1.5
141
12.0
290
     0
1001
ACAD
1000
AcRTDxfName
1000
SCALE
  0
SCALE
  5
459
102
{ACAD_REACTORS
330
43A
102
}
330
43A
100
AcDbScale
 70
     0
300
3" = 1'-0"
140
3.0
141
12.0
290
     0
1001
ACAD
1000
AcRTDxfName
1000
SCALE
  0
SCALE
  5
45A
102
{ACAD_REACTORS
330
43A
102
}
330
43A
100
AcDbScale
 70
     0
300
6" = 1'-0"
140
6.0
141
12.0
290
     0
1001
ACAD
1000
AcRTDxfName
1000
SCALE
  0
SCALE
  5
45B
102
{ACAD_REACTORS
330
43A
102
}
330
43A
100
AcDbScale
 70
     0
300
1'-0" = 1'-0"
140
12.0
141
12.0
290
     0
1001
ACAD
1000
AcRTDxfName
1000
SCALE
  0
TABLESTYLE
  5
514
102
{ACAD_XDICTIONARY
360
82E
102
}
102
{ACAD_REACTORS
330
513
102
}
330
513
100
AcDbTableStyle
  3
Standard
 70
     0
 71
     0
 40
1.5
 41
1.5
280
     0
281
     0
  7
STANDARD
140
4.5
170
     2
 62
     0
 63
     7
283
     0
274
    -2
284
     1
 64
     0
275
    -2
285
     1
 65
     0
276
    -2
286
     1
 66
     0
277
    -2
287
     1
 67
     0
278
    -2
288
     1
 68
     0
279
    -2
289
     1
 69
     0
  7
STANDARD
140
6.0
170
     5
 62
     0
 63
     7
283
     0
274
    -2
284
     1
 64
     0
275
    -2
285
     1
 65
     0
276
    -2
286
     1
 66
     0
277
    -2
287
     1
 67
     0
278
    -2
288
     1
 68
     0
279
    -2
289
     1
 69
     0
  7
STANDARD
140
4.5
170
     5
 62
     0
 63
     7
283
     0
274
    -2
284
     1
 64
     0
275
    -2
285
     1
 65
     0
276
    -2
286
     1
 66
     0
277
    -2
287
     1
 67
     0
278
    -2
288
     1
 68
     0
279
    -2
289
     1
 69
     0
  0
VISUALSTYLE
  5
507
102
{ACAD_REACTORS
330
501
102
}
330
501
100
AcDbVisualStyle
  2
2dWireframe
 70
     4
 71
     0
 72
     2
 73
     0
 90
        0
 40
-0.6
 41
-30.0
 62
     5
 63
     7
 74
     1
 91
        4
 64
     7
 65
   257
 75
     1
175
     1
 42
1.0
 92
        0
 66
   257
 43
1.0
 76
     1
 77
     6
 78
     2
 67
     7
 79
     5
170
     0
171
     0
290
     0
174
     0
 93
        1
 44
0.0
173
     0
291
     0
 45
0.0
1001
ACAD
1000
AcDbSavedByObjectVersion
1070
     0
  0
VISUALSTYLE
  5
509
102
{ACAD_REACTORS
330
501
102
}
330
501
100
AcDbVisualStyle
  2
3D Hidden
 70
     6
 71
     1
 72
     2
 73
     2
 90
        0
 40
-0.6
 41
-30.0
 62
     5
 63
     7
 74
     2
 91
        2
 64
     7
 65
   257
 75
     2
175
     1
 42
40.0
 92
        0
 66
   257
 43
1.0
 76
     1
 77
     6
 78
     2
 67
     7
 79
     3
170
     0
171
     0
290
     0
174
     0
 93
        1
 44
0.0
173
     0
291
     0
 45
0.0
1001
ACAD
1000
AcDbSavedByObjectVersion
1070
     0
  0
VISUALSTYLE
  5
508
102
{ACAD_REACTORS
330
501
102
}
330
501
100
AcDbVisualStyle
  2
3dWireframe
 70
     5
 71
     0
 72
     2
 73
     0
 90
        0
 40
-0.6
 41
-30.0
 62
     5
 63
     7
 74
     1
 91
        4
 64
     7
 65
   257
 75
     1
175
     1
 42
1.0
 92
        0
 66
   257
 43
1.0
 76
     1
 77
     6
 78
     2
 67
     7
 79
     5
170
     0
171
     0
290
     0
174
     0
 93
        1
 44
0.0
173
     0
291
     0
 45
0.0
1001
ACAD
1000
AcDbSavedByObjectVersion
1070
     0
  0
VISUALSTYLE
  5
506
102
{ACAD_REACTORS
330
501
102
}
330
501
100
AcDbVisualStyle
  2
Basic
 70
     7
 71
     1
 72
     0
 73
     1
 90
        0
 40
-0.6
 41
-30.0
 62
     5
 63
     7
 74
     0
 91
        4
 64
     7
 65
   257
 75
     1
175
     1
 42
1.0
 92
        8
 66
     7
 43
1.0
 76
     1
 77
     6
 78
     2
 67
     7
 79
     5
170
     0
171
     0
290
     0
174
     0
 93
        1
 44
0.0
173
     0
291
     1
 45
0.0
1001
ACAD
1000
AcDbSavedByObjectVersion
1070
     0
  0
VISUALSTYLE
  5
50D
102
{ACAD_REACTORS
330
501
102
}
330
501
100
AcDbVisualStyle
  2
Brighten
 70
    12
 71
     2
 72
     2
 73
     0
 90
        0
 40
-0.6
 41
-30.0
 62
     5
 63
     7
 74
     1
 91
        4
 64
     7
 65
   257
 75
     1
175
     1
 42
1.0
 92
        8
 66
     7
 43
1.0
 76
     1
 77
     6
 78
     2
 67
     7
 79
     5
170
     0
171
     0
290
     0
174
     0
 93
        1
 44
50.0
173
     0
291
     1
 45
0.0
1001
ACAD
1000
AcDbSavedByObjectVersion
1070
     0
  0
VISUALSTYLE
  5
511
102
{ACAD_REACTORS
330
501
102
}
330
501
100
AcDbVisualStyle
  2
ColorChange
 70
    16
 71
     2
 72
     2
 73
     3
 90
        0
 40
-0.6
 41
-30.0
 62
     5
 63
     8
 74
     1
 91
        4
 64
     7
 65
   257
 75
     1
175
     1
 42
1.0
 92
        8
 66
     8
 43
1.0
 76
     1
 77
     6
 78
     2
 67
     7
 79
     5
170
     0
171
     0
290
     0
174
     0
 93
        1
 44
0.0
173
     0
291
     1
 45
0.0
1001
ACAD
1000
AcDbSavedByObjectVersion
1070
     0
  0
VISUALSTYLE
  5
50A
102
{ACAD_REACTORS
330
501
102
}
330
501
100
AcDbVisualStyle
  2
Conceptual
 70
     9
 71
     3
 72
     2
 73
     0
 90
        0
 40
-0.6
 41
-30.0
 62
     5
 63
     7
 74
     2
 91
        2
 64
     7
 65
   257
 75
     1
175
     1
 42
40.0
 92
        8
 66
     7
 43
1.0
 76
     1
 77
     6
 78
     2
 67
     7
 79
     3
170
     0
171
     0
290
     0
174
     0
 93
        1
 44
0.0
173
     0
291
     0
 45
0.0
1001
ACAD
1000
AcDbSavedByObjectVersion
1070
     0
  0
VISUALSTYLE
  5
50C
102
{ACAD_REACTORS
330
501
102
}
330
501
100
AcDbVisualStyle
  2
Dim
 70
    11
 71
     2
 72
     2
 73
     0
 90
        0
 40
-0.6
 41
-30.0
 62
     5
 63
     7
 74
     1
 91
        4
 64
     7
 65
   257
 75
     1
175
     1
 42
1.0
 92
        8
 66
     7
 43
1.0
 76
     1
 77
     6
 78
     2
 67
     7
 79
     5
170
     0
171
     0
290
     0
174
     0
 93
        1
 44
-50.0
173
     0
291
     1
 45
0.0
1001
ACAD
1000
AcDbSavedByObjectVersion
1070
     0
  0
VISUALSTYLE
  5
510
102
{ACAD_REACTORS
330
501
102
}
330
501
100
AcDbVisualStyle
  2
Facepattern
 70
    15
 71
     2
 72
     2
 73
     0
 90
        0
 40
-0.6
 41
-30.0
 62
     5
 63
     7
 74
     1
 91
        4
 64
     7
 65
   257
 75
     1
175
     1
 42
1.0
 92
        8
 66
     7
 43
1.0
 76
     1
 77
     6
 78
     2
 67
     7
 79
     5
170
     0
171
     0
290
     0
174
     0
 93
        1
 44
0.0
173
     0
291
     1
 45
0.0
1001
ACAD
1000
AcDbSavedByObjectVersion
1070
     0
  0
VISUALSTYLE
  5
502
102
{ACAD_REACTORS
330
501
102
}
330
501
100
AcDbVisualStyle
  2
Flat
 70
     0
 71
     2
 72
     1
 73
     1
 90
        2
 40
-0.6
 41
30.0
 62
     5
 63
     7
 74
     0
 91
        4
 64
     7
 65
   257
 75
     1
175
     1
 42
1.0
 92
        8
 66
     7
 43
1.0
 76
     1
 77
     6
 78
     2
 67
     7
 79
     5
170
     0
171
     0
290
     0
174
     0
 93
       13
 44
0.0
173
     0
291
     1
 45
0.0
1001
ACAD
1000
AcDbSavedByObjectVersion
1070
     0
  0
VISUALSTYLE
  5
503
102
{ACAD_REACTORS
330
501
102
}
330
501
100
AcDbVisualStyle
  2
FlatWithEdges
 70
     1
 71
     2
 72
     1
 73
     1
 90
        2
 40
-0.6
 41
30.0
 62
     5
 63
     7
 74
     1
 91
        4
 64
     7
 65
   257
 75
     1
175
     1
 42
1.0
 92
        0
 66
   257
 43
1.0
 76
     1
 77
     6
 78
     2
 67
     7
 79
     5
170
     0
171
     0
290
     0
174
     0
 93
       13
 44
0.0
173
     0
291
     1
 45
0.0
1001
ACAD
1000
AcDbSavedByObjectVersion
1070
     0
  0
VISUALSTYLE
  5
504
102
{ACAD_REACTORS
330
501
102
}
330
501
100
AcDbVisualStyle
  2
Gouraud
 70
     2
 71
     2
 72
     2
 73
     1
 90
        2
 40
-0.6
 41
30.0
 62
     5
 63
     7
 74
     0
 91
        4
 64
     7
 65
   257
 75
     1
175
     1
 42
1.0
 92
        0
 66
     7
 43
1.0
 76
     1
 77
     6
 78
     2
 67
     7
 79
     5
170
     0
171
     0
290
     0
174
     0
 93
       13
 44
0.0
173
     0
291
     1
 45
0.0
1001
ACAD
1000
AcDbSavedByObjectVersion
1070
     0
  0
VISUALSTYLE
  5
505
102
{ACAD_REACTORS
330
501
102
}
330
501
100
AcDbVisualStyle
  2
GouraudWithEdges
 70
     3
 71
     2
 72
     2
 73
     1
 90
        2
 40
-0.6
 41
30.0
 62
     5
 63
     7
 74
     1
 91
        4
 64
     7
 65
   257
 75
     1
175
     1
 42
1.0
 92
        0
 66
   257
 43
1.0
 76
     1
 77
     6
 78
     2
 67
     7
 79
     5
170
     0
171
     0
290
     0
174
     0
 93
       13
 44
0.0
173
     0
291
     1
 45
0.0
1001
ACAD
1000
AcDbSavedByObjectVersion
1070
     0
  0
VISUALSTYLE
  5
50F
102
{ACAD_REACTORS
330
501
102
}
330
501
100
AcDbVisualStyle
  2
Linepattern
 70
    14
 71
     2
 72
     2
 73
     0
 90
        0
 40
-0.6
 41
-30.0
 62
     5
 63
     7
 74
     1
 91
        4
 64
     7
 65
   257
 75
     7
175
     7
 42
1.0
 92
        8
 66
     7
 43
1.0
 76
     1
 77
     6
 78
     2
 67
     7
 79
     5
170
     0
171
     0
290
     0
174
     0
 93
        1
 44
0.0
173
     0
291
     1
 45
0.0
1001
ACAD
1000
AcDbSavedByObjectVersion
1070
     0
  0
VISUALSTYLE
  5
50B
102
{ACAD_REACTORS
330
501
102
}
330
501
100
AcDbVisualStyle
  2
Realistic
 70
     8
 71
     2
 72
     2
 73
     0
 90
        0
 40
-0.6
 41
-30.0
 62
     5
 63
     7
 74
     1
 91
        0
 64
     7
 65
   257
 75
     1
175
     1
 42
1.0
 92
        8
 66
     8
 43
1.0
 76
     1
 77
     6
 78
     2
 67
     7
 79
     5
170
     0
171
     0
290
     0
174
     0
 93
       13
 44
0.0
173
     0
291
     0
 45
0.0
1001
ACAD
1000
AcDbSavedByObjectVersion
1070
     0
  0
VISUALSTYLE
  5
50E
102
{ACAD_REACTORS
330
501
102
}
330
501
100
AcDbVisualStyle
  2
Thicken
 70
    13
 71
     2
 72
     2
 73
     0
 90
        0
 40
-0.6
 41
-30.0
 62
     5
 63
     7
 74
     1
 91
        4
 64
     7
 65
   257
 75
     1
175
     1
 42
1.0
 92
       12
 66
     7
 43
1.0
 76
     1
 77
     6
 78
     2
 67
     7
 79
     5
170
     0
171
     0
290
     0
174
     0
 93
        1
 44
0.0
173
     0
291
     1
 45
0.0
1001
ACAD
1000
AcDbSavedByObjectVersion
1070
     0
  0
DICTIONARYVAR
  5
4F5
102
{ACAD_REACTORS
330
4F2
102
}
330
4F2
100
DictionaryVariables
280
     0
  1
1:1
  0
DICTIONARYVAR
  5
787
102
{ACAD_REACTORS
330
4F2
102
}
330
4F2
100
DictionaryVariables
280
     0
  1
STANDARD
  0
DICTIONARYVAR
  5
78A
102
{ACAD_REACTORS
330
4F2
102
}
330
4F2
100
DictionaryVariables
280
     0
  1
1
  0
DICTIONARYVAR
  5
789
102
{ACAD_REACTORS
330
4F2
102
}
330
4F2
100
DictionaryVariables
280
     0
  1
0
  0
DICTIONARYVAR
  5
788
102
{ACAD_REACTORS
330
4F2
102
}
330
4F2
100
DictionaryVariables
280
     0
  1
127
  0
DICTIONARY
  5
826
330
439
100
AcDbDictionary
280
     1
281
     1
  3
ACAD_XREC_ROUNDTRIP
360
827
  0
DICTIONARY
  5
824
330
438
100
AcDbDictionary
280
     1
281
     1
  3
ACAD_XREC_ROUNDTRIP
360
825
  0
DICTIONARY
  5
82A
330
4FF
100
AcDbDictionary
280
     1
281
     1
  3
ACAD_XREC_ROUNDTRIP
360
82B
  0
DICTIONARY
  5
828
330
4FE
100
AcDbDictionary
280
     1
281
     1
  3
ACAD_XREC_ROUNDTRIP
360
829
  0
DICTIONARY
  5
82C
330
500
100
AcDbDictionary
280
     1
281
     1
  3
ACAD_XREC_ROUNDTRIP
360
82D
  0
DICTIONARY
  5
82E
330
514
100
AcDbDictionary
280
     1
281
     1
  3
ACAD_XREC_ROUNDTRIP
360
82F
  0
XRECORD
  5
827
102
{ACAD_REACTORS
330
826
102
}
330
826
100
AcDbXrecord
280
     1
102
SHADEPLOT
 70
     0
102
SHADEPLOTRESLEVEL
 70
     2
102
SHADEPLOTCUSTOMDPI
 70
   300
  0
XRECORD
  5
825
102
{ACAD_REACTORS
330
824
102
}
330
824
100
AcDbXrecord
280
     1
102
SHADEPLOT
 70
     0
102
SHADEPLOTRESLEVEL
 70
     2
102
SHADEPLOTCUSTOMDPI
 70
   300
  0
XRECORD
  5
82B
102
{ACAD_REACTORS
330
82A
102
}
330
82A
100
AcDbXrecord
280
     1
102
MATERIAL
148
0.0
149
0.0
149
0.0
 93
        0
 94
       63
282
     0
 72
     1
 77
     1
171
     1
175
     1
179
     1
273
     0
  0
XRECORD
  5
829
102
{ACAD_REACTORS
330
828
102
}
330
828
100
AcDbXrecord
280
     1
102
MATERIAL
148
0.0
149
0.0
149
0.0
 93
        0
 94
       63
282
     0
 72
     1
 77
     1
171
     1
175
     1
179
     1
273
     0
  0
XRECORD
  5
82D
102
{ACAD_REACTORS
330
82C
102
}
330
82C
100
AcDbXrecord
280
     1
102
MATERIAL
148
0.0
149
0.0
149
0.0
 93
        0
 94
       63
282
     0
 72
     1
 77
     1
171
     1
175
     1
179
     1
273
     0
  0
XRECORD
  5
82F
102
{ACAD_REACTORS
330
82E
102
}
330
82E
100
AcDbXrecord
280
     1
102
ACAD_ROUNDTRIP_PRE2007_TABLESTYLE
 90
      512
 91
        0
  1

 92
      512
 93
        0
  2

 94
      512
 95
        0
  3

  0
ENDSEC
  0
EOF
