  0
SECTION
  2
HEADER
  9
$ACADVER
  1
AC1015
  9
$ACADMAINTVER
 70
    20
  9
$DWGCODEPAGE
  3
ANSI_1252
  9
$INSBASE
 10
0.0
 20
0.0
 30
0.0
  9
$EXTMIN
 10
57.95379743207456
 20
60.89914016669979
 30
-0.0000000111752172
  9
$EXTMAX
 10
137.9983527003769
 20
237.7549902465602
 30
0.0000000004659597
  9
$LIMMIN
 10
0.0
 20
0.0
  9
$LIMMAX
 10
420.0
 20
297.0
  9
$ORTHOMODE
 70
     0
  9
$REGENMODE
 70
     1
  9
$FILLMODE
 70
     1
  9
$QTEXTMODE
 70
     0
  9
$MIRRTEXT
 70
     1
  9
$LTSCALE
 40
1.0
  9
$ATTMODE
 70
     1
  9
$TEXTSIZE
 40
2.5
  9
$TRACEWID
 40
1.0
  9
$TEXTSTYLE
  7
STANDARD
  9
$CLAYER
  8
HAWA1
  9
$CELTYPE
  6
BYLAYER
  9
$CECOLOR
 62
   256
  9
$CELTSCALE
 40
1.0
  9
$DISPSILH
 70
     0
  9
$DIMSCALE
 40
1.0
  9
$DIMASZ
 40
2.0
  9
$DIMEXO
 40
2.0
  9
$DIMDLI
 40
0.0
  9
$DIMRND
 40
0.0
  9
$DIMDLE
 40
1.0
  9
$DIMEXE
 40
1.0
  9
$DIMTP
 40
0.0
  9
$DIMTM
 40
0.0
  9
$DIMTXT
 40
3.5
  9
$DIMCEN
 40
0.0
  9
$DIMTSZ
 40
0.0
  9
$DIMTOL
 70
     0
  9
$DIMLIM
 70
     0
  9
$DIMTIH
 70
     0
  9
$DIMTOH
 70
     0
  9
$DIMSE1
 70
     0
  9
$DIMSE2
 70
     0
  9
$DIMTAD
 70
     1
  9
$DIMZIN
 70
     8
  9
$DIMBLK
  1

  9
$DIMASO
 70
     1
  9
$DIMSHO
 70
     1
  9
$DIMPOST
  1

  9
$DIMAPOST
  1

  9
$DIMALT
 70
     1
  9
$DIMALTD
 70
     5
  9
$DIMALTF
 40
0.039370078740157
  9
$DIMLFAC
 40
1.0
  9
$DIMTOFL
 70
     1
  9
$DIMTVP
 40
0.0
  9
$DIMTIX
 70
     0
  9
$DIMSOXD
 70
     0
  9
$DIMSAH
 70
     1
  9
$DIMBLK1
  1
Oblique
  9
$DIMBLK2
  1
Oblique
  9
$DIMSTYLE
  2
HAWA-Strich
  9
$DIMCLRD
 70
   256
  9
$DIMCLRE
 70
   256
  9
$DIMCLRT
 70
   256
  9
$DIMTFAC
 40
0.7114285714285719
  9
$DIMGAP
 40
1.0
  9
$DIMJUST
 70
     0
  9
$DIMSD1
 70
     0
  9
$DIMSD2
 70
     0
  9
$DIMTOLJ
 70
     1
  9
$DIMTZIN
 70
     8
  9
$DIMALTZ
 70
     8
  9
$DIMALTTZ
 70
     8
  9
$DIMUPT
 70
     0
  9
$DIMDEC
 70
     1
  9
$DIMTDEC
 70
     1
  9
$DIMALTU
 70
     4
  9
$DIMALTTD
 70
     5
  9
$DIMTXSTY
  7
Beschlag
  9
$DIMAUNIT
 70
     0
  9
$DIMADEC
 70
     1
  9
$DIMALTRND
 40
0.0
  9
$DIMAZIN
 70
     2
  9
$DIMDSEP
 70
    46
  9
$DIMATFIT
 70
     3
  9
$DIMFRAC
 70
     0
  9
$DIMLDRBLK
  1
Oblique
  9
$DIMLUNIT
 70
     2
  9
$DIMLWD
 70
    -2
  9
$DIMLWE
 70
    -2
  9
$DIMTMOVE
 70
     0
  9
$LUNITS
 70
     2
  9
$LUPREC
 70
     4
  9
$SKETCHINC
 40
1.0
  9
$FILLETRAD
 40
2.5
  9
$AUNITS
 70
     0
  9
$AUPREC
 70
     0
  9
$MENU
  1
.
  9
$ELEVATION
 40
0.0
  9
$PELEVATION
 40
0.0
  9
$THICKNESS
 40
0.0
  9
$LIMCHECK
 70
     0
  9
$CHAMFERA
 40
2.5
  9
$CHAMFERB
 40
2.5
  9
$CHAMFERC
 40
0.0
  9
$CHAMFERD
 40
0.0
  9
$SKPOLY
 70
     0
  9
$TDCREATE
 40
2447893.000000000
  9
$TDUCREATE
 40
2447892.958333333
  9
$TDUPDATE
 40
2455232.333899687
  9
$TDUUPDATE
 40
2455232.292233021
  9
$TDINDWG
 40
0.0007770486
  9
$TDUSRTIMER
 40
0.0007770486
  9
$USRTIMER
 70
     1
  9
$ANGBASE
 50
0.0
  9
$ANGDIR
 70
     0
  9
$PDMODE
 70
     0
  9
$PDSIZE
 40
0.0
  9
$PLINEWID
 40
0.0
  9
$SPLFRAME
 70
     0
  9
$SPLINETYPE
 70
     6
  9
$SPLINESEGS
 70
     8
  9
$HANDSEED
  5
7D7
  9
$SURFTAB1
 70
     6
  9
$SURFTAB2
 70
     6
  9
$SURFTYPE
 70
     6
  9
$SURFU
 70
     6
  9
$SURFV
 70
     6
  9
$UCSBASE
  2

  9
$UCSNAME
  2

  9
$UCSORG
 10
0.0
 20
0.0
 30
0.0
  9
$UCSXDIR
 10
1.0
 20
0.0
 30
0.0
  9
$UCSYDIR
 10
0.0
 20
1.0
 30
0.0
  9
$UCSORTHOREF
  2

  9
$UCSORTHOVIEW
 70
     0
  9
$UCSORGTOP
 10
0.0
 20
0.0
 30
0.0
  9
$UCSORGBOTTOM
 10
0.0
 20
0.0
 30
0.0
  9
$UCSORGLEFT
 10
0.0
 20
0.0
 30
0.0
  9
$UCSORGRIGHT
 10
0.0
 20
0.0
 30
0.0
  9
$UCSORGFRONT
 10
0.0
 20
0.0
 30
0.0
  9
$UCSORGBACK
 10
0.0
 20
0.0
 30
0.0
  9
$PUCSBASE
  2

  9
$PUCSNAME
  2

  9
$PUCSORG
 10
0.0
 20
0.0
 30
0.0
  9
$PUCSXDIR
 10
1.0
 20
0.0
 30
0.0
  9
$PUCSYDIR
 10
0.0
 20
1.0
 30
0.0
  9
$PUCSORTHOREF
  2

  9
$PUCSORTHOVIEW
 70
     0
  9
$PUCSORGTOP
 10
0.0
 20
0.0
 30
0.0
  9
$PUCSORGBOTTOM
 10
0.0
 20
0.0
 30
0.0
  9
$PUCSORGLEFT
 10
0.0
 20
0.0
 30
0.0
  9
$PUCSORGRIGHT
 10
0.0
 20
0.0
 30
0.0
  9
$PUCSORGFRONT
 10
0.0
 20
0.0
 30
0.0
  9
$PUCSORGBACK
 10
0.0
 20
0.0
 30
0.0
  9
$USERI1
 70
     0
  9
$USERI2
 70
     0
  9
$USERI3
 70
     0
  9
$USERI4
 70
     0
  9
$USERI5
 70
     0
  9
$USERR1
 40
0.0
  9
$USERR2
 40
0.0
  9
$USERR3
 40
0.0
  9
$USERR4
 40
0.0
  9
$USERR5
 40
0.0
  9
$WORLDVIEW
 70
     1
  9
$SHADEDGE
 70
     3
  9
$SHADEDIF
 70
    70
  9
$TILEMODE
 70
     1
  9
$MAXACTVP
 70
    48
  9
$PINSBASE
 10
0.0
 20
0.0
 30
0.0
  9
$PLIMCHECK
 70
     0
  9
$PEXTMIN
 10
25.69999999999999
 20
19.5
 30
0.0
  9
$PEXTMAX
 10
231.3
 20
175.5
 30
0.0
  9
$PLIMMIN
 10
-20.0
 20
-7.5
  9
$PLIMMAX
 10
277.0
 20
202.5
  9
$UNITMODE
 70
     0
  9
$VISRETAIN
 70
     0
  9
$PLINEGEN
 70
     0
  9
$PSLTSCALE
 70
     1
  9
$TREEDEPTH
 70
  3020
  9
$CMLSTYLE
  2
STANDARD
  9
$CMLJUST
 70
     0
  9
$CMLSCALE
 40
20.0
  9
$PROXYGRAPHICS
 70
     1
  9
$MEASUREMENT
 70
     1
  9
$CELWEIGHT
370
    -1
  9
$ENDCAPS
280
     0
  9
$JOINSTYLE
280
     0
  9
$LWDISPLAY
290
     0
  9
$INSUNITS
 70
     0
  9
$HYPERLINKBASE
  1

  9
$STYLESHEET
  1

  9
$XEDIT
290
     1
  9
$CEPSNTYPE
380
     0
  9
$PSTYLEMODE
290
     1
  9
$FINGERPRINTGUID
  2
{FF121B73-DF4A-4FC8-849E-3453484AB968}
  9
$VERSIONGUID
  2
{13D844DE-4575-4A44-89AA-8E09CCF14A1A}
  9
$EXTNAMES
290
     1
  9
$PSVPSCALE
 40
0.0
  9
$OLESTARTUP
290
     0
  0
ENDSEC
  0
SECTION
  2
CLASSES
  0
CLASS
  1
IMAGE
  2
AcDbRasterImage
  3
ISM
 90
    34943
280
     0
281
     1
  0
CLASS
  1
DICTIONARYVAR
  2
AcDbDictionaryVar
  3
ObjectDBX Classes
 90
        0
280
     0
281
     0
  0
CLASS
  1
RASTERVARIABLES
  2
AcDbRasterVariables
  3
ISM
 90
    32768
280
     0
281
     0
  0
CLASS
  1
IMAGEDEF
  2
AcDbRasterImageDef
  3
ISM
 90
    32768
280
     0
281
     0
  0
CLASS
  1
IMAGEDEF_REACTOR
  2
AcDbRasterImageDefReactor
  3
ISM
 90
    32769
280
     0
281
     0
  0
CLASS
  1
IDBUFFER
  2
AcDbIdBuffer
  3
ObjectDBX Classes
 90
    32768
280
     0
281
     0
  0
CLASS
  1
SPATIAL_FILTER
  2
AcDbSpatialFilter
  3
ObjectDBX Classes
 90
    32768
280
     0
281
     0
  0
CLASS
  1
SORTENTSTABLE
  2
AcDbSortentsTable
  3
ObjectDBX Classes
 90
    32768
280
     0
281
     0
  0
CLASS
  1
LAYER_INDEX
  2
AcDbLayerIndex
  3
ObjectDBX Classes
 90
    32768
280
     0
281
     0
  0
CLASS
  1
SPATIAL_INDEX
  2
AcDbSpatialIndex
  3
ObjectDBX Classes
 90
    32768
280
     0
281
     0
  0
CLASS
  1
OBJECT_PTR
  2
CAseDLPNTableRecord
  3
ASE-LPNTableRecord
 90
    32769
280
     0
281
     0
  0
CLASS
  1
LAYOUT
  2
AcDbLayout
  3
ObjectDBX Classes
 90
        0
280
     0
281
     0
  0
CLASS
  1
PLOTSETTINGS
  2
AcDbPlotSettings
  3
ObjectDBX Classes
 90
    32768
280
     0
281
     0
  0
CLASS
  1
ACDBDICTIONARYWDFLT
  2
AcDbDictionaryWithDefault
  3
ObjectDBX Classes
 90
        0
280
     0
281
     0
  0
CLASS
  1
ACDBPLACEHOLDER
  2
AcDbPlaceHolder
  3
ObjectDBX Classes
 90
        0
280
     0
281
     0
  0
CLASS
  1
VBA_PROJECT
  2
AcDbVbaProject
  3
acad
 90
    32768
280
     0
281
     0
  0
CLASS
  1
WIPEOUT
  2
AcDbWipeout
  3
"WipeOut|Product Desc: Object Enabler for WipeOut entity                        |Company: Autodesk, Inc.                        |WEB Address: www.autodesk.com"
 90
    34943
280
     0
281
     1
  0
CLASS
  1
WIPEOUTVARIABLES
  2
AcDbWipeoutVariables
  3
"WipeOut|Product Desc:     WipeOut Dbx Application|Company:          Autodesk, Inc.|WEB Address:      www.autodesk.com"
 90
    32768
280
     0
281
     0
  0
CLASS
  1
RTEXT
  2
RText
  3
RText|AutoCAD Express Tool|expresstools@autodesk.com
 90
    32768
280
     0
281
     1
  0
CLASS
  1
ARCALIGNEDTEXT
  2
AcDbArcAlignedText
  3
ATEXT|AutoCAD Express Tool|expresstools@autodesk.com
 90
    32768
280
     0
281
     1
  0
CLASS
  1
MATERIAL
  2
AcDbMaterial
  3
ObjectDBX Classes
 90
     1024
280
     0
281
     0
  0
CLASS
  1
VISUALSTYLE
  2
AcDbVisualStyle
  3
ObjectDBX Classes
 90
     4095
280
     0
281
     0
  0
CLASS
  1
TABLESTYLE
  2
AcDbTableStyle
  3
ObjectDBX Classes
 90
     4095
280
     0
281
     0
  0
ENDSEC
  0
SECTION
  2
TABLES
  0
TABLE
  2
VPORT
  5
7
330
0
100
AcDbSymbolTable
 70
     1
  0
VPORT
  5
15
330
7
100
AcDbSymbolTableRecord
100
AcDbViewportTableRecord
  2
*ACTIVE
 70
     0
 10
0.0
 20
0.0
 11
1.0
 21
1.0
 12
97.97607506622576
 22
149.32706520663
 13
0.0
 23
0.0
 14
1.0
 24
1.0
 15
0.0
 25
0.0
 16
0.0
 26
0.0
 36
1.0
 17
0.0
 27
0.0
 37
0.0
 40
177.9775573742358
 41
1.606349206349206
 42
50.0
 43
0.0
 44
0.0
 50
0.0
 51
0.0
 71
     0
 72
   100
 73
     1
 74
     1
 75
     0
 76
     0
 77
     0
 78
     0
281
     0
 65
     1
110
0.0
120
0.0
130
0.0
111
1.0
121
0.0
131
0.0
112
0.0
122
1.0
132
0.0
 79
     0
146
0.0
  0
ENDTAB
  0
TABLE
  2
LTYPE
  5
4
330
0
100
AcDbSymbolTable
 70
     8
  0
LTYPE
  5
11
330
4
100
AcDbSymbolTableRecord
100
AcDbLinetypeTableRecord
  2
BYBLOCK
 70
     0
  3

 72
    65
 73
     0
 40
0.0
  0
LTYPE
  5
12
330
4
100
AcDbSymbolTableRecord
100
AcDbLinetypeTableRecord
  2
BYLAYER
 70
     0
  3

 72
    65
 73
     0
 40
0.0
  0
LTYPE
  5
13
330
4
100
AcDbSymbolTableRecord
100
AcDbLinetypeTableRecord
  2
CONTINUOUS
 70
     0
  3
Solid line
 72
    65
 73
     0
 40
0.0
  0
LTYPE
  5
1D
330
4
100
AcDbSymbolTableRecord
100
AcDbLinetypeTableRecord
  2
DASHED
 70
     0
  3
__ __ __ __ __ __ __ __ __ __ __ __ __ __ __ __
 72
    65
 73
     2
 40
15.0
 49
12.0
 74
     0
 49
-3.0
 74
     0
  0
LTYPE
  5
1E
330
4
100
AcDbSymbolTableRecord
100
AcDbLinetypeTableRecord
  2
DASHDOT
 70
     0
  3
 __ . __ . __ . __ . __ . __ . __ . 
 72
    65
 73
     4
 40
18.5
 49
12.0
 74
     0
 49
-3.0
 74
     0
 49
0.5
 74
     0
 49
-3.0
 74
     0
  0
LTYPE
  5
1F
330
4
100
AcDbSymbolTableRecord
100
AcDbLinetypeTableRecord
  2
DOT
 70
     0
  3
 . . . . . . . . . . . . . . . .
 72
    65
 73
     2
 40
3.5
 49
0.5
 74
     0
 49
-3.0
 74
     0
  0
LTYPE
  5
20
330
4
100
AcDbSymbolTableRecord
100
AcDbLinetypeTableRecord
  2
DASHSPACE
 70
     0
  3
__    __    __    __    __   
 72
    65
 73
     2
 40
30.0
 49
12.0
 74
     0
 49
-18.0
 74
     0
  0
LTYPE
  5
21
330
4
100
AcDbSymbolTableRecord
100
AcDbLinetypeTableRecord
  2
DASHDOT2
 70
     0
  3
__ . . __ . . __ . . __ 
 72
    65
 73
     6
 40
22.0
 49
12.0
 74
     0
 49
-3.0
 74
     0
 49
0.5
 74
     0
 49
-3.0
 74
     0
 49
0.5
 74
     0
 49
-3.0
 74
     0
  0
LTYPE
  5
22
330
4
100
AcDbSymbolTableRecord
100
AcDbLinetypeTableRecord
  2
PHANTOM
 70
     0
  3
____________    ____    ____   _
 72
    65
 73
     6
 40
20.0
 49
10.0
 74
     0
 49
-2.0
 74
     0
 49
2.0
 74
     0
 49
-2.0
 74
     0
 49
2.0
 74
     0
 49
-2.0
 74
     0
  0
LTYPE
  5
23
330
4
100
AcDbSymbolTableRecord
100
AcDbLinetypeTableRecord
  2
AXES
 70
     0
  3
________  __  ________  __  _____
 72
    65
 73
     4
 40
24.0
 49
15.0
 74
     0
 49
-3.0
 74
     0
 49
3.0
 74
     0
 49
-3.0
 74
     0
  0
ENDTAB
  0
TABLE
  2
LAYER
  5
2
102
{ACAD_XDICTIONARY
360
79D
102
}
330
0
100
AcDbSymbolTable
 70
     8
  0
LAYER
  5
6E8
330
2
100
AcDbSymbolTableRecord
100
AcDbLayerTableRecord
  2
0
 70
     0
 62
     7
  6
CONTINUOUS
370
    -3
390
6EA
  0
LAYER
  5
6E4
330
2
100
AcDbSymbolTableRecord
100
AcDbLayerTableRecord
  2
Hawa2
 70
     0
 62
     9
  6
CONTINUOUS
370
     0
390
6EA
  0
LAYER
  5
6E5
330
2
100
AcDbSymbolTableRecord
100
AcDbLayerTableRecord
  2
Hawa4
 70
     0
 62
     4
  6
CONTINUOUS
370
     0
390
6EA
  0
LAYER
  5
6E6
330
2
100
AcDbSymbolTableRecord
100
AcDbLayerTableRecord
  2
Hawa5
 70
     0
 62
     1
  6
CONTINUOUS
370
    -3
390
6EA
  0
LAYER
  5
6E7
330
2
100
AcDbSymbolTableRecord
100
AcDbLayerTableRecord
  2
Hawa6
 70
     0
 62
     3
  6
CONTINUOUS
370
    -3
390
6EA
  0
LAYER
  5
14
330
2
100
AcDbSymbolTableRecord
100
AcDbLayerTableRecord
  2
HAWA1
 70
     0
 62
     2
  6
CONTINUOUS
370
     0
390
6EA
  0
LAYER
  5
710
330
2
100
AcDbSymbolTableRecord
100
AcDbLayerTableRecord
  2
Defpoints
 70
     0
 62
     7
  6
CONTINUOUS
290
     0
370
    -3
390
6EA
  0
LAYER
  5
711
330
2
100
AcDbSymbolTableRecord
100
AcDbLayerTableRecord
  2
1
 70
     0
 62
     7
  6
CONTINUOUS
370
    -3
390
6EA
  0
ENDTAB
  0
TABLE
  2
STYLE
  5
3
330
0
100
AcDbSymbolTable
 70
     3
  0
STYLE
  5
17
330
3
100
AcDbSymbolTableRecord
100
AcDbTextStyleTableRecord
  2
STANDARD
 70
     0
 40
0.0
 41
1.0
 50
0.0
 71
     0
 42
2.5
  3
isocp.shx
  4

  0
STYLE
  5
24
330
3
100
AcDbSymbolTableRecord
100
AcDbTextStyleTableRecord
  2
GDT
 70
     0
 40
0.0
 41
1.0
 50
0.0
 71
     0
 42
2.5
  3
amgdt.shx
  4

  0
STYLE
  5
712
330
3
100
AcDbSymbolTableRecord
100
AcDbTextStyleTableRecord
  2
Beschlag
 70
     0
 40
0.0
 41
0.9
 50
0.0
 71
     0
 42
3.5
  3
ARIAL.TTF
  4

1001
ACAD
1000
Arial
1071
       34
  0
ENDTAB
  0
TABLE
  2
VIEW
  5
5
330
0
100
AcDbSymbolTable
 70
     4
  0
ENDTAB
  0
TABLE
  2
UCS
  5
6
330
0
100
AcDbSymbolTable
 70
     0
  0
ENDTAB
  0
TABLE
  2
APPID
  5
8
330
0
100
AcDbSymbolTable
 70
     2
  0
APPID
  5
16
330
8
100
AcDbSymbolTableRecord
100
AcDbRegAppTableRecord
  2
ACAD
 70
     0
  0
APPID
  5
714
330
8
100
AcDbSymbolTableRecord
100
AcDbRegAppTableRecord
  2
ACAD_PSEXT
 70
     0
  0
ENDTAB
  0
TABLE
  2
DIMSTYLE
  5
9
330
0
100
AcDbSymbolTable
 70
     2
100
AcDbDimStyleTable
 71
     1
340
713
  0
DIMSTYLE
105
18
330
9
100
AcDbSymbolTableRecord
100
AcDbDimStyleTableRecord
  2
STANDARD
 70
     0
 41
2.5
 42
0.625
 43
3.75
 44
1.25
 73
     0
 74
     0
 77
     1
 78
     8
140
2.5
141
2.5
143
0.03937
147
0.625
171
     3
172
     1
271
     2
272
     2
274
     3
283
     0
284
     8
289
     0
340
17
  0
DIMSTYLE
105
713
102
{ACAD_REACTORS
330
30
330
2E
330
2C
330
2A
330
28
330
26
102
}
330
9
100
AcDbSymbolTableRecord
100
AcDbDimStyleTableRecord
  2
HAWA-Strich
 70
     0
 41
2.0
 42
2.0
 43
0.0
 44
1.0
 46
1.0
 73
     0
 74
     0
 77
     1
 78
     8
 79
     2
140
3.5
141
0.0
143
0.039370078740157
146
0.7114285714285719
147
1.0
170
     1
171
     5
172
     1
173
     1
176
   256
177
   256
178
   256
179
     1
271
     1
272
     1
273
     4
274
     5
284
     8
285
     8
286
     8
340
712
341
70C
343
70C
344
70C
  0
ENDTAB
  0
TABLE
  2
BLOCK_RECORD
  5
1
330
0
100
AcDbSymbolTable
 70
    10
  0
BLOCK_RECORD
  5
A
330
1
100
AcDbSymbolTableRecord
100
AcDbBlockTableRecord
  2
*MODEL_SPACE
340
546
  0
BLOCK_RECORD
  5
B
330
1
100
AcDbSymbolTableRecord
100
AcDbBlockTableRecord
  2
*PAPER_SPACE
340
547
  0
BLOCK_RECORD
  5
25
330
1
100
AcDbSymbolTableRecord
100
AcDbBlockTableRecord
  2
*D0
340
0
  0
BLOCK_RECORD
  5
27
330
1
100
AcDbSymbolTableRecord
100
AcDbBlockTableRecord
  2
*D1
340
0
  0
BLOCK_RECORD
  5
29
330
1
100
AcDbSymbolTableRecord
100
AcDbBlockTableRecord
  2
*D2
340
0
  0
BLOCK_RECORD
  5
2B
330
1
100
AcDbSymbolTableRecord
100
AcDbBlockTableRecord
  2
*D3
340
0
  0
BLOCK_RECORD
  5
2D
330
1
100
AcDbSymbolTableRecord
100
AcDbBlockTableRecord
  2
*D4
340
0
  0
BLOCK_RECORD
  5
2F
330
1
100
AcDbSymbolTableRecord
100
AcDbBlockTableRecord
  2
*D5
340
0
  0
BLOCK_RECORD
  5
7C
330
1
100
AcDbSymbolTableRecord
100
AcDbBlockTableRecord
  2
BLOCK0
340
0
  0
BLOCK_RECORD
  5
7D
330
1
100
AcDbSymbolTableRecord
100
AcDbBlockTableRecord
  2
BLOCK1
340
0
  0
BLOCK_RECORD
  5
70C
330
1
100
AcDbSymbolTableRecord
100
AcDbBlockTableRecord
  2
_Oblique
340
0
102
{BLKREFS
331
77F
331
780
331
788
331
789
331
792
331
793
331
7A7
331
7A8
331
7B1
331
7B2
331
7BB
331
7BC
102
}
  0
BLOCK_RECORD
  5
720
330
1
100
AcDbSymbolTableRecord
100
AcDbBlockTableRecord
  2
HAWA
340
0
102
{BLKREFS
331
723
102
}
  0
ENDTAB
  0
ENDSEC
  0
SECTION
  2
BLOCKS
  0
BLOCK
  5
D
330
A
100
AcDbEntity
  8
HAWA1
100
AcDbBlockBegin
  2
*MODEL_SPACE
 70
     0
 10
0.0
 20
0.0
 30
0.0
  3
*MODEL_SPACE
  1

  0
ENDBLK
  5
E
330
A
100
AcDbEntity
  8
HAWA1
100
AcDbBlockEnd
  0
BLOCK
  5
F
330
B
100
AcDbEntity
 67
     1
  8
HAWA1
100
AcDbBlockBegin
  2
*PAPER_SPACE
 70
     0
 10
0.0
 20
0.0
 30
0.0
  3
*PAPER_SPACE
  1

  0
ENDBLK
  5
10
330
B
100
AcDbEntity
 67
     1
  8
HAWA1
100
AcDbBlockEnd
  0
BLOCK
  5
7E
330
25
100
AcDbEntity
  8
HAWA1
100
AcDbBlockBegin
  2
*D0
 70
     1
 10
0.0
 20
0.0
 30
0.0
  3
*D0
  1

  0
LINE
  5
78E
330
25
100
AcDbEntity
  8
HAWA1
370
    -2
100
AcDbLine
 10
113.6859779999306
 20
96.75403234955894
 30
0.0
 11
122.6857880104884
 21
96.75395742415583
 31
0.0
  0
LINE
  5
78F
330
25
100
AcDbEntity
  8
HAWA1
370
    -2
100
AcDbLine
 10
103.9734989999306
 20
106.7540323495589
 30
0.0
 11
122.6858712620206
 21
106.7538765649331
 31
0.0
  0
LINE
  5
790
330
25
100
AcDbEntity
  8
HAWA1
370
    -2
100
AcDbLine
 10
121.6857796853025
 20
95.75396574941102
 30
0.0
 11
121.6858712620552
 21
106.7538848901537
 31
0.0
  0
LINE
  5
791
330
25
100
AcDbEntity
  8
HAWA1
370
    -2
100
AcDbLine
 10
121.6858712620552
 20
106.7538848901537
 30
0.0
 11
121.6860102538549
 21
123.4491542931904
 31
0.0
  0
INSERT
  5
792
330
25
100
AcDbEntity
  8
HAWA1
370
    -2
100
AcDbBlockReference
  2
_Oblique
 10
121.685788010523
 20
96.75396574937636
 30
0.0
 41
2.0
 42
2.0
 43
2.0
 50
269.9995229999999
  0
INSERT
  5
793
330
25
100
AcDbEntity
  8
HAWA1
370
    -2
100
AcDbBlockReference
  2
_Oblique
 10
121.6858712620552
 20
106.7538848901537
 30
0.0
 41
2.0
 42
2.0
 43
2.0
 50
89.999523
  0
MTEXT
  5
794
330
25
100
AcDbEntity
  8
HAWA1
100
AcDbMText
 10
117.2407494833978
 20
116.1015565989043
 30
0.0
 40
3.5
 41
0.0
 71
     5
 72
     1
  1
\A1;10 [{\H0.711429x;\S13/32;}"]
  7
Beschlag
 11
0.000008325220532
 21
0.9999999999653454
 31
0.0
 73
     1
 44
1.0
1001
ACAD
1000
MTEXTBEGIN
1070
    73
1070
     1
1070
    44
1040
1.0
1070
    74
1070
     0
1000
MTEXTEND
  0
POINT
  5
795
330
25
100
AcDbEntity
  8
Defpoints
 62
     0
100
AcDbPoint
 10
111.6859779999999
 20
96.75404899999998
 30
0.0
  0
POINT
  5
796
330
25
100
AcDbEntity
  8
Defpoints
 62
     0
100
AcDbPoint
 10
101.973499
 20
106.754049
 30
0.0
  0
POINT
  5
797
330
25
100
AcDbEntity
  8
Defpoints
 62
     0
100
AcDbPoint
 10
121.6858712620552
 20
106.7538848901537
 30
0.0
  0
ENDBLK
  5
89
330
25
100
AcDbEntity
  8
HAWA1
100
AcDbBlockEnd
  0
BLOCK
  5
8A
330
27
100
AcDbEntity
  8
HAWA1
100
AcDbBlockBegin
  2
*D1
 70
     1
 10
0.0
 20
0.0
 30
0.0
  3
*D1
  1

  0
LINE
  5
785
330
27
100
AcDbEntity
  8
HAWA1
370
    -2
100
AcDbLine
 10
111.6734989999306
 20
72.75403234955891
 30
0.0
 11
122.6858780964863
 21
72.75394066907435
 31
0.0
  0
LINE
  5
786
330
27
100
AcDbEntity
  8
HAWA1
370
    -2
100
AcDbLine
 10
113.6859779999306
 20
96.75403234955894
 30
0.0
 11
122.6860779019186
 21
96.75395742174243
 31
0.0
  0
LINE
  5
787
330
27
100
AcDbEntity
  8
HAWA1
370
    -2
100
AcDbLine
 10
121.6858697713004
 20
71.75394899432955
 30
0.0
 11
121.6860862271738
 21
97.75396574692832
 31
0.0
  0
INSERT
  5
788
330
27
100
AcDbEntity
  8
HAWA1
370
    -2
100
AcDbBlockReference
  2
_Oblique
 10
121.685878096521
 20
72.75394899429489
 30
0.0
 41
2.0
 42
2.0
 43
2.0
 50
269.9995229999999
  0
INSERT
  5
789
330
27
100
AcDbEntity
  8
HAWA1
370
    -2
100
AcDbBlockReference
  2
_Oblique
 10
121.6860779019532
 20
96.75396574696296
 30
0.0
 41
2.0
 42
2.0
 43
2.0
 50
89.999523
  0
MTEXT
  5
78A
330
27
100
AcDbEntity
  8
HAWA1
100
AcDbMText
 10
117.2424768998004
 20
84.75399436375552
 30
0.0
 40
3.5
 41
0.0
 71
     5
 72
     1
  1
\A1;24 [{\H0.711429x;\S15/16;}"]
  7
Beschlag
 11
0.000008325220532
 21
0.9999999999653454
 31
0.0
 73
     1
 44
1.0
1001
ACAD
1000
MTEXTBEGIN
1070
    73
1070
     1
1070
    44
1040
1.0
1070
    74
1070
     0
1000
MTEXTEND
  0
POINT
  5
78B
330
27
100
AcDbEntity
  8
Defpoints
 62
     0
100
AcDbPoint
 10
109.673499
 20
72.75404899999998
 30
0.0
  0
POINT
  5
78C
330
27
100
AcDbEntity
  8
Defpoints
 62
     0
100
AcDbPoint
 10
111.6859779999999
 20
96.75404899999998
 30
0.0
  0
POINT
  5
78D
330
27
100
AcDbEntity
  8
Defpoints
 62
     0
100
AcDbPoint
 10
121.6860779019532
 20
96.75396574696296
 30
0.0
  0
ENDBLK
  5
95
330
27
100
AcDbEntity
  8
HAWA1
100
AcDbBlockEnd
  0
BLOCK
  5
96
330
29
100
AcDbEntity
  8
HAWA1
100
AcDbBlockBegin
  2
*D2
 70
     1
 10
0.0
 20
0.0
 30
0.0
  3
*D2
  1

  0
LINE
  5
77C
330
29
100
AcDbEntity
  8
HAWA1
370
    -2
100
AcDbLine
 10
86.273499
 20
70.75404899999999
 30
0.0
 11
86.273499
 21
60.910565
 31
0.0
  0
LINE
  5
77D
330
29
100
AcDbEntity
  8
HAWA1
370
    -2
100
AcDbLine
 10
109.673499
 20
70.75404899999999
 30
0.0
 11
109.673499
 21
60.910565
 31
0.0
  0
LINE
  5
77E
330
29
100
AcDbEntity
  8
HAWA1
370
    -2
100
AcDbLine
 10
85.273499
 20
61.91056500000001
 30
0.0
 11
110.673499
 21
61.91056500000001
 31
0.0
  0
INSERT
  5
77F
330
29
100
AcDbEntity
  8
HAWA1
370
    -2
100
AcDbBlockReference
  2
_Oblique
 10
86.273499
 20
61.91056500000001
 30
0.0
 41
2.0
 42
2.0
 43
2.0
 50
180.0
  0
INSERT
  5
780
330
29
100
AcDbEntity
  8
HAWA1
370
    -2
100
AcDbBlockReference
  2
_Oblique
 10
109.673499
 20
61.91056500000001
 30
0.0
 41
2.0
 42
2.0
 43
2.0
  0
MTEXT
  5
781
330
29
100
AcDbEntity
  8
HAWA1
100
AcDbMText
 10
97.973499
 20
64.66772734652114
 30
0.0
 40
3.5
 41
0.0
 71
     5
 72
     1
  1
\A1;24
  7
Beschlag
 73
     1
 44
1.0
1001
ACAD
1000
MTEXTBEGIN
1070
    73
1070
     1
1070
    44
1040
1.0
1070
    74
1070
     0
1000
MTEXTEND
  0
POINT
  5
782
330
29
100
AcDbEntity
  8
Defpoints
 62
     0
100
AcDbPoint
 10
86.273499
 20
72.75404899999999
 30
0.0
  0
POINT
  5
783
330
29
100
AcDbEntity
  8
Defpoints
 62
     0
100
AcDbPoint
 10
109.673499
 20
72.75404899999999
 30
0.0
  0
POINT
  5
784
330
29
100
AcDbEntity
  8
Defpoints
 62
     0
100
AcDbPoint
 10
109.673499
 20
61.91056500000001
 30
0.0
  0
ENDBLK
  5
A2
330
29
100
AcDbEntity
  8
HAWA1
100
AcDbBlockEnd
  0
BLOCK
  5
A3
330
2B
100
AcDbEntity
  8
HAWA1
100
AcDbBlockBegin
  2
*D3
 70
     1
 10
0.0
 20
0.0
 30
0.0
  3
*D3
  1

  0
LINE
  5
7A3
330
2B
100
AcDbEntity
  8
HAWA1
370
    -2
100
AcDbLine
 10
102.973499
 20
229.25705
 30
0.0
 11
102.973499
 21
220.25705
 31
0.0
  0
LINE
  5
7A4
330
2B
100
AcDbEntity
  8
HAWA1
370
    -2
100
AcDbLine
 10
90.97349900000001
 20
229.25705
 30
0.0
 11
90.97349900000001
 21
220.25705
 31
0.0
  0
LINE
  5
7A5
330
2B
100
AcDbEntity
  8
HAWA1
370
    -2
100
AcDbLine
 10
90.97349900000001
 20
221.25705
 30
0.0
 11
103.973499
 21
221.25705
 31
0.0
  0
LINE
  5
7A6
330
2B
100
AcDbEntity
  8
HAWA1
370
    -2
100
AcDbLine
 10
102.973499
 20
221.25705
 30
0.0
 11
119.6687684036153
 21
221.25705
 31
0.0
  0
INSERT
  5
7A7
330
2B
100
AcDbEntity
  8
HAWA1
370
    -2
100
AcDbBlockReference
  2
_Oblique
 10
90.97349900000001
 20
221.25705
 30
0.0
 41
2.0
 42
2.0
 43
2.0
 50
180.0
  0
INSERT
  5
7A8
330
2B
100
AcDbEntity
  8
HAWA1
370
    -2
100
AcDbBlockReference
  2
_Oblique
 10
102.973499
 20
221.25705
 30
0.0
 41
2.0
 42
2.0
 43
2.0
  0
MTEXT
  5
7A9
330
2B
100
AcDbEntity
  8
HAWA1
100
AcDbMText
 10
112.3211337018076
 20
225.7014003497613
 30
0.0
 40
3.5
 41
0.0
 71
     5
 72
     1
  1
\A1;12 [{\H0.711429x;\S15/32;}"]
  7
Beschlag
 73
     1
 44
1.0
1001
ACAD
1000
MTEXTBEGIN
1070
    73
1070
     1
1070
    44
1040
1.0
1070
    74
1070
     0
1000
MTEXTEND
  0
POINT
  5
7AA
330
2B
100
AcDbEntity
  8
Defpoints
 62
     0
100
AcDbPoint
 10
102.973499
 20
231.25705
 30
0.0
  0
POINT
  5
7AB
330
2B
100
AcDbEntity
  8
Defpoints
 62
     0
100
AcDbPoint
 10
90.97349900000001
 20
231.25705
 30
0.0
  0
POINT
  5
7AC
330
2B
100
AcDbEntity
  8
Defpoints
 62
     0
100
AcDbPoint
 10
90.97349900000001
 20
221.25705
 30
0.0
  0
ENDBLK
  5
AD
330
2B
100
AcDbEntity
  8
HAWA1
100
AcDbBlockEnd
  0
BLOCK
  5
AE
330
2D
100
AcDbEntity
  8
HAWA1
100
AcDbBlockBegin
  2
*D4
 70
     1
 10
0.0
 20
0.0
 30
0.0
  3
*D4
  1

  0
LINE
  5
7AD
330
2D
100
AcDbEntity
  8
HAWA1
370
    -2
100
AcDbLine
 10
90.97349900000001
 20
229.25705
 30
0.0
 11
90.97349900000001
 21
220.25705
 31
0.0
  0
LINE
  5
7AE
330
2D
100
AcDbEntity
  8
HAWA1
370
    -2
100
AcDbLine
 10
102.973499
 20
229.25705
 30
0.0
 11
102.973499
 21
220.25705
 31
0.0
  0
LINE
  5
7AF
330
2D
100
AcDbEntity
  8
HAWA1
370
    -2
100
AcDbLine
 10
89.97349900000001
 20
221.25705
 30
0.0
 11
102.973499
 21
221.25705
 31
0.0
  0
LINE
  5
7B0
330
2D
100
AcDbEntity
  8
HAWA1
370
    -2
100
AcDbLine
 10
102.973499
 20
221.25705
 30
0.0
 11
124.5216945483888
 21
221.25705
 31
0.0
  0
INSERT
  5
7B1
330
2D
100
AcDbEntity
  8
HAWA1
370
    -2
100
AcDbBlockReference
  2
_Oblique
 10
90.97349900000001
 20
221.25705
 30
0.0
 41
2.0
 42
2.0
 43
2.0
 50
180.0
  0
INSERT
  5
7B2
330
2D
100
AcDbEntity
  8
HAWA1
370
    -2
100
AcDbBlockReference
  2
_Oblique
 10
102.973499
 20
221.25705
 30
0.0
 41
2.0
 42
2.0
 43
2.0
  0
MTEXT
  5
7B3
330
2D
100
AcDbEntity
  8
HAWA1
100
AcDbMText
 10
121.7952109194666
 20
224.5513883356071
 30
0.0
 40
3.5
 41
0.0
 71
     5
 72
     1
  1
\A1;(8
  7
Beschlag
 73
     1
 44
1.0
1001
ACAD
1000
MTEXTBEGIN
1070
    73
1070
     1
1070
    44
1040
1.0
1070
    74
1070
     0
1000
MTEXTEND
  0
POINT
  5
7B4
330
2D
100
AcDbEntity
  8
Defpoints
 62
     0
100
AcDbPoint
 10
90.97349900000001
 20
231.25705
 30
0.0
  0
POINT
  5
7B5
330
2D
100
AcDbEntity
  8
Defpoints
 62
     0
100
AcDbPoint
 10
102.973499
 20
231.25705
 30
0.0
  0
POINT
  5
7B6
330
2D
100
AcDbEntity
  8
Defpoints
 62
     0
100
AcDbPoint
 10
102.973499
 20
221.25705
 30
0.0
  0
ENDBLK
  5
B9
330
2D
100
AcDbEntity
  8
HAWA1
100
AcDbBlockEnd
  0
BLOCK
  5
BA
330
2F
100
AcDbEntity
  8
HAWA1
100
AcDbBlockBegin
  2
*D5
 70
     1
 10
0.0
 20
0.0
 30
0.0
  3
*D5
  1

  0
LINE
  5
7B7
330
2F
100
AcDbEntity
  8
HAWA1
370
    -2
100
AcDbLine
 10
90.97349900000001
 20
229.25705
 30
0.0
 11
90.97349900000001
 21
220.25705
 31
0.0
  0
LINE
  5
7B8
330
2F
100
AcDbEntity
  8
HAWA1
370
    -2
100
AcDbLine
 10
102.973499
 20
229.25705
 30
0.0
 11
102.973499
 21
220.25705
 31
0.0
  0
LINE
  5
7B9
330
2F
100
AcDbEntity
  8
HAWA1
370
    -2
100
AcDbLine
 10
89.97349900000001
 20
221.25705
 30
0.0
 11
102.973499
 21
221.25705
 31
0.0
  0
LINE
  5
7BA
330
2F
100
AcDbEntity
  8
HAWA1
370
    -2
100
AcDbLine
 10
102.973499
 20
221.25705
 30
0.0
 11
135.6255078883003
 21
221.25705
 31
0.0
  0
INSERT
  5
7BB
330
2F
100
AcDbEntity
  8
HAWA1
370
    -2
100
AcDbBlockReference
  2
_Oblique
 10
90.97349900000001
 20
221.25705
 30
0.0
 41
2.0
 42
2.0
 43
2.0
 50
180.0
  0
INSERT
  5
7BC
330
2F
100
AcDbEntity
  8
HAWA1
370
    -2
100
AcDbBlockReference
  2
_Oblique
 10
102.973499
 20
221.25705
 30
0.0
 41
2.0
 42
2.0
 43
2.0
  0
MTEXT
  5
7BD
330
2F
100
AcDbEntity
  8
HAWA1
100
AcDbMText
 10
129.780180466745
 20
224.3603924283765
 30
0.0
 40
3.5
 41
0.0
 71
     5
 72
     1
  1
\A1;-12,7
  7
Beschlag
 73
     1
 44
1.0
1001
ACAD
1000
MTEXTBEGIN
1070
    73
1070
     1
1070
    44
1040
1.0
1070
    74
1070
     0
1000
MTEXTEND
  0
POINT
  5
7BE
330
2F
100
AcDbEntity
  8
Defpoints
 62
     0
100
AcDbPoint
 10
90.97349900000001
 20
231.25705
 30
0.0
  0
POINT
  5
7BF
330
2F
100
AcDbEntity
  8
Defpoints
 62
     0
100
AcDbPoint
 10
102.973499
 20
231.25705
 30
0.0
  0
POINT
  5
7C0
330
2F
100
AcDbEntity
  8
Defpoints
 62
     0
100
AcDbPoint
 10
102.973499
 20
221.25705
 30
0.0
  0
ENDBLK
  5
C6
330
2F
100
AcDbEntity
  8
HAWA1
100
AcDbBlockEnd
  0
BLOCK
  5
C7
330
7C
100
AcDbEntity
  8
HAWA1
100
AcDbBlockBegin
  2
BLOCK0
 70
     0
 10
0.0
 20
0.0
 30
0.0
  3
BLOCK0
  1

  0
LINE
  5
C8
330
7C
100
AcDbEntity
  8
Hawa2
 62
     9
 48
0.022086
100
AcDbLine
 10
18.07539
 20
-2383.259277
 30
0.0
 11
18.700001
 21
-2382.634521
 31
0.0
  0
LINE
  5
C9
330
7C
100
AcDbEntity
  8
Hawa2
 62
     9
 48
0.172082
100
AcDbLine
 10
13.832748
 20
-2383.259277
 30
0.0
 11
18.700001
 21
-2378.39209
 31
0.0
  0
LINE
  5
CA
330
7C
100
AcDbEntity
  8
Hawa2
 62
     9
 48
0.106066
100
AcDbLine
 10
9.590108
 20
-2383.259277
 30
0.0
 11
12.590108
 21
-2380.259277
 31
0.0
  0
LINE
  5
CB
330
7C
100
AcDbEntity
  8
Hawa2
 62
     9
 48
0.092093
100
AcDbLine
 10
15.890107
 20
-2376.959229
 30
0.0
 11
18.494936
 21
-2374.354492000001
 31
0.0
  0
LINE
  5
CC
330
7C
100
AcDbEntity
  8
Hawa2
 62
     9
 48
0.106066
100
AcDbLine
 10
5.347466999999999
 20
-2383.259277
 30
0.0
 11
8.347466
 21
-2380.259277
 31
0.0
  0
LINE
  5
CD
330
7C
100
AcDbEntity
  8
Hawa2
 62
     9
 48
0.088388
100
AcDbLine
 10
14.0
 20
-2374.606689
 30
0.0
 11
16.5
 21
-2372.106689
 31
0.0
  0
LINE
  5
CE
330
7C
100
AcDbEntity
  8
Hawa2
 62
     9
 48
0.040749
100
AcDbLine
 10
17.547466
 20
-2371.059326
 30
0.0
 11
18.700001
 21
-2369.906738
 31
0.0
  0
LINE
  5
CF
330
7C
100
AcDbEntity
  8
Hawa2
 62
     9
 48
0.106066
100
AcDbLine
 10
1.104826
 20
-2383.259277
 30
0.0
 11
4.104826
 21
-2380.259277
 31
0.0
  0
LINE
  5
D0
330
7C
100
AcDbEntity
  8
Hawa2
 62
     9
 48
0.166169
100
AcDbLine
 10
14.0
 20
-2370.364014
 30
0.0
 11
18.700001
 21
-2365.664063
 31
0.0
  0
LINE
  5
D1
330
7C
100
AcDbEntity
  8
Hawa2
 62
     9
 48
0.11296
100
AcDbLine
 10
-3.137815
 20
-2383.259277
 30
0.0
 11
0.057123
 21
-2380.064209
 31
0.0
  0
LINE
  5
D2
330
7C
100
AcDbEntity
  8
Hawa2
 62
     9
 48
0.105625
100
AcDbLine
 10
14.862185
 20
-2365.259277
 30
0.0
 11
17.849703
 21
-2362.271729
 31
0.0
  0
LINE
  5
D3
330
7C
100
AcDbEntity
  8
Hawa2
 62
     9
 48
0.088388
100
AcDbLine
 10
-4.7
 20
-2380.578857
 30
0.0
 11
-2.2
 21
-2378.078857
 31
0.0
  0
LINE
  5
D4
330
7C
100
AcDbEntity
  8
Hawa2
 62
     9
 48
0.038198
100
AcDbLine
 10
-1.080454999999999
 20
-2376.959229
 30
0.0
 11
0.0
 21
-2375.878906
 31
0.0
  0
LINE
  5
D5
330
7C
100
AcDbEntity
  8
Hawa2
 62
     9
 48
0.084851
100
AcDbLine
 10
14.099996
 20
-2361.778809
 30
0.0
 11
16.5
 21
-2359.378906
 31
0.0
  0
LINE
  5
D6
330
7C
100
AcDbEntity
  8
Hawa2
 62
     9
 48
0.166169
100
AcDbLine
 10
-4.7
 20
-2376.336182
 30
0.0
 11
0.0
 21
-2371.63623
 31
0.0
  0
LINE
  5
D7
330
7C
100
AcDbEntity
  8
Hawa2
 62
     9
 48
0.106066
100
AcDbLine
 10
-3.665735999999999
 20
-2371.059326
 30
0.0
 11
-0.6657370000000001
 21
-2368.059326
 31
0.0
  0
LINE
  5
D8
330
7C
100
AcDbEntity
  8
Hawa2
 62
     9
 48
0.088388
100
AcDbLine
 10
-4.7
 20
-2367.85083
 30
0.0
 11
-2.2
 21
-2365.35083
 31
0.0
  0
LINE
  5
D9
330
7C
100
AcDbEntity
  8
Hawa2
 62
     9
 48
0.071005
100
AcDbLine
 10
-2.108376999999999
 20
-2365.259277
 30
0.0
 11
-0.100004
 21
-2363.250977
 31
0.0
  0
LINE
  5
DA
330
7C
100
AcDbEntity
  8
Hawa2
 62
     9
 48
0.048208
100
AcDbLine
 10
-4.7
 20
-2363.608154
 30
0.0
 11
-3.336487
 21
-2362.244629
 31
0.0
  0
LINE
  5
DB
330
7C
100
AcDbEntity
  8
Hawa2
 62
     9
 48
0.071546
100
AcDbLine
 10
-2.514531
 20
-2361.422852
 30
0.0
 11
-0.4909430000000001
 21
-2359.39917
 31
0.0
  0
ENDBLK
  5
DC
330
7C
100
AcDbEntity
  8
HAWA1
100
AcDbBlockEnd
  0
BLOCK
  5
DD
330
7D
100
AcDbEntity
  8
HAWA1
100
AcDbBlockBegin
  2
BLOCK1
 70
     0
 10
0.0
 20
0.0
 30
0.0
  3
BLOCK1
  1

  0
LINE
  5
DE
330
7D
100
AcDbEntity
  8
Hawa5
  6
PHANTOM
 62
     1
 48
0.3
100
AcDbLine
 10
12.0
 20
-2218.259277
 30
0.0
 11
0.0
 21
-2218.259277
 31
0.0
  0
LINE
  5
DF
330
7D
100
AcDbEntity
  8
Hawa5
 62
     1
100
AcDbLine
 10
12.0
 20
-2257.259277
 30
0.0
 11
12.0
 21
-2218.259277
 31
0.0
  0
LINE
  5
E0
330
7D
100
AcDbEntity
  8
Hawa6
  6
DASHSPACE
 62
     3
 48
0.3
100
AcDbLine
 10
12.0
 20
-2268.759277
 30
0.0
 11
0.0
 21
-2268.759277
 31
0.0
  0
LINE
  5
E1
330
7D
100
AcDbEntity
  8
Hawa5
 62
     1
100
AcDbLine
 10
0.0
 20
-2268.759277
 30
0.0
 11
0.0
 21
-2218.259277
 31
0.0
  0
LINE
  5
E2
330
7D
100
AcDbEntity
  8
Hawa5
 62
     1
 48
0.025
100
AcDbLine
 10
1.999981999999999
 20
-2349.259277
 30
0.0
 11
1.0
 21
-2349.259277
 31
0.0
  0
LINE
  5
E3
330
7D
100
AcDbEntity
  8
Hawa5
 62
     1
 48
0.035355
100
AcDbLine
 10
1.0
 20
-2349.259277
 30
0.0
 11
0.0
 21
-2348.259277
 31
0.0
  0
LINE
  5
E4
330
7D
100
AcDbEntity
  8
Hawa6
 62
     3
 48
0.05799
100
AcDbLine
 10
0.0
 20
-2345.939697
 30
0.0
 11
0.0
 21
-2348.259277
 31
0.0
  0
LINE
  5
E5
330
7D
100
AcDbEntity
  8
Hawa6
  6
DASHSPACE
 62
     3
 48
0.005
100
AcDbLine
 10
12.0
 20
-2286.53418
 30
0.0
 11
11.799997
 21
-2286.53418
 31
0.0
  0
LINE
  5
E6
330
7D
100
AcDbEntity
  8
Hawa6
  6
DASHSPACE
 62
     3
 48
0.0025
100
AcDbLine
 10
0.099997
 20
-2286.53418
 30
0.0
 11
0.0
 21
-2286.53418
 31
0.0
  0
LINE
  5
E7
330
7D
100
AcDbEntity
  8
Hawa6
  6
DASHSPACE
 62
     3
 48
0.102362
100
AcDbLine
 10
0.0
 20
-2286.53418
 30
0.0
 11
0.0
 21
-2282.439697
 31
0.0
  0
LINE
  5
E8
330
7D
100
AcDbEntity
  8
Hawa6
  6
DASHSPACE
 62
     3
 48
0.09201
100
AcDbLine
 10
0.0
 20
-2272.439697
 30
0.0
 11
0.0
 21
-2268.759277
 31
0.0
  0
LINE
  5
E9
330
7D
100
AcDbEntity
  8
Hawa6
  6
DASHSPACE
 62
     3
 48
0.3
100
AcDbLine
 10
12.0
 20
-2298.336182
 30
0.0
 11
0.0
 21
-2298.336182
 31
0.0
  0
LINE
  5
EA
330
7D
100
AcDbEntity
  8
Hawa6
 62
     3
 48
0.29505
100
AcDbLine
 10
0.0
 20
-2286.53418
 30
0.0
 11
0.0
 21
-2298.336182
 31
0.0
  0
LINE
  5
EB
330
7D
100
AcDbEntity
  8
Hawa6
  6
DASHSPACE
 62
     3
 48
0.068408
100
AcDbLine
 10
0.0
 20
-2301.07251
 30
0.0
 11
0.0
 21
-2298.336182
 31
0.0
  0
LINE
  5
EC
330
7D
100
AcDbEntity
  8
Hawa6
  6
DASHSPACE
 62
     3
100
AcDbLine
 10
3.2
 20
-2325.439697
 30
0.0
 11
3.2
 21
-2302.439697
 31
0.0
  0
LINE
  5
ED
330
7D
100
AcDbEntity
  8
Hawa6
  6
DASHSPACE
 62
     3
100
AcDbLine
 10
3.2
 20
-2345.939697
 30
0.0
 11
3.2
 21
-2325.439697
 31
0.0
  0
LINE
  5
EE
330
7D
100
AcDbEntity
  8
Hawa6
  6
DASHSPACE
 62
     3
 48
0.120624
100
AcDbLine
 10
8.199999999999999
 20
-2323.139648
 30
0.0
 11
8.199999999999999
 21
-2327.9646
 31
0.0
  0
LINE
  5
EF
330
7D
100
AcDbEntity
  8
Hawa6
  6
DASHSPACE
 62
     3
 48
0.120624
100
AcDbLine
 10
8.199999999999999
 20
-2318.314697
 30
0.0
 11
8.199999999999999
 21
-2323.139648
 31
0.0
  0
LINE
  5
F0
330
7D
100
AcDbEntity
  8
Hawa6
  6
DASHSPACE
 62
     3
 48
0.125
100
AcDbLine
 10
3.2
 20
-2327.9646
 30
0.0
 11
8.199999999999999
 21
-2327.9646
 31
0.0
  0
LINE
  5
F1
330
7D
100
AcDbEntity
  8
Hawa6
  6
DASHSPACE
 62
     3
 48
0.125
100
AcDbLine
 10
3.2
 20
-2318.314697
 30
0.0
 11
8.199999999999999
 21
-2318.314697
 31
0.0
  0
LINE
  5
F2
330
7D
100
AcDbEntity
  8
Hawa6
  6
DASHSPACE
 62
     3
 48
0.0025
100
AcDbLine
 10
-0.000018
 20
-2282.439697
 30
0.0
 11
0.099995
 21
-2282.439697
 31
0.0
  0
LINE
  5
F3
330
7D
100
AcDbEntity
  8
Hawa6
  6
DASHSPACE
 62
     3
 48
0.0025
100
AcDbLine
 10
-0.000013
 20
-2272.439697
 30
0.0
 11
0.099995
 21
-2272.439697
 31
0.0
  0
LINE
  5
F4
330
7D
100
AcDbEntity
  8
Hawa6
 62
     3
100
AcDbLine
 10
0.0
 20
-2288.989746
 30
0.0
 11
0.0
 21
-2264.63916
 31
0.0
  0
LINE
  5
F5
330
7D
100
AcDbEntity
  8
Hawa6
 62
     3
 48
0.188574
100
AcDbLine
 10
0.0
 20
-2296.532715
 30
0.0
 11
0.0
 21
-2288.989746
 31
0.0
  0
LINE
  5
F6
330
7D
100
AcDbEntity
  8
Hawa6
 62
     3
100
AcDbLine
 10
0.0
 20
-2296.532715
 30
0.0
 11
0.0
 21
-2345.939697
 31
0.0
  0
LINE
  5
F7
330
7D
100
AcDbEntity
  8
Hawa6
  6
DASHSPACE
 62
     3
 48
0.0125
100
AcDbLine
 10
3.2
 20
-2345.939697
 30
0.0
 11
2.7
 21
-2345.939697
 31
0.0
  0
LINE
  5
F8
330
7D
100
AcDbEntity
  8
Hawa6
  6
DASHSPACE
 62
     3
 48
0.0625
100
AcDbLine
 10
0.2
 20
-2345.939697
 30
0.0
 11
2.7
 21
-2345.939697
 31
0.0
  0
LINE
  5
F9
330
7D
100
AcDbEntity
  8
Hawa6
  6
DASHSPACE
 62
     3
 48
0.005
100
AcDbLine
 10
0.2
 20
-2345.939697
 30
0.0
 11
0.0
 21
-2345.939697
 31
0.0
  0
LINE
  5
FA
330
7D
100
AcDbEntity
  8
Hawa6
  6
DASHSPACE
 62
     3
100
AcDbLine
 10
3.2
 20
-2325.319336
 30
0.0
 11
3.2
 21
-2300.728271
 31
0.0
  0
LINE
  5
FB
330
7D
100
AcDbEntity
  8
Hawa6
  6
DASHSPACE
 62
     3
100
AcDbLine
 10
3.2
 20
-2345.939697
 30
0.0
 11
3.2
 21
-2325.319336
 31
0.0
  0
LINE
  5
FC
330
7D
100
AcDbEntity
  8
Hawa6
  6
DASHSPACE
 62
     3
 48
0.0125
100
AcDbLine
 10
2.7
 20
-2325.318115
 30
0.0
 11
3.2
 21
-2325.319336
 31
0.0
  0
LINE
  5
FD
330
7D
100
AcDbEntity
  8
Hawa6
  6
DASHSPACE
 62
     3
100
AcDbLine
 10
2.7
 20
-2345.939697
 30
0.0
 11
2.7
 21
-2325.318115
 31
0.0
  0
LINE
  5
FE
330
7D
100
AcDbEntity
  8
Hawa6
  6
DASHSPACE
 62
     3
 48
0.0625
100
AcDbLine
 10
0.2
 20
-2325.318115
 30
0.0
 11
2.7
 21
-2325.318115
 31
0.0
  0
LINE
  5
FF
330
7D
100
AcDbEntity
  8
Hawa6
  6
DASHSPACE
 62
     3
 48
0.3992
100
AcDbLine
 10
0.2
 20
-2325.318115
 30
0.0
 11
0.2
 21
-2341.286133
 31
0.0
  0
LINE
  5
100
330
7D
100
AcDbEntity
  8
Hawa6
  6
DASHSPACE
 62
     3
 48
0.116339
100
AcDbLine
 10
0.2
 20
-2345.939697
 30
0.0
 11
0.2
 21
-2341.286133
 31
0.0
  0
LINE
  5
101
330
7D
100
AcDbEntity
  8
Hawa6
  6
DASHSPACE
 62
     3
100
AcDbLine
 10
2.7
 20
-2325.318115
 30
0.0
 11
2.7
 21
-2300.439697
 31
0.0
  0
LINE
  5
102
330
7D
100
AcDbEntity
  8
Hawa6
  6
DASHSPACE
 62
     3
100
AcDbLine
 10
0.2
 20
-2325.318115
 30
0.0
 11
0.2
 21
-2300.439697
 31
0.0
  0
LINE
  5
103
330
7D
100
AcDbEntity
  8
Hawa6
  6
DASHSPACE
 62
     3
 48
0.005
100
AcDbLine
 10
0.2
 20
-2325.439697
 30
0.0
 11
0.0
 21
-2325.439697
 31
0.0
  0
LINE
  5
104
330
7D
100
AcDbEntity
  8
Hawa6
  6
DASHSPACE
 62
     3
 48
0.014432
100
AcDbLine
 10
3.2
 20
-2300.728271
 30
0.0
 11
2.7
 21
-2300.439697
 31
0.0
  0
LINE
  5
105
330
7D
100
AcDbEntity
  8
Hawa6
  6
DASHSPACE
 62
     3
 48
0.0625
100
AcDbLine
 10
0.2
 20
-2300.439697
 30
0.0
 11
2.7
 21
-2300.439697
 31
0.0
  0
LINE
  5
106
330
7D
100
AcDbEntity
  8
Hawa6
  6
DASHSPACE
 62
     3
 48
0.005
100
AcDbLine
 10
-0.000019
 20
-2301.07251
 30
0.0
 11
0.2
 21
-2301.07251
 31
0.0
  0
LINE
  5
107
330
7D
100
AcDbEntity
  8
Hawa6
  6
DASHSPACE
 62
     3
 48
0.14
100
AcDbLine
 10
8.8
 20
-2315.939697
 30
0.0
 11
3.199990999999999
 21
-2315.939697
 31
0.0
  0
LINE
  5
108
330
7D
100
AcDbEntity
  8
Hawa6
  6
DASHSPACE
 62
     3
 48
0.015
100
AcDbLine
 10
8.8
 20
-2326.439697
 30
0.0
 11
8.199992999999999
 21
-2326.439697
 31
0.0
  0
LINE
  5
109
330
7D
100
AcDbEntity
  8
Hawa6
  6
DASHSPACE
 62
     3
 48
0.14
100
AcDbLine
 10
8.8
 20
-2345.939697
 30
0.0
 11
3.199988999999999
 21
-2345.939697
 31
0.0
  0
LINE
  5
10A
330
7D
100
AcDbEntity
  8
Hawa6
  6
DASHSPACE
 62
     3
 48
0.14
100
AcDbLine
 10
8.8
 20
-2328.439697
 30
0.0
 11
3.199990999999999
 21
-2328.439697
 31
0.0
  0
LINE
  5
10B
330
7D
100
AcDbEntity
  8
Hawa6
  6
DASHSPACE
 62
     3
 48
0.14
100
AcDbLine
 10
8.8
 20
-2342.439697
 30
0.0
 11
3.199990999999999
 21
-2342.439697
 31
0.0
  0
LINE
  5
10C
330
7D
100
AcDbEntity
  8
Hawa6
  6
DASHSPACE
 62
     3
 48
0.14
100
AcDbLine
 10
8.8
 20
-2344.439697
 30
0.0
 11
3.199988999999999
 21
-2344.439697
 31
0.0
  0
LINE
  5
10D
330
7D
100
AcDbEntity
  8
Hawa6
  6
DASHSPACE
 62
     3
 48
0.053349
100
AcDbLine
 10
11.8
 20
-2345.939697
 30
0.0
 11
9.666024999999999
 21
-2345.939697
 31
0.0
  0
LINE
  5
10E
330
7D
100
AcDbEntity
  8
Hawa6
  6
DASHSPACE
 62
     3
 48
0.021651
100
AcDbLine
 10
8.8
 20
-2345.939697
 30
0.0
 11
9.666024999999999
 21
-2345.939697
 31
0.0
  0
LINE
  5
10F
330
7D
100
AcDbEntity
  8
Hawa6
  6
DASHSPACE
 62
     3
 48
0.005
100
AcDbLine
 10
11.8
 20
-2345.939697
 30
0.0
 11
12.0
 21
-2345.939697
 31
0.0
  0
LINE
  5
110
330
7D
100
AcDbEntity
  8
Hawa6
  6
DASHSPACE
 62
     3
100
AcDbLine
 10
8.8
 20
-2345.939697
 30
0.0
 11
8.8
 21
-2325.320313
 31
0.0
  0
LINE
  5
111
330
7D
100
AcDbEntity
  8
Hawa6
  6
DASHSPACE
 62
     3
100
AcDbLine
 10
8.8
 20
-2300.939697
 30
0.0
 11
8.8
 21
-2325.320557
 31
0.0
  0
LINE
  5
112
330
7D
100
AcDbEntity
  8
Hawa6
  6
DASHSPACE
 62
     3
100
AcDbLine
 10
9.666024999999999
 20
-2345.939697
 30
0.0
 11
9.666024999999999
 21
-2325.318115
 31
0.0
  0
LINE
  5
113
330
7D
100
AcDbEntity
  8
Hawa6
  6
DASHSPACE
 62
     3
 48
0.021651
100
AcDbLine
 10
8.8
 20
-2325.320313
 30
0.0
 11
9.666024999999999
 21
-2325.318115
 31
0.0
  0
LINE
  5
114
330
7D
100
AcDbEntity
  8
Hawa6
  6
DASHSPACE
 62
     3
100
AcDbLine
 10
9.666024999999999
 20
-2300.439697
 30
0.0
 11
9.666024999999999
 21
-2325.318115
 31
0.0
  0
LINE
  5
115
330
7D
100
AcDbEntity
  8
Hawa6
  6
DASHSPACE
 62
     3
 48
0.053349
100
AcDbLine
 10
11.8
 20
-2325.318115
 30
0.0
 11
9.666024999999999
 21
-2325.318115
 31
0.0
  0
LINE
  5
116
330
7D
100
AcDbEntity
  8
Hawa6
  6
DASHSPACE
 62
     3
 48
0.005
100
AcDbLine
 10
11.8
 20
-2325.318115
 30
0.0
 11
12.0
 21
-2325.318115
 31
0.0
  0
LINE
  5
117
330
7D
100
AcDbEntity
  8
Hawa6
  6
DASHSPACE
 62
     3
 48
0.025
100
AcDbLine
 10
8.8
 20
-2300.939697
 30
0.0
 11
9.666024999999999
 21
-2300.439697
 31
0.0
  0
LINE
  5
118
330
7D
100
AcDbEntity
  8
Hawa6
  6
DASHSPACE
 62
     3
 48
0.058349
100
AcDbLine
 10
11.999975
 20
-2300.439697
 30
0.0
 11
9.666024999999999
 21
-2300.439697
 31
0.0
  0
LINE
  5
119
330
7D
100
AcDbEntity
  8
Hawa6
  6
DASHSPACE
 62
     3
 48
0.030524
100
AcDbLine
 10
5.95
 20
-2286.485596
 30
0.0
 11
5.95
 21
-2287.706543
 31
0.0
  0
LINE
  5
11A
330
7D
100
AcDbEntity
  8
Hawa6
  6
DASHSPACE
 62
     3
 48
0.003815
100
AcDbLine
 10
5.95
 20
-2287.859131
 30
0.0
 11
5.95
 21
-2287.706543
 31
0.0
  0
LINE
  5
11B
330
7D
100
AcDbEntity
  8
Hawa6
  6
DASHSPACE
 62
     3
 48
0.021161
100
AcDbLine
 10
5.95
 20
-2269.705566
 30
0.0
 11
5.95
 21
-2268.859131
 31
0.0
  0
LINE
  5
11C
330
7D
100
AcDbEntity
  8
Hawa6
  6
DASHSPACE
 62
     3
 48
0.013977
100
AcDbLine
 10
5.95
 20
-2269.705322
 30
0.0
 11
5.95
 21
-2270.264404
 31
0.0
  0
LINE
  5
11D
330
7D
100
AcDbEntity
  8
Hawa6
  6
DASHSPACE
 62
     3
 48
0.374738
100
AcDbLine
 10
5.95
 20
-2285.253906
 30
0.0
 11
5.95
 21
-2270.264404
 31
0.0
  0
LINE
  5
11E
330
7D
100
AcDbEntity
  8
Hawa6
  6
DASHSPACE
 62
     3
 48
0.013983
100
AcDbLine
 10
5.95
 20
-2285.813232
 30
0.0
 11
5.95
 21
-2285.253906
 31
0.0
  0
LINE
  5
11F
330
7D
100
AcDbEntity
  8
Hawa6
  6
DASHSPACE
 62
     3
 48
0.016809
100
AcDbLine
 10
5.95
 20
-2286.485596
 30
0.0
 11
5.95
 21
-2285.813232
 31
0.0
  0
LINE
  5
120
330
7D
100
AcDbEntity
  8
Hawa6
  6
DASHSPACE
 62
     3
 48
0.030524
100
AcDbLine
 10
0.1
 20
-2286.485596
 30
0.0
 11
0.1
 21
-2287.706543
 31
0.0
  0
LINE
  5
121
330
7D
100
AcDbEntity
  8
Hawa6
  6
DASHSPACE
 62
     3
 48
0.003815
100
AcDbLine
 10
0.1
 20
-2287.859131
 30
0.0
 11
0.1
 21
-2287.706543
 31
0.0
  0
LINE
  5
122
330
7D
100
AcDbEntity
  8
Hawa6
  6
DASHSPACE
 62
     3
 48
0.021161
100
AcDbLine
 10
0.1
 20
-2269.705566
 30
0.0
 11
0.1
 21
-2268.859131
 31
0.0
  0
LINE
  5
123
330
7D
100
AcDbEntity
  8
Hawa6
  6
DASHSPACE
 62
     3
 48
0.013977
100
AcDbLine
 10
0.1
 20
-2269.705322
 30
0.0
 11
0.1
 21
-2270.264404
 31
0.0
  0
LINE
  5
124
330
7D
100
AcDbEntity
  8
Hawa6
  6
DASHSPACE
 62
     3
 48
0.374738
100
AcDbLine
 10
0.1
 20
-2285.253906
 30
0.0
 11
0.1
 21
-2270.264404
 31
0.0
  0
LINE
  5
125
330
7D
100
AcDbEntity
  8
Hawa6
  6
DASHSPACE
 62
     3
 48
0.013983
100
AcDbLine
 10
0.1
 20
-2285.813232
 30
0.0
 11
0.1
 21
-2285.253906
 31
0.0
  0
LINE
  5
126
330
7D
100
AcDbEntity
  8
Hawa6
  6
DASHSPACE
 62
     3
 48
0.016809
100
AcDbLine
 10
0.1
 20
-2286.485596
 30
0.0
 11
0.1
 21
-2285.813232
 31
0.0
  0
LINE
  5
127
330
7D
100
AcDbEntity
  8
Hawa6
  6
DASHSPACE
 62
     3
 48
0.14625
100
AcDbLine
 10
5.95
 20
-2286.485596
 30
0.0
 11
0.1
 21
-2286.485596
 31
0.0
  0
LINE
  5
128
330
7D
100
AcDbEntity
  8
Hawa6
  6
DASHSPACE
 62
     3
 48
0.14625
100
AcDbLine
 10
5.95
 20
-2287.706543
 30
0.0
 11
0.1
 21
-2287.706543
 31
0.0
  0
LINE
  5
129
330
7D
100
AcDbEntity
  8
Hawa6
  6
DASHSPACE
 62
     3
 48
0.14625
100
AcDbLine
 10
5.95
 20
-2269.705322
 30
0.0
 11
0.1
 21
-2269.705322
 31
0.0
  0
LINE
  5
12A
330
7D
100
AcDbEntity
  8
Hawa6
  6
DASHSPACE
 62
     3
 48
0.14625
100
AcDbLine
 10
5.95
 20
-2270.264404
 30
0.0
 11
0.1
 21
-2270.264404
 31
0.0
  0
LINE
  5
12B
330
7D
100
AcDbEntity
  8
Hawa6
  6
DASHSPACE
 62
     3
 48
0.14625
100
AcDbLine
 10
5.95
 20
-2285.253906
 30
0.0
 11
0.1
 21
-2285.253906
 31
0.0
  0
LINE
  5
12C
330
7D
100
AcDbEntity
  8
Hawa6
  6
DASHSPACE
 62
     3
 48
0.14625
100
AcDbLine
 10
5.95
 20
-2285.813232
 30
0.0
 11
0.1
 21
-2285.813232
 31
0.0
  0
LINE
  5
12D
330
7D
100
AcDbEntity
  8
Hawa6
  6
DASHSPACE
 62
     3
 48
0.14625
100
AcDbLine
 10
0.1
 20
-2287.859131
 30
0.0
 11
5.95
 21
-2287.859131
 31
0.0
  0
LINE
  5
12E
330
7D
100
AcDbEntity
  8
Hawa6
  6
DASHSPACE
 62
     3
 48
0.14625
100
AcDbLine
 10
0.1
 20
-2268.859131
 30
0.0
 11
5.95
 21
-2268.859131
 31
0.0
  0
LWPOLYLINE
  5
12F
330
7D
100
AcDbEntity
  8
Hawa6
  6
DASHED
 62
     3
100
AcDbPolyline
 90
        8
 70
     0
 43
0.0
 10
14.655022
 20
-2279.195313
 10
14.659935
 20
-2279.26709
 10
14.670885
 20
-2279.3396
 10
14.688157
 20
-2279.414063
 10
14.712222
 20
-2279.491211
 10
14.743763
 20
-2279.572021
 10
14.783711
 20
-2279.657471
 10
14.833333
 20
-2279.749023
  0
LWPOLYLINE
  5
139
330
7D
100
AcDbEntity
  8
Hawa6
  6
DASHED
 62
     3
100
AcDbPolyline
 90
       23
 70
     0
 43
0.0
 10
14.833333
 20
-2278.594238
 10
14.800214
 20
-2278.654053
 10
14.769406
 20
-2278.715088
 10
14.744476
 20
-2278.769775
 10
14.721926
 20
-2278.825439
 10
14.703845
 20
-2278.876709
 10
14.688229
 20
-2278.928955
 10
14.676138
 20
-2278.978027
 10
14.666592
 20
-2279.027832
 10
14.660003
 20
-2279.075684
 10
14.656013
 20
-2279.124023
 10
14.654702
 20
-2279.171631
 10
14.656006
 20
-2279.219238
 10
14.659984
 20
-2279.267334
 10
14.666553
 20
-2279.315186
 10
14.676083
 20
-2279.36499
 10
14.688152
 20
-2279.414063
 10
14.703773
 20
-2279.466309
 10
14.721862
 20
-2279.517578
 10
14.744433
 20
-2279.573486
 10
14.769389
 20
-2279.628174
 10
14.800205
 20
-2279.689209
 10
14.833333
 20
-2279.749023
  0
LWPOLYLINE
  5
152
330
7D
100
AcDbEntity
  8
Hawa6
  6
DASHED
 62
     3
100
AcDbPolyline
 90
       23
 70
     0
 43
0.0
 10
14.833333
 20
-2278.594238
 10
14.799992
 20
-2278.473877
 10
14.769406
 20
-2278.353027
 10
14.74432
 20
-2278.242676
 10
14.721926
 20
-2278.131836
 10
14.70375
 20
-2278.028809
 10
14.688229
 20
-2277.925049
 10
14.676092
 20
-2277.826416
 10
14.666592
 20
-2277.727295
 10
14.65999
 20
-2277.631348
 10
14.656013
 20
-2277.534912
 10
14.654701
 20
-2277.439697
 10
14.656006
 20
-2277.344482
 10
14.659971
 20
-2277.248291
 10
14.666553
 20
-2277.152344
 10
14.676037
 20
-2277.053467
 10
14.688152
 20
-2276.95459
 10
14.703677
 20
-2276.85083
 10
14.721862
 20
-2276.747559
 10
14.744277
 20
-2276.636719
 10
14.769389
 20
-2276.526367
 10
14.799982
 20
-2276.405273
 10
14.833333
 20
-2276.284912
  0
LWPOLYLINE
  5
16B
330
7D
100
AcDbEntity
  8
Hawa6
  6
DASHED
 62
     3
100
AcDbPolyline
 90
        8
 70
     0
 43
0.0
 10
14.655022
 20
-2275.683838
 10
14.656423
 20
-2275.762207
 10
14.664949
 20
-2275.841064
 10
14.680864
 20
-2275.921631
 10
14.704683
 20
-2276.004883
 10
14.7372
 20
-2276.092285
 10
14.779552
 20
-2276.185059
 10
14.833333
 20
-2276.284912
  0
LINE
  5
175
330
7D
100
AcDbEntity
  8
Hawa6
  6
DASHED
 62
     3
 48
0.0625
100
AcDbLine
 10
17.333334
 20
-2276.284912
 30
0.0
 11
14.833333
 21
-2276.284912
 31
0.0
  0
LINE
  5
176
330
7D
100
AcDbEntity
  8
Hawa6
  6
DASHED
 62
     3
 48
0.0625
100
AcDbLine
 10
17.333334
 20
-2275.130127
 30
0.0
 11
14.833333
 21
-2275.130127
 31
0.0
  0
LWPOLYLINE
  5
177
330
7D
100
AcDbEntity
  8
Hawa6
  6
DASHED
 62
     3
100
AcDbPolyline
 90
        8
 70
     0
 43
0.0
 10
14.655022
 20
-2275.683838
 10
14.659935
 20
-2275.612305000001
 10
14.670885
 20
-2275.539551
 10
14.688157
 20
-2275.465088
 10
14.712222
 20
-2275.387939
 10
14.743763
 20
-2275.307373
 10
14.783711
 20
-2275.221924
 10
14.833333
 20
-2275.130127
  0
LINE
  5
181
330
7D
100
AcDbEntity
  8
Hawa6
  6
DASHED
 62
     3
 48
0.0625
100
AcDbLine
 10
14.833333
 20
-2278.594238
 30
0.0
 11
17.333334
 21
-2278.594238
 31
0.0
  0
LINE
  5
182
330
7D
100
AcDbEntity
  8
Hawa6
  6
DASHED
 62
     3
 48
0.0625
100
AcDbLine
 10
17.333334
 20
-2279.749023
 30
0.0
 11
14.833333
 21
-2279.749023
 31
0.0
  0
LWPOLYLINE
  5
184
330
7D
100
AcDbEntity
  8
Hawa6
  6
DASHED
 62
     3
100
AcDbPolyline
 90
        8
 70
     0
 43
0.0
 10
14.655022
 20
-2279.195313
 10
14.656423
 20
-2279.116943
 10
14.664949
 20
-2279.038086
 10
14.680864
 20
-2278.95752
 10
14.704683
 20
-2278.874268
 10
14.7372
 20
-2278.786865
 10
14.779552
 20
-2278.694092
 10
14.833333
 20
-2278.594238
  0
LWPOLYLINE
  5
18E
330
7D
100
AcDbEntity
  8
Hawa6
  6
DASHED
 62
     3
100
AcDbPolyline
 90
       15
 70
     0
 43
0.0
 10
14.833333
 20
-2276.284912
 10
14.784
 20
-2276.193848
 10
14.740456
 20
-2276.100098
 10
14.709414
 20
-2276.019043
 10
14.684429
 20
-2275.936035
 10
14.668014
 20
-2275.859863
 10
14.657944
 20
-2275.782471
 10
14.654716
 20
-2275.70752
 10
14.657931
 20
-2275.632568
 10
14.667976
 20
-2275.55542
 10
14.684357
 20
-2275.479492
 10
14.70935
 20
-2275.39624
 10
14.740412
 20
-2275.315186
 10
14.783975
 20
-2275.221191
 10
14.833333
 20
-2275.130127
  0
LWPOLYLINE
  5
19F
330
7D
100
AcDbEntity
  8
Hawa6
  6
DASHED
 62
     3
100
AcDbPolyline
 90
       15
 70
     0
 43
0.0
 10
14.833333
 20
-2276.284912
 10
14.783506
 20
-2276.468994
 10
14.740456
 20
-2276.654541
 10
14.709159
 20
-2276.818115
 10
14.684429
 20
-2276.98291
 10
14.667939
 20
-2277.135986
 10
14.657944
 20
-2277.289551
 10
14.654708
 20
-2277.439453
 10
14.657931
 20
-2277.589355
 10
14.667902
 20
-2277.74292
 10
14.684357
 20
-2277.895752
 10
14.709093
 20
-2278.060547
 10
14.740412
 20
-2278.224365
 10
14.783481
 20
-2278.410156
 10
14.833333
 20
-2278.594238
  0
LINE
  5
1B1
330
7D
100
AcDbEntity
  8
Hawa6
  6
DASHSPACE
 62
     3
 48
0.10567
100
AcDbLine
 10
1.333333
 20
-2275.188477
 30
0.0
 11
1.333333
 21
-2279.415283
 31
0.0
  0
LINE
  5
1B2
330
7D
100
AcDbEntity
  8
Hawa6
  6
DASHSPACE
 62
     3
 48
0.140814
100
AcDbLine
 10
2.082113999999999
 20
-2274.439697
 30
0.0
 11
2.082113999999999
 21
-2280.072266
 31
0.0
  0
LINE
  5
1B3
330
7D
100
AcDbEntity
  8
Hawa6
  6
DASHSPACE
 62
     3
 48
0.006891
100
AcDbLine
 10
1.333333
 20
-2279.415283
 30
0.0
 11
1.333333
 21
-2279.690918
 31
0.0
  0
LINE
  5
1B4
330
7D
100
AcDbEntity
  8
Hawa6
  6
DASHSPACE
 62
     3
 48
0.14082
100
AcDbLine
 10
2.082113999999999
 20
-2274.806885
 30
0.0
 11
2.082113999999999
 21
-2280.439697
 31
0.0
  0
LINE
  5
1B5
330
7D
100
AcDbEntity
  8
Hawa6
  6
DASHED
 62
     3
 48
0.281635
100
AcDbLine
 10
17.1
 20
-2271.439697
 30
0.0
 11
17.1
 21
-2282.705078
 31
0.0
  0
LINE
  5
1B6
330
7D
100
AcDbEntity
  8
Hawa6
  6
DASHED
 62
     3
 48
0.281635
100
AcDbLine
 10
17.333334
 20
-2271.439697
 30
0.0
 11
17.333334
 21
-2282.705078
 31
0.0
  0
LINE
  5
1B7
330
7D
100
AcDbEntity
  8
Hawa6
  6
DASHED
 62
     3
 48
0.281641
100
AcDbLine
 10
17.1
 20
-2272.174072
 30
0.0
 11
17.1
 21
-2283.439697
 31
0.0
  0
LINE
  5
1B8
330
7D
100
AcDbEntity
  8
Hawa6
  6
DASHED
 62
     3
 48
0.018365
100
AcDbLine
 10
17.333334
 20
-2282.705078
 30
0.0
 11
17.333334
 21
-2283.439697
 31
0.0
  0
LINE
  5
1B9
330
7D
100
AcDbEntity
  8
Hawa6
  6
DASHED
 62
     3
 48
0.140814
100
AcDbLine
 10
14.017158
 20
-2274.439697
 30
0.0
 11
14.017158
 21
-2280.072266
 31
0.0
  0
LINE
  5
1BA
330
7D
100
AcDbEntity
  8
Hawa6
  6
DASHED
 62
     3
 48
0.14082
100
AcDbLine
 10
14.017158
 20
-2280.439697
 30
0.0
 11
14.017158
 21
-2274.806885
 31
0.0
  0
LINE
  5
1BB
330
7D
100
AcDbEntity
  8
Hawa6
  6
DASHED
 62
     3
 48
0.143567
100
AcDbLine
 10
14.158579
 20
-2274.381104
 30
0.0
 11
14.158579
 21
-2280.123779
 31
0.0
  0
LINE
  5
1BC
330
7D
100
AcDbEntity
  8
Hawa6
  6
DASHED
 62
     3
 48
0.143573
100
AcDbLine
 10
14.158579
 20
-2280.498291
 30
0.0
 11
14.158579
 21
-2274.755371
 31
0.0
  0
LINE
  5
1BD
330
7D
100
AcDbEntity
  8
Hawa6
  6
DASHED
 62
     3
 48
0.066665
100
AcDbLine
 10
13.5
 20
-2277.439697
 30
0.0
 11
14.833333
 21
-2279.749023
 31
0.0
  0
LINE
  5
1BE
330
7D
100
AcDbEntity
  8
Hawa6
  6
DASHED
 62
     3
 48
0.06667
100
AcDbLine
 10
13.5
 20
-2277.439697
 30
0.0
 11
14.833333
 21
-2275.130127
 31
0.0
  0
LINE
  5
1BF
330
7D
100
AcDbEntity
  8
Hawa6
  6
DASHSPACE
 62
     3
 48
0.026473
100
AcDbLine
 10
1.333333
 20
-2275.188477
 30
0.0
 11
2.082113999999999
 21
-2274.439697
 31
0.0
  0
LINE
  5
1C0
330
7D
100
AcDbEntity
  8
Hawa6
  6
DASHSPACE
 62
     3
 48
0.026473
100
AcDbLine
 10
1.333333
 20
-2279.690918
 30
0.0
 11
2.082113999999999
 21
-2280.439697
 31
0.0
  0
LINE
  5
1C1
330
7D
100
AcDbEntity
  8
Hawa6
  6
DASHED
 62
     3
 48
0.005833
100
AcDbLine
 10
17.333334
 20
-2271.439697
 30
0.0
 11
17.1
 21
-2271.439697
 31
0.0
  0
LINE
  5
1C2
330
7D
100
AcDbEntity
  8
Hawa6
  6
DASHED
 62
     3
 48
0.005833
100
AcDbLine
 10
17.333334
 20
-2283.439697
 30
0.0
 11
17.1
 21
-2283.439697
 31
0.0
  0
LINE
  5
1C3
330
7D
100
AcDbEntity
  8
Hawa6
  6
DASHSPACE
 62
     3
 48
0.050429
100
AcDbLine
 10
14.017158
 20
-2274.439697
 30
0.0
 11
11.999979
 21
-2274.439697
 31
0.0
  0
LINE
  5
1C4
330
7D
100
AcDbEntity
  8
Hawa6
  6
DASHSPACE
 62
     3
 48
0.005
100
AcDbLine
 10
11.999979
 20
-2274.439697
 30
0.0
 11
11.799994
 21
-2274.439697
 31
0.0
  0
LINE
  5
1C5
330
7D
100
AcDbEntity
  8
Hawa6
  6
DASHSPACE
 62
     3
 48
0.242947
100
AcDbLine
 10
11.799994
 20
-2274.439697
 30
0.0
 11
2.082113999999999
 21
-2274.439697
 31
0.0
  0
LINE
  5
1C6
330
7D
100
AcDbEntity
  8
Hawa6
  6
DASHSPACE
 62
     3
 48
0.05043
100
AcDbLine
 10
14.017158
 20
-2280.439697
 30
0.0
 11
11.999977
 21
-2280.439697
 31
0.0
  0
LINE
  5
1C7
330
7D
100
AcDbEntity
  8
Hawa6
  6
DASHSPACE
 62
     3
 48
0.005
100
AcDbLine
 10
11.999977
 20
-2280.439697
 30
0.0
 11
11.799994
 21
-2280.439697
 31
0.0
  0
LINE
  5
1C8
330
7D
100
AcDbEntity
  8
Hawa6
  6
DASHSPACE
 62
     3
 48
0.242947
100
AcDbLine
 10
11.799994
 20
-2280.439697
 30
0.0
 11
2.082113999999999
 21
-2280.439697
 31
0.0
  0
LINE
  5
1C9
330
7D
100
AcDbEntity
  8
Hawa6
  6
DASHED
 62
     3
 48
0.103995
100
AcDbLine
 10
14.158579
 20
-2274.381104
 30
0.0
 11
17.1
 21
-2271.439697
 31
0.0
  0
LINE
  5
1CA
330
7D
100
AcDbEntity
  8
Hawa6
  6
DASHED
 62
     3
 48
0.103995
100
AcDbLine
 10
14.158579
 20
-2280.498291
 30
0.0
 11
17.1
 21
-2283.439697
 31
0.0
  0
ARC
  5
1CB
330
7D
100
AcDbEntity
  8
Hawa6
  6
DASHED
 62
     3
100
AcDbCircle
 10
14.017141
 20
-2274.239502
 30
0.0
 40
0.200036
100
AcDbArc
 50
270.004492
 51
314.995511
  0
ARC
  5
1CC
330
7D
100
AcDbEntity
  8
Hawa6
  6
DASHED
 62
     3
100
AcDbCircle
 10
14.017141
 20
-2280.639648
 30
0.0
 40
0.200036
100
AcDbArc
 50
45.004492
 51
89.99550799999999
  0
LINE
  5
1CD
330
7D
100
AcDbEntity
  8
Hawa6
  6
DASHSPACE
 62
     3
 48
0.030524
100
AcDbLine
 10
11.8
 20
-2286.485596
 30
0.0
 11
11.8
 21
-2287.706543
 31
0.0
  0
LINE
  5
1CE
330
7D
100
AcDbEntity
  8
Hawa6
  6
DASHSPACE
 62
     3
 48
0.003815
100
AcDbLine
 10
11.8
 20
-2287.859131
 30
0.0
 11
11.8
 21
-2287.706543
 31
0.0
  0
LINE
  5
1CF
330
7D
100
AcDbEntity
  8
Hawa6
  6
DASHSPACE
 62
     3
 48
0.024896
100
AcDbLine
 10
11.8
 20
-2269.85498
 30
0.0
 11
11.8
 21
-2268.859131
 31
0.0
  0
LINE
  5
1D0
330
7D
100
AcDbEntity
  8
Hawa6
  6
DASHSPACE
 62
     3
 48
0.013977
100
AcDbLine
 10
11.8
 20
-2269.705322
 30
0.0
 11
11.8
 21
-2270.264404
 31
0.0
  0
LINE
  5
1D1
330
7D
100
AcDbEntity
  8
Hawa6
  6
DASHSPACE
 62
     3
 48
0.374738
100
AcDbLine
 10
11.8
 20
-2285.253906
 30
0.0
 11
11.8
 21
-2270.264404
 31
0.0
  0
LINE
  5
1D2
330
7D
100
AcDbEntity
  8
Hawa6
  6
DASHSPACE
 62
     3
 48
0.013983
100
AcDbLine
 10
11.8
 20
-2285.813232
 30
0.0
 11
11.8
 21
-2285.253906
 31
0.0
  0
LINE
  5
1D3
330
7D
100
AcDbEntity
  8
Hawa6
  6
DASHSPACE
 62
     3
 48
0.016809
100
AcDbLine
 10
11.8
 20
-2286.485596
 30
0.0
 11
11.8
 21
-2285.813232
 31
0.0
  0
LINE
  5
1DB
330
7D
100
AcDbEntity
  8
Hawa6
  6
DASHSPACE
 62
     3
 48
0.14625
100
AcDbLine
 10
11.8
 20
-2286.485596
 30
0.0
 11
5.95
 21
-2286.485596
 31
0.0
  0
LINE
  5
1DC
330
7D
100
AcDbEntity
  8
Hawa6
  6
DASHSPACE
 62
     3
 48
0.14625
100
AcDbLine
 10
11.8
 20
-2287.706543
 30
0.0
 11
5.95
 21
-2287.706543
 31
0.0
  0
LINE
  5
1DD
330
7D
100
AcDbEntity
  8
Hawa6
  6
DASHSPACE
 62
     3
 48
0.14625
100
AcDbLine
 10
11.8
 20
-2269.705322
 30
0.0
 11
5.95
 21
-2269.705322
 31
0.0
  0
LINE
  5
1DE
330
7D
100
AcDbEntity
  8
Hawa6
  6
DASHSPACE
 62
     3
 48
0.14625
100
AcDbLine
 10
11.8
 20
-2270.264404
 30
0.0
 11
5.95
 21
-2270.264404
 31
0.0
  0
LINE
  5
1DF
330
7D
100
AcDbEntity
  8
Hawa6
  6
DASHSPACE
 62
     3
 48
0.14625
100
AcDbLine
 10
11.8
 20
-2285.253906
 30
0.0
 11
5.95
 21
-2285.253906
 31
0.0
  0
LINE
  5
1E0
330
7D
100
AcDbEntity
  8
Hawa6
  6
DASHSPACE
 62
     3
 48
0.14625
100
AcDbLine
 10
11.8
 20
-2285.813232
 30
0.0
 11
5.95
 21
-2285.813232
 31
0.0
  0
LINE
  5
1E1
330
7D
100
AcDbEntity
  8
Hawa6
  6
DASHSPACE
 62
     3
 48
0.14625
100
AcDbLine
 10
5.95
 20
-2287.859131
 30
0.0
 11
11.8
 21
-2287.859131
 31
0.0
  0
LINE
  5
1E2
330
7D
100
AcDbEntity
  8
Hawa6
  6
DASHSPACE
 62
     3
 48
0.14625
100
AcDbLine
 10
5.95
 20
-2268.859131
 30
0.0
 11
11.8
 21
-2268.859131
 31
0.0
  0
LINE
  5
1E3
330
7D
100
AcDbEntity
  8
Hawa6
  6
DASHED
 62
     3
 48
0.21
100
AcDbLine
 10
2.799999999999999
 20
-2365.939697
 30
0.0
 11
11.2
 21
-2365.939697
 31
0.0
  0
LINE
  5
1E4
330
7D
100
AcDbEntity
  8
Hawa6
  6
DASHED
 62
     3
 48
0.0375
100
AcDbLine
 10
2.799999999999999
 20
-2365.939697
 30
0.0
 11
2.799999999999999
 21
-2367.439697
 31
0.0
  0
LINE
  5
1E5
330
7D
100
AcDbEntity
  8
Hawa6
  6
DASHED
 62
     3
 48
0.0375
100
AcDbLine
 10
11.2
 20
-2365.939697
 30
0.0
 11
11.2
 21
-2367.439697
 31
0.0
  0
LINE
  5
1E6
330
7D
100
AcDbEntity
  8
Hawa6
  6
DASHED
 62
     3
 48
0.21
100
AcDbLine
 10
2.799999999999999
 20
-2367.439697
 30
0.0
 11
11.2
 21
-2367.439697
 31
0.0
  0
LINE
  5
1E8
330
7D
100
AcDbEntity
  8
Hawa6
 62
     3
 48
0.0125
100
AcDbLine
 10
3.024999999999999
 20
-2355.439697
 30
0.0
 11
3.024999999999999
 21
-2355.939697
 31
0.0
  0
LINE
  5
1E9
330
7D
100
AcDbEntity
  8
Hawa6
  6
DASHED
 62
     3
 48
0.25
100
AcDbLine
 10
3.024999999999999
 20
-2355.939697
 30
0.0
 11
3.024999999999999
 21
-2365.939697
 31
0.0
  0
LINE
  5
1EA
330
7D
100
AcDbEntity
  8
Hawa6
 62
     3
 48
0.0125
100
AcDbLine
 10
10.975
 20
-2355.439697
 30
0.0
 11
10.975
 21
-2355.939697
 31
0.0
  0
LINE
  5
1EB
330
7D
100
AcDbEntity
  8
Hawa6
  6
DASHED
 62
     3
 48
0.25
100
AcDbLine
 10
10.975
 20
-2355.939697
 30
0.0
 11
10.975
 21
-2365.939697
 31
0.0
  0
LINE
  5
1EC
330
7D
100
AcDbEntity
  8
Hawa6
  6
DASHED
 62
     3
 48
0.066511
100
AcDbLine
 10
2.799999999999999
 20
-2367.439697
 30
0.0
 11
3.709926
 21
-2369.939697
 31
0.0
  0
LINE
  5
1ED
330
7D
100
AcDbEntity
  8
Hawa6
  6
DASHED
 62
     3
 48
0.066511
100
AcDbLine
 10
11.2
 20
-2367.439697
 30
0.0
 11
10.290074
 21
-2369.939697
 31
0.0
  0
LINE
  5
1EE
330
7D
100
AcDbEntity
  8
Hawa6
  6
DASHED
 62
     3
 48
0.164504
100
AcDbLine
 10
3.709926
 20
-2369.939697
 30
0.0
 11
10.290074
 21
-2369.939697
 31
0.0
  0
LINE
  5
1EF
330
7D
100
AcDbEntity
  8
Hawa6
 62
     3
 48
0.2875
100
AcDbLine
 10
1.25
 20
-2355.439697
 30
0.0
 11
12.75
 21
-2355.439697
 31
0.0
  0
LINE
  5
1F0
330
7D
100
AcDbEntity
  8
Hawa6
 62
     3
 48
0.136877
100
AcDbLine
 10
1.25
 20
-2349.9646
 30
0.0
 11
1.25
 21
-2355.439697
 31
0.0
  0
LINE
  5
1F1
330
7D
100
AcDbEntity
  8
Hawa6
 62
     3
 48
0.136877
100
AcDbLine
 10
12.75
 20
-2349.9646
 30
0.0
 11
12.75
 21
-2355.439697
 31
0.0
  0
LINE
  5
1F2
330
7D
100
AcDbEntity
  8
Hawa6
 62
     3
 48
0.2875
100
AcDbLine
 10
1.25
 20
-2349.9646
 30
0.0
 11
12.75
 21
-2349.9646
 31
0.0
  0
LINE
  5
1F3
330
7D
100
AcDbEntity
  8
Hawa6
  6
DASHSPACE
 62
     3
 48
0.209375
100
AcDbLine
 10
2.0
 20
-2337.564697
 30
0.0
 11
2.0
 21
-2345.939697
 31
0.0
  0
LINE
  5
1F4
330
7D
100
AcDbEntity
  8
Hawa6
 62
     3
 48
0.100623
100
AcDbLine
 10
2.0
 20
-2345.939697
 30
0.0
 11
2.0
 21
-2349.9646
 31
0.0
  0
LINE
  5
1F5
330
7D
100
AcDbEntity
  8
Hawa6
  6
DASHSPACE
 62
     3
 48
0.267365
100
AcDbLine
 10
12.0
 20
-2337.564697
 30
0.0
 11
12.0
 21
-2348.259277
 31
0.0
  0
LINE
  5
1F6
330
7D
100
AcDbEntity
  8
Hawa6
 62
     3
 48
0.042633
100
AcDbLine
 10
12.0
 20
-2348.259277
 30
0.0
 11
12.0
 21
-2349.9646
 31
0.0
  0
LINE
  5
1F7
330
7D
100
AcDbEntity
  8
Hawa6
  6
DASHED
 62
     3
 48
0.08125
100
AcDbLine
 10
13.5
 20
-2337.564697
 30
0.0
 11
10.25
 21
-2337.564697
 31
0.0
  0
LINE
  5
1F8
330
7D
100
AcDbEntity
  8
Hawa6
  6
DASHSPACE
 62
     3
 48
0.1625
100
AcDbLine
 10
10.25
 20
-2337.564697
 30
0.0
 11
3.75
 21
-2337.564697
 31
0.0
  0
LINE
  5
1F9
330
7D
100
AcDbEntity
  8
Hawa6
  6
DASHSPACE
 62
     3
 48
0.08125
100
AcDbLine
 10
3.75
 20
-2337.564697
 30
0.0
 11
0.5
 21
-2337.564697
 31
0.0
  0
LWPOLYLINE
  5
1FA
330
7D
100
AcDbEntity
  8
Hawa6
  6
DASHSPACE
 62
     3
100
AcDbPolyline
 90
       19
 70
     0
 43
0.0
 10
10.25
 20
-2337.564697
 10
10.085874
 20
-2337.562988
 10
9.921814999999998
 20
-2337.558105
 10
9.756553999999999
 20
-2337.550293
 10
9.591475
 20
-2337.539063
 10
9.42393
 20
-2337.524414
 10
9.256693999999999
 20
-2337.506592
 10
9.085638000000001
 20
-2337.485107
 10
8.915010999999999
 20
-2337.460448999999
 10
8.739119
 20
-2337.431885
 10
8.563776999999999
 20
-2337.399902
 10
8.381610999999999
 20
-2337.363281
 10
8.200117
 20
-2337.323486
 10
8.010083999999999
 20
-2337.27832
 10
7.820842999999999
 20
-2337.22998
 10
7.621088
 20
-2337.175537
 10
7.422247
 20
-2337.117676
 10
7.210608999999999
 20
-2337.05249
 10
7.0
 20
-2336.984131
  0
LWPOLYLINE
  5
20F
330
7D
100
AcDbEntity
  8
Hawa6
  6
DASHSPACE
 62
     3
100
AcDbPolyline
 90
       15
 70
     0
 43
0.0
 10
3.882866
 20
-2337.563477
 10
4.085002999999999
 20
-2337.557861
 10
4.286938
 20
-2337.547607
 10
4.491887999999999
 20
-2337.532227
 10
4.696424999999999
 20
-2337.511963
 10
4.906419
 20
-2337.486328
 10
5.115768
 20
-2337.455811
 10
5.333255
 20
-2337.418945
 10
5.549873999999999
 20
-2337.377441
 10
5.777581999999999
 20
-2337.328613
 10
6.004198
 20
-2337.274902
 10
6.245276
 20
-2337.212402
 10
6.485037
 20
-2337.14502
 10
6.743282
 20
-2337.067139
 10
7.0
 20
-2336.984131
  0
LINE
  5
220
330
7D
100
AcDbEntity
  8
Hawa6
  6
DASHSPACE
 62
     3
 48
0.00331
100
AcDbLine
 10
3.750461
 20
-2337.564697
 30
0.0
 11
3.882866
 21
-2337.563477
 31
0.0
  0
LWPOLYLINE
  5
221
330
7D
100
AcDbEntity
  8
Hawa6
  6
DASHSPACE
 62
     3
100
AcDbPolyline
 90
       21
 70
     0
 43
0.0
 10
3.749534999999999
 20
-2337.564697
 10
3.601883
 20
-2337.563232
 10
3.454282
 20
-2337.559326
 10
3.305814999999999
 20
-2337.552979
 10
3.157481
 20
-2337.543945
 10
3.007360999999999
 20
-2337.531982
 10
2.857465
 20
-2337.517822
 10
2.704808
 20
-2337.500488
 10
2.552465
 20
-2337.480713
 10
2.396329999999999
 20
-2337.45752
 10
2.240596
 20
-2337.432129
 10
2.079972999999999
 20
-2337.402832
 10
1.91984
 20
-2337.371338
 10
1.753645999999999
 20
-2337.335693
 10
1.588029999999999
 20
-2337.297363
 10
1.415045
 20
-2337.254639000001
 10
1.242725999999999
 20
-2337.209229
 10
1.061549
 20
-2337.158447
 10
0.881127
 20
-2337.105225
 10
0.6901450000000001
 20
-2337.045898
 10
0.5
 20
-2336.984131
  0
LWPOLYLINE
  5
238
330
7D
100
AcDbEntity
  8
Hawa6
  6
DASHSPACE
 62
     3
100
AcDbPolyline
 90
       19
 70
     0
 43
0.0
 10
3.75
 20
-2332.064697
 10
3.585873
 20
-2332.066162
 10
3.421813999999999
 20
-2332.071045000001
 10
3.256552999999999
 20
-2332.079102
 10
3.091474999999999
 20
-2332.090088
 10
2.92393
 20
-2332.104736
 10
2.756693999999999
 20
-2332.122559
 10
2.585637999999999
 20
-2332.144043
 10
2.415011999999999
 20
-2332.168701
 10
2.239119
 20
-2332.19751
 10
2.063776999999999
 20
-2332.229248
 10
1.881611
 20
-2332.265869
 10
1.700116999999999
 20
-2332.305664
 10
1.510083999999999
 20
-2332.35083
 10
1.320842999999999
 20
-2332.39917
 10
1.121087999999999
 20
-2332.453613
 10
0.9222469999999999
 20
-2332.511475
 10
0.710609
 20
-2332.57666
 10
0.5
 20
-2332.645264
  0
LINE
  5
24D
330
7D
100
AcDbEntity
  8
Hawa6
  6
DASHSPACE
 62
     3
 48
0.108472
100
AcDbLine
 10
0.5
 20
-2332.645264
 30
0.0
 11
0.5
 21
-2336.984131
 31
0.0
  0
LWPOLYLINE
  5
265
330
7D
100
AcDbEntity
  8
Hawa6
  6
DASHSPACE
 62
     3
100
AcDbPolyline
 90
       19
 70
     0
 43
0.0
 10
3.75
 20
-2337.564697
 10
3.914126999999999
 20
-2337.562988
 10
4.078185999999999
 20
-2337.558105
 10
4.243446999999999
 20
-2337.550293
 10
4.408525
 20
-2337.539063
 10
4.576069999999999
 20
-2337.524414
 10
4.743306999999999
 20
-2337.506592
 10
4.914362
 20
-2337.485107
 10
5.084988
 20
-2337.460448999999
 10
5.260880999999999
 20
-2337.431885
 10
5.436223
 20
-2337.399902
 10
5.618388999999999
 20
-2337.363281
 10
5.799883
 20
-2337.323486
 10
5.989916
 20
-2337.27832
 10
6.179157
 20
-2337.22998
 10
6.378912
 20
-2337.175537
 10
6.577752999999999
 20
-2337.117676
 10
6.789391
 20
-2337.05249
 10
7.0
 20
-2336.984131
  0
LINE
  5
27A
330
7D
100
AcDbEntity
  8
Hawa6
  6
DASHSPACE
 62
     3
 48
0.108472
100
AcDbLine
 10
7.0
 20
-2332.645264
 30
0.0
 11
7.0
 21
-2336.984131
 31
0.0
  0
LWPOLYLINE
  5
27B
330
7D
100
AcDbEntity
  8
Hawa6
  6
DASHSPACE
 62
     3
100
AcDbPolyline
 90
       21
 70
     0
 43
0.0
 10
7.0
 20
-2332.645264
 10
6.809836999999999
 20
-2332.583252
 10
6.618835
 20
-2332.523926
 10
6.438396
 20
-2332.470703
 10
6.257202999999999
 20
-2332.419922
 10
6.084868
 20
-2332.374512000001
 10
5.911868
 20
-2332.331787
 10
5.746237
 20
-2332.293457
 10
5.580027999999999
 20
-2332.257813
 10
5.419877999999999
 20
-2332.226318
 10
5.259237999999999
 20
-2332.197021
 10
5.103480999999999
 20
-2332.171631
 10
4.947321999999999
 20
-2332.148438
 10
4.79495
 20
-2332.128662
 10
4.642262999999999
 20
-2332.111328
 10
4.492332
 20
-2332.097168
 10
4.342176999999999
 20
-2332.085205
 10
4.193808999999999
 20
-2332.076172
 10
4.045307
 20
-2332.069824
 10
3.897677999999999
 20
-2332.065918
 10
3.75
 20
-2332.064697
  0
LINE
  5
292
330
7D
100
AcDbEntity
  8
Hawa6
  6
DASHSPACE
 62
     3
 48
0.014514
100
AcDbLine
 10
0.5
 20
-2337.564697
 30
0.0
 11
0.5
 21
-2336.984131
 31
0.0
  0
LINE
  5
293
330
7D
100
AcDbEntity
  8
Hawa6
  6
DASHSPACE
 62
     3
 48
0.014514
100
AcDbLine
 10
0.5
 20
-2332.645264
 30
0.0
 11
0.5
 21
-2332.064697
 31
0.0
  0
LWPOLYLINE
  5
294
330
7D
100
AcDbEntity
  8
Hawa6
  6
DASHED
 62
     3
100
AcDbPolyline
 90
       21
 70
     0
 43
0.0
 10
10.250465
 20
-2332.064697
 10
10.398117
 20
-2332.065918
 10
10.545718
 20
-2332.069824
 10
10.694185
 20
-2332.076172
 10
10.842519
 20
-2332.085205
 10
10.99264
 20
-2332.097168
 10
11.142535
 20
-2332.111572
 10
11.295192
 20
-2332.128662
 10
11.447535
 20
-2332.148682
 10
11.60367
 20
-2332.171631
 10
11.759404
 20
-2332.197266
 10
11.920027
 20
-2332.226318
 10
12.08016
 20
-2332.258057
 10
12.246354
 20
-2332.293701
 10
12.41197
 20
-2332.331787
 10
12.584955
 20
-2332.374512000001
 10
12.757274
 20
-2332.419922
 10
12.938451
 20
-2332.470703
 10
13.118873
 20
-2332.523926
 10
13.309855
 20
-2332.583252
 10
13.5
 20
-2332.645264
  0
LINE
  5
2AB
330
7D
100
AcDbEntity
  8
Hawa6
  6
DASHSPACE
 62
     3
 48
0.00331
100
AcDbLine
 10
10.117134
 20
-2332.065674
 30
0.0
 11
10.249539
 21
-2332.064697
 31
0.0
  0
LWPOLYLINE
  5
2AC
330
7D
100
AcDbEntity
  8
Hawa6
  6
DASHSPACE
 62
     3
100
AcDbPolyline
 90
       15
 70
     0
 43
0.0
 10
10.117134
 20
-2332.065674
 10
9.914996999999999
 20
-2332.071289
 10
9.713061999999998
 20
-2332.081543
 10
9.508111999999998
 20
-2332.096924
 10
9.303575
 20
-2332.117188
 10
9.093581
 20
-2332.143066
 10
8.884232
 20
-2332.173584
 10
8.666745
 20
-2332.210205
 10
8.450125999999999
 20
-2332.251709
 10
8.222417999999999
 20
-2332.300537
 10
7.995802
 20
-2332.354248
 10
7.754724
 20
-2332.416748
 10
7.514963
 20
-2332.484131
 10
7.256717999999999
 20
-2332.562256
 10
7.0
 20
-2332.645264
  0
LWPOLYLINE
  5
2BD
330
7D
100
AcDbEntity
  8
Hawa6
  6
DASHSPACE
 62
     3
100
AcDbPolyline
 90
       19
 70
     0
 43
0.0
 10
10.117134
 20
-2337.563477
 10
9.860403999999999
 20
-2337.555664
 10
9.6021
 20
-2337.539795
 10
9.341138
 20
-2337.516113
 10
9.076364999999999
 20
-2337.483887000001
 10
8.941313
 20
-2337.4646
 10
8.806554
 20
-2337.443115
 10
8.668295999999999
 20
-2337.419189
 10
8.530389999999998
 20
-2337.393311
 10
8.388227
 20
-2337.364746
 10
8.246472
 20
-2337.333984
 10
8.099648
 20
-2337.300049
 10
7.953288999999999
 20
-2337.26416
 10
7.800950999999999
 20
-2337.224854
 10
7.649136999999999
 20
-2337.18335
 10
7.490327999999999
 20
-2337.137939
 10
7.332100999999999
 20
-2337.090332
 10
7.165732000000001
 20
-2337.03833
 10
7.0
 20
-2336.984131
  0
LINE
  5
2D2
330
7D
100
AcDbEntity
  8
Hawa6
  6
DASHSPACE
 62
     3
 48
0.00331
100
AcDbLine
 10
10.117134
 20
-2337.563477
 30
0.0
 11
10.249539
 21
-2337.564697
 31
0.0
  0
LWPOLYLINE
  5
2D3
330
7D
100
AcDbEntity
  8
Hawa6
  6
DASHED
 62
     3
100
AcDbPolyline
 90
       21
 70
     0
 43
0.0
 10
10.250465
 20
-2337.564697
 10
10.398117
 20
-2337.563232
 10
10.545718
 20
-2337.559326
 10
10.694185
 20
-2337.552979
 10
10.842519
 20
-2337.543945
 10
10.99264
 20
-2337.531982
 10
11.142535
 20
-2337.517822
 10
11.295192
 20
-2337.500488
 10
11.447535
 20
-2337.480713
 10
11.60367
 20
-2337.45752
 10
11.759404
 20
-2337.432129
 10
11.920027
 20
-2337.402832
 10
12.08016
 20
-2337.371338
 10
12.246354
 20
-2337.335693
 10
12.41197
 20
-2337.297363
 10
12.584955
 20
-2337.254639000001
 10
12.757274
 20
-2337.209229
 10
12.938451
 20
-2337.158447
 10
13.118873
 20
-2337.105225
 10
13.309855
 20
-2337.045898
 10
13.5
 20
-2336.984131
  0
LINE
  5
2EA
330
7D
100
AcDbEntity
  8
Hawa6
  6
DASHED
 62
     3
 48
0.108472
100
AcDbLine
 10
13.5
 20
-2332.645264
 30
0.0
 11
13.5
 21
-2336.984131
 31
0.0
  0
LWPOLYLINE
  5
2EB
330
7D
100
AcDbEntity
  8
Hawa6
  6
DASHSPACE
 62
     3
100
AcDbPolyline
 90
       21
 70
     0
 43
0.0
 10
3.749534999999999
 20
-2332.064697
 10
3.601883
 20
-2332.065918
 10
3.454282
 20
-2332.069824
 10
3.305814999999999
 20
-2332.076172
 10
3.157481
 20
-2332.085205
 10
3.007360999999999
 20
-2332.097168
 10
2.857465
 20
-2332.111572
 10
2.704808
 20
-2332.128662
 10
2.552465
 20
-2332.148682
 10
2.396329999999999
 20
-2332.171631
 10
2.240596
 20
-2332.197266
 10
2.079972999999999
 20
-2332.226318
 10
1.91984
 20
-2332.258057
 10
1.753645999999999
 20
-2332.293701
 10
1.588029999999999
 20
-2332.331787
 10
1.415045
 20
-2332.374512000001
 10
1.242725999999999
 20
-2332.419922
 10
1.061549
 20
-2332.470703
 10
0.881127
 20
-2332.523926
 10
0.6901450000000001
 20
-2332.583252
 10
0.5
 20
-2332.645264
  0
LINE
  5
302
330
7D
100
AcDbEntity
  8
Hawa6
  6
DASHSPACE
 62
     3
 48
0.00331
100
AcDbLine
 10
3.750461
 20
-2332.064697
 30
0.0
 11
3.882866
 21
-2332.065674
 31
0.0
  0
LWPOLYLINE
  5
303
330
7D
100
AcDbEntity
  8
Hawa6
  6
DASHSPACE
 62
     3
100
AcDbPolyline
 90
       19
 70
     0
 43
0.0
 10
3.882866
 20
-2332.065674
 10
4.139596
 20
-2332.073486
 10
4.397899999999999
 20
-2332.089355
 10
4.658862
 20
-2332.113281
 10
4.923634999999999
 20
-2332.145264000001
 10
5.058686999999999
 20
-2332.164551
 10
5.193446999999999
 20
-2332.186035
 10
5.331704
 20
-2332.209961
 10
5.469609999999999
 20
-2332.23584
 10
5.611773
 20
-2332.264404
 10
5.753528
 20
-2332.295166
 10
5.900352999999999
 20
-2332.329102
 10
6.046711
 20
-2332.36499
 10
6.199048999999999
 20
-2332.404297
 10
6.350862999999999
 20
-2332.445801
 10
6.509672
 20
-2332.491211
 10
6.667899
 20
-2332.538818
 10
6.834267999999998
 20
-2332.591064
 10
7.0
 20
-2332.645264
  0
LINE
  5
319
330
7D
100
AcDbEntity
  8
Hawa6
  6
DASHED
 62
     3
 48
0.014514
100
AcDbLine
 10
13.5
 20
-2332.645264
 30
0.0
 11
13.5
 21
-2332.064697
 31
0.0
  0
LINE
  5
31A
330
7D
100
AcDbEntity
  8
Hawa6
  6
DASHED
 62
     3
 48
0.014514
100
AcDbLine
 10
13.5
 20
-2337.564697
 30
0.0
 11
13.5
 21
-2336.984131
 31
0.0
  0
LWPOLYLINE
  5
31B
330
7D
100
AcDbEntity
  8
Hawa6
  6
DASHED
 62
     3
100
AcDbPolyline
 90
       19
 70
     0
 43
0.0
 10
10.25
 20
-2332.064697
 10
10.414127
 20
-2332.066162
 10
10.578186
 20
-2332.071045000001
 10
10.743447
 20
-2332.079102
 10
10.908525
 20
-2332.090088
 10
11.07607
 20
-2332.104736
 10
11.243306
 20
-2332.122559
 10
11.414362
 20
-2332.144043
 10
11.584989
 20
-2332.168701
 10
11.760881
 20
-2332.19751
 10
11.936223
 20
-2332.229248
 10
12.118389
 20
-2332.265869
 10
12.299883
 20
-2332.305664
 10
12.489917
 20
-2332.35083
 10
12.679157
 20
-2332.39917
 10
12.878912
 20
-2332.453613
 10
13.077753
 20
-2332.511475
 10
13.289391
 20
-2332.57666
 10
13.5
 20
-2332.645264
  0
LWPOLYLINE
  5
347
330
7D
100
AcDbEntity
  8
Hawa6
  6
DASHSPACE
 62
     3
100
AcDbPolyline
 90
       21
 70
     0
 43
0.0
 10
7.0
 20
-2332.645264
 10
7.190163
 20
-2332.583252
 10
7.381164999999999
 20
-2332.523926
 10
7.561603999999999
 20
-2332.470703
 10
7.742797
 20
-2332.419922
 10
7.915132
 20
-2332.374512000001
 10
8.088133
 20
-2332.331787
 10
8.253763000000001
 20
-2332.293457
 10
8.419971999999999
 20
-2332.257813
 10
8.580121999999999
 20
-2332.226318
 10
8.740763000000001
 20
-2332.197021
 10
8.896518999999999
 20
-2332.171631
 10
9.052677
 20
-2332.148438
 10
9.205049999999999
 20
-2332.128662
 10
9.357737
 20
-2332.111328
 10
9.507667999999998
 20
-2332.097168
 10
9.657822999999998
 20
-2332.085205
 10
9.806191
 20
-2332.076172
 10
9.954693999999999
 20
-2332.069824
 10
10.102322
 20
-2332.065918
 10
10.25
 20
-2332.064697
  0
LINE
  5
35E
330
7D
100
AcDbEntity
  8
Hawa6
  6
DASHSPACE
 62
     3
 48
0.403125
100
AcDbLine
 10
2.0
 20
-2315.939697
 30
0.0
 11
2.0
 21
-2332.064697
 31
0.0
  0
LINE
  5
35F
330
7D
100
AcDbEntity
  8
Hawa6
  6
DASHSPACE
 62
     3
 48
0.403125
100
AcDbLine
 10
12.0
 20
-2315.939697
 30
0.0
 11
12.0
 21
-2332.064697
 31
0.0
  0
LINE
  5
360
330
7D
100
AcDbEntity
  8
Hawa6
  6
DASHED
 62
     3
 48
0.08125
100
AcDbLine
 10
13.5
 20
-2315.939697
 30
0.0
 11
10.25
 21
-2315.939697
 31
0.0
  0
LINE
  5
361
330
7D
100
AcDbEntity
  8
Hawa6
  6
DASHSPACE
 62
     3
 48
0.126384
100
AcDbLine
 10
8.805365
 20
-2315.939697
 30
0.0
 11
3.75
 21
-2315.939697
 31
0.0
  0
LINE
  5
362
330
7D
100
AcDbEntity
  8
Hawa6
  6
DASHSPACE
 62
     3
 48
0.036116
100
AcDbLine
 10
10.25
 20
-2315.939697
 30
0.0
 11
8.805365
 21
-2315.939697
 31
0.0
  0
LINE
  5
363
330
7D
100
AcDbEntity
  8
Hawa6
  6
DASHSPACE
 62
     3
 48
0.067502
100
AcDbLine
 10
3.200073
 20
-2315.939697
 30
0.0
 11
0.5
 21
-2315.939697
 31
0.0
  0
LINE
  5
364
330
7D
100
AcDbEntity
  8
Hawa6
  6
DASHSPACE
 62
     3
 48
0.013748
100
AcDbLine
 10
3.75
 20
-2315.939697
 30
0.0
 11
3.200073
 21
-2315.939697
 31
0.0
  0
LINE
  5
365
330
7D
100
AcDbEntity
  8
Hawa6
  6
DASHED
 62
     3
 48
0.08125
100
AcDbLine
 10
10.25
 20
-2332.064697
 30
0.0
 11
13.5
 21
-2332.064697
 31
0.0
  0
LINE
  5
366
330
7D
100
AcDbEntity
  8
Hawa6
  6
DASHSPACE
 62
     3
 48
0.1625
100
AcDbLine
 10
3.75
 20
-2332.064697
 30
0.0
 11
10.25
 21
-2332.064697
 31
0.0
  0
LINE
  5
367
330
7D
100
AcDbEntity
  8
Hawa6
  6
DASHSPACE
 62
     3
 48
0.08125
100
AcDbLine
 10
0.5
 20
-2332.064697
 30
0.0
 11
3.75
 21
-2332.064697
 31
0.0
  0
LWPOLYLINE
  5
368
330
7D
100
AcDbEntity
  8
Hawa6
  6
DASHSPACE
 62
     3
100
AcDbPolyline
 90
       19
 70
     0
 43
0.0
 10
10.25
 20
-2315.939697
 10
10.085871
 20
-2315.937987999999
 10
9.92181
 20
-2315.933105
 10
9.756543999999999
 20
-2315.925293
 10
9.591460000000001
 20
-2315.914063
 10
9.423904999999999
 20
-2315.899414
 10
9.256658999999999
 20
-2315.881592
 10
9.085589
 20
-2315.860107
 10
8.914949
 20
-2315.835449
 10
8.739042999999998
 20
-2315.806641
 10
8.563688
 20
-2315.774902
 10
8.381515999999999
 20
-2315.738281
 10
8.200016999999999
 20
-2315.698486
 10
8.009997
 20
-2315.65332
 10
7.820769999999999
 20
-2315.60498
 10
7.621042999999999
 20
-2315.550537
 10
7.422231
 20
-2315.492676
 10
7.210600999999999
 20
-2315.42749
 10
7.0
 20
-2315.359131
  0
LWPOLYLINE
  5
37D
330
7D
100
AcDbEntity
  8
Hawa6
  6
DASHSPACE
 62
     3
100
AcDbPolyline
 90
       19
 70
     0
 43
0.0
 10
3.882866
 20
-2315.938477
 10
4.13959
 20
-2315.930664
 10
4.397891999999999
 20
-2315.914795
 10
4.658856
 20
-2315.891113
 10
4.923636
 20
-2315.858887
 10
5.058694999999999
 20
-2315.8396
 10
5.193458999999999
 20
-2315.818115
 10
5.331720999999999
 20
-2315.794189
 10
5.469631999999999
 20
-2315.768311
 10
5.611796
 20
-2315.739746
 10
5.753550999999999
 20
-2315.708984
 10
5.900374
 20
-2315.675049
 10
6.04673
 20
-2315.63916
 10
6.199066
 20
-2315.599854
 10
6.350876999999999
 20
-2315.55835
 10
6.509682999999999
 20
-2315.512939
 10
6.667907
 20
-2315.465332
 10
6.834272
 20
-2315.413086
 10
7.0
 20
-2315.359131
  0
LINE
  5
392
330
7D
100
AcDbEntity
  8
Hawa6
  6
DASHSPACE
 62
     3
 48
0.003322
100
AcDbLine
 10
3.749998
 20
-2315.939697
 30
0.0
 11
3.882866
 21
-2315.938477
 31
0.0
  0
LWPOLYLINE
  5
393
330
7D
100
AcDbEntity
  8
Hawa6
  6
DASHED
 62
     3
100
AcDbPolyline
 90
       21
 70
     0
 43
0.0
 10
13.5
 20
-2315.359131
 10
13.309843
 20
-2315.420898
 10
13.118847
 20
-2315.480225
 10
12.938433
 20
-2315.533447
 10
12.757263
 20
-2315.584229
 10
12.584948
 20
-2315.629639
 10
12.411965
 20
-2315.672363
 10
12.246334
 20
-2315.710693
 10
12.080123
 20
-2315.746338
 10
11.919964
 20
-2315.777832
 10
11.759314
 20
-2315.807129
 10
11.603545
 20
-2315.83252
 10
11.447373
 20
-2315.855713
 10
11.294989
 20
-2315.875488
 10
11.142291
 20
-2315.892822
 10
10.992352
 20
-2315.906982
 10
10.842189
 20
-2315.918945
 10
10.693816
 20
-2315.927979
 10
10.54531
 20
-2315.934326
 10
10.39768
 20
-2315.938232
 10
10.25
 20
-2315.939697
  0
ARC
  5
3AA
330
7D
100
AcDbEntity
  8
Hawa6
  6
DASHSPACE
 62
     3
100
AcDbCircle
 10
3.750826999999999
 20
-2317.934814
 30
0.0
 40
8.495161999999998
100
AcDbArc
 50
90.00557600000002
 51
93.713276
  0
LWPOLYLINE
  5
3AB
330
7D
100
AcDbEntity
  8
Hawa6
  6
DASHSPACE
 62
     3
100
AcDbPolyline
 90
       15
 70
     0
 43
0.0
 10
3.200649999999999
 20
-2309.45752
 10
3.026060999999999
 20
-2309.470459
 10
2.851774
 20
-2309.487061
 10
2.673722
 20
-2309.507568
 10
2.496103999999999
 20
-2309.531494000001
 10
2.313095
 20
-2309.559814
 10
2.130662
 20
-2309.591797
 10
1.941084
 20
-2309.628662
 10
1.752220999999999
 20
-2309.668945
 10
1.554294999999999
 20
-2309.715088
 10
1.357221
 20
-2309.764648
 10
1.148853
 20
-2309.820801
 10
0.9414789999999999
 20
-2309.880859
 10
0.7201770000000001
 20
-2309.94873
 10
0.5
 20
-2310.020264
  0
LINE
  5
3BC
330
7D
100
AcDbEntity
  8
Hawa6
  6
DASHSPACE
 62
     3
 48
0.133472
100
AcDbLine
 10
0.5
 20
-2310.020264
 30
0.0
 11
0.5
 21
-2315.359131
 31
0.0
  0
LWPOLYLINE
  5
3BD
330
7D
100
AcDbEntity
  8
Hawa6
  6
DASHSPACE
 62
     3
100
AcDbPolyline
 90
       17
 70
     0
 43
0.0
 10
0.5
 20
-2315.359131
 10
0.693426
 20
-2315.422119
 10
0.88772
 20
-2315.482422
 10
1.071087
 20
-2315.536377
 10
1.255233999999999
 20
-2315.587646
 10
1.43027
 20
-2315.633545
 10
1.605992
 20
-2315.676514
 10
1.774175999999999
 20
-2315.715088
 10
1.942954
 20
-2315.750977
 10
2.105553
 20
-2315.782715
 10
2.268653
 20
-2315.811768
 10
2.4268
 20
-2315.837402
 10
2.585355999999999
 20
-2315.860107
 10
2.740105999999999
 20
-2315.879639
 10
2.895168999999999
 20
-2315.896484
 10
3.047499
 20
-2315.9104
 10
3.200054999999999
 20
-2315.921631
  0
ARC
  5
3D0
330
7D
100
AcDbEntity
  8
Hawa6
  6
DASHSPACE
 62
     3
100
AcDbCircle
 10
3.750828999999999
 20
-2307.444336
 30
0.0
 40
8.495271
100
AcDbArc
 50
266.282729
 51
269.994404
  0
LWPOLYLINE
  5
3D1
330
7D
100
AcDbEntity
  8
Hawa6
  6
DASHSPACE
 62
     3
100
AcDbPolyline
 90
       19
 70
     0
 43
0.0
 10
3.75
 20
-2315.939697
 10
3.914128999999999
 20
-2315.937987999999
 10
4.078189
 20
-2315.933105
 10
4.243456
 20
-2315.925293
 10
4.40854
 20
-2315.914063
 10
4.576094999999999
 20
-2315.899414
 10
4.743341
 20
-2315.881592
 10
4.914411
 20
-2315.860107
 10
5.085050999999999
 20
-2315.835449
 10
5.260957
 20
-2315.806641
 10
5.436310999999999
 20
-2315.774902
 10
5.618483999999999
 20
-2315.738281
 10
5.799983999999999
 20
-2315.698486
 10
5.990002999999999
 20
-2315.65332
 10
6.17923
 20
-2315.60498
 10
6.378956999999999
 20
-2315.550537
 10
6.577768999999999
 20
-2315.492676
 10
6.789399
 20
-2315.42749
 10
7.0
 20
-2315.359131
  0
LINE
  5
3E6
330
7D
100
AcDbEntity
  8
Hawa6
  6
DASHSPACE
 62
     3
 48
0.133472
100
AcDbLine
 10
7.0
 20
-2310.020264
 30
0.0
 11
7.0
 21
-2315.359131
 31
0.0
  0
LWPOLYLINE
  5
3E7
330
7D
100
AcDbEntity
  8
Hawa6
  6
DASHSPACE
 62
     3
100
AcDbPolyline
 90
       21
 70
     0
 43
0.0
 10
7.0
 20
-2310.020264
 10
6.809842999999998
 20
-2309.958252
 10
6.618846999999999
 20
-2309.898926
 10
6.438432999999999
 20
-2309.845703
 10
6.257264
 20
-2309.794922
 10
6.084948
 20
-2309.749512000001
 10
5.911965
 20
-2309.706787
 10
5.746334
 20
-2309.668701
 10
5.580123
 20
-2309.633057
 10
5.419964
 20
-2309.601318
 10
5.259313999999999
 20
-2309.572266
 10
5.103544999999999
 20
-2309.546631
 10
4.947373
 20
-2309.523438
 10
4.794989
 20
-2309.503662
 10
4.642291
 20
-2309.486328
 10
4.492351999999999
 20
-2309.472168
 10
4.342189
 20
-2309.460205
 10
4.193815999999999
 20
-2309.451172
 10
4.045309999999999
 20
-2309.444824
 10
3.89768
 20
-2309.440918
 10
3.75
 20
-2309.439697
  0
LINE
  5
3FE
330
7D
100
AcDbEntity
  8
Hawa6
  6
DASHSPACE
 62
     3
 48
0.014514
100
AcDbLine
 10
0.5
 20
-2315.939697
 30
0.0
 11
0.5
 21
-2315.359131
 31
0.0
  0
LINE
  5
3FF
330
7D
100
AcDbEntity
  8
Hawa6
  6
DASHSPACE
 62
     3
 48
0.014514
100
AcDbLine
 10
0.5
 20
-2310.020264
 30
0.0
 11
0.5
 21
-2309.439697
 31
0.0
  0
LWPOLYLINE
  5
400
330
7D
100
AcDbEntity
  8
Hawa6
  6
DASHED
 62
     3
100
AcDbPolyline
 90
       21
 70
     0
 43
0.0
 10
10.250002
 20
-2309.439697
 10
10.397677
 20
-2309.440918
 10
10.545303
 20
-2309.444824
 10
10.693797
 20
-2309.451172
 10
10.842157
 20
-2309.460205
 10
10.992309
 20
-2309.472168
 10
11.142235
 20
-2309.486328
 10
11.294926
 20
-2309.503662
 10
11.447303
 20
-2309.523438
 10
11.603473
 20
-2309.546631
 10
11.759241
 20
-2309.572021
 10
11.919896
 20
-2309.601318
 10
12.08006
 20
-2309.632813
 10
12.246278
 20
-2309.668701
 10
12.411917
 20
-2309.706787
 10
12.584906
 20
-2309.749512000001
 10
12.75723
 20
-2309.794922
 10
12.938407
 20
-2309.845703
 10
13.118829
 20
-2309.898926
 10
13.309834
 20
-2309.958252
 10
13.5
 20
-2310.020264
  0
LINE
  5
417
330
7D
100
AcDbEntity
  8
Hawa6
  6
DASHSPACE
 62
     3
 48
0.003322
100
AcDbLine
 10
10.117134
 20
-2309.440674
 30
0.0
 11
10.250002
 21
-2309.439697
 31
0.0
  0
ARC
  5
418
330
7D
100
AcDbEntity
  8
Hawa6
  6
DASHSPACE
 62
     3
100
AcDbCircle
 10
10.270294
 20
-2318.285889
 30
0.0
 40
8.846766
100
AcDbArc
 50
90.991999
 51
99.565361
  0
ARC
  5
419
330
7D
100
AcDbEntity
  8
Hawa6
  6
DASHSPACE
 62
     3
100
AcDbCircle
 10
10.815366
 20
-2321.21582
 30
0.0
 40
11.827348
100
AcDbArc
 50
99.810619
 51
108.818505
  0
ARC
  5
41A
330
7D
100
AcDbEntity
  8
Hawa6
  6
DASHSPACE
 62
     3
100
AcDbCircle
 10
10.27032
 20
-2307.092773
 30
0.0
 40
8.847127
100
AcDbArc
 50
260.430267
 51
269.007872
  0
ARC
  5
41B
330
7D
100
AcDbEntity
  8
Hawa6
  6
DASHSPACE
 62
     3
100
AcDbCircle
 10
10.815642
 20
-2304.162354
 30
0.0
 40
11.828384
100
AcDbArc
 50
251.181789
 51
260.185453
  0
LINE
  5
41C
330
7D
100
AcDbEntity
  8
Hawa6
  6
DASHSPACE
 62
     3
 48
0.003322
100
AcDbLine
 10
10.117134
 20
-2315.938477
 30
0.0
 11
10.250002
 21
-2315.939697
 31
0.0
  0
LINE
  5
434
330
7D
100
AcDbEntity
  8
Hawa6
  6
DASHED
 62
     3
 48
0.133472
100
AcDbLine
 10
13.5
 20
-2310.020264
 30
0.0
 11
13.5
 21
-2315.359131
 31
0.0
  0
LWPOLYLINE
  5
435
330
7D
100
AcDbEntity
  8
Hawa6
  6
DASHSPACE
 62
     3
100
AcDbPolyline
 90
       21
 70
     0
 43
0.0
 10
3.749998
 20
-2309.439697
 10
3.602323
 20
-2309.440918
 10
3.454696999999999
 20
-2309.444824
 10
3.306203
 20
-2309.451172
 10
3.157842
 20
-2309.460205
 10
3.007690999999999
 20
-2309.472168
 10
2.857765
 20
-2309.486328
 10
2.705074999999999
 20
-2309.503662
 10
2.552697999999999
 20
-2309.523438
 10
2.396526999999999
 20
-2309.546631
 10
2.240759
 20
-2309.572021
 10
2.080103999999999
 20
-2309.601318
 10
1.91994
 20
-2309.632813
 10
1.753722
 20
-2309.668701
 10
1.588084
 20
-2309.706787
 10
1.415094
 20
-2309.749512000001
 10
1.24277
 20
-2309.794922
 10
1.061593
 20
-2309.845703
 10
0.8811709999999999
 20
-2309.898926
 10
0.690166
 20
-2309.958252
 10
0.5
 20
-2310.020264
  0
LINE
  5
44C
330
7D
100
AcDbEntity
  8
Hawa6
  6
DASHSPACE
 62
     3
 48
0.003322
100
AcDbLine
 10
3.749998
 20
-2309.439697
 30
0.0
 11
3.882866
 21
-2309.440674
 31
0.0
  0
LWPOLYLINE
  5
44D
330
7D
100
AcDbEntity
  8
Hawa6
  6
DASHSPACE
 62
     3
100
AcDbPolyline
 90
       19
 70
     0
 43
0.0
 10
3.882866
 20
-2309.440674
 10
4.13959
 20
-2309.448486
 10
4.397891999999999
 20
-2309.464355
 10
4.658856
 20
-2309.488281
 10
4.923636
 20
-2309.520264
 10
5.058694999999999
 20
-2309.539795
 10
5.193458999999999
 20
-2309.561035
 10
5.331720999999999
 20
-2309.584961
 10
5.469631999999999
 20
-2309.61084
 10
5.611796
 20
-2309.639404
 10
5.753550999999999
 20
-2309.670166
 10
5.900374
 20
-2309.704102
 10
6.04673
 20
-2309.73999
 10
6.199066
 20
-2309.779297
 10
6.350876999999999
 20
-2309.820801
 10
6.509682999999999
 20
-2309.866211
 10
6.667907
 20
-2309.913818
 10
6.834272
 20
-2309.966064000001
 10
7.0
 20
-2310.020264
  0
LWPOLYLINE
  5
463
330
7D
100
AcDbEntity
  8
Hawa6
  6
DASHSPACE
 62
     3
100
AcDbPolyline
 90
       21
 70
     0
 43
0.0
 10
3.749998
 20
-2315.939697
 10
3.602323
 20
-2315.938232
 10
3.454696999999999
 20
-2315.934326
 10
3.306203
 20
-2315.927979
 10
3.157842
 20
-2315.918945
 10
3.007690999999999
 20
-2315.906982
 10
2.857765
 20
-2315.892822
 10
2.705074999999999
 20
-2315.875488
 10
2.552697999999999
 20
-2315.855713
 10
2.396526999999999
 20
-2315.83252
 10
2.240759
 20
-2315.807129
 10
2.080103999999999
 20
-2315.777832
 10
1.91994
 20
-2315.746338
 10
1.753722
 20
-2315.710693
 10
1.588084
 20
-2315.672363
 10
1.415094
 20
-2315.629639
 10
1.24277
 20
-2315.584229
 10
1.061593
 20
-2315.533691
 10
0.8811709999999999
 20
-2315.480225
 10
0.690166
 20
-2315.420898
 10
0.5
 20
-2315.359131
  0
LINE
  5
47A
330
7D
100
AcDbEntity
  8
Hawa6
  6
DASHED
 62
     3
 48
0.014514
100
AcDbLine
 10
13.5
 20
-2310.020264
 30
0.0
 11
13.5
 21
-2309.439697
 31
0.0
  0
LINE
  5
47B
330
7D
100
AcDbEntity
  8
Hawa6
  6
DASHED
 62
     3
 48
0.014514
100
AcDbLine
 10
13.5
 20
-2315.939697
 30
0.0
 11
13.5
 21
-2315.359131
 31
0.0
  0
LWPOLYLINE
  5
47C
330
7D
100
AcDbEntity
  8
Hawa6
  6
DASHED
 62
     3
100
AcDbPolyline
 90
       19
 70
     0
 43
0.0
 10
10.25
 20
-2309.439697
 10
10.414129
 20
-2309.441162
 10
10.57819
 20
-2309.446045
 10
10.743456
 20
-2309.454102
 10
10.90854
 20
-2309.465088
 10
11.076095
 20
-2309.479736
 10
11.243341
 20
-2309.497559
 10
11.414411
 20
-2309.519043
 10
11.585051
 20
-2309.543701
 10
11.760957
 20
-2309.57251
 10
11.936312
 20
-2309.604248
 10
12.118484
 20
-2309.640869
 10
12.299983
 20
-2309.680664
 10
12.490003
 20
-2309.72583
 10
12.67923
 20
-2309.77417
 10
12.878957
 20
-2309.828613
 10
13.077769
 20
-2309.886475
 10
13.289398
 20
-2309.95166
 10
13.5
 20
-2310.020264
  0
LWPOLYLINE
  5
491
330
7D
100
AcDbEntity
  8
Hawa6
  6
DASHSPACE
 62
     3
100
AcDbPolyline
 90
       21
 70
     0
 43
0.0
 10
7.0
 20
-2310.020264
 10
7.190157000000001
 20
-2309.958252
 10
7.381153
 20
-2309.898926
 10
7.561567
 20
-2309.845703
 10
7.742735999999999
 20
-2309.794922
 10
7.915052
 20
-2309.749512000001
 10
8.088035000000001
 20
-2309.706787
 10
8.253666
 20
-2309.668701
 10
8.419876999999999
 20
-2309.633057
 10
8.580035999999999
 20
-2309.601318
 10
8.740686
 20
-2309.572266
 10
8.896454999999999
 20
-2309.546631
 10
9.052627000000001
 20
-2309.523438
 10
9.205011
 20
-2309.503662
 10
9.357708999999999
 20
-2309.486328
 10
9.507647999999999
 20
-2309.472168
 10
9.657811
 20
-2309.460205
 10
9.806184
 20
-2309.451172
 10
9.954689999999999
 20
-2309.444824
 10
10.10232
 20
-2309.440918
 10
10.25
 20
-2309.439697
  0
LINE
  5
4A8
330
7D
100
AcDbEntity
  8
Hawa6
  6
DASHED
 62
     3
 48
0.08125
100
AcDbLine
 10
13.5
 20
-2309.439697
 30
0.0
 11
10.25
 21
-2309.439697
 31
0.0
  0
LINE
  5
4A9
330
7D
100
AcDbEntity
  8
Hawa6
  6
DASHSPACE
 62
     3
 48
0.126384
100
AcDbLine
 10
8.805367
 20
-2309.439697
 30
0.0
 11
3.75
 21
-2309.439697
 31
0.0
  0
LINE
  5
4AA
330
7D
100
AcDbEntity
  8
Hawa6
  6
DASHSPACE
 62
     3
 48
0.036116
100
AcDbLine
 10
10.25
 20
-2309.439697
 30
0.0
 11
8.805367
 21
-2309.439697
 31
0.0
  0
LINE
  5
4AB
330
7D
100
AcDbEntity
  8
Hawa6
  6
DASHSPACE
 62
     3
 48
0.067502
100
AcDbLine
 10
3.200073
 20
-2309.439697
 30
0.0
 11
0.5
 21
-2309.439697
 31
0.0
  0
LINE
  5
4AC
330
7D
100
AcDbEntity
  8
Hawa6
  6
DASHSPACE
 62
     3
 48
0.013748
100
AcDbLine
 10
3.75
 20
-2309.439697
 30
0.0
 11
3.200073
 21
-2309.439697
 31
0.0
  0
LINE
  5
4AD
330
7D
100
AcDbEntity
  8
Hawa6
 62
     3
 48
0.0125
100
AcDbLine
 10
13.1
 20
-2370.939697
 30
0.0
 11
13.6
 21
-2370.939697
 31
0.0
  0
LINE
  5
4AE
330
7D
100
AcDbEntity
  8
Hawa6
 62
     3
 48
0.0125
100
AcDbLine
 10
12.6
 20
-2370.939697
 30
0.0
 11
13.1
 21
-2370.939697
 31
0.0
  0
LINE
  5
4AF
330
7D
100
AcDbEntity
  8
Hawa6
 62
     3
 48
0.025
100
AcDbLine
 10
11.6
 20
-2370.939697
 30
0.0
 11
12.6
 21
-2370.939697
 31
0.0
  0
LINE
  5
4B0
330
7D
100
AcDbEntity
  8
Hawa6
 62
     3
 48
0.0525
100
AcDbLine
 10
9.5
 20
-2370.939697
 30
0.0
 11
11.6
 21
-2370.939697
 31
0.0
  0
LINE
  5
4B1
330
7D
100
AcDbEntity
  8
Hawa6
 62
     3
 48
0.025
100
AcDbLine
 10
8.5
 20
-2370.939697
 30
0.0
 11
9.5
 21
-2370.939697
 31
0.0
  0
LINE
  5
4B2
330
7D
100
AcDbEntity
  8
Hawa6
 62
     3
 48
0.0375
100
AcDbLine
 10
7.0
 20
-2370.939697
 30
0.0
 11
8.5
 21
-2370.939697
 31
0.0
  0
LINE
  5
4B3
330
7D
100
AcDbEntity
  8
Hawa6
 62
     3
 48
0.0375
100
AcDbLine
 10
7.0
 20
-2370.939697
 30
0.0
 11
5.5
 21
-2370.939697
 31
0.0
  0
LINE
  5
4B4
330
7D
100
AcDbEntity
  8
Hawa6
 62
     3
 48
0.025
100
AcDbLine
 10
4.5
 20
-2370.939697
 30
0.0
 11
5.5
 21
-2370.939697
 31
0.0
  0
LINE
  5
4B5
330
7D
100
AcDbEntity
  8
Hawa6
 62
     3
 48
0.0525
100
AcDbLine
 10
2.399999999999999
 20
-2370.939697
 30
0.0
 11
4.5
 21
-2370.939697
 31
0.0
  0
LINE
  5
4B6
330
7D
100
AcDbEntity
  8
Hawa6
 62
     3
 48
0.025
100
AcDbLine
 10
1.399999999999999
 20
-2370.939697
 30
0.0
 11
2.399999999999999
 21
-2370.939697
 31
0.0
  0
LINE
  5
4B7
330
7D
100
AcDbEntity
  8
Hawa6
 62
     3
 48
0.0125
100
AcDbLine
 10
1.399999999999999
 20
-2370.939697
 30
0.0
 11
0.9
 21
-2370.939697
 31
0.0
  0
LINE
  5
4B8
330
7D
100
AcDbEntity
  8
Hawa6
 62
     3
 48
0.0125
100
AcDbLine
 10
0.4
 20
-2370.939697
 30
0.0
 11
0.9
 21
-2370.939697
 31
0.0
  0
LINE
  5
4B9
330
7D
100
AcDbEntity
  8
Hawa6
 62
     3
 48
0.0375
100
AcDbLine
 10
7.0
 20
-2355.939697
 30
0.0
 11
5.5
 21
-2355.939697
 31
0.0
  0
LINE
  5
4BA
330
7D
100
AcDbEntity
  8
Hawa6
 62
     3
 48
0.025
100
AcDbLine
 10
4.5
 20
-2355.939697
 30
0.0
 11
5.5
 21
-2355.939697
 31
0.0
  0
LINE
  5
4BB
330
7D
100
AcDbEntity
  8
Hawa6
 62
     3
 48
0.0525
100
AcDbLine
 10
2.399999999999999
 20
-2355.939697
 30
0.0
 11
4.5
 21
-2355.939697
 31
0.0
  0
LINE
  5
4BC
330
7D
100
AcDbEntity
  8
Hawa6
 62
     3
 48
0.025
100
AcDbLine
 10
1.399999999999999
 20
-2355.939697
 30
0.0
 11
2.399999999999999
 21
-2355.939697
 31
0.0
  0
LINE
  5
4BD
330
7D
100
AcDbEntity
  8
Hawa6
 62
     3
 48
0.0125
100
AcDbLine
 10
1.399999999999999
 20
-2355.939697
 30
0.0
 11
0.9
 21
-2355.939697
 31
0.0
  0
LINE
  5
4BE
330
7D
100
AcDbEntity
  8
Hawa6
 62
     3
 48
0.025
100
AcDbLine
 10
-0.1
 20
-2355.939697
 30
0.0
 11
0.9
 21
-2355.939697
 31
0.0
  0
LINE
  5
4BF
330
7D
100
AcDbEntity
  8
Hawa6
 62
     3
 48
0.025
100
AcDbLine
 10
13.1
 20
-2355.939697
 30
0.0
 11
14.1
 21
-2355.939697
 31
0.0
  0
LINE
  5
4C0
330
7D
100
AcDbEntity
  8
Hawa6
 62
     3
 48
0.0125
100
AcDbLine
 10
12.6
 20
-2355.939697
 30
0.0
 11
13.1
 21
-2355.939697
 31
0.0
  0
LINE
  5
4C1
330
7D
100
AcDbEntity
  8
Hawa6
 62
     3
 48
0.025
100
AcDbLine
 10
11.6
 20
-2355.939697
 30
0.0
 11
12.6
 21
-2355.939697
 31
0.0
  0
LINE
  5
4C2
330
7D
100
AcDbEntity
  8
Hawa6
 62
     3
 48
0.0525
100
AcDbLine
 10
9.5
 20
-2355.939697
 30
0.0
 11
11.6
 21
-2355.939697
 31
0.0
  0
LINE
  5
4C3
330
7D
100
AcDbEntity
  8
Hawa6
 62
     3
 48
0.025
100
AcDbLine
 10
8.5
 20
-2355.939697
 30
0.0
 11
9.5
 21
-2355.939697
 31
0.0
  0
LINE
  5
4C4
330
7D
100
AcDbEntity
  8
Hawa6
 62
     3
 48
0.0375
100
AcDbLine
 10
7.0
 20
-2355.939697
 30
0.0
 11
8.5
 21
-2355.939697
 31
0.0
  0
LINE
  5
4C5
330
7D
100
AcDbEntity
  8
Hawa6
 62
     3
 48
0.048301
100
AcDbLine
 10
13.6
 20
-2370.939697
 30
0.0
 11
14.1
 21
-2369.073486
 31
0.0
  0
LINE
  5
4C6
330
7D
100
AcDbEntity
  8
Hawa6
 62
     3
 48
0.375
100
AcDbLine
 10
13.1
 20
-2355.939697
 30
0.0
 11
13.1
 21
-2370.939697
 31
0.0
  0
LINE
  5
4C7
330
7D
100
AcDbEntity
  8
Hawa6
 62
     3
 48
0.375
100
AcDbLine
 10
12.6
 20
-2355.939697
 30
0.0
 11
12.6
 21
-2370.939697
 31
0.0
  0
LINE
  5
4C8
330
7D
100
AcDbEntity
  8
Hawa6
 62
     3
 48
0.375
100
AcDbLine
 10
11.6
 20
-2355.939697
 30
0.0
 11
11.6
 21
-2370.939697
 31
0.0
  0
LINE
  5
4C9
330
7D
100
AcDbEntity
  8
Hawa6
 62
     3
 48
0.375
100
AcDbLine
 10
9.5
 20
-2355.939697
 30
0.0
 11
9.5
 21
-2370.939697
 31
0.0
  0
LINE
  5
4CA
330
7D
100
AcDbEntity
  8
Hawa6
 62
     3
 48
0.375
100
AcDbLine
 10
8.5
 20
-2355.939697
 30
0.0
 11
8.5
 21
-2370.939697
 31
0.0
  0
LINE
  5
4CB
330
7D
100
AcDbEntity
  8
Hawa6
 62
     3
 48
0.375
100
AcDbLine
 10
5.5
 20
-2355.939697
 30
0.0
 11
5.5
 21
-2370.939697
 31
0.0
  0
LINE
  5
4CC
330
7D
100
AcDbEntity
  8
Hawa6
 62
     3
 48
0.375
100
AcDbLine
 10
4.5
 20
-2355.939697
 30
0.0
 11
4.5
 21
-2370.939697
 31
0.0
  0
LINE
  5
4CD
330
7D
100
AcDbEntity
  8
Hawa6
 62
     3
 48
0.375
100
AcDbLine
 10
2.399999999999999
 20
-2355.939697
 30
0.0
 11
2.399999999999999
 21
-2370.939697
 31
0.0
  0
LINE
  5
4CE
330
7D
100
AcDbEntity
  8
Hawa6
 62
     3
 48
0.375
100
AcDbLine
 10
1.399999999999999
 20
-2355.939697
 30
0.0
 11
1.399999999999999
 21
-2370.939697
 31
0.0
  0
LINE
  5
4CF
330
7D
100
AcDbEntity
  8
Hawa6
 62
     3
 48
0.375
100
AcDbLine
 10
0.9
 20
-2355.939697
 30
0.0
 11
0.9
 21
-2370.939697
 31
0.0
  0
LINE
  5
4D0
330
7D
100
AcDbEntity
  8
Hawa6
 62
     3
 48
0.048301
100
AcDbLine
 10
0.4
 20
-2370.939697
 30
0.0
 11
-0.1
 21
-2369.073486
 31
0.0
  0
LINE
  5
4D1
330
7D
100
AcDbEntity
  8
Hawa6
 62
     3
 48
0.097089
100
AcDbLine
 10
14.1
 20
-2355.939697
 30
0.0
 11
14.1
 21
-2359.823242
 31
0.0
  0
LINE
  5
4D2
330
7D
100
AcDbEntity
  8
Hawa4
 62
     4
 48
0.070001
100
AcDbLine
 10
14.1
 20
-2365.259277
 30
0.0
 11
14.1
 21
-2368.059326
 31
0.0
  0
LINE
  5
4D3
330
7D
100
AcDbEntity
  8
Hawa6
 62
     3
 48
0.328345
100
AcDbLine
 10
14.1
 20
-2355.939697
 30
0.0
 11
14.1
 21
-2369.073486
 31
0.0
  0
LINE
  5
4D4
330
7D
100
AcDbEntity
  8
Hawa6
 62
     3
 48
0.328345
100
AcDbLine
 10
-0.1
 20
-2355.939697
 30
0.0
 11
-0.1
 21
-2369.073486
 31
0.0
  0
LINE
  5
4D5
330
7D
100
AcDbEntity
  8
Hawa6
 62
     3
 48
0.012506
100
AcDbLine
 10
10.975
 20
-2355.439697
 30
0.0
 11
10.975
 21
-2355.939941
 31
0.0
  0
LINE
  5
4D7
330
7D
100
AcDbEntity
  8
Hawa6
 62
     3
 48
0.042621
100
AcDbLine
 10
12.0
 20
-2348.259766
 30
0.0
 11
12.0
 21
-2349.9646
 31
0.0
  0
LINE
  5
4D8
330
7D
100
AcDbEntity
  8
Hawa6
 62
     3
 48
0.097083
100
AcDbLine
 10
14.1
 20
-2355.939697
 30
0.0
 11
14.1
 21
-2359.822998
 31
0.0
  0
LINE
  5
4D9
330
7D
100
AcDbEntity
  8
Hawa4
 62
     4
 48
0.069995
100
AcDbLine
 10
14.1
 20
-2365.259766
 30
0.0
 11
14.1
 21
-2368.05957
 31
0.0
  0
LINE
  5
4DB
330
7D
100
AcDbEntity
  8
Hawa6
 62
     3
 48
0.070001
100
AcDbLine
 10
14.1
 20
-2365.259521
 30
0.0
 11
14.1
 21
-2368.05957
 31
0.0
  0
LINE
  5
4DC
330
7D
100
AcDbEntity
  8
Hawa4
 62
     4
 48
0.005
100
AcDbLine
 10
-3.5
 20
-2373.959229
 30
0.0
 11
-3.7
 21
-2373.959229
 31
0.0
  0
ARC
  5
4DD
330
7D
100
AcDbEntity
  8
Hawa4
 62
     4
100
AcDbCircle
 10
-3.5
 20
-2372.959229
 30
0.0
 40
1.0
100
AcDbArc
 50
270.000001
 51
0.00001
  0
LINE
  5
4DE
330
7D
100
AcDbEntity
  8
Hawa4
 62
     4
 48
0.022498
100
AcDbLine
 10
-2.5
 20
-2372.959229
 30
0.0
 11
-2.5
 21
-2372.059326
 31
0.0
  0
ARC
  5
4DF
330
7D
100
AcDbEntity
  8
Hawa4
 62
     4
100
AcDbCircle
 10
-3.5
 20
-2372.059326
 30
0.0
 40
1.0
100
AcDbArc
 50
0.0
 51
90.00000300000001
  0
LINE
  5
4E0
330
7D
100
AcDbEntity
  8
Hawa4
 62
     4
 48
0.005
100
AcDbLine
 10
-3.7
 20
-2371.059326
 30
0.0
 11
-3.5
 21
-2371.059326
 31
0.0
  0
ARC
  5
4E1
330
7D
100
AcDbEntity
  8
Hawa4
 62
     4
100
AcDbCircle
 10
-3.7
 20
-2370.059326
 30
0.0
 40
1.0
100
AcDbArc
 50
180.000005
 51
270.000001
  0
LINE
  5
4E2
330
7D
100
AcDbEntity
  8
Hawa4
 62
     4
 48
0.170001
100
AcDbLine
 10
-4.7
 20
-2370.059326
 30
0.0
 11
-4.7
 21
-2363.259277
 31
0.0
  0
ARC
  5
4E3
330
7D
100
AcDbEntity
  8
Hawa4
 62
     4
100
AcDbCircle
 10
-3.7
 20
-2363.259277
 30
0.0
 40
1.0
100
AcDbArc
 50
90.00000300000001
 51
180.000005
  0
LINE
  5
4E4
330
7D
100
AcDbEntity
  8
Hawa4
 62
     4
 48
0.005
100
AcDbLine
 10
-3.5
 20
-2362.259277
 30
0.0
 11
-3.7
 21
-2362.259277
 31
0.0
  0
ARC
  5
4E5
330
7D
100
AcDbEntity
  8
Hawa4
 62
     4
100
AcDbCircle
 10
-3.5
 20
-2361.259277
 30
0.0
 40
1.0
100
AcDbArc
 50
270.000001
 51
0.00001
  0
LINE
  5
4E6
330
7D
100
AcDbEntity
  8
Hawa4
 62
     4
 48
0.05
100
AcDbLine
 10
-2.5
 20
-2361.259277
 30
0.0
 11
-2.5
 21
-2359.259277
 31
0.0
  0
LINE
  5
4E7
330
7D
100
AcDbEntity
  8
Hawa4
 62
     4
 48
0.0375
100
AcDbLine
 10
-1.0
 20
-2359.259277
 30
0.0
 11
-2.5
 21
-2359.259277
 31
0.0
  0
ARC
  5
4E8
330
7D
100
AcDbEntity
  8
Hawa4
 62
     4
100
AcDbCircle
 10
-1.0
 20
-2360.259277
 30
0.0
 40
1.0
100
AcDbArc
 50
25.843409
 51
90.00000300000001
  0
LINE
  5
4E9
330
7D
100
AcDbEntity
  8
Hawa4
 62
     4
 48
0.0525
100
AcDbLine
 10
-2.2
 20
-2365.259277
 30
0.0
 11
-0.100011
 21
-2365.259277
 31
0.0
  0
LINE
  5
4EA
330
7D
100
AcDbEntity
  8
Hawa4
 62
     4
 48
0.070001
100
AcDbLine
 10
-2.2
 20
-2365.259277
 30
0.0
 11
-2.2
 21
-2368.059326
 31
0.0
  0
LINE
  5
4EB
330
7D
100
AcDbEntity
  8
Hawa4
 62
     4
 48
0.0525
100
AcDbLine
 10
-0.100011
 20
-2368.059326
 30
0.0
 11
-2.2
 21
-2368.059326
 31
0.0
  0
LINE
  5
4EC
330
7D
100
AcDbEntity
  8
Hawa4
 62
     4
 48
0.187811
100
AcDbLine
 10
0.0
 20
-2369.446777
 30
0.0
 11
0.0
 21
-2376.959229
 31
0.0
  0
LINE
  5
4ED
330
7D
100
AcDbEntity
  8
Hawa4
 62
     4
 48
0.055
100
AcDbLine
 10
-2.2
 20
-2376.959229
 30
0.0
 11
0.0
 21
-2376.959229
 31
0.0
  0
LINE
  5
4EE
330
7D
100
AcDbEntity
  8
Hawa4
 62
     4
 48
0.070001
100
AcDbLine
 10
-2.2
 20
-2376.959229
 30
0.0
 11
-2.2
 21
-2379.759277
 31
0.0
  0
LINE
  5
4EF
330
7D
100
AcDbEntity
  8
Hawa4
 62
     4
 48
0.055
100
AcDbLine
 10
0.0
 20
-2379.759277
 30
0.0
 11
-2.2
 21
-2379.759277
 31
0.0
  0
LINE
  5
4F0
330
7D
100
AcDbEntity
  8
Hawa4
 62
     4
 48
0.002496
100
AcDbLine
 10
0.0
 20
-2379.759277
 30
0.0
 11
0.0
 21
-2379.859131
 31
0.0
  0
ARC
  5
4F1
330
7D
100
AcDbEntity
  8
Hawa4
 62
     4
100
AcDbCircle
 10
0.4
 20
-2379.859131
 30
0.0
 40
0.4
100
AcDbArc
 50
180.000005
 51
270.000001
  0
LINE
  5
4F2
330
7D
100
AcDbEntity
  8
Hawa4
 62
     4
 48
0.1575
100
AcDbLine
 10
6.7
 20
-2380.259277
 30
0.0
 11
0.4
 21
-2380.259277
 31
0.0
  0
LINE
  5
4F3
330
7D
100
AcDbEntity
  8
Hawa4
 62
     4
 48
0.010607
100
AcDbLine
 10
6.7
 20
-2380.259277
 30
0.0
 11
7.0
 21
-2380.559326
 31
0.0
  0
LINE
  5
4F4
330
7D
100
AcDbEntity
  8
Hawa4
 62
     4
 48
0.010607
100
AcDbLine
 10
7.299999999999999
 20
-2380.259277
 30
0.0
 11
7.0
 21
-2380.559326
 31
0.0
  0
LINE
  5
4F5
330
7D
100
AcDbEntity
  8
Hawa4
 62
     4
 48
0.1575
100
AcDbLine
 10
13.6
 20
-2380.259277
 30
0.0
 11
7.299999999999999
 21
-2380.259277
 31
0.0
  0
ARC
  5
4F6
330
7D
100
AcDbEntity
  8
Hawa4
 62
     4
100
AcDbCircle
 10
13.6
 20
-2379.859131
 30
0.0
 40
0.4
100
AcDbArc
 50
270.000001
 51
0.00001
  0
LINE
  5
4F7
330
7D
100
AcDbEntity
  8
Hawa4
 62
     4
 48
0.002496
100
AcDbLine
 10
14.0
 20
-2379.759277
 30
0.0
 11
14.0
 21
-2379.859131
 31
0.0
  0
LINE
  5
4F8
330
7D
100
AcDbEntity
  8
Hawa4
 62
     4
 48
0.055
100
AcDbLine
 10
16.200001
 20
-2379.759277
 30
0.0
 11
14.0
 21
-2379.759277
 31
0.0
  0
LINE
  5
4F9
330
7D
100
AcDbEntity
  8
Hawa4
 62
     4
 48
0.070001
100
AcDbLine
 10
16.200001
 20
-2376.959229
 30
0.0
 11
16.200001
 21
-2379.759277
 31
0.0
  0
LINE
  5
4FA
330
7D
100
AcDbEntity
  8
Hawa4
 62
     4
 48
0.055
100
AcDbLine
 10
14.0
 20
-2376.959229
 30
0.0
 11
16.200001
 21
-2376.959229
 31
0.0
  0
LINE
  5
4FB
330
7D
100
AcDbEntity
  8
Hawa4
 62
     4
 48
0.187811
100
AcDbLine
 10
14.0
 20
-2369.446777
 30
0.0
 11
14.0
 21
-2376.959229
 31
0.0
  0
LINE
  5
4FC
330
7D
100
AcDbEntity
  8
Hawa4
 62
     4
 48
0.0525
100
AcDbLine
 10
16.200001
 20
-2368.059326
 30
0.0
 11
14.099989
 21
-2368.059326
 31
0.0
  0
LINE
  5
4FD
330
7D
100
AcDbEntity
  8
Hawa4
 62
     4
 48
0.070001
100
AcDbLine
 10
16.200001
 20
-2365.259277
 30
0.0
 11
16.200001
 21
-2368.059326
 31
0.0
  0
LINE
  5
4FE
330
7D
100
AcDbEntity
  8
Hawa4
 62
     4
 48
0.0525
100
AcDbLine
 10
14.099989
 20
-2365.259277
 30
0.0
 11
16.200001
 21
-2365.259277
 31
0.0
  0
ARC
  5
4FF
330
7D
100
AcDbEntity
  8
Hawa4
 62
     4
100
AcDbCircle
 10
15.0
 20
-2360.259277
 30
0.0
 40
1.0
100
AcDbArc
 50
90.00000300000001
 51
154.159542
  0
LINE
  5
500
330
7D
100
AcDbEntity
  8
Hawa4
 62
     4
 48
0.0375
100
AcDbLine
 10
16.5
 20
-2359.259277
 30
0.0
 11
15.0
 21
-2359.259277
 31
0.0
  0
LINE
  5
501
330
7D
100
AcDbEntity
  8
Hawa4
 62
     4
 48
0.05
100
AcDbLine
 10
16.5
 20
-2361.259277
 30
0.0
 11
16.5
 21
-2359.259277
 31
0.0
  0
ARC
  5
502
330
7D
100
AcDbEntity
  8
Hawa4
 62
     4
100
AcDbCircle
 10
17.5
 20
-2361.259277
 30
0.0
 40
1.0
100
AcDbArc
 50
180.000005
 51
270.000001
  0
LINE
  5
503
330
7D
100
AcDbEntity
  8
Hawa4
 62
     4
 48
0.005
100
AcDbLine
 10
17.700001
 20
-2362.259277
 30
0.0
 11
17.5
 21
-2362.259277
 31
0.0
  0
ARC
  5
504
330
7D
100
AcDbEntity
  8
Hawa4
 62
     4
100
AcDbCircle
 10
17.700001
 20
-2363.259277
 30
0.0
 40
1.0
100
AcDbArc
 50
0.0
 51
90.00000300000001
  0
LINE
  5
505
330
7D
100
AcDbEntity
  8
Hawa4
 62
     4
 48
0.170001
100
AcDbLine
 10
18.700001
 20
-2370.059326
 30
0.0
 11
18.700001
 21
-2363.259277
 31
0.0
  0
ARC
  5
506
330
7D
100
AcDbEntity
  8
Hawa4
 62
     4
100
AcDbCircle
 10
17.700001
 20
-2370.059326
 30
0.0
 40
1.0
100
AcDbArc
 50
270.000001
 51
0.00001
  0
LINE
  5
507
330
7D
100
AcDbEntity
  8
Hawa4
 62
     4
 48
0.005
100
AcDbLine
 10
17.5
 20
-2371.059326
 30
0.0
 11
17.700001
 21
-2371.059326
 31
0.0
  0
ARC
  5
508
330
7D
100
AcDbEntity
  8
Hawa4
 62
     4
100
AcDbCircle
 10
17.5
 20
-2372.059326
 30
0.0
 40
1.0
100
AcDbArc
 50
90.00000300000001
 51
180.000005
  0
LINE
  5
509
330
7D
100
AcDbEntity
  8
Hawa4
 62
     4
 48
0.022498
100
AcDbLine
 10
16.5
 20
-2372.959229
 30
0.0
 11
16.5
 21
-2372.059326
 31
0.0
  0
ARC
  5
50A
330
7D
100
AcDbEntity
  8
Hawa4
 62
     4
100
AcDbCircle
 10
17.5
 20
-2372.959229
 30
0.0
 40
1.0
100
AcDbArc
 50
180.000005
 51
270.000001
  0
LINE
  5
50B
330
7D
100
AcDbEntity
  8
Hawa4
 62
     4
 48
0.005
100
AcDbLine
 10
17.700001
 20
-2373.959229
 30
0.0
 11
17.5
 21
-2373.959229
 31
0.0
  0
ARC
  5
50C
330
7D
100
AcDbEntity
  8
Hawa4
 62
     4
100
AcDbCircle
 10
17.700001
 20
-2374.959229
 30
0.0
 40
1.0
100
AcDbArc
 50
0.0
 51
90.00000300000001
  0
LINE
  5
50D
330
7D
100
AcDbEntity
  8
Hawa4
 62
     4
 48
0.207501
100
AcDbLine
 10
18.700001
 20
-2383.259277
 30
0.0
 11
18.700001
 21
-2374.959229
 31
0.0
  0
LINE
  5
50E
330
7D
100
AcDbEntity
  8
Hawa4
 62
     4
100
AcDbLine
 10
-4.7
 20
-2383.259277
 30
0.0
 11
18.700001
 21
-2383.259277
 31
0.0
  0
LINE
  5
50F
330
7D
100
AcDbEntity
  8
Hawa4
 62
     4
 48
0.207501
100
AcDbLine
 10
-4.7
 20
-2383.259277
 30
0.0
 11
-4.7
 21
-2374.959229
 31
0.0
  0
ARC
  5
510
330
7D
100
AcDbEntity
  8
Hawa4
 62
     4
100
AcDbCircle
 10
-3.7
 20
-2374.959229
 30
0.0
 40
1.0
100
AcDbArc
 50
90.00000300000001
 51
180.000005
  0
LINE
  5
511
330
7D
100
AcDbEntity
  8
Hawa5
 62
     1
100
AcDbLine
 10
-33.0
 20
-2359.259277
 30
0.0
 11
-4.7
 21
-2359.259277
 31
0.0
  0
LINE
  5
512
330
7D
100
AcDbEntity
  8
Hawa5
 62
     1
100
AcDbLine
 10
-4.7
 20
-2359.259277
 30
0.0
 11
-4.7
 21
-2383.259277
 31
0.0
  0
LINE
  5
513
330
7D
100
AcDbEntity
  8
Hawa5
 62
     1
100
AcDbLine
 10
-4.7
 20
-2383.259277
 30
0.0
 11
18.700001
 21
-2383.259277
 31
0.0
  0
LINE
  5
514
330
7D
100
AcDbEntity
  8
Hawa5
 62
     1
100
AcDbLine
 10
18.700001
 20
-2383.259277
 30
0.0
 11
18.700001
 21
-2359.259277
 31
0.0
  0
LINE
  5
515
330
7D
100
AcDbEntity
  8
Hawa5
 62
     1
100
AcDbLine
 10
18.700001
 20
-2359.259277
 30
0.0
 11
47.0
 21
-2359.259277
 31
0.0
  0
LINE
  5
516
330
7D
100
AcDbEntity
  8
Hawa6
 62
     3
100
AcDbLine
 10
12.0
 20
-2294.259277
 30
0.0
 11
12.0
 21
-2348.259277
 31
0.0
  0
LINE
  5
517
330
7D
100
AcDbEntity
  8
Hawa6
 62
     3
 48
0.0425
100
AcDbLine
 10
13.7
 20
-2294.259277
 30
0.0
 11
12.0
 21
-2294.259277
 31
0.0
  0
LINE
  5
518
330
7D
100
AcDbEntity
  8
Hawa6
 62
     3
100
AcDbLine
 10
13.7
 20
-2294.259277
 30
0.0
 11
13.7
 21
-2348.259277
 31
0.0
  0
LINE
  5
519
330
7D
100
AcDbEntity
  8
Hawa6
 62
     3
 48
0.0425
100
AcDbLine
 10
13.7
 20
-2348.259277
 30
0.0
 11
12.0
 21
-2348.259277
 31
0.0
  0
LINE
  5
51A
330
7D
100
AcDbEntity
  8
Hawa6
 62
     3
 48
0.035238
100
AcDbLine
 10
15.109539
 20
-2294.259277
 30
0.0
 11
13.7
 21
-2294.259277
 31
0.0
  0
LINE
  5
51B
330
7D
100
AcDbEntity
  8
Hawa6
 62
     3
100
AcDbLine
 10
15.109539
 20
-2294.259277
 30
0.0
 11
15.109539
 21
-2348.259277
 31
0.0
  0
LINE
  5
51C
330
7D
100
AcDbEntity
  8
Hawa6
 62
     3
 48
0.035238
100
AcDbLine
 10
15.109539
 20
-2348.259277
 30
0.0
 11
13.7
 21
-2348.259277
 31
0.0
  0
LINE
  5
51D
330
7D
100
AcDbEntity
  8
Hawa6
 62
     3
 48
0.0602
100
AcDbLine
 10
17.517542
 20
-2294.259277
 30
0.0
 11
15.109539
 21
-2294.259277
 31
0.0
  0
LINE
  5
51E
330
7D
100
AcDbEntity
  8
Hawa6
 62
     3
100
AcDbLine
 10
17.517542
 20
-2294.259277
 30
0.0
 11
17.517542
 21
-2348.259277
 31
0.0
  0
LINE
  5
51F
330
7D
100
AcDbEntity
  8
Hawa6
 62
     3
 48
0.0602
100
AcDbLine
 10
17.517542
 20
-2348.259277
 30
0.0
 11
15.109539
 21
-2348.259277
 31
0.0
  0
LINE
  5
520
330
7D
100
AcDbEntity
  8
Hawa6
 62
     3
 48
0.012061
100
AcDbLine
 10
18.0
 20
-2294.259277
 30
0.0
 11
17.517542
 21
-2294.259277
 31
0.0
  0
LINE
  5
521
330
7D
100
AcDbEntity
  8
Hawa6
 62
     3
100
AcDbLine
 10
18.0
 20
-2294.259277
 30
0.0
 11
18.0
 21
-2348.259277
 31
0.0
  0
LINE
  5
522
330
7D
100
AcDbEntity
  8
Hawa6
 62
     3
 48
0.012061
100
AcDbLine
 10
18.0
 20
-2348.259277
 30
0.0
 11
17.517542
 21
-2348.259277
 31
0.0
  0
LINE
  5
523
330
7D
100
AcDbEntity
  8
Hawa6
 62
     3
100
AcDbLine
 10
12.0
 20
-2257.259277
 30
0.0
 11
12.0
 21
-2294.259277
 31
0.0
  0
LINE
  5
524
330
7D
100
AcDbEntity
  8
Hawa6
 62
     3
100
AcDbLine
 10
13.7
 20
-2257.259277
 30
0.0
 11
13.7
 21
-2294.259277
 31
0.0
  0
LINE
  5
525
330
7D
100
AcDbEntity
  8
Hawa6
 62
     3
 48
0.0425
100
AcDbLine
 10
13.7
 20
-2257.259277
 30
0.0
 11
12.0
 21
-2257.259277
 31
0.0
  0
LINE
  5
526
330
7D
100
AcDbEntity
  8
Hawa6
 62
     3
100
AcDbLine
 10
17.517542
 20
-2264.862061
 30
0.0
 11
17.517542
 21
-2294.259277
 31
0.0
  0
LINE
  5
527
330
7D
100
AcDbEntity
  8
Hawa6
 62
     3
100
AcDbLine
 10
18.0
 20
-2267.598389
 30
0.0
 11
18.0
 21
-2294.259277
 31
0.0
  0
LINE
  5
528
330
7D
100
AcDbEntity
  8
Hawa6
 62
     3
100
AcDbLine
 10
15.109539
 20
-2258.246094
 30
0.0
 11
15.109539
 21
-2294.259277
 31
0.0
  0
ARC
  5
529
330
7D
100
AcDbEntity
  8
Hawa6
 62
     3
100
AcDbCircle
 10
10.0
 20
-2267.598389
 30
0.0
 40
8.0
100
AcDbArc
 50
360.0
 51
19.999999
  0
LINE
  5
52A
330
7D
100
AcDbEntity
  8
Hawa6
 62
     3
 48
0.176014
100
AcDbLine
 10
17.517542
 20
-2264.862061
 30
0.0
 11
15.109539
 21
-2258.246094
 31
0.0
  0
ARC
  5
52B
330
7D
100
AcDbEntity
  8
Hawa6
 62
     3
100
AcDbCircle
 10
13.7
 20
-2258.759277
 30
0.0
 40
1.5
100
AcDbArc
 50
19.999999
 51
90.00000300000001
  0
LINE
  5
52C
330
7D
100
AcDbEntity
  8
Hawa6
 62
     3
 48
0.0425
100
AcDbLine
 10
-1.7
 20
-2257.259277
 30
0.0
 11
0.0
 21
-2257.259277
 31
0.0
  0
LINE
  5
52D
330
7D
100
AcDbEntity
  8
Hawa6
 62
     3
100
AcDbLine
 10
-1.7
 20
-2257.259277
 30
0.0
 11
-1.7
 21
-2294.259277
 31
0.0
  0
LINE
  5
52E
330
7D
100
AcDbEntity
  8
Hawa6
 62
     3
 48
0.0425
100
AcDbLine
 10
-1.7
 20
-2294.259277
 30
0.0
 11
0.0
 21
-2294.259277
 31
0.0
  0
LINE
  5
52F
330
7D
100
AcDbEntity
  8
Hawa6
 62
     3
100
AcDbLine
 10
0.0
 20
-2294.259277
 30
0.0
 11
0.0
 21
-2257.259277
 31
0.0
  0
LINE
  5
530
330
7D
100
AcDbEntity
  8
Hawa6
 62
     3
 48
0.0425
100
AcDbLine
 10
-1.7
 20
-2348.259277
 30
0.0
 11
0.0
 21
-2348.259277
 31
0.0
  0
LINE
  5
531
330
7D
100
AcDbEntity
  8
Hawa6
 62
     3
100
AcDbLine
 10
-1.7
 20
-2294.259277
 30
0.0
 11
-1.7
 21
-2348.259277
 31
0.0
  0
LINE
  5
532
330
7D
100
AcDbEntity
  8
Hawa6
 62
     3
100
AcDbLine
 10
0.0
 20
-2294.259277
 30
0.0
 11
0.0
 21
-2348.259277
 31
0.0
  0
LINE
  5
533
330
7D
100
AcDbEntity
  8
Hawa6
 62
     3
 48
0.035238
100
AcDbLine
 10
-1.7
 20
-2348.259277
 30
0.0
 11
-3.109538999999999
 21
-2348.259277
 31
0.0
  0
LINE
  5
534
330
7D
100
AcDbEntity
  8
Hawa6
 62
     3
100
AcDbLine
 10
-3.109538999999999
 20
-2294.259277
 30
0.0
 11
-3.109538999999999
 21
-2348.259277
 31
0.0
  0
LINE
  5
535
330
7D
100
AcDbEntity
  8
Hawa6
 62
     3
 48
0.035238
100
AcDbLine
 10
-3.109538999999999
 20
-2294.259277
 30
0.0
 11
-1.7
 21
-2294.259277
 31
0.0
  0
LINE
  5
536
330
7D
100
AcDbEntity
  8
Hawa6
 62
     3
 48
0.0602
100
AcDbLine
 10
-5.517541
 20
-2348.259277
 30
0.0
 11
-3.109538999999999
 21
-2348.259277
 31
0.0
  0
LINE
  5
537
330
7D
100
AcDbEntity
  8
Hawa6
 62
     3
100
AcDbLine
 10
-5.517541
 20
-2294.259277
 30
0.0
 11
-5.517541
 21
-2348.259277
 31
0.0
  0
LINE
  5
538
330
7D
100
AcDbEntity
  8
Hawa6
 62
     3
 48
0.0602
100
AcDbLine
 10
-5.517541
 20
-2294.259277
 30
0.0
 11
-3.109538999999999
 21
-2294.259277
 31
0.0
  0
LINE
  5
539
330
7D
100
AcDbEntity
  8
Hawa6
 62
     3
 48
0.012061
100
AcDbLine
 10
-5.517541
 20
-2348.259277
 30
0.0
 11
-6.0
 21
-2348.259277
 31
0.0
  0
LINE
  5
53A
330
7D
100
AcDbEntity
  8
Hawa6
 62
     3
100
AcDbLine
 10
-6.0
 20
-2294.259277
 30
0.0
 11
-6.0
 21
-2348.259277
 31
0.0
  0
LINE
  5
53B
330
7D
100
AcDbEntity
  8
Hawa6
 62
     3
 48
0.012061
100
AcDbLine
 10
-6.0
 20
-2294.259277
 30
0.0
 11
-5.517541
 21
-2294.259277
 31
0.0
  0
LINE
  5
53C
330
7D
100
AcDbEntity
  8
Hawa6
 62
     3
100
AcDbLine
 10
-6.0
 20
-2267.598389
 30
0.0
 11
-6.0
 21
-2294.259277
 31
0.0
  0
LINE
  5
53D
330
7D
100
AcDbEntity
  8
Hawa6
 62
     3
100
AcDbLine
 10
-5.517541
 20
-2264.862061
 30
0.0
 11
-5.517541
 21
-2294.259277
 31
0.0
  0
LINE
  5
53E
330
7D
100
AcDbEntity
  8
Hawa6
 62
     3
100
AcDbLine
 10
-3.109538999999999
 20
-2258.246094
 30
0.0
 11
-3.109538999999999
 21
-2294.259277
 31
0.0
  0
ARC
  5
53F
330
7D
100
AcDbEntity
  8
Hawa6
 62
     3
100
AcDbCircle
 10
2.0
 20
-2267.598389
 30
0.0
 40
8.0
100
AcDbArc
 50
159.999996
 51
180.000005
  0
LINE
  5
540
330
7D
100
AcDbEntity
  8
Hawa6
 62
     3
 48
0.176014
100
AcDbLine
 10
-5.517541
 20
-2264.862061
 30
0.0
 11
-3.109538999999999
 21
-2258.246094
 31
0.0
  0
ARC
  5
541
330
7D
100
AcDbEntity
  8
Hawa6
 62
     3
100
AcDbCircle
 10
-1.7
 20
-2258.759277
 30
0.0
 40
1.5
100
AcDbArc
 50
90.00000300000001
 51
159.999996
  0
ENDBLK
  5
542
330
7D
100
AcDbEntity
  8
HAWA1
100
AcDbBlockEnd
  0
BLOCK
  5
70D
330
70C
100
AcDbEntity
  8
0
100
AcDbBlockBegin
  2
_Oblique
 70
     0
 10
0.0
 20
0.0
 30
0.0
  3
_Oblique
  1

  0
LINE
  5
70E
330
70C
100
AcDbEntity
  8
0
 62
     0
370
    -2
100
AcDbLine
 10
-0.5
 20
-0.5
 30
0.0
 11
0.5
 21
0.5
 31
0.0
  0
ENDBLK
  5
70F
330
70C
100
AcDbEntity
  8
0
100
AcDbBlockEnd
  0
BLOCK
  5
721
330
720
100
AcDbEntity
  8
0
100
AcDbBlockBegin
  2
HAWA
 70
     0
 10
0.0
 20
0.0
 30
0.0
  3
HAWA
  1

  0
ENDBLK
  5
722
330
720
100
AcDbEntity
  8
0
100
AcDbBlockEnd
  0
ENDSEC
  0
SECTION
  2
ENTITIES
  0
DIMENSION
  5
26
330
A
100
AcDbEntity
  8
HAWA1
 62
     0
100
AcDbDimension
  2
*D0
 10
121.6858712620552
 20
106.7538848901537
 30
0.0
 11
117.2407494833978
 21
116.1015565989043
 31
0.0
 70
    32
 71
     5
 42
9.999919141123854
 52
89.999523
  3
HAWA-Strich
100
AcDbAlignedDimension
 13
111.685978
 23
96.754049
 33
0.0
 14
101.973499
 24
106.754049
 34
0.0
 50
89.999523
100
AcDbRotatedDimension
  0
DIMENSION
  5
28
330
A
100
AcDbEntity
  8
HAWA1
 62
     0
100
AcDbDimension
  2
*D1
 10
121.6860779019532
 20
96.75396574696296
 30
0.0
 11
117.2424768998004
 21
84.75399436375552
 31
0.0
 70
    32
 71
     5
 42
24.00001675349979
 52
89.999523
  3
HAWA-Strich
100
AcDbAlignedDimension
 13
109.673499
 23
72.75404899999999
 33
0.0
 14
111.685978
 24
96.754049
 34
0.0
 50
89.999523
100
AcDbRotatedDimension
  0
DIMENSION
  5
2A
330
A
100
AcDbEntity
  8
HAWA1
 62
     0
100
AcDbDimension
  2
*D2
 10
109.673499
 20
61.91056500000001
 30
0.0
 11
97.973499
 21
64.66772734652114
 31
0.0
 70
    33
  1
24
 71
     5
 42
23.39999999999999
 52
89.999523
  3
HAWA-Strich
100
AcDbAlignedDimension
 13
86.273499
 23
72.75404899999999
 33
0.0
 14
109.673499
 24
72.75404899999999
 34
0.0
  0
DIMENSION
  5
2C
330
A
100
AcDbEntity
  8
HAWA1
 62
     0
100
AcDbDimension
  2
*D3
 10
90.97349900000001
 20
221.25705
 30
0.0
 11
112.3211337018076
 21
221.25705
 31
0.0
 70
   161
 71
     5
 42
12.0
 52
89.999523
  3
HAWA-Strich
100
AcDbAlignedDimension
 13
102.973499
 23
231.25705
 33
0.0
 14
90.97349900000001
 24
231.25705
 34
0.0
  0
DIMENSION
  5
2E
330
A
100
AcDbEntity
  8
HAWA1
 62
     0
100
AcDbDimension
  2
*D4
 10
102.973499
 20
221.25705
 30
0.0
 11
121.7952109194666
 21
221.25705
 31
0.0
 70
   161
  1
(8
 71
     5
 42
12.0
 52
89.999523
  3
HAWA-Strich
100
AcDbAlignedDimension
 13
90.97349900000001
 23
231.25705
 33
0.0
 14
102.973499
 24
231.25705
 34
0.0
  0
DIMENSION
  5
30
330
A
100
AcDbEntity
  8
HAWA1
 62
     0
100
AcDbDimension
  2
*D5
 10
102.973499
 20
221.25705
 30
0.0
 11
129.780180466745
 21
221.25705
 31
0.0
 70
   161
  1
-12,7
 71
     5
 42
12.0
 52
89.999523
  3
HAWA-Strich
100
AcDbAlignedDimension
 13
90.97349900000001
 23
231.25705
 33
0.0
 14
102.973499
 24
231.25705
 34
0.0
  0
LINE
  5
31
330
A
100
AcDbEntity
  8
Hawa6
  6
DASHDOT
 62
     3
 48
0.1755
100
AcDbLine
 10
96.33849900000001
 20
178.254012
 30
0.0
 11
103.358499
 21
178.254012
 31
0.0
  0
LINE
  5
32
330
A
100
AcDbEntity
  8
Hawa6
  6
DASHDOT
 62
     3
 48
0.15
100
AcDbLine
 10
93.67349899999998
 20
132.873641
 30
0.0
 11
99.673499
 21
132.873641
 31
0.0
  0
LINE
  5
33
330
A
100
AcDbEntity
  8
Hawa6
  6
DASHDOT
 62
     3
 48
0.003
100
AcDbLine
 10
90.96347800000001
 20
178.573592
 30
0.0
 11
91.08349799999999
 21
178.573592
 31
0.0
  0
LINE
  5
34
330
A
100
AcDbEntity
  8
Hawa6
  6
DASHDOT
 62
     3
 48
0.015015
100
AcDbLine
 10
94.223549
 20
130.573592
 30
0.0
 11
93.622949
 21
130.573592
 31
0.0
  0
LINE
  5
35
330
A
100
AcDbEntity
  8
Hawa6
  6
DASHDOT
 62
     3
 48
0.168
100
AcDbLine
 10
100.3335
 20
129.573592
 30
0.0
 11
93.61348900000001
 21
129.573592
 31
0.0
  0
LINE
  5
36
330
A
100
AcDbEntity
  8
Hawa6
  6
DASHDOT
 62
     3
 48
0.168015
100
AcDbLine
 10
100.33355
 20
120.573592
 30
0.0
 11
93.61293899999999
 21
120.573592
 31
0.0
  0
LINE
  5
37
330
A
100
AcDbEntity
  8
Hawa6
  6
DASHDOT
 62
     3
 48
0.168015
100
AcDbLine
 10
100.33355
 20
111.573592
 30
0.0
 11
93.61293899999999
 21
111.573592
 31
0.0
  0
LINE
  5
38
330
A
100
AcDbEntity
  8
Hawa6
  6
DASHDOT
 62
     3
 48
0.025981
100
AcDbLine
 10
99.68689599999999
 20
130.573592
 30
0.0
 11
100.726127
 21
130.573592
 31
0.0
  0
LINE
  5
39
330
A
100
AcDbEntity
  8
Hawa6
  6
DASHDOT
 62
     3
 48
0.04
100
AcDbLine
 10
104.340166
 20
178.573592
 30
0.0
 11
105.940165
 21
178.573592
 31
0.0
  0
LINE
  5
3A
330
A
100
AcDbEntity
  8
Hawa6
  6
DASHDOT
 62
     3
 48
0.017468
100
AcDbLine
 10
97.973499
 20
146.633162
 30
0.0
 11
97.973499
 21
145.934432
 31
0.0
  0
LINE
  5
3B
330
A
100
AcDbEntity
  8
Hawa5
  6
DASHDOT
 62
     1
100
AcDbLine
 10
97.973499
 20
219.037215
 30
0.0
 11
97.973499
 21
96.77720500000001
 31
0.0
  0
LINE
  5
3C
330
A
100
AcDbEntity
  8
Hawa5
 62
     1
 48
0.035355
100
AcDbLine
 10
102.973499
 20
107.754012
 30
0.0
 11
101.973499
 21
106.754012
 31
0.0
  0
LINE
  5
3D
330
A
100
AcDbEntity
  8
Hawa5
 62
     1
 48
0.225
100
AcDbLine
 10
92.973481
 20
106.754012
 30
0.0
 11
101.973499
 21
106.754012
 31
0.0
  0
LINE
  5
3E
330
A
100
AcDbEntity
  8
Hawa5
 62
     1
 48
0.055
100
AcDbLine
 10
107.473499
 20
96.75401200000001
 30
0.0
 11
109.6735
 21
96.75401200000001
 31
0.0
  0
LINE
  5
3F
330
A
100
AcDbEntity
  8
Hawa5
 62
     1
 48
0.055
100
AcDbLine
 10
88.47349900000001
 20
96.75401200000001
 30
0.0
 11
86.273499
 21
96.75401200000001
 31
0.0
  0
ARC
  5
40
330
A
100
AcDbEntity
  8
Hawa4
 62
     4
100
AcDbCircle
 10
87.273499
 20
85.953963
 30
0.0
 40
1.0
100
AcDbArc
 50
180.000005
 51
270.000001
  0
LINE
  5
41
330
A
100
AcDbEntity
  8
Hawa4
 62
     4
 48
0.005
100
AcDbLine
 10
87.273499
 20
84.95396300000001
 30
0.0
 11
87.47349900000001
 21
84.95396300000001
 31
0.0
  0
ARC
  5
42
330
A
100
AcDbEntity
  8
Hawa4
 62
     4
100
AcDbCircle
 10
87.47349900000001
 20
83.95396299999999
 30
0.0
 40
1.0
100
AcDbArc
 50
0.0
 51
90.00000300000001
  0
LINE
  5
43
330
A
100
AcDbEntity
  8
Hawa4
 62
     4
 48
0.022498
100
AcDbLine
 10
88.47349900000001
 20
83.054061
 30
0.0
 11
88.47349900000001
 21
83.95396299999999
 31
0.0
  0
ARC
  5
44
330
A
100
AcDbEntity
  8
Hawa4
 62
     4
100
AcDbCircle
 10
87.47349900000001
 20
83.054061
 30
0.0
 40
1.0
100
AcDbArc
 50
270.000001
 51
360.0
  0
LINE
  5
45
330
A
100
AcDbEntity
  8
Hawa4
 62
     4
 48
0.005
100
AcDbLine
 10
87.47349900000001
 20
82.05406100000001
 30
0.0
 11
87.273499
 21
82.05406100000001
 31
0.0
  0
ARC
  5
46
330
A
100
AcDbEntity
  8
Hawa4
 62
     4
100
AcDbCircle
 10
87.273499
 20
81.05406100000001
 30
0.0
 40
1.0
100
AcDbArc
 50
90.00000300000001
 51
180.000005
  0
LINE
  5
47
330
A
100
AcDbEntity
  8
Hawa4
 62
     4
 48
0.207501
100
AcDbLine
 10
86.273499
 20
72.75401200000001
 30
0.0
 11
86.273499
 21
81.05406100000001
 31
0.0
  0
LINE
  5
48
330
A
100
AcDbEntity
  8
Hawa4
 62
     4
100
AcDbLine
 10
86.273499
 20
72.75401200000001
 30
0.0
 11
109.6735
 21
72.75401200000001
 31
0.0
  0
LINE
  5
49
330
A
100
AcDbEntity
  8
Hawa4
 62
     4
 48
0.207501
100
AcDbLine
 10
109.6735
 20
72.75401200000001
 30
0.0
 11
109.6735
 21
81.05406100000001
 31
0.0
  0
ARC
  5
4A
330
A
100
AcDbEntity
  8
Hawa4
 62
     4
100
AcDbCircle
 10
108.6735
 20
81.05406100000001
 30
0.0
 40
1.0
100
AcDbArc
 50
0.0
 51
90.00000300000001
  0
LINE
  5
4B
330
A
100
AcDbEntity
  8
Hawa4
 62
     4
 48
0.005
100
AcDbLine
 10
108.6735
 20
82.05406100000001
 30
0.0
 11
108.473499
 21
82.05406100000001
 31
0.0
  0
ARC
  5
4C
330
A
100
AcDbEntity
  8
Hawa4
 62
     4
100
AcDbCircle
 10
108.473499
 20
83.054061
 30
0.0
 40
1.0
100
AcDbArc
 50
180.000005
 51
270.000001
  0
LINE
  5
4D
330
A
100
AcDbEntity
  8
Hawa4
 62
     4
 48
0.022498
100
AcDbLine
 10
107.473499
 20
83.054061
 30
0.0
 11
107.473499
 21
83.95396299999999
 31
0.0
  0
ARC
  5
4E
330
A
100
AcDbEntity
  8
Hawa4
 62
     4
100
AcDbCircle
 10
108.473499
 20
83.95396299999999
 30
0.0
 40
1.0
100
AcDbArc
 50
90.00000300000001
 51
180.000005
  0
LINE
  5
4F
330
A
100
AcDbEntity
  8
Hawa4
 62
     4
 48
0.005
100
AcDbLine
 10
108.473499
 20
84.95396300000001
 30
0.0
 11
108.6735
 21
84.95396300000001
 31
0.0
  0
ARC
  5
50
330
A
100
AcDbEntity
  8
Hawa4
 62
     4
100
AcDbCircle
 10
108.6735
 20
85.953963
 30
0.0
 40
1.0
100
AcDbArc
 50
270.000001
 51
360.0
  0
LINE
  5
51
330
A
100
AcDbEntity
  8
Hawa4
 62
     4
 48
0.170001
100
AcDbLine
 10
109.6735
 20
85.953963
 30
0.0
 11
109.6735
 21
92.75401200000001
 31
0.0
  0
ARC
  5
52
330
A
100
AcDbEntity
  8
Hawa4
 62
     4
100
AcDbCircle
 10
108.6735
 20
92.75401200000001
 30
0.0
 40
1.0
100
AcDbArc
 50
0.0
 51
90.00000300000001
  0
LINE
  5
53
330
A
100
AcDbEntity
  8
Hawa4
 62
     4
 48
0.005
100
AcDbLine
 10
108.6735
 20
93.754012
 30
0.0
 11
108.473499
 21
93.754012
 31
0.0
  0
ARC
  5
54
330
A
100
AcDbEntity
  8
Hawa4
 62
     4
100
AcDbCircle
 10
108.473499
 20
94.754012
 30
0.0
 40
1.0
100
AcDbArc
 50
180.000005
 51
270.000001
  0
LINE
  5
55
330
A
100
AcDbEntity
  8
Hawa4
 62
     4
 48
0.05
100
AcDbLine
 10
107.473499
 20
94.754012
 30
0.0
 11
107.473499
 21
96.75401200000001
 31
0.0
  0
LINE
  5
56
330
A
100
AcDbEntity
  8
Hawa4
 62
     4
 48
0.0375
100
AcDbLine
 10
107.473499
 20
96.75401200000001
 30
0.0
 11
105.973499
 21
96.75401200000001
 31
0.0
  0
ARC
  5
57
330
A
100
AcDbEntity
  8
Hawa4
 62
     4
100
AcDbCircle
 10
105.973499
 20
95.75401199999999
 30
0.0
 40
1.0
100
AcDbArc
 50
90.00000300000001
 51
154.157492
  0
LINE
  5
58
330
A
100
AcDbEntity
  8
Hawa6
 62
     3
 48
0.135901
100
AcDbLine
 10
105.073499
 20
96.19004699999999
 30
0.0
 11
105.073499
 21
90.75401199999999
 31
0.0
  0
LINE
  5
59
330
A
100
AcDbEntity
  8
Hawa4
 62
     4
 48
0.0525
100
AcDbLine
 10
105.073488
 20
90.75401199999999
 30
0.0
 11
107.1735
 21
90.75401199999999
 31
0.0
  0
LINE
  5
5A
330
A
100
AcDbEntity
  8
Hawa4
 62
     4
 48
0.070001
100
AcDbLine
 10
107.1735
 20
90.75401199999999
 30
0.0
 11
107.1735
 21
87.953963
 31
0.0
  0
LINE
  5
5B
330
A
100
AcDbEntity
  8
Hawa4
 62
     4
 48
0.0525
100
AcDbLine
 10
107.1735
 20
87.953963
 30
0.0
 11
105.073499
 21
87.953963
 31
0.0
  0
LINE
  5
5C
330
A
100
AcDbEntity
  8
Hawa6
 62
     3
 48
0.025354
100
AcDbLine
 10
105.073499
 20
87.953963
 30
0.0
 11
105.073499
 21
86.93980299999999
 31
0.0
  0
LINE
  5
5D
330
A
100
AcDbEntity
  8
Hawa6
 62
     3
 48
0.009661
100
AcDbLine
 10
104.973502
 20
86.566512
 30
0.0
 11
105.073499
 21
86.93980299999999
 31
0.0
  0
LINE
  5
5E
330
A
100
AcDbEntity
  8
Hawa4
 62
     4
 48
0.187811
100
AcDbLine
 10
104.973499
 20
86.566512
 30
0.0
 11
104.973499
 21
79.054061
 31
0.0
  0
LINE
  5
5F
330
A
100
AcDbEntity
  8
Hawa4
 62
     4
 48
0.055
100
AcDbLine
 10
104.973499
 20
79.054061
 30
0.0
 11
107.1735
 21
79.054061
 31
0.0
  0
LINE
  5
60
330
A
100
AcDbEntity
  8
Hawa4
 62
     4
 48
0.070001
100
AcDbLine
 10
107.1735
 20
79.054061
 30
0.0
 11
107.1735
 21
76.254012
 31
0.0
  0
LINE
  5
61
330
A
100
AcDbEntity
  8
Hawa4
 62
     4
 48
0.055
100
AcDbLine
 10
107.1735
 20
76.254012
 30
0.0
 11
104.973499
 21
76.254012
 31
0.0
  0
LINE
  5
62
330
A
100
AcDbEntity
  8
Hawa4
 62
     4
 48
0.002496
100
AcDbLine
 10
104.973499
 20
76.254012
 30
0.0
 11
104.973499
 21
76.154158
 31
0.0
  0
ARC
  5
63
330
A
100
AcDbEntity
  8
Hawa4
 62
     4
100
AcDbCircle
 10
104.573499
 20
76.154158
 30
0.0
 40
0.4
100
AcDbArc
 50
270.000001
 51
360.0
  0
LINE
  5
64
330
A
100
AcDbEntity
  8
Hawa4
 62
     4
 48
0.1575
100
AcDbLine
 10
104.573499
 20
75.754012
 30
0.0
 11
98.27349900000001
 21
75.754012
 31
0.0
  0
LINE
  5
65
330
A
100
AcDbEntity
  8
Hawa4
 62
     4
 48
0.010607
100
AcDbLine
 10
98.27349900000001
 20
75.754012
 30
0.0
 11
97.973499
 21
75.453963
 31
0.0
  0
LINE
  5
66
330
A
100
AcDbEntity
  8
Hawa4
 62
     4
 48
0.010607
100
AcDbLine
 10
97.67349899999999
 20
75.754012
 30
0.0
 11
97.973499
 21
75.453963
 31
0.0
  0
LINE
  5
67
330
A
100
AcDbEntity
  8
Hawa4
 62
     4
 48
0.1575
100
AcDbLine
 10
97.67349899999999
 20
75.754012
 30
0.0
 11
91.373499
 21
75.754012
 31
0.0
  0
ARC
  5
68
330
A
100
AcDbEntity
  8
Hawa4
 62
     4
100
AcDbCircle
 10
91.373499
 20
76.154158
 30
0.0
 40
0.4
100
AcDbArc
 50
180.000005
 51
270.000001
  0
LINE
  5
69
330
A
100
AcDbEntity
  8
Hawa4
 62
     4
 48
0.002496
100
AcDbLine
 10
90.97349900000001
 20
76.254012
 30
0.0
 11
90.97349900000001
 21
76.154158
 31
0.0
  0
LINE
  5
6A
330
A
100
AcDbEntity
  8
Hawa4
 62
     4
 48
0.055
100
AcDbLine
 10
90.97349900000001
 20
76.254012
 30
0.0
 11
88.773499
 21
76.254012
 31
0.0
  0
LINE
  5
6B
330
A
100
AcDbEntity
  8
Hawa4
 62
     4
 48
0.070001
100
AcDbLine
 10
88.773499
 20
79.054061
 30
0.0
 11
88.773499
 21
76.254012
 31
0.0
  0
LINE
  5
6C
330
A
100
AcDbEntity
  8
Hawa4
 62
     4
 48
0.055
100
AcDbLine
 10
88.773499
 20
79.054061
 30
0.0
 11
90.97349900000001
 21
79.054061
 31
0.0
  0
LINE
  5
6D
330
A
100
AcDbEntity
  8
Hawa4
 62
     4
 48
0.187811
100
AcDbLine
 10
90.97349900000001
 20
86.566512
 30
0.0
 11
90.97349900000001
 21
79.054061
 31
0.0
  0
LINE
  5
6E
330
A
100
AcDbEntity
  8
Hawa6
 62
     3
 48
0.009661
100
AcDbLine
 10
90.97349900000001
 20
86.566512
 30
0.0
 11
90.87349899999999
 21
86.93980299999999
 31
0.0
  0
LINE
  5
6F
330
A
100
AcDbEntity
  8
Hawa6
 62
     3
 48
0.025354
100
AcDbLine
 10
90.87349899999999
 20
87.953963
 30
0.0
 11
90.87349899999999
 21
86.93980299999999
 31
0.0
  0
LINE
  5
70
330
A
100
AcDbEntity
  8
Hawa4
 62
     4
 48
0.0525
100
AcDbLine
 10
90.87348799999999
 20
87.953963
 30
0.0
 11
88.773499
 21
87.953963
 31
0.0
  0
LINE
  5
71
330
A
100
AcDbEntity
  8
Hawa4
 62
     4
 48
0.070001
100
AcDbLine
 10
88.773499
 20
90.75401199999999
 30
0.0
 11
88.773499
 21
87.953963
 31
0.0
  0
LINE
  5
72
330
A
100
AcDbEntity
  8
Hawa4
 62
     4
 48
0.0525
100
AcDbLine
 10
88.773499
 20
90.75401199999999
 30
0.0
 11
90.87349899999999
 21
90.75401199999999
 31
0.0
  0
LINE
  5
73
330
A
100
AcDbEntity
  8
Hawa6
 62
     3
 48
0.135901
100
AcDbLine
 10
90.87349899999999
 20
96.19004699999999
 30
0.0
 11
90.87349899999999
 21
90.75401199999999
 31
0.0
  0
ARC
  5
74
330
A
100
AcDbEntity
  8
Hawa4
 62
     4
100
AcDbCircle
 10
89.97349900000001
 20
95.75401199999999
 30
0.0
 40
1.0
100
AcDbArc
 50
25.843409
 51
90.00000300000001
  0
LINE
  5
75
330
A
100
AcDbEntity
  8
Hawa4
 62
     4
 48
0.0375
100
AcDbLine
 10
89.97349900000001
 20
96.75401200000001
 30
0.0
 11
88.47349900000001
 21
96.75401200000001
 31
0.0
  0
LINE
  5
76
330
A
100
AcDbEntity
  8
Hawa4
 62
     4
 48
0.05
100
AcDbLine
 10
88.47349900000001
 20
94.754012
 30
0.0
 11
88.47349900000001
 21
96.75401200000001
 31
0.0
  0
ARC
  5
77
330
A
100
AcDbEntity
  8
Hawa4
 62
     4
100
AcDbCircle
 10
87.47349900000001
 20
94.754012
 30
0.0
 40
1.0
100
AcDbArc
 50
270.000001
 51
360.0
  0
LINE
  5
78
330
A
100
AcDbEntity
  8
Hawa4
 62
     4
 48
0.005
100
AcDbLine
 10
87.47349900000001
 20
93.754012
 30
0.0
 11
87.273499
 21
93.754012
 31
0.0
  0
ARC
  5
79
330
A
100
AcDbEntity
  8
Hawa4
 62
     4
100
AcDbCircle
 10
87.273499
 20
92.75401200000001
 30
0.0
 40
1.0
100
AcDbArc
 50
90.00000300000001
 51
180.000005
  0
LINE
  5
7A
330
A
100
AcDbEntity
  8
Hawa4
 62
     4
 48
0.170001
100
AcDbLine
 10
86.273499
 20
85.953963
 30
0.0
 11
86.273499
 21
92.75401200000001
 31
0.0
  0
LINE
  5
548
330
A
100
AcDbEntity
  8
Hawa2
 62
     9
 48
0.022086
100
AcDbLine
 10
109.048889
 20
72.75401199999987
 30
0.0
 11
109.6735
 21
73.37876800000005
 31
0.0
  0
LINE
  5
549
330
A
100
AcDbEntity
  8
Hawa2
 62
     9
 48
0.172082
100
AcDbLine
 10
104.806247
 20
72.75401199999987
 30
0.0
 11
109.6735
 21
77.62119900000015
 31
0.0
  0
LINE
  5
54A
330
A
100
AcDbEntity
  8
Hawa2
 62
     9
 48
0.106066
100
AcDbLine
 10
100.563607
 20
72.75401199999987
 30
0.0
 11
103.563607
 21
75.75401199999987
 31
0.0
  0
LINE
  5
54B
330
A
100
AcDbEntity
  8
Hawa2
 62
     9
 48
0.092093
100
AcDbLine
 10
106.863606
 20
79.05405999999993
 30
0.0
 11
109.468435
 21
81.65879700000004
 31
0.0
  0
LINE
  5
54C
330
A
100
AcDbEntity
  8
Hawa2
 62
     9
 48
0.106066
100
AcDbLine
 10
96.320966
 20
72.75401199999987
 30
0.0
 11
99.320965
 21
75.75401199999987
 31
0.0
  0
LINE
  5
54D
330
A
100
AcDbEntity
  8
Hawa2
 62
     9
 48
0.088388
100
AcDbLine
 10
104.973499
 20
81.4065999999998
 30
0.0
 11
107.473499
 21
83.9065999999998
 31
0.0
  0
LINE
  5
54E
330
A
100
AcDbEntity
  8
Hawa2
 62
     9
 48
0.040749
100
AcDbLine
 10
108.520965
 20
84.95396299999994
 30
0.0
 11
109.6735
 21
86.10655099999986
 31
0.0
  0
LINE
  5
54F
330
A
100
AcDbEntity
  8
Hawa2
 62
     9
 48
0.106066
100
AcDbLine
 10
92.078325
 20
72.75401199999987
 30
0.0
 11
95.07832500000001
 21
75.75401199999987
 31
0.0
  0
LINE
  5
550
330
A
100
AcDbEntity
  8
Hawa2
 62
     9
 48
0.166169
100
AcDbLine
 10
104.973499
 20
85.64927499999976
 30
0.0
 11
109.6735
 21
90.3492259999998
 31
0.0
  0
LINE
  5
551
330
A
100
AcDbEntity
  8
Hawa2
 62
     9
 48
0.11296
100
AcDbLine
 10
87.835684
 20
72.75401199999987
 30
0.0
 11
91.030622
 21
75.94907999999988
 31
0.0
  0
LINE
  5
552
330
A
100
AcDbEntity
  8
Hawa2
 62
     9
 48
0.105625
100
AcDbLine
 10
105.835684
 20
90.75401199999985
 30
0.0
 11
108.823202
 21
93.74155999999993
 31
0.0
  0
LINE
  5
553
330
A
100
AcDbEntity
  8
Hawa2
 62
     9
 48
0.088388
100
AcDbLine
 10
86.273499
 20
75.43443200000002
 30
0.0
 11
88.773499
 21
77.93443200000002
 31
0.0
  0
LINE
  5
554
330
A
100
AcDbEntity
  8
Hawa2
 62
     9
 48
0.038198
100
AcDbLine
 10
89.89304399999999
 20
79.05405999999993
 30
0.0
 11
90.97349900000001
 21
80.13438300000007
 31
0.0
  0
LINE
  5
555
330
A
100
AcDbEntity
  8
Hawa2
 62
     9
 48
0.084851
100
AcDbLine
 10
105.073495
 20
94.23448000000007
 30
0.0
 11
107.473499
 21
96.63438300000008
 31
0.0
  0
LINE
  5
556
330
A
100
AcDbEntity
  8
Hawa2
 62
     9
 48
0.166169
100
AcDbLine
 10
86.273499
 20
79.67710699999997
 30
0.0
 11
90.97349900000001
 21
84.37705899999992
 31
0.0
  0
LINE
  5
557
330
A
100
AcDbEntity
  8
Hawa2
 62
     9
 48
0.106066
100
AcDbLine
 10
87.30776300000002
 20
84.95396299999994
 30
0.0
 11
90.307762
 21
87.95396299999994
 31
0.0
  0
LINE
  5
558
330
A
100
AcDbEntity
  8
Hawa2
 62
     9
 48
0.088388
100
AcDbLine
 10
86.273499
 20
88.16245900000014
 30
0.0
 11
88.773499
 21
90.66245900000014
 31
0.0
  0
LINE
  5
559
330
A
100
AcDbEntity
  8
Hawa2
 62
     9
 48
0.071005
100
AcDbLine
 10
88.865122
 20
90.75401199999985
 30
0.0
 11
90.873495
 21
92.76231199999985
 31
0.0
  0
LINE
  5
55A
330
A
100
AcDbEntity
  8
Hawa2
 62
     9
 48
0.048208
100
AcDbLine
 10
86.273499
 20
92.40513499999996
 30
0.0
 11
87.63701199999999
 21
93.76866000000019
 31
0.0
  0
LINE
  5
55B
330
A
100
AcDbEntity
  8
Hawa2
 62
     9
 48
0.071546
100
AcDbLine
 10
88.458968
 20
94.59043699999986
 30
0.0
 11
90.482556
 21
96.61411899999984
 31
0.0
  0
LINE
  5
55C
330
A
100
AcDbEntity
  8
Hawa5
  6
PHANTOM
 62
     1
 48
0.3
100
AcDbLine
 10
102.973499
 20
237.7540119999999
 30
0.0
 11
90.97349900000001
 21
237.7540119999999
 31
0.0
  0
LINE
  5
55D
330
A
100
AcDbEntity
  8
Hawa5
 62
     1
100
AcDbLine
 10
102.973499
 20
198.7540119999999
 30
0.0
 11
102.973499
 21
237.7540119999999
 31
0.0
  0
LINE
  5
55E
330
A
100
AcDbEntity
  8
Hawa6
  6
DASHSPACE
 62
     3
 48
0.3
100
AcDbLine
 10
102.973499
 20
187.2540119999999
 30
0.0
 11
90.97349900000001
 21
187.2540119999999
 31
0.0
  0
LINE
  5
55F
330
A
100
AcDbEntity
  8
Hawa5
 62
     1
100
AcDbLine
 10
90.97349900000001
 20
187.2540119999999
 30
0.0
 11
90.97349900000001
 21
237.7540119999999
 31
0.0
  0
LINE
  5
560
330
A
100
AcDbEntity
  8
Hawa5
 62
     1
 48
0.025
100
AcDbLine
 10
92.973481
 20
106.7540119999999
 30
0.0
 11
91.973499
 21
106.7540119999999
 31
0.0
  0
LINE
  5
561
330
A
100
AcDbEntity
  8
Hawa5
 62
     1
 48
0.035355
100
AcDbLine
 10
91.973499
 20
106.7540119999999
 30
0.0
 11
90.97349900000001
 21
107.7540119999999
 31
0.0
  0
LINE
  5
562
330
A
100
AcDbEntity
  8
Hawa6
 62
     3
 48
0.05799
100
AcDbLine
 10
90.97349900000001
 20
110.0735920000002
 30
0.0
 11
90.97349900000001
 21
107.7540119999999
 31
0.0
  0
LINE
  5
563
330
A
100
AcDbEntity
  8
Hawa6
  6
DASHSPACE
 62
     3
 48
0.005
100
AcDbLine
 10
102.973499
 20
169.4791089999999
 30
0.0
 11
102.773496
 21
169.4791089999999
 31
0.0
  0
LINE
  5
564
330
A
100
AcDbEntity
  8
Hawa6
  6
DASHSPACE
 62
     3
 48
0.0025
100
AcDbLine
 10
91.07349599999999
 20
169.4791089999999
 30
0.0
 11
90.97349900000001
 21
169.4791089999999
 31
0.0
  0
LINE
  5
565
330
A
100
AcDbEntity
  8
Hawa6
  6
DASHSPACE
 62
     3
 48
0.102362
100
AcDbLine
 10
90.97349900000001
 20
169.4791089999999
 30
0.0
 11
90.97349900000001
 21
173.5735920000002
 31
0.0
  0
LINE
  5
566
330
A
100
AcDbEntity
  8
Hawa6
  6
DASHSPACE
 62
     3
 48
0.09201
100
AcDbLine
 10
90.97349900000001
 20
183.5735920000002
 30
0.0
 11
90.97349900000001
 21
187.2540119999999
 31
0.0
  0
LINE
  5
567
330
A
100
AcDbEntity
  8
Hawa6
  6
DASHSPACE
 62
     3
 48
0.3
100
AcDbLine
 10
102.973499
 20
157.677107
 30
0.0
 11
90.97349900000001
 21
157.677107
 31
0.0
  0
LINE
  5
568
330
A
100
AcDbEntity
  8
Hawa6
 62
     3
 48
0.29505
100
AcDbLine
 10
90.97349900000001
 20
169.4791089999999
 30
0.0
 11
90.97349900000001
 21
157.677107
 31
0.0
  0
LINE
  5
569
330
A
100
AcDbEntity
  8
Hawa6
  6
DASHSPACE
 62
     3
 48
0.068408
100
AcDbLine
 10
90.97349900000001
 20
154.940779
 30
0.0
 11
90.97349900000001
 21
157.677107
 31
0.0
  0
LINE
  5
56A
330
A
100
AcDbEntity
  8
Hawa6
  6
DASHSPACE
 62
     3
100
AcDbLine
 10
94.17349899999999
 20
130.5735920000002
 30
0.0
 11
94.17349899999999
 21
153.5735920000002
 31
0.0
  0
LINE
  5
56B
330
A
100
AcDbEntity
  8
Hawa6
  6
DASHSPACE
 62
     3
100
AcDbLine
 10
94.17349899999999
 20
110.0735920000002
 30
0.0
 11
94.17349899999999
 21
130.5735920000002
 31
0.0
  0
LINE
  5
56C
330
A
100
AcDbEntity
  8
Hawa6
  6
DASHSPACE
 62
     3
 48
0.120624
100
AcDbLine
 10
99.17349899999999
 20
132.8736410000001
 30
0.0
 11
99.17349899999999
 21
128.0486890000002
 31
0.0
  0
LINE
  5
56D
330
A
100
AcDbEntity
  8
Hawa6
  6
DASHSPACE
 62
     3
 48
0.120624
100
AcDbLine
 10
99.17349899999999
 20
137.6985920000002
 30
0.0
 11
99.17349899999999
 21
132.8736410000001
 31
0.0
  0
LINE
  5
56E
330
A
100
AcDbEntity
  8
Hawa6
  6
DASHSPACE
 62
     3
 48
0.125
100
AcDbLine
 10
94.17349899999999
 20
128.0486890000002
 30
0.0
 11
99.17349899999999
 21
128.0486890000002
 31
0.0
  0
LINE
  5
56F
330
A
100
AcDbEntity
  8
Hawa6
  6
DASHSPACE
 62
     3
 48
0.125
100
AcDbLine
 10
94.17349899999999
 20
137.6985920000002
 30
0.0
 11
99.17349899999999
 21
137.6985920000002
 31
0.0
  0
LINE
  5
570
330
A
100
AcDbEntity
  8
Hawa6
  6
DASHSPACE
 62
     3
 48
0.0025
100
AcDbLine
 10
90.97348100000001
 20
173.5735920000002
 30
0.0
 11
91.073494
 21
173.5735920000002
 31
0.0
  0
LINE
  5
571
330
A
100
AcDbEntity
  8
Hawa6
  6
DASHSPACE
 62
     3
 48
0.0025
100
AcDbLine
 10
90.973486
 20
183.5735920000002
 30
0.0
 11
91.073494
 21
183.5735920000002
 31
0.0
  0
LINE
  5
572
330
A
100
AcDbEntity
  8
Hawa6
 62
     3
100
AcDbLine
 10
90.97349900000001
 20
167.0235429999998
 30
0.0
 11
90.97349900000001
 21
191.3741289999998
 31
0.0
  0
LINE
  5
573
330
A
100
AcDbEntity
  8
Hawa6
 62
     3
 48
0.188574
100
AcDbLine
 10
90.97349900000001
 20
159.4805740000002
 30
0.0
 11
90.97349900000001
 21
167.0235429999998
 31
0.0
  0
LINE
  5
574
330
A
100
AcDbEntity
  8
Hawa6
 62
     3
100
AcDbLine
 10
90.97349900000001
 20
159.4805740000002
 30
0.0
 11
90.97349900000001
 21
110.0735920000002
 31
0.0
  0
LINE
  5
575
330
A
100
AcDbEntity
  8
Hawa6
  6
DASHSPACE
 62
     3
 48
0.0125
100
AcDbLine
 10
94.17349899999999
 20
110.0735920000002
 30
0.0
 11
93.67349899999998
 21
110.0735920000002
 31
0.0
  0
LINE
  5
576
330
A
100
AcDbEntity
  8
Hawa6
  6
DASHSPACE
 62
     3
 48
0.0625
100
AcDbLine
 10
91.17349899999998
 20
110.0735920000002
 30
0.0
 11
93.67349899999998
 21
110.0735920000002
 31
0.0
  0
LINE
  5
577
330
A
100
AcDbEntity
  8
Hawa6
  6
DASHSPACE
 62
     3
 48
0.005
100
AcDbLine
 10
91.17349899999998
 20
110.0735920000002
 30
0.0
 11
90.97349900000001
 21
110.0735920000002
 31
0.0
  0
LINE
  5
578
330
A
100
AcDbEntity
  8
Hawa6
  6
DASHSPACE
 62
     3
100
AcDbLine
 10
94.17349899999999
 20
130.693953
 30
0.0
 11
94.17349899999999
 21
155.285018
 31
0.0
  0
LINE
  5
579
330
A
100
AcDbEntity
  8
Hawa6
  6
DASHSPACE
 62
     3
100
AcDbLine
 10
94.17349899999999
 20
110.0735920000002
 30
0.0
 11
94.17349899999999
 21
130.693953
 31
0.0
  0
LINE
  5
57A
330
A
100
AcDbEntity
  8
Hawa6
  6
DASHSPACE
 62
     3
 48
0.0125
100
AcDbLine
 10
93.67349899999998
 20
130.695174
 30
0.0
 11
94.17349899999999
 21
130.693953
 31
0.0
  0
LINE
  5
57B
330
A
100
AcDbEntity
  8
Hawa6
  6
DASHSPACE
 62
     3
100
AcDbLine
 10
93.67349899999998
 20
110.0735920000002
 30
0.0
 11
93.67349899999998
 21
130.695174
 31
0.0
  0
LINE
  5
57C
330
A
100
AcDbEntity
  8
Hawa6
  6
DASHSPACE
 62
     3
 48
0.0625
100
AcDbLine
 10
91.17349899999998
 20
130.695174
 30
0.0
 11
93.67349899999998
 21
130.695174
 31
0.0
  0
LINE
  5
57D
330
A
100
AcDbEntity
  8
Hawa6
  6
DASHSPACE
 62
     3
 48
0.3992
100
AcDbLine
 10
91.17349899999998
 20
130.695174
 30
0.0
 11
91.17349899999998
 21
114.7271559999999
 31
0.0
  0
LINE
  5
57E
330
A
100
AcDbEntity
  8
Hawa6
  6
DASHSPACE
 62
     3
 48
0.116339
100
AcDbLine
 10
91.17349899999998
 20
110.0735920000002
 30
0.0
 11
91.17349899999998
 21
114.7271559999999
 31
0.0
  0
LINE
  5
57F
330
A
100
AcDbEntity
  8
Hawa6
  6
DASHSPACE
 62
     3
100
AcDbLine
 10
93.67349899999998
 20
130.695174
 30
0.0
 11
93.67349899999998
 21
155.5735920000002
 31
0.0
  0
LINE
  5
580
330
A
100
AcDbEntity
  8
Hawa6
  6
DASHSPACE
 62
     3
100
AcDbLine
 10
91.17349899999998
 20
130.695174
 30
0.0
 11
91.17349899999998
 21
155.5735920000002
 31
0.0
  0
LINE
  5
581
330
A
100
AcDbEntity
  8
Hawa6
  6
DASHSPACE
 62
     3
 48
0.005
100
AcDbLine
 10
91.17349899999998
 20
130.5735920000002
 30
0.0
 11
90.97349900000001
 21
130.5735920000002
 31
0.0
  0
LINE
  5
582
330
A
100
AcDbEntity
  8
Hawa6
  6
DASHSPACE
 62
     3
 48
0.014432
100
AcDbLine
 10
94.17349899999999
 20
155.285018
 30
0.0
 11
93.67349899999998
 21
155.5735920000002
 31
0.0
  0
LINE
  5
583
330
A
100
AcDbEntity
  8
Hawa6
  6
DASHSPACE
 62
     3
 48
0.0625
100
AcDbLine
 10
91.17349899999998
 20
155.5735920000002
 30
0.0
 11
93.67349899999998
 21
155.5735920000002
 31
0.0
  0
LINE
  5
584
330
A
100
AcDbEntity
  8
Hawa6
  6
DASHSPACE
 62
     3
 48
0.005
100
AcDbLine
 10
90.97348
 20
154.940779
 30
0.0
 11
91.17349899999998
 21
154.940779
 31
0.0
  0
LINE
  5
585
330
A
100
AcDbEntity
  8
Hawa6
  6
DASHSPACE
 62
     3
 48
0.14
100
AcDbLine
 10
99.773499
 20
140.0735920000002
 30
0.0
 11
94.17348999999999
 21
140.0735920000002
 31
0.0
  0
LINE
  5
586
330
A
100
AcDbEntity
  8
Hawa6
  6
DASHSPACE
 62
     3
 48
0.015
100
AcDbLine
 10
99.773499
 20
129.5735920000002
 30
0.0
 11
99.173492
 21
129.5735920000002
 31
0.0
  0
LINE
  5
587
330
A
100
AcDbEntity
  8
Hawa6
  6
DASHSPACE
 62
     3
 48
0.14
100
AcDbLine
 10
99.773499
 20
110.0735920000002
 30
0.0
 11
94.173488
 21
110.0735920000002
 31
0.0
  0
LINE
  5
588
330
A
100
AcDbEntity
  8
Hawa6
  6
DASHSPACE
 62
     3
 48
0.14
100
AcDbLine
 10
99.773499
 20
127.5735920000002
 30
0.0
 11
94.17348999999999
 21
127.5735920000002
 31
0.0
  0
LINE
  5
589
330
A
100
AcDbEntity
  8
Hawa6
  6
DASHSPACE
 62
     3
 48
0.14
100
AcDbLine
 10
99.773499
 20
113.5735920000002
 30
0.0
 11
94.17348999999999
 21
113.5735920000002
 31
0.0
  0
LINE
  5
58A
330
A
100
AcDbEntity
  8
Hawa6
  6
DASHSPACE
 62
     3
 48
0.14
100
AcDbLine
 10
99.773499
 20
111.5735920000002
 30
0.0
 11
94.173488
 21
111.5735920000002
 31
0.0
  0
LINE
  5
58B
330
A
100
AcDbEntity
  8
Hawa6
  6
DASHSPACE
 62
     3
 48
0.053349
100
AcDbLine
 10
102.773499
 20
110.0735920000002
 30
0.0
 11
100.639524
 21
110.0735920000002
 31
0.0
  0
LINE
  5
58C
330
A
100
AcDbEntity
  8
Hawa6
  6
DASHSPACE
 62
     3
 48
0.021651
100
AcDbLine
 10
99.773499
 20
110.0735920000002
 30
0.0
 11
100.639524
 21
110.0735920000002
 31
0.0
  0
LINE
  5
58D
330
A
100
AcDbEntity
  8
Hawa6
  6
DASHSPACE
 62
     3
 48
0.005
100
AcDbLine
 10
102.773499
 20
110.0735920000002
 30
0.0
 11
102.973499
 21
110.0735920000002
 31
0.0
  0
LINE
  5
58E
330
A
100
AcDbEntity
  8
Hawa6
  6
DASHSPACE
 62
     3
100
AcDbLine
 10
99.773499
 20
110.0735920000002
 30
0.0
 11
99.773499
 21
130.6929759999998
 31
0.0
  0
LINE
  5
58F
330
A
100
AcDbEntity
  8
Hawa6
  6
DASHSPACE
 62
     3
100
AcDbLine
 10
99.773499
 20
155.0735920000002
 30
0.0
 11
99.773499
 21
130.692732
 31
0.0
  0
LINE
  5
590
330
A
100
AcDbEntity
  8
Hawa6
  6
DASHSPACE
 62
     3
100
AcDbLine
 10
100.639524
 20
110.0735920000002
 30
0.0
 11
100.639524
 21
130.695174
 31
0.0
  0
LINE
  5
591
330
A
100
AcDbEntity
  8
Hawa6
  6
DASHSPACE
 62
     3
 48
0.021651
100
AcDbLine
 10
99.773499
 20
130.6929759999998
 30
0.0
 11
100.639524
 21
130.695174
 31
0.0
  0
LINE
  5
592
330
A
100
AcDbEntity
  8
Hawa6
  6
DASHSPACE
 62
     3
100
AcDbLine
 10
100.639524
 20
155.5735920000002
 30
0.0
 11
100.639524
 21
130.695174
 31
0.0
  0
LINE
  5
593
330
A
100
AcDbEntity
  8
Hawa6
  6
DASHSPACE
 62
     3
 48
0.053349
100
AcDbLine
 10
102.773499
 20
130.695174
 30
0.0
 11
100.639524
 21
130.695174
 31
0.0
  0
LINE
  5
594
330
A
100
AcDbEntity
  8
Hawa6
  6
DASHSPACE
 62
     3
 48
0.005
100
AcDbLine
 10
102.773499
 20
130.695174
 30
0.0
 11
102.973499
 21
130.695174
 31
0.0
  0
LINE
  5
595
330
A
100
AcDbEntity
  8
Hawa6
  6
DASHSPACE
 62
     3
 48
0.025
100
AcDbLine
 10
99.773499
 20
155.0735920000002
 30
0.0
 11
100.639524
 21
155.5735920000002
 31
0.0
  0
LINE
  5
596
330
A
100
AcDbEntity
  8
Hawa6
  6
DASHSPACE
 62
     3
 48
0.058349
100
AcDbLine
 10
102.973474
 20
155.5735920000002
 30
0.0
 11
100.639524
 21
155.5735920000002
 31
0.0
  0
LINE
  5
597
330
A
100
AcDbEntity
  8
Hawa6
  6
DASHSPACE
 62
     3
 48
0.030524
100
AcDbLine
 10
96.92349899999999
 20
169.527693
 30
0.0
 11
96.92349899999999
 21
168.3067460000002
 31
0.0
  0
LINE
  5
598
330
A
100
AcDbEntity
  8
Hawa6
  6
DASHSPACE
 62
     3
 48
0.003815
100
AcDbLine
 10
96.92349899999999
 20
168.1541579999998
 30
0.0
 11
96.92349899999999
 21
168.3067460000002
 31
0.0
  0
LINE
  5
599
330
A
100
AcDbEntity
  8
Hawa6
  6
DASHSPACE
 62
     3
 48
0.021161
100
AcDbLine
 10
96.92349899999999
 20
186.3077229999999
 30
0.0
 11
96.92349899999999
 21
187.1541579999998
 31
0.0
  0
LINE
  5
59A
330
A
100
AcDbEntity
  8
Hawa6
  6
DASHSPACE
 62
     3
 48
0.013977
100
AcDbLine
 10
96.92349899999999
 20
186.3079670000002
 30
0.0
 11
96.92349899999999
 21
185.748885
 31
0.0
  0
LINE
  5
59B
330
A
100
AcDbEntity
  8
Hawa6
  6
DASHSPACE
 62
     3
 48
0.374738
100
AcDbLine
 10
96.92349899999999
 20
170.7593830000001
 30
0.0
 11
96.92349899999999
 21
185.748885
 31
0.0
  0
LINE
  5
59C
330
A
100
AcDbEntity
  8
Hawa6
  6
DASHSPACE
 62
     3
 48
0.013983
100
AcDbLine
 10
96.92349899999999
 20
170.200057
 30
0.0
 11
96.92349899999999
 21
170.7593830000001
 31
0.0
  0
LINE
  5
59D
330
A
100
AcDbEntity
  8
Hawa6
  6
DASHSPACE
 62
     3
 48
0.016809
100
AcDbLine
 10
96.92349899999999
 20
169.527693
 30
0.0
 11
96.92349899999999
 21
170.200057
 31
0.0
  0
LINE
  5
59E
330
A
100
AcDbEntity
  8
Hawa6
  6
DASHSPACE
 62
     3
 48
0.030524
100
AcDbLine
 10
91.073499
 20
169.527693
 30
0.0
 11
91.073499
 21
168.3067460000002
 31
0.0
  0
LINE
  5
59F
330
A
100
AcDbEntity
  8
Hawa6
  6
DASHSPACE
 62
     3
 48
0.003815
100
AcDbLine
 10
91.073499
 20
168.1541579999998
 30
0.0
 11
91.073499
 21
168.3067460000002
 31
0.0
  0
LINE
  5
5A0
330
A
100
AcDbEntity
  8
Hawa6
  6
DASHSPACE
 62
     3
 48
0.021161
100
AcDbLine
 10
91.073499
 20
186.3077229999999
 30
0.0
 11
91.073499
 21
187.1541579999998
 31
0.0
  0
LINE
  5
5A1
330
A
100
AcDbEntity
  8
Hawa6
  6
DASHSPACE
 62
     3
 48
0.013977
100
AcDbLine
 10
91.073499
 20
186.3079670000002
 30
0.0
 11
91.073499
 21
185.748885
 31
0.0
  0
LINE
  5
5A2
330
A
100
AcDbEntity
  8
Hawa6
  6
DASHSPACE
 62
     3
 48
0.374738
100
AcDbLine
 10
91.073499
 20
170.7593830000001
 30
0.0
 11
91.073499
 21
185.748885
 31
0.0
  0
LINE
  5
5A3
330
A
100
AcDbEntity
  8
Hawa6
  6
DASHSPACE
 62
     3
 48
0.013983
100
AcDbLine
 10
91.073499
 20
170.200057
 30
0.0
 11
91.073499
 21
170.7593830000001
 31
0.0
  0
LINE
  5
5A4
330
A
100
AcDbEntity
  8
Hawa6
  6
DASHSPACE
 62
     3
 48
0.016809
100
AcDbLine
 10
91.073499
 20
169.527693
 30
0.0
 11
91.073499
 21
170.200057
 31
0.0
  0
LINE
  5
5A5
330
A
100
AcDbEntity
  8
Hawa6
  6
DASHSPACE
 62
     3
 48
0.14625
100
AcDbLine
 10
96.92349899999999
 20
169.527693
 30
0.0
 11
91.073499
 21
169.527693
 31
0.0
  0
LINE
  5
5A6
330
A
100
AcDbEntity
  8
Hawa6
  6
DASHSPACE
 62
     3
 48
0.14625
100
AcDbLine
 10
96.92349899999999
 20
168.3067460000002
 30
0.0
 11
91.073499
 21
168.3067460000002
 31
0.0
  0
LINE
  5
5A7
330
A
100
AcDbEntity
  8
Hawa6
  6
DASHSPACE
 62
     3
 48
0.14625
100
AcDbLine
 10
96.92349899999999
 20
186.3079670000002
 30
0.0
 11
91.073499
 21
186.3079670000002
 31
0.0
  0
LINE
  5
5A8
330
A
100
AcDbEntity
  8
Hawa6
  6
DASHSPACE
 62
     3
 48
0.14625
100
AcDbLine
 10
96.92349899999999
 20
185.748885
 30
0.0
 11
91.073499
 21
185.748885
 31
0.0
  0
LINE
  5
5A9
330
A
100
AcDbEntity
  8
Hawa6
  6
DASHSPACE
 62
     3
 48
0.14625
100
AcDbLine
 10
96.92349899999999
 20
170.7593830000001
 30
0.0
 11
91.073499
 21
170.7593830000001
 31
0.0
  0
LINE
  5
5AA
330
A
100
AcDbEntity
  8
Hawa6
  6
DASHSPACE
 62
     3
 48
0.14625
100
AcDbLine
 10
96.92349899999999
 20
170.200057
 30
0.0
 11
91.073499
 21
170.200057
 31
0.0
  0
LINE
  5
5AB
330
A
100
AcDbEntity
  8
Hawa6
  6
DASHSPACE
 62
     3
 48
0.14625
100
AcDbLine
 10
91.073499
 20
168.1541579999998
 30
0.0
 11
96.92349899999999
 21
168.1541579999998
 31
0.0
  0
LINE
  5
5AC
330
A
100
AcDbEntity
  8
Hawa6
  6
DASHSPACE
 62
     3
 48
0.14625
100
AcDbLine
 10
91.073499
 20
187.1541579999998
 30
0.0
 11
96.92349899999999
 21
187.1541579999998
 31
0.0
  0
LWPOLYLINE
  5
5AD
330
A
100
AcDbEntity
  8
Hawa6
  6
DASHED
 62
     3
100
AcDbPolyline
 90
        8
 70
     0
 43
0.0
 10
105.628521
 20
176.8179759999998
 10
105.633434
 20
176.7461990000002
 10
105.644384
 20
176.6736890000002
 10
105.661656
 20
176.5992259999998
 10
105.685721
 20
176.522078
 10
105.717262
 20
176.4412679999999
 10
105.75721
 20
176.355818
 10
105.806832
 20
176.2642660000001
  0
LWPOLYLINE
  5
5AE
330
A
100
AcDbEntity
  8
Hawa6
  6
DASHED
 62
     3
100
AcDbPolyline
 90
       23
 70
     0
 43
0.0
 10
105.806832
 20
177.4190509999999
 10
105.773713
 20
177.3592359999998
 10
105.742905
 20
177.298201
 10
105.717975
 20
177.2435139999998
 10
105.695425
 20
177.1878499999998
 10
105.677344
 20
177.1365799999999
 10
105.661728
 20
177.084334
 10
105.649637
 20
177.0352619999999
 10
105.640091
 20
176.9854569999998
 10
105.633502
 20
176.9376050000001
 10
105.629512
 20
176.8892660000001
 10
105.628201
 20
176.8416579999998
 10
105.629505
 20
176.7940509999999
 10
105.633483
 20
176.7459549999999
 10
105.640052
 20
176.6981030000002
 10
105.649582
 20
176.648299
 10
105.661651
 20
176.5992259999998
 10
105.677272
 20
176.5469800000001
 10
105.695361
 20
176.495711
 10
105.717932
 20
176.4398030000002
 10
105.742888
 20
176.3851149999999
 10
105.773704
 20
176.3240799999999
 10
105.806832
 20
176.2642660000001
  0
LWPOLYLINE
  5
5AF
330
A
100
AcDbEntity
  8
Hawa6
  6
DASHED
 62
     3
100
AcDbPolyline
 90
       23
 70
     0
 43
0.0
 10
105.806832
 20
177.4190509999999
 10
105.773491
 20
177.5394120000001
 10
105.742905
 20
177.6602619999999
 10
105.717819
 20
177.7706130000001
 10
105.695425
 20
177.881453
 10
105.677249
 20
177.9844800000001
 10
105.661728
 20
178.08824
 10
105.649591
 20
178.1868730000001
 10
105.640091
 20
178.2859939999998
 10
105.633489
 20
178.381941
 10
105.629512
 20
178.4783769999999
 10
105.6282
 20
178.5735920000002
 10
105.629505
 20
178.668807
 10
105.63347
 20
178.7649980000001
 10
105.640052
 20
178.8609449999999
 10
105.649536
 20
178.9598219999998
 10
105.661651
 20
179.0586990000002
 10
105.677176
 20
179.162459
 10
105.695361
 20
179.2657300000001
 10
105.717776
 20
179.3765699999999
 10
105.742888
 20
179.486922
 10
105.773481
 20
179.608016
 10
105.806832
 20
179.7283769999999
  0
LWPOLYLINE
  5
5B0
330
A
100
AcDbEntity
  8
Hawa6
  6
DASHED
 62
     3
100
AcDbPolyline
 90
        8
 70
     0
 43
0.0
 10
105.628521
 20
180.329451
 10
105.629922
 20
180.2510819999998
 10
105.638448
 20
180.1722249999998
 10
105.654363
 20
180.0916579999998
 10
105.678182
 20
180.0084059999999
 10
105.710699
 20
179.9210039999998
 10
105.753051
 20
179.8282300000001
 10
105.806832
 20
179.7283769999999
  0
LINE
  5
5B1
330
A
100
AcDbEntity
  8
Hawa6
  6
DASHED
 62
     3
 48
0.0625
100
AcDbLine
 10
108.306833
 20
179.7283769999999
 30
0.0
 11
105.806832
 21
179.7283769999999
 31
0.0
  0
LINE
  5
5B2
330
A
100
AcDbEntity
  8
Hawa6
  6
DASHED
 62
     3
 48
0.0625
100
AcDbLine
 10
108.306833
 20
180.8831620000001
 30
0.0
 11
105.806832
 21
180.8831620000001
 31
0.0
  0
LWPOLYLINE
  5
5B3
330
A
100
AcDbEntity
  8
Hawa6
  6
DASHED
 62
     3
100
AcDbPolyline
 90
        8
 70
     0
 43
0.0
 10
105.628521
 20
180.329451
 10
105.633434
 20
180.4009839999999
 10
105.644384
 20
180.473738
 10
105.661656
 20
180.548201
 10
105.685721
 20
180.6253499999998
 10
105.717262
 20
180.7059159999999
 10
105.75721
 20
180.791365
 10
105.806832
 20
180.8831620000001
  0
LINE
  5
5B4
330
A
100
AcDbEntity
  8
Hawa6
  6
DASHED
 62
     3
 48
0.0625
100
AcDbLine
 10
105.806832
 20
177.4190509999999
 30
0.0
 11
108.306833
 21
177.4190509999999
 31
0.0
  0
LINE
  5
5B5
330
A
100
AcDbEntity
  8
Hawa6
  6
DASHED
 62
     3
 48
0.0625
100
AcDbLine
 10
108.306833
 20
176.2642660000001
 30
0.0
 11
105.806832
 21
176.2642660000001
 31
0.0
  0
LWPOLYLINE
  5
5B7
330
A
100
AcDbEntity
  8
Hawa6
  6
DASHED
 62
     3
100
AcDbPolyline
 90
        8
 70
     0
 43
0.0
 10
105.628521
 20
176.8179759999998
 10
105.629922
 20
176.896346
 10
105.638448
 20
176.975203
 10
105.654363
 20
177.0557690000001
 10
105.678182
 20
177.139021
 10
105.710699
 20
177.226424
 10
105.753051
 20
177.3191969999998
 10
105.806832
 20
177.4190509999999
  0
LWPOLYLINE
  5
5B8
330
A
100
AcDbEntity
  8
Hawa6
  6
DASHED
 62
     3
100
AcDbPolyline
 90
       15
 70
     0
 43
0.0
 10
105.806832
 20
179.7283769999999
 10
105.757499
 20
179.819441
 10
105.713955
 20
179.913191
 10
105.682913
 20
179.9942460000002
 10
105.657928
 20
180.0772539999998
 10
105.641513
 20
180.1534259999999
 10
105.631443
 20
180.230818
 10
105.628215
 20
180.3057690000001
 10
105.63143
 20
180.380721
 10
105.641475
 20
180.4578689999998
 10
105.657856
 20
180.533797
 10
105.682849
 20
180.617049
 10
105.713911
 20
180.6981030000002
 10
105.757474
 20
180.7920979999999
 10
105.806832
 20
180.8831620000001
  0
LWPOLYLINE
  5
5B9
330
A
100
AcDbEntity
  8
Hawa6
  6
DASHED
 62
     3
100
AcDbPolyline
 90
       15
 70
     0
 43
0.0
 10
105.806832
 20
179.7283769999999
 10
105.757005
 20
179.544295
 10
105.713955
 20
179.3587480000001
 10
105.682658
 20
179.195174
 10
105.657928
 20
179.0303789999998
 10
105.641438
 20
178.8773030000001
 10
105.631443
 20
178.723738
 10
105.628207
 20
178.573836
 10
105.63143
 20
178.4239339999999
 10
105.641401
 20
178.2703689999998
 10
105.657856
 20
178.1175370000001
 10
105.682592
 20
177.9527419999999
 10
105.713911
 20
177.788924
 10
105.75698
 20
177.6031330000001
 10
105.806832
 20
177.4190509999999
  0
LINE
  5
5BB
330
A
100
AcDbEntity
  8
Hawa6
  6
DASHSPACE
 62
     3
 48
0.10567
100
AcDbLine
 10
92.30683199999999
 20
180.8248119999998
 30
0.0
 11
92.30683199999999
 21
176.5980060000002
 31
0.0
  0
LINE
  5
5BC
330
A
100
AcDbEntity
  8
Hawa6
  6
DASHSPACE
 62
     3
 48
0.140814
100
AcDbLine
 10
93.05561299999999
 20
181.5735920000001
 30
0.0
 11
93.05561299999999
 21
175.9410229999999
 31
0.0
  0
LINE
  5
5BD
330
A
100
AcDbEntity
  8
Hawa6
  6
DASHSPACE
 62
     3
 48
0.006891
100
AcDbLine
 10
92.30683199999999
 20
176.5980060000002
 30
0.0
 11
92.30683199999999
 21
176.3223710000002
 31
0.0
  0
LINE
  5
5BE
330
A
100
AcDbEntity
  8
Hawa6
  6
DASHSPACE
 62
     3
 48
0.14082
100
AcDbLine
 10
93.05561299999999
 20
181.206404
 30
0.0
 11
93.05561299999999
 21
175.5735920000002
 31
0.0
  0
LINE
  5
5BF
330
A
100
AcDbEntity
  8
Hawa6
  6
DASHED
 62
     3
 48
0.281635
100
AcDbLine
 10
108.073499
 20
184.5735920000002
 30
0.0
 11
108.073499
 21
173.308211
 31
0.0
  0
LINE
  5
5C0
330
A
100
AcDbEntity
  8
Hawa6
  6
DASHED
 62
     3
 48
0.281635
100
AcDbLine
 10
108.306833
 20
184.5735920000002
 30
0.0
 11
108.306833
 21
173.308211
 31
0.0
  0
LINE
  5
5C1
330
A
100
AcDbEntity
  8
Hawa6
  6
DASHED
 62
     3
 48
0.281641
100
AcDbLine
 10
108.073499
 20
183.8392170000002
 30
0.0
 11
108.073499
 21
172.5735920000002
 31
0.0
  0
LINE
  5
5C2
330
A
100
AcDbEntity
  8
Hawa6
  6
DASHED
 62
     3
 48
0.018365
100
AcDbLine
 10
108.306833
 20
173.308211
 30
0.0
 11
108.306833
 21
172.5735920000002
 31
0.0
  0
LINE
  5
5C3
330
A
100
AcDbEntity
  8
Hawa6
  6
DASHED
 62
     3
 48
0.140814
100
AcDbLine
 10
104.990657
 20
181.5735920000001
 30
0.0
 11
104.990657
 21
175.9410229999999
 31
0.0
  0
LINE
  5
5C4
330
A
100
AcDbEntity
  8
Hawa6
  6
DASHED
 62
     3
 48
0.14082
100
AcDbLine
 10
104.990657
 20
175.5735920000002
 30
0.0
 11
104.990657
 21
181.206404
 31
0.0
  0
LINE
  5
5C5
330
A
100
AcDbEntity
  8
Hawa6
  6
DASHED
 62
     3
 48
0.143567
100
AcDbLine
 10
105.132078
 20
181.6321849999999
 30
0.0
 11
105.132078
 21
175.88951
 31
0.0
  0
LINE
  5
5C6
330
A
100
AcDbEntity
  8
Hawa6
  6
DASHED
 62
     3
 48
0.143573
100
AcDbLine
 10
105.132078
 20
175.514998
 30
0.0
 11
105.132078
 21
181.2579179999998
 31
0.0
  0
LINE
  5
5C7
330
A
100
AcDbEntity
  8
Hawa6
  6
DASHED
 62
     3
 48
0.066665
100
AcDbLine
 10
104.473499
 20
178.5735920000002
 30
0.0
 11
105.806832
 21
176.2642660000001
 31
0.0
  0
LINE
  5
5C8
330
A
100
AcDbEntity
  8
Hawa6
  6
DASHED
 62
     3
 48
0.06667
100
AcDbLine
 10
104.473499
 20
178.5735920000002
 30
0.0
 11
105.806832
 21
180.8831620000001
 31
0.0
  0
LINE
  5
5C9
330
A
100
AcDbEntity
  8
Hawa6
  6
DASHSPACE
 62
     3
 48
0.026473
100
AcDbLine
 10
92.30683199999999
 20
180.8248119999998
 30
0.0
 11
93.05561299999999
 21
181.5735920000001
 31
0.0
  0
LINE
  5
5CA
330
A
100
AcDbEntity
  8
Hawa6
  6
DASHSPACE
 62
     3
 48
0.026473
100
AcDbLine
 10
92.30683199999999
 20
176.3223710000002
 30
0.0
 11
93.05561299999999
 21
175.5735920000002
 31
0.0
  0
LINE
  5
5CB
330
A
100
AcDbEntity
  8
Hawa6
  6
DASHED
 62
     3
 48
0.005833
100
AcDbLine
 10
108.306833
 20
184.5735920000002
 30
0.0
 11
108.073499
 21
184.5735920000002
 31
0.0
  0
LINE
  5
5CC
330
A
100
AcDbEntity
  8
Hawa6
  6
DASHED
 62
     3
 48
0.005833
100
AcDbLine
 10
108.306833
 20
172.5735920000002
 30
0.0
 11
108.073499
 21
172.5735920000002
 31
0.0
  0
LINE
  5
5CD
330
A
100
AcDbEntity
  8
Hawa6
  6
DASHSPACE
 62
     3
 48
0.050429
100
AcDbLine
 10
104.990657
 20
181.5735920000001
 30
0.0
 11
102.973478
 21
181.5735920000001
 31
0.0
  0
LINE
  5
5CE
330
A
100
AcDbEntity
  8
Hawa6
  6
DASHSPACE
 62
     3
 48
0.005
100
AcDbLine
 10
102.973478
 20
181.5735920000001
 30
0.0
 11
102.773493
 21
181.5735920000001
 31
0.0
  0
LINE
  5
5CF
330
A
100
AcDbEntity
  8
Hawa6
  6
DASHSPACE
 62
     3
 48
0.242947
100
AcDbLine
 10
102.773493
 20
181.5735920000001
 30
0.0
 11
93.05561299999999
 21
181.5735920000001
 31
0.0
  0
LINE
  5
5D0
330
A
100
AcDbEntity
  8
Hawa6
  6
DASHSPACE
 62
     3
 48
0.05043
100
AcDbLine
 10
104.990657
 20
175.5735920000002
 30
0.0
 11
102.973476
 21
175.5735920000002
 31
0.0
  0
LINE
  5
5D1
330
A
100
AcDbEntity
  8
Hawa6
  6
DASHSPACE
 62
     3
 48
0.005
100
AcDbLine
 10
102.973476
 20
175.5735920000002
 30
0.0
 11
102.773493
 21
175.5735920000002
 31
0.0
  0
LINE
  5
5D2
330
A
100
AcDbEntity
  8
Hawa6
  6
DASHSPACE
 62
     3
 48
0.242947
100
AcDbLine
 10
102.773493
 20
175.5735920000002
 30
0.0
 11
93.05561299999999
 21
175.5735920000002
 31
0.0
  0
LINE
  5
5D3
330
A
100
AcDbEntity
  8
Hawa6
  6
DASHED
 62
     3
 48
0.103995
100
AcDbLine
 10
105.132078
 20
181.6321849999999
 30
0.0
 11
108.073499
 21
184.5735920000002
 31
0.0
  0
LINE
  5
5D4
330
A
100
AcDbEntity
  8
Hawa6
  6
DASHED
 62
     3
 48
0.103995
100
AcDbLine
 10
105.132078
 20
175.514998
 30
0.0
 11
108.073499
 21
172.5735920000002
 31
0.0
  0
ARC
  5
5D5
330
A
100
AcDbEntity
  8
Hawa6
  6
DASHED
 62
     3
100
AcDbCircle
 10
104.99064
 20
181.7737870000001
 30
0.0
 40
0.200036
100
AcDbArc
 50
270.0044920000008
 51
314.9955109999581
  0
ARC
  5
5D6
330
A
100
AcDbEntity
  8
Hawa6
  6
DASHED
 62
     3
100
AcDbCircle
 10
104.99064
 20
175.3736410000001
 30
0.0
 40
0.200036
100
AcDbArc
 50
45.00449200004418
 51
89.99550799999921
  0
LINE
  5
5D7
330
A
100
AcDbEntity
  8
Hawa6
  6
DASHSPACE
 62
     3
 48
0.030524
100
AcDbLine
 10
102.773499
 20
169.527693
 30
0.0
 11
102.773499
 21
168.3067460000002
 31
0.0
  0
LINE
  5
5D8
330
A
100
AcDbEntity
  8
Hawa6
  6
DASHSPACE
 62
     3
 48
0.003815
100
AcDbLine
 10
102.773499
 20
168.1541579999998
 30
0.0
 11
102.773499
 21
168.3067460000002
 31
0.0
  0
LINE
  5
5D9
330
A
100
AcDbEntity
  8
Hawa6
  6
DASHSPACE
 62
     3
 48
0.024896
100
AcDbLine
 10
102.773499
 20
186.1583089999999
 30
0.0
 11
102.773499
 21
187.1541579999998
 31
0.0
  0
LINE
  5
5DA
330
A
100
AcDbEntity
  8
Hawa6
  6
DASHSPACE
 62
     3
 48
0.013977
100
AcDbLine
 10
102.773499
 20
186.3079670000002
 30
0.0
 11
102.773499
 21
185.748885
 31
0.0
  0
LINE
  5
5DB
330
A
100
AcDbEntity
  8
Hawa6
  6
DASHSPACE
 62
     3
 48
0.374738
100
AcDbLine
 10
102.773499
 20
170.7593830000001
 30
0.0
 11
102.773499
 21
185.748885
 31
0.0
  0
LINE
  5
5DC
330
A
100
AcDbEntity
  8
Hawa6
  6
DASHSPACE
 62
     3
 48
0.013983
100
AcDbLine
 10
102.773499
 20
170.200057
 30
0.0
 11
102.773499
 21
170.7593830000001
 31
0.0
  0
LINE
  5
5DD
330
A
100
AcDbEntity
  8
Hawa6
  6
DASHSPACE
 62
     3
 48
0.016809
100
AcDbLine
 10
102.773499
 20
169.527693
 30
0.0
 11
102.773499
 21
170.200057
 31
0.0
  0
LINE
  5
5E5
330
A
100
AcDbEntity
  8
Hawa6
  6
DASHSPACE
 62
     3
 48
0.14625
100
AcDbLine
 10
102.773499
 20
169.527693
 30
0.0
 11
96.92349899999999
 21
169.527693
 31
0.0
  0
LINE
  5
5E6
330
A
100
AcDbEntity
  8
Hawa6
  6
DASHSPACE
 62
     3
 48
0.14625
100
AcDbLine
 10
102.773499
 20
168.3067460000002
 30
0.0
 11
96.92349899999999
 21
168.3067460000002
 31
0.0
  0
LINE
  5
5E7
330
A
100
AcDbEntity
  8
Hawa6
  6
DASHSPACE
 62
     3
 48
0.14625
100
AcDbLine
 10
102.773499
 20
186.3079670000002
 30
0.0
 11
96.92349899999999
 21
186.3079670000002
 31
0.0
  0
LINE
  5
5E8
330
A
100
AcDbEntity
  8
Hawa6
  6
DASHSPACE
 62
     3
 48
0.14625
100
AcDbLine
 10
102.773499
 20
185.748885
 30
0.0
 11
96.92349899999999
 21
185.748885
 31
0.0
  0
LINE
  5
5E9
330
A
100
AcDbEntity
  8
Hawa6
  6
DASHSPACE
 62
     3
 48
0.14625
100
AcDbLine
 10
102.773499
 20
170.7593830000001
 30
0.0
 11
96.92349899999999
 21
170.7593830000001
 31
0.0
  0
LINE
  5
5EA
330
A
100
AcDbEntity
  8
Hawa6
  6
DASHSPACE
 62
     3
 48
0.14625
100
AcDbLine
 10
102.773499
 20
170.200057
 30
0.0
 11
96.92349899999999
 21
170.200057
 31
0.0
  0
LINE
  5
5EB
330
A
100
AcDbEntity
  8
Hawa6
  6
DASHSPACE
 62
     3
 48
0.14625
100
AcDbLine
 10
96.92349899999999
 20
168.1541579999998
 30
0.0
 11
102.773499
 21
168.1541579999998
 31
0.0
  0
LINE
  5
5EC
330
A
100
AcDbEntity
  8
Hawa6
  6
DASHSPACE
 62
     3
 48
0.14625
100
AcDbLine
 10
96.92349899999999
 20
187.1541579999998
 30
0.0
 11
102.773499
 21
187.1541579999998
 31
0.0
  0
LINE
  5
5ED
330
A
100
AcDbEntity
  8
Hawa6
  6
DASHED
 62
     3
 48
0.21
100
AcDbLine
 10
93.773499
 20
90.07359200000021
 30
0.0
 11
102.173499
 21
90.07359200000021
 31
0.0
  0
LINE
  5
5EE
330
A
100
AcDbEntity
  8
Hawa6
  6
DASHED
 62
     3
 48
0.0375
100
AcDbLine
 10
93.773499
 20
90.07359200000021
 30
0.0
 11
93.773499
 21
88.57359200000018
 31
0.0
  0
LINE
  5
5EF
330
A
100
AcDbEntity
  8
Hawa6
  6
DASHED
 62
     3
 48
0.0375
100
AcDbLine
 10
102.173499
 20
90.07359200000021
 30
0.0
 11
102.173499
 21
88.57359200000018
 31
0.0
  0
LINE
  5
5F0
330
A
100
AcDbEntity
  8
Hawa6
  6
DASHED
 62
     3
 48
0.21
100
AcDbLine
 10
93.773499
 20
88.57359200000018
 30
0.0
 11
102.173499
 21
88.57359200000018
 31
0.0
  0
LINE
  5
5F2
330
A
100
AcDbEntity
  8
Hawa6
 62
     3
 48
0.0125
100
AcDbLine
 10
93.99849899999999
 20
100.5735920000002
 30
0.0
 11
93.99849899999999
 21
100.0735920000002
 31
0.0
  0
LINE
  5
5F3
330
A
100
AcDbEntity
  8
Hawa6
  6
DASHED
 62
     3
 48
0.25
100
AcDbLine
 10
93.99849899999999
 20
100.0735920000002
 30
0.0
 11
93.99849899999999
 21
90.07359200000021
 31
0.0
  0
LINE
  5
5F4
330
A
100
AcDbEntity
  8
Hawa6
 62
     3
 48
0.0125
100
AcDbLine
 10
101.948499
 20
100.5735920000002
 30
0.0
 11
101.948499
 21
100.0735920000002
 31
0.0
  0
LINE
  5
5F5
330
A
100
AcDbEntity
  8
Hawa6
  6
DASHED
 62
     3
 48
0.25
100
AcDbLine
 10
101.948499
 20
100.0735920000002
 30
0.0
 11
101.948499
 21
90.07359200000021
 31
0.0
  0
LINE
  5
5F6
330
A
100
AcDbEntity
  8
Hawa6
  6
DASHED
 62
     3
 48
0.066511
100
AcDbLine
 10
93.773499
 20
88.57359200000018
 30
0.0
 11
94.683425
 21
86.07359200000018
 31
0.0
  0
LINE
  5
5F7
330
A
100
AcDbEntity
  8
Hawa6
  6
DASHED
 62
     3
 48
0.066511
100
AcDbLine
 10
102.173499
 20
88.57359200000018
 30
0.0
 11
101.263573
 21
86.07359200000018
 31
0.0
  0
LINE
  5
5F8
330
A
100
AcDbEntity
  8
Hawa6
  6
DASHED
 62
     3
 48
0.164504
100
AcDbLine
 10
94.683425
 20
86.07359200000018
 30
0.0
 11
101.263573
 21
86.07359200000018
 31
0.0
  0
LINE
  5
5F9
330
A
100
AcDbEntity
  8
Hawa6
 62
     3
 48
0.2875
100
AcDbLine
 10
92.22349900000001
 20
100.5735920000002
 30
0.0
 11
103.723499
 21
100.5735920000002
 31
0.0
  0
LINE
  5
5FA
330
A
100
AcDbEntity
  8
Hawa6
 62
     3
 48
0.136877
100
AcDbLine
 10
92.22349900000001
 20
106.0486890000002
 30
0.0
 11
92.22349900000001
 21
100.5735920000002
 31
0.0
  0
LINE
  5
5FB
330
A
100
AcDbEntity
  8
Hawa6
 62
     3
 48
0.136877
100
AcDbLine
 10
103.723499
 20
106.0486890000002
 30
0.0
 11
103.723499
 21
100.5735920000002
 31
0.0
  0
LINE
  5
5FC
330
A
100
AcDbEntity
  8
Hawa6
 62
     3
 48
0.2875
100
AcDbLine
 10
92.22349900000001
 20
106.0486890000002
 30
0.0
 11
103.723499
 21
106.0486890000002
 31
0.0
  0
LINE
  5
5FD
330
A
100
AcDbEntity
  8
Hawa6
  6
DASHSPACE
 62
     3
 48
0.209375
100
AcDbLine
 10
92.973499
 20
118.4485920000002
 30
0.0
 11
92.973499
 21
110.0735920000002
 31
0.0
  0
LINE
  5
5FE
330
A
100
AcDbEntity
  8
Hawa6
 62
     3
 48
0.100623
100
AcDbLine
 10
92.973499
 20
110.0735920000002
 30
0.0
 11
92.973499
 21
106.0486890000002
 31
0.0
  0
LINE
  5
5FF
330
A
100
AcDbEntity
  8
Hawa6
  6
DASHSPACE
 62
     3
 48
0.267365
100
AcDbLine
 10
102.973499
 20
118.4485920000002
 30
0.0
 11
102.973499
 21
107.7540119999999
 31
0.0
  0
LINE
  5
600
330
A
100
AcDbEntity
  8
Hawa6
 62
     3
 48
0.042633
100
AcDbLine
 10
102.973499
 20
107.7540119999999
 30
0.0
 11
102.973499
 21
106.0486890000002
 31
0.0
  0
LINE
  5
601
330
A
100
AcDbEntity
  8
Hawa6
  6
DASHED
 62
     3
 48
0.08125
100
AcDbLine
 10
104.473499
 20
118.4485920000002
 30
0.0
 11
101.223499
 21
118.4485920000002
 31
0.0
  0
LINE
  5
602
330
A
100
AcDbEntity
  8
Hawa6
  6
DASHSPACE
 62
     3
 48
0.1625
100
AcDbLine
 10
101.223499
 20
118.4485920000002
 30
0.0
 11
94.72349900000001
 21
118.4485920000002
 31
0.0
  0
LINE
  5
603
330
A
100
AcDbEntity
  8
Hawa6
  6
DASHSPACE
 62
     3
 48
0.08125
100
AcDbLine
 10
94.72349900000001
 20
118.4485920000002
 30
0.0
 11
91.473499
 21
118.4485920000002
 31
0.0
  0
LWPOLYLINE
  5
604
330
A
100
AcDbEntity
  8
Hawa6
  6
DASHSPACE
 62
     3
100
AcDbPolyline
 90
       19
 70
     0
 43
0.0
 10
101.223499
 20
118.4485920000002
 10
101.059373
 20
118.4503009999999
 10
100.895314
 20
118.4551839999999
 10
100.730053
 20
118.4629960000002
 10
100.564974
 20
118.4742259999998
 10
100.397429
 20
118.488875
 10
100.230193
 20
118.5066969999998
 10
100.059137
 20
118.528182
 10
99.88851
 20
118.5528399999998
 10
99.712618
 20
118.581404
 10
99.537276
 20
118.6133869999999
 10
99.35510999999999
 20
118.6500080000001
 10
99.17361599999999
 20
118.6898030000002
 10
98.98358299999999
 20
118.7349690000001
 10
98.794342
 20
118.7833089999999
 10
98.59458700000001
 20
118.8377519999999
 10
98.395746
 20
118.8956130000001
 10
98.184108
 20
118.960799
 10
97.973499
 20
119.0291579999998
  0
LWPOLYLINE
  5
605
330
A
100
AcDbEntity
  8
Hawa6
  6
DASHSPACE
 62
     3
100
AcDbPolyline
 90
       15
 70
     0
 43
0.0
 10
94.856365
 20
118.4498119999998
 10
95.05850200000001
 20
118.4554280000002
 10
95.260437
 20
118.465682
 10
95.46538699999999
 20
118.4810619999998
 10
95.669924
 20
118.5013260000001
 10
95.87991800000001
 20
118.526961
 10
96.08926700000001
 20
118.5574780000002
 10
96.30675400000001
 20
118.5943440000001
 10
96.52337299999999
 20
118.6358479999999
 10
96.751081
 20
118.6846759999999
 10
96.977697
 20
118.7383869999999
 10
97.21877499999999
 20
118.8008869999999
 10
97.458536
 20
118.8682690000001
 10
97.71678100000002
 20
118.9461499999998
 10
97.973499
 20
119.0291579999998
  0
LINE
  5
606
330
A
100
AcDbEntity
  8
Hawa6
  6
DASHSPACE
 62
     3
 48
0.00331
100
AcDbLine
 10
94.72395999999999
 20
118.4485920000002
 30
0.0
 11
94.856365
 21
118.4498119999998
 31
0.0
  0
LWPOLYLINE
  5
607
330
A
100
AcDbEntity
  8
Hawa6
  6
DASHSPACE
 62
     3
100
AcDbPolyline
 90
       21
 70
     0
 43
0.0
 10
94.72303399999999
 20
118.4485920000002
 10
94.575382
 20
118.450057
 10
94.42778099999999
 20
118.4539629999999
 10
94.279314
 20
118.4603099999999
 10
94.13097999999999
 20
118.4693440000001
 10
93.98085999999999
 20
118.481307
 10
93.83096399999999
 20
118.4954670000002
 10
93.67830699999998
 20
118.5128009999999
 10
93.52596400000001
 20
118.5325760000001
 10
93.369829
 20
118.5557690000001
 10
93.21409499999999
 20
118.5811600000002
 10
93.05347199999999
 20
118.6104569999998
 10
92.893339
 20
118.6419510000001
 10
92.72714499999999
 20
118.677596
 10
92.561529
 20
118.7159259999999
 10
92.38854399999999
 20
118.7586499999998
 10
92.216225
 20
118.8040599999999
 10
92.03504800000001
 20
118.8548420000002
 10
91.85462599999999
 20
118.9080640000002
 10
91.66364399999999
 20
118.9673910000001
 10
91.473499
 20
119.0291579999998
  0
LWPOLYLINE
  5
608
330
A
100
AcDbEntity
  8
Hawa6
  6
DASHSPACE
 62
     3
100
AcDbPolyline
 90
       19
 70
     0
 43
0.0
 10
94.72349900000001
 20
123.9485920000002
 10
94.55937199999999
 20
123.9471269999999
 10
94.395313
 20
123.9422439999998
 10
94.230052
 20
123.9341869999998
 10
94.06497399999999
 20
123.9232010000001
 10
93.89742899999999
 20
123.9085530000002
 10
93.73019300000001
 20
123.8907300000001
 10
93.559137
 20
123.8692460000002
 10
93.38851099999999
 20
123.8445879999999
 10
93.212618
 20
123.815779
 10
93.037276
 20
123.7840409999999
 10
92.85510999999999
 20
123.7474200000001
 10
92.67361599999999
 20
123.707625
 10
92.48358299999999
 20
123.6624590000001
 10
92.294342
 20
123.6141189999998
 10
92.094587
 20
123.5596759999999
 10
91.895746
 20
123.5018140000002
 10
91.684108
 20
123.4366289999998
 10
91.473499
 20
123.3680249999998
  0
LINE
  5
609
330
A
100
AcDbEntity
  8
Hawa6
  6
DASHSPACE
 62
     3
 48
0.108472
100
AcDbLine
 10
91.473499
 20
123.3680249999998
 30
0.0
 11
91.473499
 21
119.0291579999998
 31
0.0
  0
LWPOLYLINE
  5
60B
330
A
100
AcDbEntity
  8
Hawa6
  6
DASHSPACE
 62
     3
100
AcDbPolyline
 90
       19
 70
     0
 43
0.0
 10
94.72349900000001
 20
118.4485920000002
 10
94.88762599999999
 20
118.4503009999999
 10
95.05168499999999
 20
118.4551839999999
 10
95.216946
 20
118.4629960000002
 10
95.38202400000001
 20
118.4742259999998
 10
95.54956899999998
 20
118.488875
 10
95.716806
 20
118.5066969999998
 10
95.887861
 20
118.528182
 10
96.05848700000001
 20
118.5528399999998
 10
96.23438
 20
118.581404
 10
96.409722
 20
118.6133869999999
 10
96.591888
 20
118.6500080000001
 10
96.77338200000001
 20
118.6898030000002
 10
96.963415
 20
118.7349690000001
 10
97.152656
 20
118.7833089999999
 10
97.35241100000001
 20
118.8377519999999
 10
97.55125200000001
 20
118.8956130000001
 10
97.76289
 20
118.960799
 10
97.973499
 20
119.0291579999998
  0
LINE
  5
60C
330
A
100
AcDbEntity
  8
Hawa6
  6
DASHSPACE
 62
     3
 48
0.108472
100
AcDbLine
 10
97.973499
 20
123.3680249999998
 30
0.0
 11
97.973499
 21
119.0291579999998
 31
0.0
  0
LWPOLYLINE
  5
60D
330
A
100
AcDbEntity
  8
Hawa6
  6
DASHSPACE
 62
     3
100
AcDbPolyline
 90
       21
 70
     0
 43
0.0
 10
97.973499
 20
123.3680249999998
 10
97.78333600000001
 20
123.4300370000001
 10
97.59233399999999
 20
123.4893630000001
 10
97.411895
 20
123.542586
 10
97.230702
 20
123.5933669999999
 10
97.058367
 20
123.6387770000001
 10
96.885367
 20
123.6815019999999
 10
96.71973600000001
 20
123.7198319999998
 10
96.55352700000001
 20
123.7554759999998
 10
96.393377
 20
123.786971
 10
96.232737
 20
123.816268
 10
96.07698
 20
123.8416579999998
 10
95.92082099999998
 20
123.8648509999998
 10
95.76844900000001
 20
123.8846269999999
 10
95.61576200000001
 20
123.901961
 10
95.46583099999999
 20
123.9161210000002
 10
95.315676
 20
123.9280840000001
 10
95.16730799999999
 20
123.9371169999999
 10
95.01880600000001
 20
123.9434649999998
 10
94.871177
 20
123.9473710000002
 10
94.72349900000001
 20
123.9485920000002
  0
LINE
  5
60E
330
A
100
AcDbEntity
  8
Hawa6
  6
DASHSPACE
 62
     3
 48
0.014514
100
AcDbLine
 10
91.473499
 20
118.4485920000002
 30
0.0
 11
91.473499
 21
119.0291579999998
 31
0.0
  0
LINE
  5
60F
330
A
100
AcDbEntity
  8
Hawa6
  6
DASHSPACE
 62
     3
 48
0.014514
100
AcDbLine
 10
91.473499
 20
123.3680249999998
 30
0.0
 11
91.473499
 21
123.9485920000002
 31
0.0
  0
LWPOLYLINE
  5
610
330
A
100
AcDbEntity
  8
Hawa6
  6
DASHED
 62
     3
100
AcDbPolyline
 90
       21
 70
     0
 43
0.0
 10
101.223964
 20
123.9485920000002
 10
101.371616
 20
123.9473710000002
 10
101.519217
 20
123.9434649999998
 10
101.667684
 20
123.9371169999999
 10
101.816018
 20
123.9280840000001
 10
101.966139
 20
123.9161210000002
 10
102.116034
 20
123.9017170000002
 10
102.268691
 20
123.8846269999999
 10
102.421034
 20
123.864607
 10
102.577169
 20
123.8416579999998
 10
102.732903
 20
123.8160229999999
 10
102.893526
 20
123.786971
 10
103.053659
 20
123.755232
 10
103.219853
 20
123.7195879999999
 10
103.385469
 20
123.6815019999999
 10
103.558454
 20
123.6387770000001
 10
103.730773
 20
123.5933669999999
 10
103.91195
 20
123.542586
 10
104.092372
 20
123.4893630000001
 10
104.283354
 20
123.4300370000001
 10
104.473499
 20
123.3680249999998
  0
LINE
  5
611
330
A
100
AcDbEntity
  8
Hawa6
  6
DASHSPACE
 62
     3
 48
0.00331
100
AcDbLine
 10
101.090633
 20
123.9476149999999
 30
0.0
 11
101.223038
 21
123.9485920000002
 31
0.0
  0
LWPOLYLINE
  5
612
330
A
100
AcDbEntity
  8
Hawa6
  6
DASHSPACE
 62
     3
100
AcDbPolyline
 90
       15
 70
     0
 43
0.0
 10
101.090633
 20
123.9476149999999
 10
100.888496
 20
123.942
 10
100.686561
 20
123.9317460000002
 10
100.481611
 20
123.916365
 10
100.277074
 20
123.8961009999998
 10
100.06708
 20
123.8702229999999
 10
99.85773100000001
 20
123.8397049999999
 10
99.64024399999999
 20
123.8030840000001
 10
99.42362500000001
 20
123.7615799999999
 10
99.19591699999999
 20
123.7127519999999
 10
98.969301
 20
123.6590409999999
 10
98.72822300000001
 20
123.5965409999999
 10
98.488462
 20
123.5291579999998
 10
98.23021699999999
 20
123.4510329999998
 10
97.973499
 20
123.3680249999998
  0
LWPOLYLINE
  5
613
330
A
100
AcDbEntity
  8
Hawa6
  6
DASHSPACE
 62
     3
100
AcDbPolyline
 90
       19
 70
     0
 43
0.0
 10
101.090633
 20
118.4498119999998
 10
100.833903
 20
118.457625
 10
100.575599
 20
118.4734939999998
 10
100.314637
 20
118.4971759999999
 10
100.049864
 20
118.5294020000001
 10
99.914812
 20
118.5486890000002
 10
99.78005299999999
 20
118.570174
 10
99.641795
 20
118.5940999999998
 10
99.503889
 20
118.6199780000002
 10
99.361726
 20
118.6485429999998
 10
99.219971
 20
118.6793050000001
 10
99.073147
 20
118.71324
 10
98.926788
 20
118.7491289999998
 10
98.77445000000001
 20
118.7884349999999
 10
98.622636
 20
118.8299390000002
 10
98.46382699999999
 20
118.8753499999998
 10
98.3056
 20
118.9229569999998
 10
98.139231
 20
118.9749590000001
 10
97.973499
 20
119.0291579999998
  0
LINE
  5
614
330
A
100
AcDbEntity
  8
Hawa6
  6
DASHSPACE
 62
     3
 48
0.00331
100
AcDbLine
 10
101.090633
 20
118.4498119999998
 30
0.0
 11
101.223038
 21
118.4485920000002
 31
0.0
  0
LWPOLYLINE
  5
615
330
A
100
AcDbEntity
  8
Hawa6
  6
DASHED
 62
     3
100
AcDbPolyline
 90
       21
 70
     0
 43
0.0
 10
101.223964
 20
118.4485920000002
 10
101.371616
 20
118.450057
 10
101.519217
 20
118.4539629999999
 10
101.667684
 20
118.4603099999999
 10
101.816018
 20
118.4693440000001
 10
101.966139
 20
118.481307
 10
102.116034
 20
118.4954670000002
 10
102.268691
 20
118.5128009999999
 10
102.421034
 20
118.5325760000001
 10
102.577169
 20
118.5557690000001
 10
102.732903
 20
118.5811600000002
 10
102.893526
 20
118.6104569999998
 10
103.053659
 20
118.6419510000001
 10
103.219853
 20
118.677596
 10
103.385469
 20
118.7159259999999
 10
103.558454
 20
118.7586499999998
 10
103.730773
 20
118.8040599999999
 10
103.91195
 20
118.8548420000002
 10
104.092372
 20
118.9080640000002
 10
104.283354
 20
118.9673910000001
 10
104.473499
 20
119.0291579999998
  0
LINE
  5
616
330
A
100
AcDbEntity
  8
Hawa6
  6
DASHED
 62
     3
 48
0.108472
100
AcDbLine
 10
104.473499
 20
123.3680249999998
 30
0.0
 11
104.473499
 21
119.0291579999998
 31
0.0
  0
LWPOLYLINE
  5
617
330
A
100
AcDbEntity
  8
Hawa6
  6
DASHSPACE
 62
     3
100
AcDbPolyline
 90
       21
 70
     0
 43
0.0
 10
94.72303399999999
 20
123.9485920000002
 10
94.575382
 20
123.9473710000002
 10
94.42778099999999
 20
123.9434649999998
 10
94.279314
 20
123.9371169999999
 10
94.13097999999999
 20
123.9280840000001
 10
93.98085999999999
 20
123.9161210000002
 10
93.83096399999999
 20
123.9017170000002
 10
93.67830699999998
 20
123.8846269999999
 10
93.52596400000001
 20
123.864607
 10
93.369829
 20
123.8416579999998
 10
93.21409499999999
 20
123.8160229999999
 10
93.05347199999999
 20
123.786971
 10
92.893339
 20
123.755232
 10
92.72714499999999
 20
123.7195879999999
 10
92.561529
 20
123.6815019999999
 10
92.38854399999999
 20
123.6387770000001
 10
92.216225
 20
123.5933669999999
 10
92.03504800000001
 20
123.542586
 10
91.85462599999999
 20
123.4893630000001
 10
91.66364399999999
 20
123.4300370000001
 10
91.473499
 20
123.3680249999998
  0
LINE
  5
618
330
A
100
AcDbEntity
  8
Hawa6
  6
DASHSPACE
 62
     3
 48
0.00331
100
AcDbLine
 10
94.72395999999999
 20
123.9485920000002
 30
0.0
 11
94.856365
 21
123.9476149999999
 31
0.0
  0
LWPOLYLINE
  5
619
330
A
100
AcDbEntity
  8
Hawa6
  6
DASHSPACE
 62
     3
100
AcDbPolyline
 90
       19
 70
     0
 43
0.0
 10
94.856365
 20
123.9476149999999
 10
95.11309500000001
 20
123.9398030000002
 10
95.37139899999999
 20
123.9239339999999
 10
95.63236100000001
 20
123.9000080000001
 10
95.89713399999999
 20
123.8680249999998
 10
96.03218599999999
 20
123.8487380000001
 10
96.166946
 20
123.8272539999998
 10
96.305203
 20
123.803328
 10
96.443109
 20
123.7774490000002
 10
96.58527200000001
 20
123.748885
 10
96.72702700000002
 20
123.7181230000001
 10
96.87385200000001
 20
123.6841869999998
 10
97.02021
 20
123.648299
 10
97.17254799999999
 20
123.6089919999999
 10
97.324362
 20
123.5674880000001
 10
97.48317100000001
 20
123.522078
 10
97.641398
 20
123.474471
 10
97.807767
 20
123.4222249999998
 10
97.973499
 20
123.3680249999998
  0
LINE
  5
61B
330
A
100
AcDbEntity
  8
Hawa6
  6
DASHED
 62
     3
 48
0.014514
100
AcDbLine
 10
104.473499
 20
123.3680249999998
 30
0.0
 11
104.473499
 21
123.9485920000002
 31
0.0
  0
LINE
  5
61C
330
A
100
AcDbEntity
  8
Hawa6
  6
DASHED
 62
     3
 48
0.014514
100
AcDbLine
 10
104.473499
 20
118.4485920000002
 30
0.0
 11
104.473499
 21
119.0291579999998
 31
0.0
  0
LWPOLYLINE
  5
61D
330
A
100
AcDbEntity
  8
Hawa6
  6
DASHED
 62
     3
100
AcDbPolyline
 90
       19
 70
     0
 43
0.0
 10
101.223499
 20
123.9485920000002
 10
101.387626
 20
123.9471269999999
 10
101.551685
 20
123.9422439999998
 10
101.716946
 20
123.9341869999998
 10
101.882024
 20
123.9232010000001
 10
102.049569
 20
123.9085530000002
 10
102.216805
 20
123.8907300000001
 10
102.387861
 20
123.8692460000002
 10
102.558488
 20
123.8445879999999
 10
102.73438
 20
123.815779
 10
102.909722
 20
123.7840409999999
 10
103.091888
 20
123.7474200000001
 10
103.273382
 20
123.707625
 10
103.463416
 20
123.6624590000001
 10
103.652656
 20
123.6141189999998
 10
103.852411
 20
123.5596759999999
 10
104.051252
 20
123.5018140000002
 10
104.26289
 20
123.4366289999998
 10
104.473499
 20
123.3680249999998
  0
LWPOLYLINE
  5
61F
330
A
100
AcDbEntity
  8
Hawa6
  6
DASHSPACE
 62
     3
100
AcDbPolyline
 90
       21
 70
     0
 43
0.0
 10
97.973499
 20
123.3680249999998
 10
98.163662
 20
123.4300370000001
 10
98.35466400000001
 20
123.4893630000001
 10
98.53510300000001
 20
123.542586
 10
98.716296
 20
123.5933669999999
 10
98.88863100000001
 20
123.6387770000001
 10
99.06163199999999
 20
123.6815019999999
 10
99.22726199999999
 20
123.7198319999998
 10
99.39347099999999
 20
123.7554759999998
 10
99.553621
 20
123.786971
 10
99.71426200000001
 20
123.816268
 10
99.87001800000001
 20
123.8416579999998
 10
100.026176
 20
123.8648509999998
 10
100.178549
 20
123.8846269999999
 10
100.331236
 20
123.901961
 10
100.481167
 20
123.9161210000002
 10
100.631322
 20
123.9280840000001
 10
100.77969
 20
123.9371169999999
 10
100.928193
 20
123.9434649999998
 10
101.075821
 20
123.9473710000002
 10
101.223499
 20
123.9485920000002
  0
LINE
  5
620
330
A
100
AcDbEntity
  8
Hawa6
  6
DASHSPACE
 62
     3
 48
0.403125
100
AcDbLine
 10
92.973499
 20
140.0735920000002
 30
0.0
 11
92.973499
 21
123.9485920000002
 31
0.0
  0
LINE
  5
621
330
A
100
AcDbEntity
  8
Hawa6
  6
DASHSPACE
 62
     3
 48
0.403125
100
AcDbLine
 10
102.973499
 20
140.0735920000002
 30
0.0
 11
102.973499
 21
123.9485920000002
 31
0.0
  0
LINE
  5
622
330
A
100
AcDbEntity
  8
Hawa6
  6
DASHED
 62
     3
 48
0.08125
100
AcDbLine
 10
104.473499
 20
140.0735920000002
 30
0.0
 11
101.223499
 21
140.0735920000002
 31
0.0
  0
LINE
  5
623
330
A
100
AcDbEntity
  8
Hawa6
  6
DASHSPACE
 62
     3
 48
0.126384
100
AcDbLine
 10
99.778864
 20
140.0735920000002
 30
0.0
 11
94.72349900000001
 21
140.0735920000002
 31
0.0
  0
LINE
  5
624
330
A
100
AcDbEntity
  8
Hawa6
  6
DASHSPACE
 62
     3
 48
0.036116
100
AcDbLine
 10
101.223499
 20
140.0735920000002
 30
0.0
 11
99.778864
 21
140.0735920000002
 31
0.0
  0
LINE
  5
625
330
A
100
AcDbEntity
  8
Hawa6
  6
DASHSPACE
 62
     3
 48
0.067502
100
AcDbLine
 10
94.17357199999999
 20
140.0735920000002
 30
0.0
 11
91.473499
 21
140.0735920000002
 31
0.0
  0
LINE
  5
626
330
A
100
AcDbEntity
  8
Hawa6
  6
DASHSPACE
 62
     3
 48
0.013748
100
AcDbLine
 10
94.72349900000001
 20
140.0735920000002
 30
0.0
 11
94.17357199999999
 21
140.0735920000002
 31
0.0
  0
LINE
  5
627
330
A
100
AcDbEntity
  8
Hawa6
  6
DASHED
 62
     3
 48
0.08125
100
AcDbLine
 10
101.223499
 20
123.9485920000002
 30
0.0
 11
104.473499
 21
123.9485920000002
 31
0.0
  0
LINE
  5
628
330
A
100
AcDbEntity
  8
Hawa6
  6
DASHSPACE
 62
     3
 48
0.1625
100
AcDbLine
 10
94.72349900000001
 20
123.9485920000002
 30
0.0
 11
101.223499
 21
123.9485920000002
 31
0.0
  0
LINE
  5
629
330
A
100
AcDbEntity
  8
Hawa6
  6
DASHSPACE
 62
     3
 48
0.08125
100
AcDbLine
 10
91.473499
 20
123.9485920000002
 30
0.0
 11
94.72349900000001
 21
123.9485920000002
 31
0.0
  0
LWPOLYLINE
  5
62A
330
A
100
AcDbEntity
  8
Hawa6
  6
DASHSPACE
 62
     3
100
AcDbPolyline
 90
       19
 70
     0
 43
0.0
 10
101.223499
 20
140.0735920000002
 10
101.05937
 20
140.0753009999999
 10
100.895309
 20
140.0801839999999
 10
100.730043
 20
140.0879960000002
 10
100.564959
 20
140.0992259999998
 10
100.397404
 20
140.113875
 10
100.230158
 20
140.1316969999998
 10
100.059088
 20
140.153182
 10
99.888448
 20
140.1778399999998
 10
99.712542
 20
140.2066479999999
 10
99.53718700000001
 20
140.2383869999999
 10
99.355015
 20
140.2750080000001
 10
99.17351600000001
 20
140.3148030000002
 10
98.98349600000001
 20
140.3599690000001
 10
98.794269
 20
140.4083089999999
 10
98.59454200000001
 20
140.4627519999999
 10
98.39573000000001
 20
140.5206130000001
 10
98.1841
 20
140.585799
 10
97.973499
 20
140.6541579999998
  0
LWPOLYLINE
  5
62B
330
A
100
AcDbEntity
  8
Hawa6
  6
DASHSPACE
 62
     3
100
AcDbPolyline
 90
       19
 70
     0
 43
0.0
 10
94.856365
 20
140.0748119999998
 10
95.11308900000001
 20
140.082625
 10
95.371391
 20
140.0984939999998
 10
95.63235500000001
 20
140.1221759999999
 10
95.897135
 20
140.1544020000001
 10
96.032194
 20
140.1736890000002
 10
96.166958
 20
140.195174
 10
96.30521999999999
 20
140.2190999999998
 10
96.44313099999999
 20
140.2449780000002
 10
96.585295
 20
140.2735429999998
 10
96.72705
 20
140.3043050000001
 10
96.87387300000001
 20
140.33824
 10
97.02022900000001
 20
140.3741289999998
 10
97.17256500000001
 20
140.4134349999999
 10
97.324376
 20
140.4549390000002
 10
97.48318199999999
 20
140.5003499999998
 10
97.64140600000001
 20
140.5479569999998
 10
97.80777100000001
 20
140.600203
 10
97.973499
 20
140.6541579999998
  0
LINE
  5
62C
330
A
100
AcDbEntity
  8
Hawa6
  6
DASHSPACE
 62
     3
 48
0.003322
100
AcDbLine
 10
94.723497
 20
140.0735920000002
 30
0.0
 11
94.856365
 21
140.0748119999998
 31
0.0
  0
LWPOLYLINE
  5
62D
330
A
100
AcDbEntity
  8
Hawa6
  6
DASHED
 62
     3
100
AcDbPolyline
 90
       21
 70
     0
 43
0.0
 10
104.473499
 20
140.6541579999998
 10
104.283342
 20
140.5923910000001
 10
104.092346
 20
140.5330640000002
 10
103.911932
 20
140.4798420000002
 10
103.730762
 20
140.4290599999999
 10
103.558447
 20
140.3836499999998
 10
103.385464
 20
140.3409259999999
 10
103.219833
 20
140.302596
 10
103.053622
 20
140.2669510000001
 10
102.893463
 20
140.2354569999998
 10
102.732813
 20
140.2061600000002
 10
102.577044
 20
140.1807690000001
 10
102.420872
 20
140.1575760000001
 10
102.268488
 20
140.1378009999999
 10
102.11579
 20
140.1204670000002
 10
101.965851
 20
140.106307
 10
101.815688
 20
140.0943440000001
 10
101.667315
 20
140.0853099999999
 10
101.518809
 20
140.0789629999999
 10
101.371179
 20
140.075057
 10
101.223499
 20
140.0735920000002
  0
ARC
  5
62E
330
A
100
AcDbEntity
  8
Hawa6
  6
DASHSPACE
 62
     3
100
AcDbCircle
 10
94.72432600000001
 20
138.0784749999998
 30
0.0
 40
8.495161999999998
100
AcDbArc
 50
90.00557600000004
 51
93.71327599999997
  0
LWPOLYLINE
  5
62F
330
A
100
AcDbEntity
  8
Hawa6
  6
DASHSPACE
 62
     3
100
AcDbPolyline
 90
       15
 70
     0
 43
0.0
 10
94.174149
 20
146.5557690000001
 10
93.99956000000001
 20
146.5428299999999
 10
93.82527299999999
 20
146.5262280000002
 10
93.64722099999999
 20
146.505721
 10
93.469603
 20
146.4817950000001
 10
93.28659399999999
 20
146.4534749999998
 10
93.10416100000001
 20
146.4214919999999
 10
92.914583
 20
146.3846269999999
 10
92.72572
 20
146.3443440000001
 10
92.52779399999999
 20
146.2982010000001
 10
92.33071999999999
 20
146.2486410000001
 10
92.122352
 20
146.1924880000001
 10
91.914978
 20
146.1324300000001
 10
91.69367599999999
 20
146.0645589999999
 10
91.473499
 20
145.9930249999998
  0
LINE
  5
630
330
A
100
AcDbEntity
  8
Hawa6
  6
DASHSPACE
 62
     3
 48
0.133472
100
AcDbLine
 10
91.473499
 20
145.9930249999998
 30
0.0
 11
91.473499
 21
140.6541579999998
 31
0.0
  0
LWPOLYLINE
  5
631
330
A
100
AcDbEntity
  8
Hawa6
  6
DASHSPACE
 62
     3
100
AcDbPolyline
 90
       17
 70
     0
 43
0.0
 10
91.473499
 20
140.6541579999998
 10
91.66692500000001
 20
140.5911700000001
 10
91.86121899999999
 20
140.5308669999999
 10
92.044586
 20
140.476912
 10
92.22873299999999
 20
140.425643
 10
92.40376899999999
 20
140.3797439999998
 10
92.57949100000001
 20
140.3367749999998
 10
92.74767500000001
 20
140.2982010000001
 10
92.916453
 20
140.2623119999998
 10
93.079052
 20
140.2305740000002
 10
93.24215200000001
 20
140.201521
 10
93.40029900000001
 20
140.1758869999999
 10
93.55885499999999
 20
140.153182
 10
93.71360499999999
 20
140.1336499999998
 10
93.86866799999999
 20
140.116805
 10
94.020998
 20
140.1028889999998
 10
94.17355399999999
 20
140.0916579999998
  0
ARC
  5
632
330
A
100
AcDbEntity
  8
Hawa6
  6
DASHSPACE
 62
     3
100
AcDbCircle
 10
94.72432799999999
 20
148.568953
 30
0.0
 40
8.495271
100
AcDbArc
 50
266.2827290000001
 51
269.994404
  0
LWPOLYLINE
  5
633
330
A
100
AcDbEntity
  8
Hawa6
  6
DASHSPACE
 62
     3
100
AcDbPolyline
 90
       19
 70
     0
 43
0.0
 10
94.72349900000001
 20
140.0735920000002
 10
94.88762800000001
 20
140.0753009999999
 10
95.05168799999999
 20
140.0801839999999
 10
95.21695499999999
 20
140.0879960000002
 10
95.382039
 20
140.0992259999998
 10
95.54959399999999
 20
140.113875
 10
95.71684000000001
 20
140.1316969999998
 10
95.88790999999998
 20
140.153182
 10
96.05855
 20
140.1778399999998
 10
96.234456
 20
140.2066479999999
 10
96.40981
 20
140.2383869999999
 10
96.59198299999999
 20
140.2750080000001
 10
96.773483
 20
140.3148030000002
 10
96.96350200000001
 20
140.3599690000001
 10
97.152729
 20
140.4083089999999
 10
97.352456
 20
140.4627519999999
 10
97.55126799999999
 20
140.5206130000001
 10
97.762898
 20
140.585799
 10
97.973499
 20
140.6541579999998
  0
LINE
  5
634
330
A
100
AcDbEntity
  8
Hawa6
  6
DASHSPACE
 62
     3
 48
0.133472
100
AcDbLine
 10
97.973499
 20
145.9930249999998
 30
0.0
 11
97.973499
 21
140.6541579999998
 31
0.0
  0
LWPOLYLINE
  5
635
330
A
100
AcDbEntity
  8
Hawa6
  6
DASHSPACE
 62
     3
100
AcDbPolyline
 90
       21
 70
     0
 43
0.0
 10
97.973499
 20
145.9930249999998
 10
97.78334200000001
 20
146.0550370000001
 10
97.59234599999999
 20
146.1143630000001
 10
97.41193199999999
 20
146.167586
 10
97.230763
 20
146.2183669999999
 10
97.058447
 20
146.2637770000001
 10
96.88546399999999
 20
146.3065019999999
 10
96.719833
 20
146.3445879999999
 10
96.553622
 20
146.380232
 10
96.39346299999999
 20
146.411971
 10
96.232813
 20
146.4410229999999
 10
96.07704400000001
 20
146.4666579999998
 10
95.92087199999999
 20
146.4898509999998
 10
95.768488
 20
146.5096269999999
 10
95.61579
 20
146.526961
 10
95.46585099999999
 20
146.5411210000002
 10
95.315688
 20
146.5530840000001
 10
95.167315
 20
146.5621169999999
 10
95.01880899999999
 20
146.5684649999998
 10
94.87117899999999
 20
146.5723710000002
 10
94.72349900000001
 20
146.5735920000002
  0
LINE
  5
636
330
A
100
AcDbEntity
  8
Hawa6
  6
DASHSPACE
 62
     3
 48
0.014514
100
AcDbLine
 10
91.473499
 20
140.0735920000002
 30
0.0
 11
91.473499
 21
140.6541579999998
 31
0.0
  0
LINE
  5
637
330
A
100
AcDbEntity
  8
Hawa6
  6
DASHSPACE
 62
     3
 48
0.014514
100
AcDbLine
 10
91.473499
 20
145.9930249999998
 30
0.0
 11
91.473499
 21
146.5735920000002
 31
0.0
  0
LWPOLYLINE
  5
638
330
A
100
AcDbEntity
  8
Hawa6
  6
DASHED
 62
     3
100
AcDbPolyline
 90
       21
 70
     0
 43
0.0
 10
101.223501
 20
146.5735920000002
 10
101.371176
 20
146.5723710000002
 10
101.518802
 20
146.5684649999998
 10
101.667296
 20
146.5621169999999
 10
101.815656
 20
146.5530840000001
 10
101.965808
 20
146.5411210000002
 10
102.115734
 20
146.526961
 10
102.268425
 20
146.5096269999999
 10
102.420802
 20
146.4898509999998
 10
102.576972
 20
146.4666579999998
 10
102.73274
 20
146.441268
 10
102.893395
 20
146.411971
 10
103.053559
 20
146.3804759999998
 10
103.219777
 20
146.3445879999999
 10
103.385416
 20
146.3065019999999
 10
103.558405
 20
146.2637770000001
 10
103.730729
 20
146.2183669999999
 10
103.911906
 20
146.167586
 10
104.092328
 20
146.1143630000001
 10
104.283333
 20
146.0550370000001
 10
104.473499
 20
145.9930249999998
  0
LINE
  5
639
330
A
100
AcDbEntity
  8
Hawa6
  6
DASHSPACE
 62
     3
 48
0.003322
100
AcDbLine
 10
101.090633
 20
146.572615
 30
0.0
 11
101.223501
 21
146.5735920000002
 31
0.0
  0
ARC
  5
63A
330
A
100
AcDbEntity
  8
Hawa6
  6
DASHSPACE
 62
     3
100
AcDbCircle
 10
101.243793
 20
137.7273999999998
 30
0.0
 40
8.846766
100
AcDbArc
 50
90.99199900000003
 51
99.565361
  0
ARC
  5
63B
330
A
100
AcDbEntity
  8
Hawa6
  6
DASHSPACE
 62
     3
100
AcDbCircle
 10
101.788865
 20
134.7974690000001
 30
0.0
 40
11.827348
100
AcDbArc
 50
99.81061899999986
 51
108.8185049999999
  0
ARC
  5
63C
330
A
100
AcDbEntity
  8
Hawa6
  6
DASHSPACE
 62
     3
100
AcDbCircle
 10
101.243819
 20
148.9205160000001
 30
0.0
 40
8.847127
100
AcDbArc
 50
260.4302670000002
 51
269.007872
  0
ARC
  5
63D
330
A
100
AcDbEntity
  8
Hawa6
  6
DASHSPACE
 62
     3
100
AcDbCircle
 10
101.789141
 20
151.8509349999999
 30
0.0
 40
11.828384
100
AcDbArc
 50
251.181789
 51
260.185453
  0
LINE
  5
63E
330
A
100
AcDbEntity
  8
Hawa6
  6
DASHSPACE
 62
     3
 48
0.003322
100
AcDbLine
 10
101.090633
 20
140.0748119999998
 30
0.0
 11
101.223501
 21
140.0735920000002
 31
0.0
  0
LINE
  5
640
330
A
100
AcDbEntity
  8
Hawa6
  6
DASHED
 62
     3
 48
0.133472
100
AcDbLine
 10
104.473499
 20
145.9930249999998
 30
0.0
 11
104.473499
 21
140.6541579999998
 31
0.0
  0
LWPOLYLINE
  5
641
330
A
100
AcDbEntity
  8
Hawa6
  6
DASHSPACE
 62
     3
100
AcDbPolyline
 90
       21
 70
     0
 43
0.0
 10
94.723497
 20
146.5735920000002
 10
94.575822
 20
146.5723710000002
 10
94.42819599999999
 20
146.5684649999998
 10
94.279702
 20
146.5621169999999
 10
94.131341
 20
146.5530840000001
 10
93.98118999999999
 20
146.5411210000002
 10
93.831264
 20
146.526961
 10
93.678574
 20
146.5096269999999
 10
93.52619699999999
 20
146.4898509999998
 10
93.37002599999999
 20
146.4666579999998
 10
93.214258
 20
146.441268
 10
93.053603
 20
146.411971
 10
92.893439
 20
146.3804759999998
 10
92.72722100000001
 20
146.3445879999999
 10
92.561583
 20
146.3065019999999
 10
92.38859299999999
 20
146.2637770000001
 10
92.216269
 20
146.2183669999999
 10
92.035092
 20
146.167586
 10
91.85467
 20
146.1143630000001
 10
91.663665
 20
146.0550370000001
 10
91.473499
 20
145.9930249999998
  0
LINE
  5
642
330
A
100
AcDbEntity
  8
Hawa6
  6
DASHSPACE
 62
     3
 48
0.003322
100
AcDbLine
 10
94.723497
 20
146.5735920000002
 30
0.0
 11
94.856365
 21
146.572615
 31
0.0
  0
LWPOLYLINE
  5
643
330
A
100
AcDbEntity
  8
Hawa6
  6
DASHSPACE
 62
     3
100
AcDbPolyline
 90
       19
 70
     0
 43
0.0
 10
94.856365
 20
146.572615
 10
95.11308900000001
 20
146.5648030000002
 10
95.371391
 20
146.5489339999999
 10
95.63235500000001
 20
146.5250080000001
 10
95.897135
 20
146.4930249999998
 10
96.032194
 20
146.4734939999998
 10
96.166958
 20
146.4522539999998
 10
96.30521999999999
 20
146.428328
 10
96.44313099999999
 20
146.4024490000002
 10
96.585295
 20
146.373885
 10
96.72705
 20
146.3431230000001
 10
96.87387300000001
 20
146.3091869999998
 10
97.02022900000001
 20
146.273299
 10
97.17256500000001
 20
146.2339919999999
 10
97.324376
 20
146.1924880000001
 10
97.48318199999999
 20
146.147078
 10
97.64140600000001
 20
146.099471
 10
97.80777100000001
 20
146.0472249999998
 10
97.973499
 20
145.9930249999998
  0
LWPOLYLINE
  5
645
330
A
100
AcDbEntity
  8
Hawa6
  6
DASHSPACE
 62
     3
100
AcDbPolyline
 90
       21
 70
     0
 43
0.0
 10
94.723497
 20
140.0735920000002
 10
94.575822
 20
140.075057
 10
94.42819599999999
 20
140.0789629999999
 10
94.279702
 20
140.0853099999999
 10
94.131341
 20
140.0943440000001
 10
93.98118999999999
 20
140.106307
 10
93.831264
 20
140.1204670000002
 10
93.678574
 20
140.1378009999999
 10
93.52619699999999
 20
140.1575760000001
 10
93.37002599999999
 20
140.1807690000001
 10
93.214258
 20
140.2061600000002
 10
93.053603
 20
140.2354569999998
 10
92.893439
 20
140.2669510000001
 10
92.72722100000001
 20
140.302596
 10
92.561583
 20
140.3409259999999
 10
92.38859299999999
 20
140.3836499999998
 10
92.216269
 20
140.4290599999999
 10
92.035092
 20
140.4795979999999
 10
91.85467
 20
140.5330640000002
 10
91.663665
 20
140.5923910000001
 10
91.473499
 20
140.6541579999998
  0
LINE
  5
646
330
A
100
AcDbEntity
  8
Hawa6
  6
DASHED
 62
     3
 48
0.014514
100
AcDbLine
 10
104.473499
 20
145.9930249999998
 30
0.0
 11
104.473499
 21
146.5735920000002
 31
0.0
  0
LINE
  5
647
330
A
100
AcDbEntity
  8
Hawa6
  6
DASHED
 62
     3
 48
0.014514
100
AcDbLine
 10
104.473499
 20
140.0735920000002
 30
0.0
 11
104.473499
 21
140.6541579999998
 31
0.0
  0
LWPOLYLINE
  5
648
330
A
100
AcDbEntity
  8
Hawa6
  6
DASHED
 62
     3
100
AcDbPolyline
 90
       19
 70
     0
 43
0.0
 10
101.223499
 20
146.5735920000002
 10
101.387628
 20
146.5721269999999
 10
101.551689
 20
146.5672439999998
 10
101.716955
 20
146.5591869999998
 10
101.882039
 20
146.5482010000001
 10
102.049594
 20
146.5335530000002
 10
102.21684
 20
146.5157300000001
 10
102.38791
 20
146.4942460000002
 10
102.55855
 20
146.4695879999999
 10
102.734456
 20
146.440779
 10
102.909811
 20
146.4090409999999
 10
103.091983
 20
146.3724200000001
 10
103.273482
 20
146.332625
 10
103.463502
 20
146.2874590000001
 10
103.652729
 20
146.2391189999998
 10
103.852456
 20
146.1846759999999
 10
104.051268
 20
146.1268140000002
 10
104.262897
 20
146.0616289999998
 10
104.473499
 20
145.9930249999998
  0
LWPOLYLINE
  5
649
330
A
100
AcDbEntity
  8
Hawa6
  6
DASHSPACE
 62
     3
100
AcDbPolyline
 90
       21
 70
     0
 43
0.0
 10
97.973499
 20
145.9930249999998
 10
98.16365600000001
 20
146.0550370000001
 10
98.35465200000001
 20
146.1143630000001
 10
98.53506600000001
 20
146.167586
 10
98.716235
 20
146.2183669999999
 10
98.888551
 20
146.2637770000001
 10
99.061534
 20
146.3065019999999
 10
99.22716499999999
 20
146.3445879999999
 10
99.39337600000001
 20
146.380232
 10
99.55353500000001
 20
146.411971
 10
99.714185
 20
146.4410229999999
 10
99.86995400000001
 20
146.4666579999998
 10
100.026126
 20
146.4898509999998
 10
100.17851
 20
146.5096269999999
 10
100.331208
 20
146.526961
 10
100.481147
 20
146.5411210000002
 10
100.63131
 20
146.5530840000001
 10
100.779683
 20
146.5621169999999
 10
100.928189
 20
146.5684649999998
 10
101.075819
 20
146.5723710000002
 10
101.223499
 20
146.5735920000002
  0
LINE
  5
64A
330
A
100
AcDbEntity
  8
Hawa6
  6
DASHED
 62
     3
 48
0.08125
100
AcDbLine
 10
104.473499
 20
146.5735920000002
 30
0.0
 11
101.223499
 21
146.5735920000002
 31
0.0
  0
LINE
  5
64B
330
A
100
AcDbEntity
  8
Hawa6
  6
DASHSPACE
 62
     3
 48
0.126384
100
AcDbLine
 10
99.77886599999999
 20
146.5735920000002
 30
0.0
 11
94.72349900000001
 21
146.5735920000002
 31
0.0
  0
LINE
  5
64C
330
A
100
AcDbEntity
  8
Hawa6
  6
DASHSPACE
 62
     3
 48
0.036116
100
AcDbLine
 10
101.223499
 20
146.5735920000002
 30
0.0
 11
99.77886599999999
 21
146.5735920000002
 31
0.0
  0
LINE
  5
64D
330
A
100
AcDbEntity
  8
Hawa6
  6
DASHSPACE
 62
     3
 48
0.067502
100
AcDbLine
 10
94.17357199999999
 20
146.5735920000002
 30
0.0
 11
91.473499
 21
146.5735920000002
 31
0.0
  0
LINE
  5
64E
330
A
100
AcDbEntity
  8
Hawa6
  6
DASHSPACE
 62
     3
 48
0.013748
100
AcDbLine
 10
94.72349900000001
 20
146.5735920000002
 30
0.0
 11
94.17357199999999
 21
146.5735920000002
 31
0.0
  0
LINE
  5
64F
330
A
100
AcDbEntity
  8
Hawa6
 62
     3
 48
0.0125
100
AcDbLine
 10
104.073499
 20
85.07359200000019
 30
0.0
 11
104.573499
 21
85.07359200000019
 31
0.0
  0
LINE
  5
650
330
A
100
AcDbEntity
  8
Hawa6
 62
     3
 48
0.0125
100
AcDbLine
 10
103.573499
 20
85.07359200000019
 30
0.0
 11
104.073499
 21
85.07359200000019
 31
0.0
  0
LINE
  5
651
330
A
100
AcDbEntity
  8
Hawa6
 62
     3
 48
0.025
100
AcDbLine
 10
102.573499
 20
85.07359200000019
 30
0.0
 11
103.573499
 21
85.07359200000019
 31
0.0
  0
LINE
  5
652
330
A
100
AcDbEntity
  8
Hawa6
 62
     3
 48
0.0525
100
AcDbLine
 10
100.473499
 20
85.07359200000019
 30
0.0
 11
102.573499
 21
85.07359200000019
 31
0.0
  0
LINE
  5
653
330
A
100
AcDbEntity
  8
Hawa6
 62
     3
 48
0.025
100
AcDbLine
 10
99.473499
 20
85.07359200000019
 30
0.0
 11
100.473499
 21
85.07359200000019
 31
0.0
  0
LINE
  5
654
330
A
100
AcDbEntity
  8
Hawa6
 62
     3
 48
0.0375
100
AcDbLine
 10
97.973499
 20
85.07359200000019
 30
0.0
 11
99.473499
 21
85.07359200000019
 31
0.0
  0
LINE
  5
655
330
A
100
AcDbEntity
  8
Hawa6
 62
     3
 48
0.0375
100
AcDbLine
 10
97.973499
 20
85.07359200000019
 30
0.0
 11
96.47349900000001
 21
85.07359200000019
 31
0.0
  0
LINE
  5
656
330
A
100
AcDbEntity
  8
Hawa6
 62
     3
 48
0.025
100
AcDbLine
 10
95.473499
 20
85.07359200000019
 30
0.0
 11
96.47349900000001
 21
85.07359200000019
 31
0.0
  0
LINE
  5
657
330
A
100
AcDbEntity
  8
Hawa6
 62
     3
 48
0.0525
100
AcDbLine
 10
93.37349899999999
 20
85.07359200000019
 30
0.0
 11
95.473499
 21
85.07359200000019
 31
0.0
  0
LINE
  5
658
330
A
100
AcDbEntity
  8
Hawa6
 62
     3
 48
0.025
100
AcDbLine
 10
92.37349899999999
 20
85.07359200000019
 30
0.0
 11
93.37349899999999
 21
85.07359200000019
 31
0.0
  0
LINE
  5
659
330
A
100
AcDbEntity
  8
Hawa6
 62
     3
 48
0.0125
100
AcDbLine
 10
92.37349899999999
 20
85.07359200000019
 30
0.0
 11
91.87349899999999
 21
85.07359200000019
 31
0.0
  0
LINE
  5
65A
330
A
100
AcDbEntity
  8
Hawa6
 62
     3
 48
0.0125
100
AcDbLine
 10
91.373499
 20
85.07359200000019
 30
0.0
 11
91.87349899999999
 21
85.07359200000019
 31
0.0
  0
LINE
  5
65B
330
A
100
AcDbEntity
  8
Hawa6
 62
     3
 48
0.0375
100
AcDbLine
 10
97.973499
 20
100.0735920000002
 30
0.0
 11
96.47349900000001
 21
100.0735920000002
 31
0.0
  0
LINE
  5
65C
330
A
100
AcDbEntity
  8
Hawa6
 62
     3
 48
0.025
100
AcDbLine
 10
95.473499
 20
100.0735920000002
 30
0.0
 11
96.47349900000001
 21
100.0735920000002
 31
0.0
  0
LINE
  5
65D
330
A
100
AcDbEntity
  8
Hawa6
 62
     3
 48
0.0525
100
AcDbLine
 10
93.37349899999999
 20
100.0735920000002
 30
0.0
 11
95.473499
 21
100.0735920000002
 31
0.0
  0
LINE
  5
65E
330
A
100
AcDbEntity
  8
Hawa6
 62
     3
 48
0.025
100
AcDbLine
 10
92.37349899999999
 20
100.0735920000002
 30
0.0
 11
93.37349899999999
 21
100.0735920000002
 31
0.0
  0
LINE
  5
65F
330
A
100
AcDbEntity
  8
Hawa6
 62
     3
 48
0.0125
100
AcDbLine
 10
92.37349899999999
 20
100.0735920000002
 30
0.0
 11
91.87349899999999
 21
100.0735920000002
 31
0.0
  0
LINE
  5
660
330
A
100
AcDbEntity
  8
Hawa6
 62
     3
 48
0.025
100
AcDbLine
 10
90.87349899999999
 20
100.0735920000002
 30
0.0
 11
91.87349899999999
 21
100.0735920000002
 31
0.0
  0
LINE
  5
661
330
A
100
AcDbEntity
  8
Hawa6
 62
     3
 48
0.025
100
AcDbLine
 10
104.073499
 20
100.0735920000002
 30
0.0
 11
105.073499
 21
100.0735920000002
 31
0.0
  0
LINE
  5
662
330
A
100
AcDbEntity
  8
Hawa6
 62
     3
 48
0.0125
100
AcDbLine
 10
103.573499
 20
100.0735920000002
 30
0.0
 11
104.073499
 21
100.0735920000002
 31
0.0
  0
LINE
  5
663
330
A
100
AcDbEntity
  8
Hawa6
 62
     3
 48
0.025
100
AcDbLine
 10
102.573499
 20
100.0735920000002
 30
0.0
 11
103.573499
 21
100.0735920000002
 31
0.0
  0
LINE
  5
664
330
A
100
AcDbEntity
  8
Hawa6
 62
     3
 48
0.0525
100
AcDbLine
 10
100.473499
 20
100.0735920000002
 30
0.0
 11
102.573499
 21
100.0735920000002
 31
0.0
  0
LINE
  5
665
330
A
100
AcDbEntity
  8
Hawa6
 62
     3
 48
0.025
100
AcDbLine
 10
99.473499
 20
100.0735920000002
 30
0.0
 11
100.473499
 21
100.0735920000002
 31
0.0
  0
LINE
  5
666
330
A
100
AcDbEntity
  8
Hawa6
 62
     3
 48
0.0375
100
AcDbLine
 10
97.973499
 20
100.0735920000002
 30
0.0
 11
99.473499
 21
100.0735920000002
 31
0.0
  0
LINE
  5
667
330
A
100
AcDbEntity
  8
Hawa6
 62
     3
 48
0.048301
100
AcDbLine
 10
104.573499
 20
85.07359200000019
 30
0.0
 11
105.073499
 21
86.93980300000021
 31
0.0
  0
LINE
  5
668
330
A
100
AcDbEntity
  8
Hawa6
 62
     3
 48
0.375
100
AcDbLine
 10
104.073499
 20
100.0735920000002
 30
0.0
 11
104.073499
 21
85.07359200000019
 31
0.0
  0
LINE
  5
669
330
A
100
AcDbEntity
  8
Hawa6
 62
     3
 48
0.375
100
AcDbLine
 10
103.573499
 20
100.0735920000002
 30
0.0
 11
103.573499
 21
85.07359200000019
 31
0.0
  0
LINE
  5
66A
330
A
100
AcDbEntity
  8
Hawa6
 62
     3
 48
0.375
100
AcDbLine
 10
102.573499
 20
100.0735920000002
 30
0.0
 11
102.573499
 21
85.07359200000019
 31
0.0
  0
LINE
  5
66B
330
A
100
AcDbEntity
  8
Hawa6
 62
     3
 48
0.375
100
AcDbLine
 10
100.473499
 20
100.0735920000002
 30
0.0
 11
100.473499
 21
85.07359200000019
 31
0.0
  0
LINE
  5
66C
330
A
100
AcDbEntity
  8
Hawa6
 62
     3
 48
0.375
100
AcDbLine
 10
99.473499
 20
100.0735920000002
 30
0.0
 11
99.473499
 21
85.07359200000019
 31
0.0
  0
LINE
  5
66D
330
A
100
AcDbEntity
  8
Hawa6
 62
     3
 48
0.375
100
AcDbLine
 10
96.47349900000001
 20
100.0735920000002
 30
0.0
 11
96.47349900000001
 21
85.07359200000019
 31
0.0
  0
LINE
  5
66E
330
A
100
AcDbEntity
  8
Hawa6
 62
     3
 48
0.375
100
AcDbLine
 10
95.473499
 20
100.0735920000002
 30
0.0
 11
95.473499
 21
85.07359200000019
 31
0.0
  0
LINE
  5
66F
330
A
100
AcDbEntity
  8
Hawa6
 62
     3
 48
0.375
100
AcDbLine
 10
93.37349899999999
 20
100.0735920000002
 30
0.0
 11
93.37349899999999
 21
85.07359200000019
 31
0.0
  0
LINE
  5
670
330
A
100
AcDbEntity
  8
Hawa6
 62
     3
 48
0.375
100
AcDbLine
 10
92.37349899999999
 20
100.0735920000002
 30
0.0
 11
92.37349899999999
 21
85.07359200000019
 31
0.0
  0
LINE
  5
671
330
A
100
AcDbEntity
  8
Hawa6
 62
     3
 48
0.375
100
AcDbLine
 10
91.87349899999999
 20
100.0735920000002
 30
0.0
 11
91.87349899999999
 21
85.07359200000019
 31
0.0
  0
LINE
  5
672
330
A
100
AcDbEntity
  8
Hawa6
 62
     3
 48
0.048301
100
AcDbLine
 10
91.373499
 20
85.07359200000019
 30
0.0
 11
90.87349899999999
 21
86.93980300000021
 31
0.0
  0
LINE
  5
673
330
A
100
AcDbEntity
  8
Hawa6
 62
     3
 48
0.097089
100
AcDbLine
 10
105.073499
 20
100.0735920000002
 30
0.0
 11
105.073499
 21
96.19004700000004
 31
0.0
  0
LINE
  5
674
330
A
100
AcDbEntity
  8
Hawa4
 62
     4
 48
0.070001
100
AcDbLine
 10
105.073499
 20
90.75401199999985
 30
0.0
 11
105.073499
 21
87.95396299999994
 31
0.0
  0
LINE
  5
675
330
A
100
AcDbEntity
  8
Hawa6
 62
     3
 48
0.328345
100
AcDbLine
 10
105.073499
 20
100.0735920000002
 30
0.0
 11
105.073499
 21
86.93980300000021
 31
0.0
  0
LINE
  5
676
330
A
100
AcDbEntity
  8
Hawa6
 62
     3
 48
0.328345
100
AcDbLine
 10
90.87349899999999
 20
100.0735920000002
 30
0.0
 11
90.87349899999999
 21
86.93980300000021
 31
0.0
  0
LINE
  5
677
330
A
100
AcDbEntity
  8
Hawa6
 62
     3
 48
0.012506
100
AcDbLine
 10
101.948499
 20
100.5735920000002
 30
0.0
 11
101.948499
 21
100.0733479999999
 31
0.0
  0
LINE
  5
679
330
A
100
AcDbEntity
  8
Hawa6
 62
     3
 48
0.042621
100
AcDbLine
 10
102.973499
 20
107.7535229999999
 30
0.0
 11
102.973499
 21
106.0486890000002
 31
0.0
  0
LINE
  5
67A
330
A
100
AcDbEntity
  8
Hawa6
 62
     3
 48
0.097083
100
AcDbLine
 10
105.073499
 20
100.0735920000002
 30
0.0
 11
105.073499
 21
96.19029099999986
 31
0.0
  0
LINE
  5
67B
330
A
100
AcDbEntity
  8
Hawa4
 62
     4
 48
0.069995
100
AcDbLine
 10
105.073499
 20
90.75352299999988
 30
0.0
 11
105.073499
 21
87.95371900000009
 31
0.0
  0
LINE
  5
67D
330
A
100
AcDbEntity
  8
Hawa6
 62
     3
 48
0.070001
100
AcDbLine
 10
105.073499
 20
90.75376800000004
 30
0.0
 11
105.073499
 21
87.95371900000009
 31
0.0
  0
ARC
  5
67F
330
A
100
AcDbEntity
  8
Hawa4
 62
     4
100
AcDbCircle
 10
87.47349900000001
 20
83.05405999999994
 30
0.0
 40
1.0
100
AcDbArc
 50
270.0000009999998
 51
0.0000099566261208
  0
ARC
  5
687
330
A
100
AcDbEntity
  8
Hawa4
 62
     4
100
AcDbCircle
 10
87.47349900000001
 20
94.75401199999986
 30
0.0
 40
1.0
100
AcDbArc
 50
270.0000009999998
 51
0.0000099566261208
  0
ARC
  5
698
330
A
100
AcDbEntity
  8
Hawa4
 62
     4
100
AcDbCircle
 10
104.573499
 20
76.15415799999981
 30
0.0
 40
0.4
100
AcDbArc
 50
270.000001000001
 51
0.0000099566261208
  0
ARC
  5
6A8
330
A
100
AcDbEntity
  8
Hawa4
 62
     4
100
AcDbCircle
 10
108.6735
 20
85.95396299999995
 30
0.0
 40
1.0
100
AcDbArc
 50
270.0000009999998
 51
0.0000099566261208
  0
LINE
  5
6B3
330
A
100
AcDbEntity
  8
Hawa5
 62
     1
100
AcDbLine
 10
57.973499
 20
96.75401199999987
 30
0.0
 11
86.273499
 21
96.75401199999987
 31
0.0
  0
LINE
  5
6B4
330
A
100
AcDbEntity
  8
Hawa5
 62
     1
100
AcDbLine
 10
86.273499
 20
96.75401199999987
 30
0.0
 11
86.273499
 21
72.75401199999987
 31
0.0
  0
LINE
  5
6B5
330
A
100
AcDbEntity
  8
Hawa5
 62
     1
100
AcDbLine
 10
86.273499
 20
72.75401199999987
 30
0.0
 11
109.6735
 21
72.75401199999987
 31
0.0
  0
LINE
  5
6B6
330
A
100
AcDbEntity
  8
Hawa5
 62
     1
100
AcDbLine
 10
109.6735
 20
72.75401199999987
 30
0.0
 11
109.6735
 21
96.75401199999987
 31
0.0
  0
LINE
  5
6B7
330
A
100
AcDbEntity
  8
Hawa5
 62
     1
100
AcDbLine
 10
109.6735
 20
96.75401199999987
 30
0.0
 11
137.973499
 21
96.75401199999987
 31
0.0
  0
LINE
  5
6B8
330
A
100
AcDbEntity
  8
Hawa6
 62
     3
100
AcDbLine
 10
102.973499
 20
161.7540119999999
 30
0.0
 11
102.973499
 21
107.7540119999999
 31
0.0
  0
LINE
  5
6B9
330
A
100
AcDbEntity
  8
Hawa6
 62
     3
 48
0.0425
100
AcDbLine
 10
104.673499
 20
161.7540119999999
 30
0.0
 11
102.973499
 21
161.7540119999999
 31
0.0
  0
LINE
  5
6BA
330
A
100
AcDbEntity
  8
Hawa6
 62
     3
100
AcDbLine
 10
104.673499
 20
161.7540119999999
 30
0.0
 11
104.673499
 21
107.7540119999999
 31
0.0
  0
LINE
  5
6BB
330
A
100
AcDbEntity
  8
Hawa6
 62
     3
 48
0.0425
100
AcDbLine
 10
104.673499
 20
107.7540119999999
 30
0.0
 11
102.973499
 21
107.7540119999999
 31
0.0
  0
LINE
  5
6BC
330
A
100
AcDbEntity
  8
Hawa6
 62
     3
 48
0.035238
100
AcDbLine
 10
106.083038
 20
161.7540119999999
 30
0.0
 11
104.673499
 21
161.7540119999999
 31
0.0
  0
LINE
  5
6BD
330
A
100
AcDbEntity
  8
Hawa6
 62
     3
100
AcDbLine
 10
106.083038
 20
161.7540119999999
 30
0.0
 11
106.083038
 21
107.7540119999999
 31
0.0
  0
LINE
  5
6BE
330
A
100
AcDbEntity
  8
Hawa6
 62
     3
 48
0.035238
100
AcDbLine
 10
106.083038
 20
107.7540119999999
 30
0.0
 11
104.673499
 21
107.7540119999999
 31
0.0
  0
LINE
  5
6BF
330
A
100
AcDbEntity
  8
Hawa6
 62
     3
 48
0.0602
100
AcDbLine
 10
108.491041
 20
161.7540119999999
 30
0.0
 11
106.083038
 21
161.7540119999999
 31
0.0
  0
LINE
  5
6C0
330
A
100
AcDbEntity
  8
Hawa6
 62
     3
100
AcDbLine
 10
108.491041
 20
161.7540119999999
 30
0.0
 11
108.491041
 21
107.7540119999999
 31
0.0
  0
LINE
  5
6C1
330
A
100
AcDbEntity
  8
Hawa6
 62
     3
 48
0.0602
100
AcDbLine
 10
108.491041
 20
107.7540119999999
 30
0.0
 11
106.083038
 21
107.7540119999999
 31
0.0
  0
LINE
  5
6C2
330
A
100
AcDbEntity
  8
Hawa6
 62
     3
 48
0.012061
100
AcDbLine
 10
108.973499
 20
161.7540119999999
 30
0.0
 11
108.491041
 21
161.7540119999999
 31
0.0
  0
LINE
  5
6C3
330
A
100
AcDbEntity
  8
Hawa6
 62
     3
100
AcDbLine
 10
108.973499
 20
161.7540119999999
 30
0.0
 11
108.973499
 21
107.7540119999999
 31
0.0
  0
LINE
  5
6C4
330
A
100
AcDbEntity
  8
Hawa6
 62
     3
 48
0.012061
100
AcDbLine
 10
108.973499
 20
107.7540119999999
 30
0.0
 11
108.491041
 21
107.7540119999999
 31
0.0
  0
LINE
  5
6C5
330
A
100
AcDbEntity
  8
Hawa6
 62
     3
100
AcDbLine
 10
102.973499
 20
198.7540119999999
 30
0.0
 11
102.973499
 21
161.7540119999999
 31
0.0
  0
LINE
  5
6C6
330
A
100
AcDbEntity
  8
Hawa6
 62
     3
100
AcDbLine
 10
104.673499
 20
198.7540119999999
 30
0.0
 11
104.673499
 21
161.7540119999999
 31
0.0
  0
LINE
  5
6C7
330
A
100
AcDbEntity
  8
Hawa6
 62
     3
 48
0.0425
100
AcDbLine
 10
104.673499
 20
198.7540119999999
 30
0.0
 11
102.973499
 21
198.7540119999999
 31
0.0
  0
LINE
  5
6C8
330
A
100
AcDbEntity
  8
Hawa6
 62
     3
100
AcDbLine
 10
108.491041
 20
191.1512280000002
 30
0.0
 11
108.491041
 21
161.7540119999999
 31
0.0
  0
LINE
  5
6C9
330
A
100
AcDbEntity
  8
Hawa6
 62
     3
100
AcDbLine
 10
108.973499
 20
188.4148999999998
 30
0.0
 11
108.973499
 21
161.7540119999999
 31
0.0
  0
LINE
  5
6CA
330
A
100
AcDbEntity
  8
Hawa6
 62
     3
100
AcDbLine
 10
106.083038
 20
197.7671949999999
 30
0.0
 11
106.083038
 21
161.7540119999999
 31
0.0
  0
ARC
  5
6CB
330
A
100
AcDbEntity
  8
Hawa6
 62
     3
100
AcDbCircle
 10
100.973499
 20
188.4148999999998
 30
0.0
 40
8.0
100
AcDbArc
 50
0.0
 51
19.99999899999914
  0
LINE
  5
6CC
330
A
100
AcDbEntity
  8
Hawa6
 62
     3
 48
0.176014
100
AcDbLine
 10
108.491041
 20
191.1512280000002
 30
0.0
 11
106.083038
 21
197.7671949999999
 31
0.0
  0
ARC
  5
6CD
330
A
100
AcDbEntity
  8
Hawa6
 62
     3
100
AcDbCircle
 10
104.673499
 20
197.2540119999999
 30
0.0
 40
1.5
100
AcDbArc
 50
19.99999899999721
 51
90.00000300000042
  0
LINE
  5
6CE
330
A
100
AcDbEntity
  8
Hawa6
 62
     3
 48
0.0425
100
AcDbLine
 10
89.27349900000001
 20
198.7540119999999
 30
0.0
 11
90.97349900000001
 21
198.7540119999999
 31
0.0
  0
LINE
  5
6CF
330
A
100
AcDbEntity
  8
Hawa6
 62
     3
100
AcDbLine
 10
89.27349900000001
 20
198.7540119999999
 30
0.0
 11
89.27349900000001
 21
161.7540119999999
 31
0.0
  0
LINE
  5
6D0
330
A
100
AcDbEntity
  8
Hawa6
 62
     3
 48
0.0425
100
AcDbLine
 10
89.27349900000001
 20
161.7540119999999
 30
0.0
 11
90.97349900000001
 21
161.7540119999999
 31
0.0
  0
LINE
  5
6D1
330
A
100
AcDbEntity
  8
Hawa6
 62
     3
100
AcDbLine
 10
90.97349900000001
 20
161.7540119999999
 30
0.0
 11
90.97349900000001
 21
198.7540119999999
 31
0.0
  0
LINE
  5
6D2
330
A
100
AcDbEntity
  8
Hawa6
 62
     3
 48
0.0425
100
AcDbLine
 10
89.27349900000001
 20
107.7540119999999
 30
0.0
 11
90.97349900000001
 21
107.7540119999999
 31
0.0
  0
LINE
  5
6D3
330
A
100
AcDbEntity
  8
Hawa6
 62
     3
100
AcDbLine
 10
89.27349900000001
 20
161.7540119999999
 30
0.0
 11
89.27349900000001
 21
107.7540119999999
 31
0.0
  0
LINE
  5
6D4
330
A
100
AcDbEntity
  8
Hawa6
 62
     3
100
AcDbLine
 10
90.97349900000001
 20
161.7540119999999
 30
0.0
 11
90.97349900000001
 21
107.7540119999999
 31
0.0
  0
LINE
  5
6D5
330
A
100
AcDbEntity
  8
Hawa6
 62
     3
 48
0.035238
100
AcDbLine
 10
89.27349900000001
 20
107.7540119999999
 30
0.0
 11
87.86395999999999
 21
107.7540119999999
 31
0.0
  0
LINE
  5
6D6
330
A
100
AcDbEntity
  8
Hawa6
 62
     3
100
AcDbLine
 10
87.86395999999999
 20
161.7540119999999
 30
0.0
 11
87.86395999999999
 21
107.7540119999999
 31
0.0
  0
LINE
  5
6D7
330
A
100
AcDbEntity
  8
Hawa6
 62
     3
 48
0.035238
100
AcDbLine
 10
87.86395999999999
 20
161.7540119999999
 30
0.0
 11
89.27349900000001
 21
161.7540119999999
 31
0.0
  0
LINE
  5
6D8
330
A
100
AcDbEntity
  8
Hawa6
 62
     3
 48
0.0602
100
AcDbLine
 10
85.45595800000002
 20
107.7540119999999
 30
0.0
 11
87.86395999999999
 21
107.7540119999999
 31
0.0
  0
LINE
  5
6D9
330
A
100
AcDbEntity
  8
Hawa6
 62
     3
100
AcDbLine
 10
85.45595800000002
 20
161.7540119999999
 30
0.0
 11
85.45595800000002
 21
107.7540119999999
 31
0.0
  0
LINE
  5
6DA
330
A
100
AcDbEntity
  8
Hawa6
 62
     3
 48
0.0602
100
AcDbLine
 10
85.45595800000002
 20
161.7540119999999
 30
0.0
 11
87.86395999999999
 21
161.7540119999999
 31
0.0
  0
LINE
  5
6DB
330
A
100
AcDbEntity
  8
Hawa6
 62
     3
 48
0.012061
100
AcDbLine
 10
85.45595800000002
 20
107.7540119999999
 30
0.0
 11
84.97349900000001
 21
107.7540119999999
 31
0.0
  0
LINE
  5
6DC
330
A
100
AcDbEntity
  8
Hawa6
 62
     3
100
AcDbLine
 10
84.97349900000001
 20
161.7540119999999
 30
0.0
 11
84.97349900000001
 21
107.7540119999999
 31
0.0
  0
LINE
  5
6DD
330
A
100
AcDbEntity
  8
Hawa6
 62
     3
 48
0.012061
100
AcDbLine
 10
84.97349900000001
 20
161.7540119999999
 30
0.0
 11
85.45595800000002
 21
161.7540119999999
 31
0.0
  0
LINE
  5
6DE
330
A
100
AcDbEntity
  8
Hawa6
 62
     3
100
AcDbLine
 10
84.97349900000001
 20
188.4148999999998
 30
0.0
 11
84.97349900000001
 21
161.7540119999999
 31
0.0
  0
LINE
  5
6DF
330
A
100
AcDbEntity
  8
Hawa6
 62
     3
100
AcDbLine
 10
85.45595800000002
 20
191.1512280000002
 30
0.0
 11
85.45595800000002
 21
161.7540119999999
 31
0.0
  0
LINE
  5
6E0
330
A
100
AcDbEntity
  8
Hawa6
 62
     3
100
AcDbLine
 10
87.86395999999999
 20
197.7671949999999
 30
0.0
 11
87.86395999999999
 21
161.7540119999999
 31
0.0
  0
ARC
  5
6E1
330
A
100
AcDbEntity
  8
Hawa6
 62
     3
100
AcDbCircle
 10
92.973499
 20
188.4148999999998
 30
0.0
 40
8.0
100
AcDbArc
 50
159.9999959999993
 51
180.0000049783131
  0
LINE
  5
6E2
330
A
100
AcDbEntity
  8
Hawa6
 62
     3
 48
0.176014
100
AcDbLine
 10
85.45595800000002
 20
191.1512280000002
 30
0.0
 11
87.86395999999999
 21
197.7671949999999
 31
0.0
  0
ARC
  5
6E3
330
A
100
AcDbEntity
  8
Hawa6
 62
     3
100
AcDbCircle
 10
89.27349900000001
 20
197.2540119999999
 30
0.0
 40
1.5
100
AcDbArc
 50
90.00000299999987
 51
159.9999960000012
  0
INSERT
  5
723
330
A
100
AcDbEntity
  8
HAWA1
100
AcDbBlockReference
  2
HAWA
 10
0.0
 20
0.0
 30
0.0
  0
VIEWPORT
  5
7B
102
{ACAD_XDICTIONARY
360
7C8
102
}
330
B
100
AcDbEntity
 67
     1
  8
HAWA1
 62
     0
100
AcDbViewport
 10
128.5
 20
97.5
 30
0.0
 40
356.8986666666667
 41
222.18
 68
     1
 69
     1
 12
128.5
 22
97.5
 13
0.0
 23
0.0
 14
10.0
 24
10.0
 15
10.0
 25
10.0
 16
0.0
 26
0.0
 36
1.0
 17
0.0
 27
0.0
 37
0.0
 42
50.0
 43
0.0
 44
0.0
 45
222.18
 50
0.0
 51
0.0
 72
   100
 90
   557216
  1

281
     0
 71
     1
 74
     0
110
0.0
120
0.0
130
0.0
111
1.0
121
0.0
131
0.0
112
0.0
122
1.0
132
0.0
 79
     0
146
0.0
  0
VIEWPORT
  5
799
102
{ACAD_XDICTIONARY
360
7D5
102
}
330
B
100
AcDbEntity
 67
     1
  8
HAWA1
100
AcDbViewport
 10
128.5
 20
97.5
 30
0.0
 40
205.6
 41
156.0
 68
     2
 69
     2
 12
109.9443062813304
 22
149.2930762539537
 13
0.0
 23
0.0
 14
10.0
 24
10.0
 15
10.0
 25
10.0
 16
0.0
 26
0.0
 36
1.0
 17
0.0
 27
0.0
 37
0.0
 42
50.0
 43
0.0
 44
0.0
 45
178.527367211665
 50
0.0
 51
0.0
 72
   100
 90
   557088
  1

281
     0
 71
     1
 74
     0
110
0.0
120
0.0
130
0.0
111
1.0
121
0.0
131
0.0
112
0.0
122
1.0
132
0.0
 79
     0
146
0.0
  0
ENDSEC
  0
SECTION
  2
OBJECTS
  0
DICTIONARY
  5
19
330
0
100
AcDbDictionary
281
     1
  3
ACAD_COLOR
350
705
  3
ACAD_GROUP
350
1A
  3
ACAD_LAYOUT
350
545
  3
ACAD_MATERIAL
350
6F0
  3
ACAD_MLINESTYLE
350
1B
  3
ACAD_PLOTSETTINGS
350
708
  3
ACAD_PLOTSTYLENAME
350
6E9
  3
ACAD_TABLESTYLE
350
706
  3
ACAD_VISUALSTYLE
350
6F4
  3
AcDbVariableDictionary
350
7C2
  3
DWGPROPS
350
7C7
  0
DICTIONARY
  5
79D
330
2
100
AcDbDictionary
280
     1
281
     1
  3
ACAD_LAYERSTATES
360
79E
  0
DICTIONARY
  5
7C8
330
7B
100
AcDbDictionary
280
     1
281
     1
  3
ACAD_XREC_ROUNDTRIP
360
7C9
  0
DICTIONARY
  5
7D5
330
799
100
AcDbDictionary
280
     1
281
     1
  3
ACAD_XREC_ROUNDTRIP
360
7D6
  0
DICTIONARY
  5
705
102
{ACAD_REACTORS
330
19
102
}
330
19
100
AcDbDictionary
281
     1
  0
DICTIONARY
  5
1A
102
{ACAD_REACTORS
330
19
102
}
330
19
100
AcDbDictionary
281
     1
  3
*A1
350
715
  3
*A10
350
71E
  3
*A11
350
71F
  3
*A2
350
716
  3
*A3
350
717
  3
*A4
350
718
  3
*A5
350
719
  3
*A6
350
71A
  3
*A7
350
71B
  3
*A8
350
71C
  3
*A9
350
71D
  0
DICTIONARY
  5
545
102
{ACAD_REACTORS
330
19
102
}
330
19
100
AcDbDictionary
281
     1
  3
Layout1
350
547
  3
Model
350
546
  0
DICTIONARY
  5
6F0
102
{ACAD_REACTORS
330
19
102
}
330
19
100
AcDbDictionary
281
     1
  3
ByBlock
350
6F2
  3
ByLayer
350
6F1
  3
Global
350
6F3
  0
DICTIONARY
  5
1B
102
{ACAD_REACTORS
330
19
102
}
330
19
100
AcDbDictionary
281
     1
  3
STANDARD
350
1C
  0
DICTIONARY
  5
708
102
{ACAD_REACTORS
330
19
102
}
330
19
100
AcDbDictionary
281
     1
  0
ACDBDICTIONARYWDFLT
  5
6E9
102
{ACAD_REACTORS
330
19
102
}
330
19
100
AcDbDictionary
281
     1
  3
Normal
350
6EA
100
AcDbDictionaryWithDefault
340
6EA
  0
DICTIONARY
  5
706
102
{ACAD_REACTORS
330
19
102
}
330
19
100
AcDbDictionary
281
     1
  3
Standard
350
707
  0
DICTIONARY
  5
6F4
102
{ACAD_REACTORS
330
19
102
}
330
19
100
AcDbDictionary
281
     1
  3
2dWireframe
350
6FA
  3
3D Hidden
350
6FC
  3
3dWireframe
350
6FB
  3
Basic
350
6F9
  3
Brighten
350
700
  3
ColorChange
350
704
  3
Conceptual
350
6FD
  3
Dim
350
6FF
  3
Facepattern
350
703
  3
Flat
350
6F5
  3
FlatWithEdges
350
6F6
  3
Gouraud
350
6F7
  3
GouraudWithEdges
350
6F8
  3
Linepattern
350
702
  3
Realistic
350
6FE
  3
Thicken
350
701
  0
DICTIONARY
  5
7C2
102
{ACAD_REACTORS
330
19
102
}
330
19
100
AcDbDictionary
281
     1
  3
CTABLESTYLE
350
7C3
  3
DIMASSOC
350
7C6
  3
INDEXCTL
350
7C5
  3
SORTENTS
350
7C4
  0
XRECORD
  5
7C7
102
{ACAD_REACTORS
330
19
102
}
330
19
100
AcDbXrecord
280
     1
  1
DWGPROPS COOKIE
  2

  3

  4

  6

  7

  8
stj
  9

300
=
301
=
302
=
303
=
304
=
305
=
306
=
307
=
308
=
309
=
 40
0.0007770486111111
 41
2447893.0
 42
2455232.333899687
  1

 90
        0
  0
DICTIONARY
  5
79E
102
{ACAD_REACTORS
330
79D
102
}
330
79D
100
AcDbDictionary
281
     1
  0
XRECORD
  5
7C9
102
{ACAD_REACTORS
330
7C8
102
}
330
7C8
100
AcDbXrecord
280
     1
102
SHADEPLOT
 70
     0
  0
XRECORD
  5
7D6
102
{ACAD_REACTORS
330
7D5
102
}
330
7D5
100
AcDbXrecord
280
     1
102
SHADEPLOT
 70
     0
  0
GROUP
  5
715
102
{ACAD_REACTORS
330
1A
102
}
330
1A
100
AcDbGroup
300

 70
     1
 71
     1
  0
GROUP
  5
71E
102
{ACAD_REACTORS
330
1A
102
}
330
1A
100
AcDbGroup
300

 70
     1
 71
     1
  0
GROUP
  5
71F
102
{ACAD_REACTORS
330
1A
102
}
330
1A
100
AcDbGroup
300

 70
     1
 71
     1
  0
GROUP
  5
716
102
{ACAD_REACTORS
330
1A
102
}
330
1A
100
AcDbGroup
300

 70
     1
 71
     1
  0
GROUP
  5
717
102
{ACAD_REACTORS
330
1A
102
}
330
1A
100
AcDbGroup
300

 70
     1
 71
     1
  0
GROUP
  5
718
102
{ACAD_REACTORS
330
1A
102
}
330
1A
100
AcDbGroup
300

 70
     1
 71
     1
  0
GROUP
  5
719
102
{ACAD_REACTORS
330
1A
102
}
330
1A
100
AcDbGroup
300

 70
     1
 71
     1
  0
GROUP
  5
71A
102
{ACAD_REACTORS
330
1A
102
}
330
1A
100
AcDbGroup
300

 70
     1
 71
     1
  0
GROUP
  5
71B
102
{ACAD_REACTORS
330
1A
102
}
330
1A
100
AcDbGroup
300

 70
     1
 71
     1
  0
GROUP
  5
71C
102
{ACAD_REACTORS
330
1A
102
}
330
1A
100
AcDbGroup
300

 70
     1
 71
     1
  0
GROUP
  5
71D
102
{ACAD_REACTORS
330
1A
102
}
330
1A
100
AcDbGroup
300

 70
     1
 71
     1
  0
LAYOUT
  5
547
102
{ACAD_XDICTIONARY
360
7A0
102
}
102
{ACAD_REACTORS
330
545
102
}
330
545
100
AcDbPlotSettings
  1

  2
none_device
  4
ISO_A4_(210.00_x_297.00_MM)
  6

 40
7.5
 41
20.0
 42
7.5
 43
20.0
 44
210.0
 45
297.0
 46
0.0
 47
0.0
 48
0.0
 49
0.0
140
0.0
141
0.0
142
1.0
143
1.0
 70
   688
 72
     1
 73
     1
 74
     5
  7

 75
    16
147
1.0
148
0.0
149
0.0
100
AcDbLayout
  1
Layout1
 70
     1
 71
     1
 10
-20.0
 20
-7.5
 11
277.0
 21
202.5
 12
0.0
 22
0.0
 32
0.0
 14
25.69999999999999
 24
19.5
 34
0.0
 15
231.3
 25
175.5
 35
0.0
146
0.0
 13
0.0
 23
0.0
 33
0.0
 16
1.0
 26
0.0
 36
0.0
 17
0.0
 27
1.0
 37
0.0
 76
     0
330
B
331
7B
1001
ACAD_PSEXT
1000
Kein
1000
Kein
1000
Nicht anwendbar
1000
Das Layout wird erst geplottet, wenn ein neuer Plotter-Konfigurationsname ausgewählt wird.
1070
     0
  0
LAYOUT
  5
546
102
{ACAD_XDICTIONARY
360
7CA
102
}
102
{ACAD_REACTORS
330
545
102
}
330
545
100
AcDbPlotSettings
  1

  2
none_device
  4

  6

 40
0.0
 41
0.0
 42
0.0
 43
0.0
 44
0.0
 45
0.0
 46
0.0
 47
0.0
 48
0.0
 49
0.0
140
0.0
141
0.0
142
1.0
143
1.0
 70
   688
 72
     0
 73
     0
 74
     5
  7

 75
    16
147
1.0
148
0.0
149
0.0
100
AcDbLayout
  1
Model
 70
     1
 71
     0
 10
0.0
 20
0.0
 11
0.0
 21
0.0
 12
0.0
 22
0.0
 32
0.0
 14
0.0
 24
0.0
 34
0.0
 15
0.0
 25
0.0
 35
0.0
146
0.0
 13
0.0
 23
0.0
 33
0.0
 16
1.0
 26
0.0
 36
0.0
 17
0.0
 27
1.0
 37
0.0
 76
     0
330
A
331
15
  0
MATERIAL
  5
6F2
102
{ACAD_XDICTIONARY
360
7CF
102
}
102
{ACAD_REACTORS
330
6F0
102
}
330
6F0
100
AcDbMaterial
  1
ByBlock
  0
MATERIAL
  5
6F1
102
{ACAD_XDICTIONARY
360
7CD
102
}
102
{ACAD_REACTORS
330
6F0
102
}
330
6F0
100
AcDbMaterial
  1
ByLayer
  0
MATERIAL
  5
6F3
102
{ACAD_XDICTIONARY
360
7D1
102
}
102
{ACAD_REACTORS
330
6F0
102
}
330
6F0
100
AcDbMaterial
  1
Global
  0
MLINESTYLE
  5
1C
102
{ACAD_REACTORS
330
1B
102
}
330
1B
100
AcDbMlineStyle
  2
STANDARD
 70
     0
  3

 62
     0
 51
90.0
 52
90.0
 71
     2
 49
0.5
 62
   256
  6
BYLAYER
 49
-0.5
 62
   256
  6
BYLAYER
  0
ACDBPLACEHOLDER
  5
6EA
102
{ACAD_REACTORS
330
6E9
102
}
330
6E9
  0
TABLESTYLE
  5
707
102
{ACAD_XDICTIONARY
360
7D3
102
}
102
{ACAD_REACTORS
330
706
102
}
330
706
100
AcDbTableStyle
  3
Standard
 70
     0
 71
     0
 40
1.5
 41
1.5
280
     0
281
     0
  7
STANDARD
140
4.5
170
     2
 62
     0
 63
     7
283
     0
274
    -2
284
     1
 64
     0
275
    -2
285
     1
 65
     0
276
    -2
286
     1
 66
     0
277
    -2
287
     1
 67
     0
278
    -2
288
     1
 68
     0
279
    -2
289
     1
 69
     0
  7
STANDARD
140
6.0
170
     5
 62
     0
 63
     7
283
     0
274
    -2
284
     1
 64
     0
275
    -2
285
     1
 65
     0
276
    -2
286
     1
 66
     0
277
    -2
287
     1
 67
     0
278
    -2
288
     1
 68
     0
279
    -2
289
     1
 69
     0
  7
STANDARD
140
4.5
170
     5
 62
     0
 63
     7
283
     0
274
    -2
284
     1
 64
     0
275
    -2
285
     1
 65
     0
276
    -2
286
     1
 66
     0
277
    -2
287
     1
 67
     0
278
    -2
288
     1
 68
     0
279
    -2
289
     1
 69
     0
  0
VISUALSTYLE
  5
6FA
102
{ACAD_REACTORS
330
6F4
102
}
330
6F4
100
AcDbVisualStyle
  2
2dWireframe
 70
     4
 71
     0
 72
     2
 73
     0
 90
        0
 40
-0.6
 41
-30.0
 62
     5
 63
     7
 74
     1
 91
        4
 64
     7
 65
   257
 75
     1
175
     1
 42
1.0
 92
        0
 66
   257
 43
1.0
 76
     1
 77
     6
 78
     2
 67
     7
 79
     5
170
     0
171
     0
290
     0
174
     0
 93
        1
 44
0.0
173
     0
291
     0
 45
0.0
1001
ACAD
1000
AcDbSavedByObjectVersion
1070
     0
  0
VISUALSTYLE
  5
6FC
102
{ACAD_REACTORS
330
6F4
102
}
330
6F4
100
AcDbVisualStyle
  2
3D Hidden
 70
     6
 71
     1
 72
     2
 73
     2
 90
        0
 40
-0.6
 41
-30.0
 62
     5
 63
     7
 74
     2
 91
        2
 64
     7
 65
   257
 75
     2
175
     1
 42
40.0
 92
        0
 66
   257
 43
1.0
 76
     1
 77
     6
 78
     2
 67
     7
 79
     3
170
     0
171
     0
290
     0
174
     0
 93
        1
 44
0.0
173
     0
291
     0
 45
0.0
1001
ACAD
1000
AcDbSavedByObjectVersion
1070
     0
  0
VISUALSTYLE
  5
6FB
102
{ACAD_REACTORS
330
6F4
102
}
330
6F4
100
AcDbVisualStyle
  2
3dWireframe
 70
     5
 71
     0
 72
     2
 73
     0
 90
        0
 40
-0.6
 41
-30.0
 62
     5
 63
     7
 74
     1
 91
        4
 64
     7
 65
   257
 75
     1
175
     1
 42
1.0
 92
        0
 66
   257
 43
1.0
 76
     1
 77
     6
 78
     2
 67
     7
 79
     5
170
     0
171
     0
290
     0
174
     0
 93
        1
 44
0.0
173
     0
291
     0
 45
0.0
1001
ACAD
1000
AcDbSavedByObjectVersion
1070
     0
  0
VISUALSTYLE
  5
6F9
102
{ACAD_REACTORS
330
6F4
102
}
330
6F4
100
AcDbVisualStyle
  2
Basic
 70
     7
 71
     1
 72
     0
 73
     1
 90
        0
 40
-0.6
 41
-30.0
 62
     5
 63
     7
 74
     0
 91
        4
 64
     7
 65
   257
 75
     1
175
     1
 42
1.0
 92
        8
 66
     7
 43
1.0
 76
     1
 77
     6
 78
     2
 67
     7
 79
     5
170
     0
171
     0
290
     0
174
     0
 93
        1
 44
0.0
173
     0
291
     1
 45
0.0
1001
ACAD
1000
AcDbSavedByObjectVersion
1070
     0
  0
VISUALSTYLE
  5
700
102
{ACAD_REACTORS
330
6F4
102
}
330
6F4
100
AcDbVisualStyle
  2
Brighten
 70
    12
 71
     2
 72
     2
 73
     0
 90
        0
 40
-0.6
 41
-30.0
 62
     5
 63
     7
 74
     1
 91
        4
 64
     7
 65
   257
 75
     1
175
     1
 42
1.0
 92
        8
 66
     7
 43
1.0
 76
     1
 77
     6
 78
     2
 67
     7
 79
     5
170
     0
171
     0
290
     0
174
     0
 93
        1
 44
50.0
173
     0
291
     1
 45
0.0
1001
ACAD
1000
AcDbSavedByObjectVersion
1070
     0
  0
VISUALSTYLE
  5
704
102
{ACAD_REACTORS
330
6F4
102
}
330
6F4
100
AcDbVisualStyle
  2
ColorChange
 70
    16
 71
     2
 72
     2
 73
     3
 90
        0
 40
-0.6
 41
-30.0
 62
     5
 63
     8
 74
     1
 91
        4
 64
     7
 65
   257
 75
     1
175
     1
 42
1.0
 92
        8
 66
     8
 43
1.0
 76
     1
 77
     6
 78
     2
 67
     7
 79
     5
170
     0
171
     0
290
     0
174
     0
 93
        1
 44
0.0
173
     0
291
     1
 45
0.0
1001
ACAD
1000
AcDbSavedByObjectVersion
1070
     0
  0
VISUALSTYLE
  5
6FD
102
{ACAD_REACTORS
330
6F4
102
}
330
6F4
100
AcDbVisualStyle
  2
Conceptual
 70
     9
 71
     3
 72
     2
 73
     0
 90
        0
 40
-0.6
 41
-30.0
 62
     5
 63
     7
 74
     2
 91
        2
 64
     7
 65
   257
 75
     1
175
     1
 42
40.0
 92
        8
 66
     7
 43
1.0
 76
     1
 77
     6
 78
     2
 67
     7
 79
     3
170
     0
171
     0
290
     0
174
     0
 93
        1
 44
0.0
173
     0
291
     0
 45
0.0
1001
ACAD
1000
AcDbSavedByObjectVersion
1070
     0
  0
VISUALSTYLE
  5
6FF
102
{ACAD_REACTORS
330
6F4
102
}
330
6F4
100
AcDbVisualStyle
  2
Dim
 70
    11
 71
     2
 72
     2
 73
     0
 90
        0
 40
-0.6
 41
-30.0
 62
     5
 63
     7
 74
     1
 91
        4
 64
     7
 65
   257
 75
     1
175
     1
 42
1.0
 92
        8
 66
     7
 43
1.0
 76
     1
 77
     6
 78
     2
 67
     7
 79
     5
170
     0
171
     0
290
     0
174
     0
 93
        1
 44
-50.0
173
     0
291
     1
 45
0.0
1001
ACAD
1000
AcDbSavedByObjectVersion
1070
     0
  0
VISUALSTYLE
  5
703
102
{ACAD_REACTORS
330
6F4
102
}
330
6F4
100
AcDbVisualStyle
  2
Facepattern
 70
    15
 71
     2
 72
     2
 73
     0
 90
        0
 40
-0.6
 41
-30.0
 62
     5
 63
     7
 74
     1
 91
        4
 64
     7
 65
   257
 75
     1
175
     1
 42
1.0
 92
        8
 66
     7
 43
1.0
 76
     1
 77
     6
 78
     2
 67
     7
 79
     5
170
     0
171
     0
290
     0
174
     0
 93
        1
 44
0.0
173
     0
291
     1
 45
0.0
1001
ACAD
1000
AcDbSavedByObjectVersion
1070
     0
  0
VISUALSTYLE
  5
6F5
102
{ACAD_REACTORS
330
6F4
102
}
330
6F4
100
AcDbVisualStyle
  2
Flat
 70
     0
 71
     2
 72
     1
 73
     1
 90
        2
 40
-0.6
 41
30.0
 62
     5
 63
     7
 74
     0
 91
        4
 64
     7
 65
   257
 75
     1
175
     1
 42
1.0
 92
        8
 66
     7
 43
1.0
 76
     1
 77
     6
 78
     2
 67
     7
 79
     5
170
     0
171
     0
290
     0
174
     0
 93
       13
 44
0.0
173
     0
291
     1
 45
0.0
1001
ACAD
1000
AcDbSavedByObjectVersion
1070
     0
  0
VISUALSTYLE
  5
6F6
102
{ACAD_REACTORS
330
6F4
102
}
330
6F4
100
AcDbVisualStyle
  2
FlatWithEdges
 70
     1
 71
     2
 72
     1
 73
     1
 90
        2
 40
-0.6
 41
30.0
 62
     5
 63
     7
 74
     1
 91
        4
 64
     7
 65
   257
 75
     1
175
     1
 42
1.0
 92
        0
 66
   257
 43
1.0
 76
     1
 77
     6
 78
     2
 67
     7
 79
     5
170
     0
171
     0
290
     0
174
     0
 93
       13
 44
0.0
173
     0
291
     1
 45
0.0
1001
ACAD
1000
AcDbSavedByObjectVersion
1070
     0
  0
VISUALSTYLE
  5
6F7
102
{ACAD_REACTORS
330
6F4
102
}
330
6F4
100
AcDbVisualStyle
  2
Gouraud
 70
     2
 71
     2
 72
     2
 73
     1
 90
        2
 40
-0.6
 41
30.0
 62
     5
 63
     7
 74
     0
 91
        4
 64
     7
 65
   257
 75
     1
175
     1
 42
1.0
 92
        0
 66
     7
 43
1.0
 76
     1
 77
     6
 78
     2
 67
     7
 79
     5
170
     0
171
     0
290
     0
174
     0
 93
       13
 44
0.0
173
     0
291
     1
 45
0.0
1001
ACAD
1000
AcDbSavedByObjectVersion
1070
     0
  0
VISUALSTYLE
  5
6F8
102
{ACAD_REACTORS
330
6F4
102
}
330
6F4
100
AcDbVisualStyle
  2
GouraudWithEdges
 70
     3
 71
     2
 72
     2
 73
     1
 90
        2
 40
-0.6
 41
30.0
 62
     5
 63
     7
 74
     1
 91
        4
 64
     7
 65
   257
 75
     1
175
     1
 42
1.0
 92
        0
 66
   257
 43
1.0
 76
     1
 77
     6
 78
     2
 67
     7
 79
     5
170
     0
171
     0
290
     0
174
     0
 93
       13
 44
0.0
173
     0
291
     1
 45
0.0
1001
ACAD
1000
AcDbSavedByObjectVersion
1070
     0
  0
VISUALSTYLE
  5
702
102
{ACAD_REACTORS
330
6F4
102
}
330
6F4
100
AcDbVisualStyle
  2
Linepattern
 70
    14
 71
     2
 72
     2
 73
     0
 90
        0
 40
-0.6
 41
-30.0
 62
     5
 63
     7
 74
     1
 91
        4
 64
     7
 65
   257
 75
     7
175
     7
 42
1.0
 92
        8
 66
     7
 43
1.0
 76
     1
 77
     6
 78
     2
 67
     7
 79
     5
170
     0
171
     0
290
     0
174
     0
 93
        1
 44
0.0
173
     0
291
     1
 45
0.0
1001
ACAD
1000
AcDbSavedByObjectVersion
1070
     0
  0
VISUALSTYLE
  5
6FE
102
{ACAD_REACTORS
330
6F4
102
}
330
6F4
100
AcDbVisualStyle
  2
Realistic
 70
     8
 71
     2
 72
     2
 73
     0
 90
        0
 40
-0.6
 41
-30.0
 62
     5
 63
     7
 74
     1
 91
        0
 64
     7
 65
   257
 75
     1
175
     1
 42
1.0
 92
        8
 66
     8
 43
1.0
 76
     1
 77
     6
 78
     2
 67
     7
 79
     5
170
     0
171
     0
290
     0
174
     0
 93
       13
 44
0.0
173
     0
291
     0
 45
0.0
1001
ACAD
1000
AcDbSavedByObjectVersion
1070
     0
  0
VISUALSTYLE
  5
701
102
{ACAD_REACTORS
330
6F4
102
}
330
6F4
100
AcDbVisualStyle
  2
Thicken
 70
    13
 71
     2
 72
     2
 73
     0
 90
        0
 40
-0.6
 41
-30.0
 62
     5
 63
     7
 74
     1
 91
        4
 64
     7
 65
   257
 75
     1
175
     1
 42
1.0
 92
       12
 66
     7
 43
1.0
 76
     1
 77
     6
 78
     2
 67
     7
 79
     5
170
     0
171
     0
290
     0
174
     0
 93
        1
 44
0.0
173
     0
291
     1
 45
0.0
1001
ACAD
1000
AcDbSavedByObjectVersion
1070
     0
  0
DICTIONARYVAR
  5
7C3
102
{ACAD_REACTORS
330
7C2
102
}
330
7C2
100
DictionaryVariables
280
     0
  1
STANDARD
  0
DICTIONARYVAR
  5
7C6
102
{ACAD_REACTORS
330
7C2
102
}
330
7C2
100
DictionaryVariables
280
     0
  1
1
  0
DICTIONARYVAR
  5
7C5
102
{ACAD_REACTORS
330
7C2
102
}
330
7C2
100
DictionaryVariables
280
     0
  1
0
  0
DICTIONARYVAR
  5
7C4
102
{ACAD_REACTORS
330
7C2
102
}
330
7C2
100
DictionaryVariables
280
     0
  1
127
  0
DICTIONARY
  5
7A0
330
547
100
AcDbDictionary
280
     1
281
     1
  3
ACAD_XREC_ROUNDTRIP
360
7CC
  3
ADSK_XREC_LAYOUTTHUMBNAIL
360
7A1
  0
DICTIONARY
  5
7CA
330
546
100
AcDbDictionary
280
     1
281
     1
  3
ACAD_XREC_ROUNDTRIP
360
7CB
  0
DICTIONARY
  5
7CF
330
6F2
100
AcDbDictionary
280
     1
281
     1
  3
ACAD_XREC_ROUNDTRIP
360
7D0
  0
DICTIONARY
  5
7CD
330
6F1
100
AcDbDictionary
280
     1
281
     1
  3
ACAD_XREC_ROUNDTRIP
360
7CE
  0
DICTIONARY
  5
7D1
330
6F3
100
AcDbDictionary
280
     1
281
     1
  3
ACAD_XREC_ROUNDTRIP
360
7D2
  0
DICTIONARY
  5
7D3
330
707
100
AcDbDictionary
280
     1
281
     1
  3
ACAD_XREC_ROUNDTRIP
360
7D4
  0
XRECORD
  5
7CC
102
{ACAD_REACTORS
330
7A0
102
}
330
7A0
100
AcDbXrecord
280
     1
102
SHADEPLOT
 70
     0
102
SHADEPLOTRESLEVEL
 70
     2
102
SHADEPLOTCUSTOMDPI
 70
   300
  0
XRECORD
  5
7A1
102
{ACAD_REACTORS
330
7A0
102
}
330
7A0
100
AcDbXrecord
280
     1
310
28000000B40000007F00000001000800000000004C59000000000000000000000001000000000000FFFFFF0000000000FFFFFF000000000000000000000000000000000000000000000000000000000000000000330000006600000099000000CC000000FF00000000330000333300006633000099330000CC330000FF3300
310
0000660000336600006666000099660000CC660000FF66000000990000339900006699000099990000CC990000FF99000000CC000033CC000066CC000099CC0000CCCC0000FFCC000000FF000033FF000066FF000099FF0000CCFF0000FFFF000000003300330033006600330099003300CC003300FF003300003333003333
310
33006633330099333300CC333300FF33330000663300336633006666330099663300CC663300FF66330000993300339933006699330099993300CC993300FF99330000CC330033CC330066CC330099CC3300CCCC3300FFCC330000FF330033FF330066FF330099FF3300CCFF3300FFFF330000006600330066006600660099
310
006600CC006600FF00660000336600333366006633660099336600CC336600FF33660000666600336666006666660099666600CC666600FF66660000996600339966006699660099996600CC996600FF99660000CC660033CC660066CC660099CC6600CCCC6600FFCC660000FF660033FF660066FF660099FF6600CCFF6600
310
FFFF660000009900330099006600990099009900CC009900FF00990000339900333399006633990099339900CC339900FF33990000669900336699006666990099669900CC669900FF66990000999900339999006699990099999900CC999900FF99990000CC990033CC990066CC990099CC9900CCCC9900FFCC990000FF99
310
0033FF990066FF990099FF9900CCFF9900FFFF99000000CC003300CC006600CC009900CC00CC00CC00FF00CC000033CC003333CC006633CC009933CC00CC33CC00FF33CC000066CC003366CC006666CC009966CC00CC66CC00FF66CC000099CC003399CC006699CC009999CC00CC99CC00FF99CC0000CCCC0033CCCC0066CC
310
CC0099CCCC00CCCCCC00FFCCCC0000FFCC0033FFCC0066FFCC0099FFCC00CCFFCC00FFFFCC000000FF003300FF006600FF009900FF00CC00FF00FF00FF000033FF003333FF006633FF009933FF00CC33FF00FF33FF000066FF003366FF006666FF009966FF00CC66FF00FF66FF000099FF003399FF006699FF009999FF00CC
310
99FF00FF99FF0000CCFF0033CCFF0066CCFF0099CCFF00CCCCFF00FFCCFF0000FFFF0033FFFF0066FFFF0099FFFF00CCFFFF00FFFFFF00000000000D0D0D001A1A1A00282828003535350043434300505050005D5D5D006B6B6B00787878008686860093939300A1A1A100AEAEAE00BBBBBB00C9C9C900D6D6D600E4E4E400
310
F1F1F100FFFFFF0000000000000000000000000000000000000000000000000000000000000000000000000000000000E2E2E2E2E2E2E2E2E2E2E2E2E2E2E2E2E2E2E2E2E2E2E2E2E2E2E2E2E2E2E2E2E2E2E2E2E2E2E2E2E2E2E2E2E2E2E2E2E2E2E2E2E2E2E2E2E2E2E2E2E2E2E2E2E2E2E2E2E2E2E2E2E2E2E2E2E2E2E2
310
E2E2E2E2E2E2E2E2E2E2E2E2E2E2E2E2E2E2E2E2E2E2E2E2E2E2E2E2E2E2E2E2E2E2E2E2E2E2E2E2E2E2E2E2E2E2E2E2E2E2E2E2E2E2E2E2E2E2E2E2E2E2E2E2E2E2E2E2E2E2E2E2E2E2E2E2E2E2E2E2E2E2E2E2E2E2E2E2E2E2E2E2E2E2E2E2E2E2E2E2E2E2F5F5F5F5F5F5F5F5F5F5F5F5F5F5F5F5F5F5F5F5F5F5F5F5F5
310
F5F5F5F5F5F5F5F5F5F5F5F5F5F5F5F5F5F5F5F5F5F5F5F5F5F5F5F5F5F5F5F5F5F5F5F5F5F5F5F5F5F5F5F5F5F5F5F5F5F5F5F5F5F5F5F5F5F5F5F5F5F5F5F5F5F5F5F5F5F5F5F5F5F5F5F5F5F5F5F5F5F5F5F5F5F5F5F5F5F5F5F5F5F5F5F5F5F5F5F5F5F5F5F5F5F5F5F5F5F5F5F5F5F5F5F5F5F5F5F5F5F5F5F5F5F5F5
310
F5F5F5F5F5F5F5F5F5F5F5F5F5F5F5F5F5F5F5F5F5F5F5F5F5E2E2E2F5F5F5F5F5F5F5F5F5F5F5F5F5F5F5F5F5F5F5F5F5F5F5F5F5F5F5F5F5F5F5F5F5F5F5F5F5F5F5F5F5F5F5F5F5F5F5F5F5F5F5F5F5F5F5F5F5F5F5F5F5F5F5F5F5F5F5F5F5F5F5F5F5F5F5F5F5F5F5F5F5F5F5F5F5F5F5F5F5F5F5F5F5F5F5F5F5F5F5
310
F5F5F5F5F5F5F5F5F5F5F5F5F5F5F5F5F5F5F5F5F5F5F5F5F5F5F5F5F5F5F5F5F5F5F5F5F5F5F5F5F5F5F5F5F5F5F5F5F5F5F5F5F5F5F5F5F5F5F5F5F5F5F5F5F5F5F5F5F5F5F5F5F5F5F5F5F5F5E2E2E2F5F5F5F5F5F5F5F5F5F5F5F5F5F5F5F5F5F5F5F5F5F5F5F5F5F5F5F5F5F5F5F5F5F5F5F5F5F5F5F5F5F5F5F5F5F5
310
F5F5F5F5F5F5F5F5F5F5F5F5F5F5F5F5F5F5F5F5F5F5F5F5F5F5F5F5F5F5F5F5F5F5F5F5F5F5F5F5F5F5F5F5F5F5F5F5F5F5F5F5F5F5F5F5F5F5F5F5F5F5F5F5F5F5F5F5F5F5F5F5F5F5F5F5F5F5F5F5F5F5F5F5F5F5F5F5F5F5F5F5F5F5F5F5F5F5F5F5F5F5F5F5F5F5F5F5F5F5F5F5F5F5F5F5F5F5F5F5F5F5F5F5F5F5F5
310
F5F5F5F5E2E2E2F5F5F5F5F5F5F5F5F5F5F5F5F5F5F5F5F5F5F5F5F5F5F5F5F5F5F5F5F5F5F5F5F5F5F5F5F5F5F5F5F5F5F5F5F5F5F5F5F5F5F5F5F5F5F5F5F5F5F5F5F5F5F5F5F5F5F5F5F5F5F5F5F5F5F5F5F5F5F5F5F5F5F5F5F5F5F5F5F5F5F5F5F5F5F5F5F5F5F5F5F5F5F5F5F5F5F5F5F5F5F5F5F5F5F5F5F5F5F5F5
310
F5F5F5F5F5F5F5F5F5F5F5F5F5F5F5F5F5F5F5F5F5F5F5F5F5F5F5F5F5F5F5F5F5F5F5F5F5F5F5F5F5F5F5F5F5F5F5F5F5F5F5F5F5F5F5F5F5E2E2E2F5F5F5F5F5F5F5F5F5F5F5E2E2E2E2E2E2E2E2E2F5F5F5F5F5F5F5F5F5E2E2E2E2E2E2E2E2E2E2E2E2E2E2E2E2F5F5F5F5F5F5F5F5F5F5E2E2E2E2E2E2E2E2E2E2E2E2
310
E2E2E2E2F5F5F5F5F5F5F5F5F5E2E2E2E2E2E2E2E2E2E2E2E2E2E2E2E2E2F5F5F5F5F5F5F5F5F5E2E2E2E2E2E2E2E2E2E2E2E2E2E2E2E2F5F5F5F5F5F5F5F5F5F5E2E2E2E2E2E2E2E2E2E2E2E2E2E2E2E2F5F5F5F5F5F5F5F5F5E2E2E2E2E2E2E2E2E2F5F5F5F5F5F5F5F5F5F5F5E2E2E2F5F5F5F5F5F5F5F5F5F5F5E2F5F5
310
F5F5F5F5F5F5F5F5F5F5F5F5F5F5F5F5F5F5F5F5F5F5F5F5F5F5F5F5F5F5F5F5F5F5F5F5F5F5F5F5F5F5F5F5F5F5F5F5F5F5F5F5F5F5F5F5F5F5F5F5F5F5F5F5F5F5F5F5F5F5F5F5F5F5F5F5F5F5F5F5F5F5F5F5F5F5F5F5F5F5F5F5F5F5F5F5F5F5F5F5F5F5F5F5F5F5F5F5F5F5F5F5F5F5F5F5F5F5F5F5F5F5F5F5F5F5F5
310
F5F5F5F5F5F5F5F5F5F5F5F5F5F5F5F5F5F5F5F5F5F5F5F5E2F5F5F5F5F5F5F5F5F5F5F5E2E2E2F5F5F5F5F5F5F5F5F5F5F5E2F5F5F5F5F5F5F5F5F5F5F5F5F5F5F5F5F5F5F5F5F5F5F5F5F5F5F5F5F5F5F5F5F5F5F5F5F5F5F5F5F5F5F5F5F5F5F5F5F5F5F5F5F5F5F5F5F5F5F5F5F5F5F5F5F5F5F5F5F5F5F5F5F5F5F5F5
310
F5F5F5F5F5F5F5F5F5F5F5F5F5F5F5F5F5F5F5F5F5F5F5F5F5F5F5F5F5F5F5F5F5F5F5F5F5F5F5F5F5F5F5F5F5F5F5F5F5F5F5F5F5F5F5F5F5F5F5F5F5F5F5F5F5F5F5F5F5F5F5F5F5F5F5F5F5E2F5F5F5F5F5F5F5F5F5F5F5E2E2E2F5F5F5F5F5F5F5F5F5F5F5E2F5F5F5F5F5F5F5F5F5F5F5F5F5F5F5F5F5F5F5F5F5F5F5
310
F5F5F5F5F5F5F5F5F5F5F5F5F5F5F5F5F5F5F5F5F5F5F5F5F5F5F5F5F5F5F5F5F5F5F5F5F5F5F5F5F5F5F5F5F5F5F5F5F5F5F5F5F5F5F5F5F5F5F5F5F5F5F5F5F5F5F5F5F5F5F5F5F5F5F5F5F5F5F5F5F5F5F5F5F5F5F5F5F5F5F5F5F5F5F5F5F5F5F5F5F5F5F5F5F5F5F5F5F5F5F5F5F5F5F5F5F5F5F5F5F5F5F5F5F5F5F5
310
F5F5F5E2F5F5F5F5F5F5F5F5F5F5F5E2E2E2F5F5F5F5F5F5F5F5F5F5F5E2F5F5F5F5F5F5F5F5F5F5F5F5F5F5F5F5F5F5F5F5F5F5F5F5F5F5F5F5F5F5F5F5F5F5F5F5F5F5F5F5F5F5F5F5F5F5F5F5F5F5F5F5F5F5F5F5F5F5F5F5F5F5F5F5F5F5F5F5F5F5F5F5F5F5F5F5F5F5F5F5F5F5F5F5F5F5F5F5F5F5F5F5F5F5F5F5F5
310
F5F5F5F5F5F5F5F5F5F5F5F5F5F5F5F5F5F5F5F5F5F5F5F5F5F5F5F5F5F5F5F5F5F5F5F5F5F5F5F5F5F5F5F5F5F5F5F5F5F5F5F5F5F5F5F5E2F5F5F5F5F5F5F5F5F5F5F5E2E2E2F5F5F5F5F5F5F5F5F5F5F5E2F5F5F5F5F5F5F5F5F5F5F5F5F5F5F5F5F5F5F5F5F5F5F5F5F5F5F5F5F5F5F5F5F5F5F5F5F5F5F5F5F5F5F5F5
310
F5F5F5F5F5F5F5F5F5F5F5F5F5F5F5F5F5F5F5F5F5F5F5F5F5F5F5F5F5F5F5F5F5F5F5F5F5F5F5F5F5F5F5F5F5F5F5F5F5F5F5F5F5F5F5F5F5F5F5F5F5F5F5F5F5F5F5F5F5F5F5F5F5F5F5F5F5F5F5F5F5F5F5F5F5F5F5F5F5F5F5F5F5F5F5F5F5F5F5F5F5F5F5F5F5F5F5F5F5E2F5F5F5F5F5F5F5F5F5F5F5E2E2E2F5F5F5
310
F5F5F5F5F5F5F5F5E2F5F5F5F5F5F5F5F5F5F5F5F5F5F5F5F5F5F5F5F5F5F5F5F5F5F5F5F5F5F5F5F5F5F5F5F5F5F5F5F5F5F5F5F5F5F5F5F5F5F5F5F5F5F5F5F5F5F5F5F5F5F5F5F5F5F5F5F5F5F5F5F5F5F5F5F5F5F5F5F5F5F5F5F5F5F5F5F5F5F5F5F5F5F5F5F5F5F5F5F5F5F5F5F5F5F5F5F5F5F5F5F5F5F5F5F5F5F5
310
F5F5F5F5F5F5F5F5F5F5F5F5F5F5F5F5F5F5F5F5F5F5F5F5F5F5F5F5F5F5F5F5F5F5F5E2F5F5F5F5F5F5F5F5F5F5F5E2E2E2F5F5F5F5F5F5F5F5F5F5F5E2F5F5F5F5F5F5F5F5F5F5F5F5F5F5F5F5F5F5F5F5F5F5F5F5F5F5F5F5F5F5F5F5F5F5F5F5F5F5F5F5F5F5F5F5F5F5F5F5F5F5F5F5F5F5F5F5F5F5F5F5F5F5F5F5F5
310
F5F5F5F5F5F5F5F5F5F5F5F5F5F5F5F5F5F5F5F5F5F5F5F5F5F5F5F5F5F5F5F5F5F5F5F5F5F5F5F5F5F5F5F5F5F5F5F5F5F5F5F5F5F5F5F5F5F5F5F5F5F5F5F5F5F5F5F5F5F5F5F5F5F5F5F5F5F5F5F5F5F5F5F5F5F5F5F5E2F5F5F5F5F5F5F5F5F5F5F5E2E2E2F5F5F5F5F5F5F5F5F5F5F5F5F5F5F5F5F5F5F5F5F5F5F5F5
310
F5F5F5F5F5F5F5F5F5F5F5F5F5F5F5F5F5F5F5F5F5F5F5F5F5F5F5F5F5F5F5F5F5F5F5F5F5F5F5F5F5F5F5F5F5F5F5F5F5F5F5F5F5F5F5F5F5F5F5F5F5F5F5F5F5F5F5F5F5F5F5F5F5F5F5F5F5F5F5F5F5F5F5F5F5F5F5F5F5F5F5F5F5F5F5F5F5F5F5F5F5F5F5F5F5F5F5F5F5F5F5F5F5F5F5F5F5F5F5F5F5F5F5F5F5F5F5
310
F5F5F5F5F5F5F5F5F5F5F5F5F5F5F5F5F5F5F5F5F5F5F5F5F5F5E2E2E2F5F5F5F5F5F5F5F5F5F5F5F5F5F5F5F5F5F5F5F5F5F5F5F5F5F5F5F5F5F5F5F5F5F5F5F5F5F5F5F5F5F5F5F5F5F5F5F5F5F5F5F5F5F5F5F5F5F5F5F5F5F5F5F5F5F5F5F5F5F5F5F5F5F5F5F5F5F5F5F5F5F5F5F5F5F5F5F5F5F5F5F5F5F5F5F5F5F5
310
F5F5F5F5F5F5F5F5F5F5F5F5F5F5F5F5F5F5F5F5F5F5F5F5F5F5F5F5F5F5F5F5F5F5F5F5F5F5F5F5F5F5F5F5F5F5F5F5F5F5F5F5F5F5F5F5F5F5F5F5F5F5F5F5F5F5F5F5F5F5F5F5F5F5F5F5F5F5F5E2E2E2F5F5F5F5F5F5F5F5F5F5F5F5F5F5F5F5F5F5F5F5F5F5F5F5F5F5F5F5F5F5F5F5F5F5F5F5F5F5F5F5F5F5F5F5F5
310
F5F5F5F5F5F5F5F5F5F5F5F5F5F5F5F5F5F5F5F5F5F5F5F5F5F5F5F5F5F5F5F5F5F5F5F5F5F5F5F5F5F5F5F5F5F5F5F5F5F5F5F5F5F5F5F5F5F5F5F5F5F5F5F5F5F5F5F5F5F5F5F5F5F5F5F5F5F5F5F5F5F5F5F5F5F5F5F5F5F5F5F5F5F5F5F5F5F5F5F5F5F5F5F5F5F5F5F5F5F5F5F5F5F5F5F5F5F5F5F5F5F5F5F5F5F5F5
310
F5F5F5F5F5E2E2E2F5F5F5F5F5F5F5F5F5F5F5F5F5F5F5F5F5F5F5F5F5F5F5F5F5F5DCDCDCDCDCDCDCDCDCDCDCDCDCDCDCDCDCDCDCDCDCDCDCDCDCDCDCDCDCDCDCDCDCDCDCDCDCDCDCDCDCDCDCDCDCDCDCDCDCDCDCDCDCDCDCDCDCDCDCDCDCDCDCDCDCDCDCDCDCDCDCDCDCDCDCDCDCDCDCDCDCDCDCDCDCDCDCDCDCDCDCDCDC
310
DCDCDCDCDCDCDCDCDCDCDCDCDCDCDCDCDCDCDCDCDCDCDCDCDCDCDCDCDCDCDCDCF5F5F5F5F5F5F5F5F5F5F5F5F5F5F5F5F5F5F5F5F5F5F5F5F5F5E2E2E2F5F5F5F5F5F5F5F5F5F5F5F5F5F5F5F5F5F5F5F5F5F5F5F5F5F5DCF5F5F5F5F5F5F5F5F5F5F5F5F5F5F5F5F5F5F5F5F5F5F5F5F5F5F5F5F5F5F5F5F5F5F5F5F5F5F5
310
F5F5F5F5F5F5F5F5F5DCDCDCDCDCDCDCDCDCDCDCDCDCE2F5F5F5F5F5F5F5F5F5F5F5F5F5F5F5F5F5F5F5F5F5F5F5F5F5F5F5F5F5F5F5F5F5F5F5F5F5F5F5F5F5F5F5F5F5F5F5F5F5F5F5F5F5F5F5F5F5F5F5F5F5DCF5F5F5F5F5F5F5F5F5F5F5F5F5F5F5F5F5F5F5F5F5F5F5F5F5F5E2E2E2F5F5F5F5F5F5F5F5F5F5F5F5F5
310
F5F5F5F5F5F5F5F5F5F5F5F5F5DCF5F5F5F5F5F5F5F5F5F5F5F5F5F5F5F5F5F5F5F5F5F5F5F5F5F5F5F5F5F5F5F5F5F5F5F5F5F5F5F5F5F5F5F5F5F5F5F5F5DCF5F5F5F5DCDCF5F5F5F5F5DCF5F5F5F5F5F5F5F5F5F5F5F5F5F5F5F5F5F5F5F5F5F5F5F5F5F5F5F5F5F5F5F5F5F5F5F5F5F5F5F5F5F5F5F5F5F5F5F5F5F5F5
310
F5F5F5F5F5F5F5F5F5F5DCF5F5F5F5F5F5F5F5F5F5F5F5F5F5F5F5F5F5F5F5F5F5F5F5F5F5E2E2E2F5F5F5F5F5F5F5F5F5F5F5F5F5F5F5F5F5F5F5F5F5F5F5F5F5F5DCF5F5F5F5F5F5F5F5F5F5F5F5F5F5F5F5F5F5F5F5F5F5F5F5F5F5F5F5F5F5F5F5F5F5F5F5F5F5F5F5F5F5F5F5F5F5F5F5F5DCF5F5F5F5DCDCF5F5F5F5
310
F5DCF5F5F5F5F5F5F5F5F5F5F5F5F5F5F5F5F5F5F5F5F5F5F5F5F5F5F5F5F5F5F5F5F5F5F5F5F5F5F5F5F5F5F5F5F5F5F5F5F5F5F5F5F5F5F5F5F5F5F5F5F5DCF5F5F5F5F5F5F5F5F5F5F5F5F5F5F5F5F5F5F5F5F5F5F5F5F5F5E2E2E2F5F5F5F5F5F5F5F5F5F5F5F5F5F5F5F5F5F5F5F5F5F5F5F5F5F5DCF5F5F5F5F5F5F5
310
F5F5F5F5F5F5F5F5F5F5F5F5F5F5F5F5F5F5F5F5F5F5F5F5F5F5F5F5F5F5F5F5F5F5F5F5F5F5F5F5F5F5DCF5F5F5F5F5F5F5F5F5F5F5DCF5F5F5F5F5F5F5F5F5F5F5F5F5F5F5F5F5F5F5F5F5F5F5F5F5F5F5F5F5F5F5F5F5F5F5F5F5F5F5F5F5F5F5F5F5F5F5F5F5F5F5F5F5F5F5F5F5F5F5F5F5DCF5F5F5F5F5F5F5F5F5F5
310
F5F5F5F5F5F5F5F5F5F5F5F5F5F5F5F5E2E2E2F5F5F5F5F5F5F5F5F5F5F5E2F5F5F5F5F5F5F5F5F5F5F5F5F5F5DCF5F5F5F5F5F5F5F5F5F5F5F5F5F5F5F5F5F5F5F5F5F5F5F5F5F5F5F5F5F5F5F5F5F5F5F5F5F5F5F5F5F5F5F5F5F5F5F5F5DCF5F5F5F5F5F5F5F5F5F5F5DCF5F5F5F5F5F5F5F5F5F5F5F5F5F5F5F5F5F5F5
310
F5F5F5F5F5F5F5F5F5F5F5F5F5F5F5F5F5F5F5F5F5F5F5F5F5F5F5F5F5F5F5F5F5F5F5F5F5F5F5F5F5F5DCF5F5F5F5F5F5F5F5F5F5F5F5F5F5E2F5F5F5F5F5F5F5F5F5F5F5E2E2E2F5F5F5F5F5F5F5F5F5F5F5E2F5F5F5F5F5F5F5F5F5F5F5F5F5F5DCF5F5F5F5F5F5F5F5F5F5F5F5F5F5F5F5F5F5F5F5F5F5F5F5F5F5F5F5
310
F5F5F5F5F5F5F5F5F5F5F5F5F5F5F5F5F5F5F5F5F5DCF5F5F5F5F5F5F5F5F5F5F5DCF5F5F5F5F5DCDCF5F5F5F5F5F5F5F5F5F5F5F5F5F5F5F5F5F5F5F5F5F5F5F5F5F5F5F5F5F5F5F5F5F5F5F5F5F5F5F5F5F5F5F5F5F5F5F5F5F5F5F5F5F5DCF5F5F5F5F5F5F5F5F5F5F5F5F5F5E2F5F5F5F5F5F5F5F5F5F5F5E2E2E2F5F5
310
F5F5F5F5F5F5F5F5F5E2F5F5F5F5F5F5F5F5F5F5F5F5F5F5DCF5F5F5F5F5F5F5F5F5F5F5F5F5F5F5F5F5F5F5F5F5F5F5F5F5F5F5F5F5F5F5F5F5F5F5F5F5F5F5F5F5F5F5F5F5F5F5F5F5BEBEBEBEBEBEBEBEBEBEBEBEBEDCDCDCDCDCDCDCF5F5F5F5F5F5F5F5F5F5F5F5F5F5F5F5F5F5F5F5F5F5F5F5F5F5F5F5F5F5F5F5F5
310
F5F5F5F5F5F5F5F5F5F5F5F5F5F5F5F5F5F5F5F5F5DCF5F5F5F5F5F5F5F5F5F5F5F5F5F5E2F5F5F5F5F5F5F5F5F5F5F5E2E2E2F5F5F5F5F5F5F5F5F5F5F5E2F5F5F5F5F5F5F5F5F5F5F5F5F5F5DCF5F5F5F5F5F5F5F5F5F5F5F5F5F5F5F5F5F5F5F5F5F5F5F5F5F5F5F5F5F5F5F5F5F5F5F5F5F5F5F5F5F5F5F5F5F5F5F5F5
310
BE2DF02DF02DF02DF02DF0F0BEF5F5F5F5F5DCF5F5F5F5F5F5F5F5F5F5F5F5F5F5F5F5F5F5F5F5F5F5F5F5F5F5F5F5F5F5F5F5F5F5F5F5F5F5F5F5F5F5F5F5F5F5F5F5F5F5F5F5F5F5F5DCF5F5F5F5F5F5F5F5F5F5F5F5F5F5E2F5F5F5F5F5F5F5F5F5F5F5E2E2E2F5F5F5F5F5F5F5F5F5F5F5E2F5F5F5F5F5F5F5F5F5F5F5
310
F5F5F5DCF5F5F5F5F5F5F5F5F5F5F5F5F5F5F5F5F5F5F5F5F5F5F5F5F5F5F5F5F5F5F5F5F5F5F5F5F5F5F5F5F5F5F5F5F5F5F5F5F5BEF0F5F5F5F5F5F5F5F5F52DBEF5DCDCDCF5DCF5F5F5F5F5F5F5F5F5F5F5F5F5F5F5F5F5F5F5F5F5F5F5F5F5F5F5F5F5F5F5F5F5F5F5F5F5F5F5F5F5F5F5F5F5F5F5F5F5F5F5F5F5F5F5
310
DCF5F5F5F5F5F5F5F5F5F5F5F5F5F5E2F5F5F5F5F5F5F5F5F5F5F5E2E2E2F5F5F5F5F5F5F5F5F5F5F5E2F5F5F5F5F5F5F5F5F5F5F5F5F5F5DCF5F5F5F5F5F5F5F5F5F5F5F5F5F5F5F5F5F5F5F5F5F5F5F5F5F5F5F5F5F5F5F5F5F5F5F5F5F5F5F5F5F5F5F5F5F5F5F5F5BE2DF0F5F5F5F5F5F52DF02DBEF5DCDCDCF5DCF5F5
310
F5F5F5F5F5F5F5F5F5F5F5F5F5F5F5F5F5F5F5F5F5F5F5F5F5F5F5F5F5F5F5F5F5F5F5F5F5F5F5F5F5F5F5F5F5F5F5F5F5F5F5F5F5DCF5F5F5F5F5F5F5F5F5F5F5F5F5F5E2F5F5F5F5F5F5F5F5F5F5F5E2E2E2F5F5F5F5F5F5F5F5F5F5F5E2F5F5F5F5F5F5F5F5F5F5F5F5F5F5DCF5F5F5F5F5F5F5F5F5F5F5F5F5F5F5F5F5
310
F5F5F5F5F5F5F5F5F5F5F5F5F5F5F5F5F5F5F5F5F5F5F5F5F5F5F5F5F5F5F5F5BEF02DF5F5F5F5F5F5F0F5F0BEF5DCDCDCF5DCF5F5F5F5F5F5F5F5F5F5F5F5F5F5F5F5F5F5F5F5F5F5F5F5F5F5F5F5F5F5F5F5F5F5F5F5F5F5F5F5F5F5F5F5F5F5F5F5F5F5F5F5F5F5F5DCF5F5F5F5F5F5F5F5F5F5F5F5F5F5E2F5F5F5F5F5
310
F5F5F5F5F5F5E2E2E2F5F5F5F5F5F5F5F5F5F5F5E2F5F5F5F5F5F5F5F5F5F5F5F5F5F5DCF5F5F5F5F5F5F5F5F5F5F5F5F5F5F5F5F5F5F5F5F5F5F5F5F5F5F5F5F5F5F5F5F5F5F5F5F5F5F5F5F5F5F5F5F5F5F5F5F5BE2D2DF5F5F5F5F5F52DF0F0BEF5DCDCDCF5DCF5F5F5F5F5F5F5F5F5F5F5F5F5F5F5F5F5F5F5F5F5F5F5
310
F5F5F5F5F5F5F5F5F5F5F5F5F5F5F5F5F5F5F5F5F5F5F5F5F5F5F5F5F5F5F5F5DCF5F5F5F5F5F5F5F5F5F5F5F5F5F5E2F5F5F5F5F5F5F5F5F5F5F5E2E2E2F5F5F5F5F5F5F5F5F5F5F5E2F5F5F5F5F5F5F5F5F5F5F5F5F5F5DCF5F5F5F5F5F5F5F5F5F5F5F5F5F5F5F5F5F5F5F5F5F5F5F5F5F5F5F5F5F5F5F5F5F5F5F5F5F5
310
F5F5F5F5F5F5F5F5F5F5F5BE2D2828282828282828F52DBEF5DCDCDCF5DCF5F5F5F5F5F5F5F5F5F5F5F5F5F5F5F5F5F5F5F5F5F5F5F5F5F5F5F5F5F5F5F5F5F5F5F5F5F5F5F5F5F5F5F5F5F5F5F5F5F5F5F5F5F5F5DCF5F5F5F5F5F5F5F5F5F5F5F5F5F5E2F5F5F5F5F5F5F5F5F5F5F5E2E2E2F5F5F5F5F5F5F5F5F5F5F5E2
310
F5F5F5F5F5F5F5F5F5F5F5F5F5F5DCF5F5F5F5F5F5F5F5F5F5F5F5F5F5F5F5F5F5F5F5F5F5F5F5F5F5F5F5F5F5F5F5F5F5F5F5F5F5F5F5F5F5F5F5F5F5F5F5F5BEF02828282828282828F0F5BEF5DCDCDCF5DCF5F5F5F5F5F5F5F5F5F5F5F5F5F5F5F5F5F5F5F5F5F5F5F5F5F5F5F5F5F5F5F5F5F5F5F5F5F5F5F5F5F5F5F5
310
F5F5F5F5F5F5F5F5F5F5F5DCF5F5F5F5F5F5F5F5F5F5F5F5F5F5E2F5F5F5F5F5F5F5F5F5F5F5E2E2E2F5F5F5F5F5F5F5F5F5F5F5E2F5F5F5F5F5F5F5F5F5F5F5F5F5F5DCF5F5F5F5F5F5F5F5F5F5F5F5F5F5F5F5F5F5F5F5F5F5F5F5F5F5F5F5F5F5F5F5F5F5F5F5F5F5F5F5F5F5F5F5F5F5F5F5F5BE2D2828282828282828
310
2DF0BEF5DCDCDCF5DCF5F5F5F5F5F5F5F5F5F5F5F5F5F5F5F5F5F5F5F5F5F5F5F5F5F5F5F5F5F5F5F5F5F5F5F5F5F5F5F5F5F5F5F5F5F5F5F5F5F5F5F5F5F5F5DCF5F5F5F5F5F5F5F5F5F5F5F5F5F5E2F5F5F5F5F5F5F5F5F5F5F5E2E2E2F5F5F5F5F5F5F5F5F5F5F5E2F5F5F5F5F5F5F5F5F5F5F5F5F5F5DCF5F5F5F5F5F5
310
F5F5F5F5F5F5F5F5F5F5F5F5F5F5F5F5F5F5F5F5F5F5F5F5F5F5F5F5F5F5F5F5F5F5F5F5F5F5F5F5F5F5F5BEF02828282828282828F02DBEF5F5F5F5F5DCF5F5F5F5F5F5F5F5F5F5F5F5F5F5F5F5F5F5F5F5F5F5F5F5F5F5F5F5F5F5F5F5F5F5F5F5F5F5F5F5F5F5F5F5F5F5F5F5F5F5F5F5F5F5F5DCF5F5F5F5F5F5F5F5F5
310
F5F5F5F5F5E2F5F5F5F5F5F5F5F5F5F5F5E2E2E2F5F5F5F5F5F5F5F5F5F5F5E2F5F5F5F5F5F5F5F5F5F5F5F5F5F5DCF5F5F5F5F5F5F5F5F5F5F5F5F5F5F5F5F5F5F5F5F5F5F5F5F5F5F5F5F5F5F5F5F5F5F5F5F5F5F5F5F5F5F5F5F5F5F5F5F5BEF528282828F5282828F5F0BEF5F5F5F5F5DCF5F5F5F5F5F5F5F5F5F5F5F5
310
F5F5F5F5F5F5F5F5F5F5F5F5F5F5F5F5F5F5F5F5F5F5F5F5F5F5F5F5F5F5F5F5F5F5F5F5F5F5F5F5F5F5F5DCF5F5F5F5F5F5F5F5F5F5F5F5F5F5E2F5F5F5F5F5F5F5F5F5F5F5E2E2E2F5F5F5F5F5F5F5F5F5F5F5E2F5F5F5F5F5F5F5F5F5F5F5F5F5F5DCF5F5F5F5F5F5F5F5F5F5F5F5F5F5F5F5F5F5F5F5F5F5F5F5F5F5F5
310
F5F5F5F5F5F5F5F5F5F5F5F5F5F5F5F5F5F5F5F5F5F5BE2D28282828F5282828F5F0BEF5F5F5F5F5DCF5F5F5F5F5F5F5F5F5F5F5F5F5F5F5F5F5F5F5F5F5F5F5F5F5F5F5F5F5F5F5F5F5F5F5F5F5F5F5F5F5F5F5F5F5F5F5F5F5F5F5F5F5F5F5DCF5F5F5F5F5F5F5F5F5F5F5F5F5F5E2F5F5F5F5F5F5F5F5F5F5F5E2E2E2F5
310
F5F5F5F5F5F5F5F5F5F5E2F5F5F5F5F5F5F5F5F5F5F5F5F5F5DCF5F5F5F5F5F5F5F5F5F5F5F5F5F5F5F5F5F5F5F5F5F5F5F5F5F5F5F5F5F5F5F5F5F5BEBEBEBEBEBEBEBEBEBEBEBEBEBEBEBE2D28282828BE282828F0F0BEBEBEBEBEBEBEBEBEBEBEBEBEBEBEBEF5F5F5F5F5F5F5F5F5F5F5F5F5F5F5F5F5F5F5F5F5F5F5F5
310
F5F5F5F5F5F5F5F5F5F5F5F5F5F5F5F5F5F5F5F5F5F5DCF5F5F5F5F5F5F5F5F5F5F5F5F5F5E2F5F5F5F5F5F5F5F5F5F5F5E2E2E2F5F5F5F5F5F5F5F5F5F5F5F5F5F5F5F5F5F5F5F5F5F5F5F5F5F5DCF5F5F5F5F5F5F5F5F5F5F5F5F5F5F5F5F5F5F5F5F5F5F5F5F5F5F5F5F5F5F5F5F5F5F5F5F5F5F5F5F5F5F5F5F5F5F5F5
310
F5F5F528282828BE282828F5F5F5F5F5F5F5F5DCF5F5F5F5F5F5F5F5F5F5F5F5F5F5F5F5F5F5F5F5F5F5F5F5F5F5F5F5F5F5F5F5F5F5F5F5F5F5F5F5F5F5F5F5F5F5F5F5F5F5F5F5F5F5F5DCF5F5F5F5F5F5F5F5F5F5F5F5F5F5F5F5F5F5F5F5F5F5F5F5F5F5E2E2E2F5F5F5F5F5F5F5F5F5F5F5F5F5F5F5F5F5F5F5F5F5F5
310
F5F5F5F5DCF5F5F5F5F5F5F5F5F5F5F5F5F5F5F5F5F5F5F5F5F5F5F5F5F5F5F5F5F5F5F5F5F5F5F5F5F5F5F5F5F5F5F5F5F5F5F5F5F5F5F52828282828282828F5F5F5F5F5F5F5F5DCF5F5F5F5F5F5F5F5F5F5F5F5F5F5F5F5F5F5F5F5F5F5F5F5F5F5F5F5F5F5F5F5F5F5F5F5F5F5F5F5F5F5F5F5F5F5F5F5F5F5F5F5F5F5
310
F5DCF5F5F5F5F5F5F5F5F5F5F5F5F5F5F5F5F5F5F5F5F5F5F5F5F5F5E2E2E2F5F5F5F5F5F5F5F5F5F5F5F5F5F5F5F5F5F5F5F5F5F5F5F5F5F5DCF5F5F5F5F5F5F5F5F5F5F5F5F5F5F5F5F5F5F5F5F5F5F5F5F5F5F5F5F5F5F5F5F5F5F5F5F5F5F5F5F5F5F5F5F5F5F5F5F5F5F5F528F5F5BEF5F528F5F5F5F5F5F5F5F5DCF5
310
F5F5F5F5F5F5F5F5F5F5F5F5F5F5F5F5F5F5F5F5F5F5F5F5F5F5F5F5F5F5F5F5F5F5F5F5F5F5F5F5F5F5F5F5F5F5F5F5F5F5F5F5F5F5DCF5F5F5F5F5F5F5F5F5F5F5F5F5F5F5F5F5F5F5F5F5F5F5F5F5F5E2E2E2F5F5F5F5F5F5F5F5F5F5F5F5F5F5F5F5F5F5F5F5F5F5F5F5F5F5DCF5F5F5F5F5F5F5F5F5F5F5F5F5F5F5F5
310
F5F5F5F5F5F5F5F5F5F5F5F5F5F5F5F5F5F5F5F5F5F5F5F5F5F5F5F5F5F5F5F5F5F5F5F528F5F5BEF5F528F5F5F5F5F5F5F5F5DCF5F5F5F5F5F5F5F5F5F5F5F5F5F5F5F5F5F5F5F5F5F5F5F5F5F5F5F5F5F5F5F5F5F5F5F5F5F5F5F5F5F5F5F5F5F5F5F5F5F5F5F5F5F5F5DCF5F5F5F5F5F5F5F5F5F5F5F5F5F5F5F5F5F5F5
310
F5F5F5F5F5F5F5E2E2E2F5F5F5F5F5F5F5F5F5F5F5F5F5F5F5F5F5F5F5F5F5F5F5F5F5F5DCF5F5F5F5F5F5F5F5F5F5F5F5F5F5F5F5F5F5F5F5F5F5F5F5F5F5F5F5F5F5F5F5F5F5F5F5F5F5F5F5F5F5F5F5F5F5F5F5F5F5F5F528282828282828F5F5F5F5F5F5F5F5DCDCF5F5F5F5F5F5F5F5F5F5F5F5F5F5F5F5F5F5F5F5F5
310
F5F5F5F5F5F5F5F5F5F5F5F5F5F5F5F5F5F5F5F5F5F5F5F5F5F5F5F5F5F5F5F5F5DCF5F5F5F5F5F5F5F5F5F5F5F5F5F5F5F5F5F5F5F5F5F5F5F5F5F5E2E2E2F5F5F5F5F5F5F5F5F5F5F5F5F5F5F5F5F5F5F5F5F5F5F5F5F5F5DCF5F5F5F5F5F5F5F5F5F5F5F5F5F5F5F5F5F5F5F5F5F5F5F5F5F5F5F5F5F5F5F5F5F5F5F5F5
310
F5F5F5F5F5F5F5F5F5F5F52828282828BEBEBEBE28282828DCDCDCDCDCDCE2DCF5F5F5F5F5F5F5F5F5F5F5F5F5F5F5F5F5F5F5F5F5F5F5F5F5F5F5F5F5F5F5F5F5F5F5F5F5F5F5F5F5F5F5F5F5F5F5F5F5F5F5F5F5F5DCF5F5F5F5F5F5F5F5F5F5F5F5F5F5F5F5F5F5F5F5F5F5F5F5F5F5E2E2E2F5F5F5F5F5F5F5F5F5F5F5
310
F5F5F5F5F5F5F5F5F5F5F5F5F5F5F5DCF5F5F5F5F5F5F5F5F5F5F5F5F5F5F5F5F5F5F5F5F5F5F5F5F5F5F5F5F5F5F5F5F5F5F5F5F5F5F5F5F5F5F5F5F5F5F5F528F52828282828282828282828F5F5DCDCDCF5DCF5F5F5F5F5F5F5F5F5F5F5F5F5F5F5F5F5F5F5F5F5F5F5F5F5F5F5F5F5F5F5F5F5F5F5F5F5F5F5F5F5F5F5
310
F5F5F5F5F5F5F5F5F5F5F5F5DCF5F5F5F5F5F5F5F5F5F5F5F5F5F5F5F5F5F5F5F5F5F5F5F5F5F5E2E2E2F5F5F5F5F5F5F5F5F5F5F5F5F5F5F5F5F5F5F5F5F5F5F5F5F5F5DCF5F5F5F5F5F5F5F5F5F5F5F5F5F5F5F5F5F5F5F5F5F5F5F5F5F5F5F5F5F5F5F5F5F5F5F5F5F5F5F5F5F5F5F5F5F5F5F528F52828282828282828
310
282828F5F5DCDCDCF5DCF5F5F5F5F5F5F5F5F5F5F5F5F5F5F5F5F5F5F5F5F5F5F5F5F5F5F5F5F5F5F5F5F5F5F5F5F5F5F5F5F5F5F5F5F5F5F5F5F5F5F5F5F5F5F5DCF5F5F5F5F5F5F5F5F5F5F5F5F5F5F5F5F5F5F5F5F5F5F5F5F5F5E2E2E2F5F5F5F5F5F5F5F5F5F5F5E2F5F5F5F5F5F5F5F5F5F5F5F5F5F5DCF5F5F5F5F5
310
F5F5F5F5F5F5F5F5F5F5F5F5F5F5F5F5F5F5F5F5F5F5F5F5F5F5F5F5F5F5F5F5F5F5F5F5F5F5F5F5F5F5F528F52828F52828282828282828F5F5DCDCDCF5DCF5F5F5F5F5F5F5F5F5F5F5F5F5F5F5F5F5F5F5F5F5F5F5F5F5F5F5F5F5F5F5F5F5F5F5F5F5F5F5F5F5F5F5F5F5F5F5F5F5F5F5F5F5F5F5DCF5F5F5F5F5F5F5F5
310
F5F5F5F5F5F5E2F5F5F5F5F5F5F5F5F5F5F5E2E2E2F5F5F5F5F5F5F5F5F5F5F5E2F5F5F5F5F5F5F5F5F5F5F5F5F5F5DCF5F5F5F5F5F5F5F5F5F5F5F5F5F5F5F5F5F5F5F5F5F5F5F5F5F5F5F5F5F5F5F5F5F5F5F5F5F5F5F5F5F5F5F5F5F5F5F528F52828F528F5BE2828282828F5F5DCDCDCF5DCF5F5F5F5F5F5F5F5F5F5F5
310
F5F5F5F5F5F5F5F5F5F5F5F5F5F5F5F5F5F5F5F5F5F5F5F5F5F5F5F5F5F5F5F5F5F5F5F5F5F5F5F5F5F5F5F5DCF5F5F5F5F5F5F5F5F5F5F5F5F5F5E2F5F5F5F5F5F5F5F5F5F5F5E2E2E2F5F5F5F5F5F5F5F5F5F5F5E2F5F5F5F5F5F5F5F5F5F5F5F5F5F5DCF5F5F5F5F5F5F5F5F5F5F5F5F5F5F5F5F5F5F5F5F5F5F5F5F5F5
310
F5F5F5F5F5F5F5F5F5F5F5F5F5F5F5F5F5F5F5F5F5F528F528282828F5F52828282828F5F5DCDCDCF5DCF5F5F5F5F5F5F5F5F5F5F5F5F5F5F5F5F5F5F5F5F5F5F5F5F5F5F5F5F5F5F5F5F5F5F5F5F5F5F5F5F5F5F5F5F5F5F5F5F5F5F5F5F5F5F5DCF5F5F5F5F5F5F5F5F5F5F5F5F5F5E2F5F5F5F5F5F5F5F5F5F5F5E2E2E2
310
F5F5F5F5F5F5F5F5F5F5F5E2F5F5F5F5F5F5F5F5F5F5F5F5F5F5DCF5F5F5F5F5F5F5F5F5F5F5F5F5F5F5F5F5F5F5F5F5F5F5F5F5F5F5F5F5F5F5F5F5F5F5F5F5F5F5F5F5F5F5F5F5F5F5F528F52828282828282828282828F5F5F5DCDCF5DCF5F5F5F5F5F5F5F5F5F5F5F5F5F5F5F5F5F5F5F5F5F5F5F5F5F5F5F5F5F5F5F5
310
F5F5F5F5F5F5F5F5F5F5F5F5F5F5F5F5F5F5F5F5F5F5F5DCF5F5F5F5F5F5F5F5F5F5F5F5F5F5E2F5F5F5F5F5F5F5F5F5F5F5E2E2E2F5F5F5F5F5F5F5F5F5F5F5E2F5F5F5F5F5F5F5F5F5F5F5F5F5F5DCF5F5F5F5F5F5F5F5F5F5F5F5F5F5F5F5F5F5F5F5F5F5F5F5F5F5F5F5F5F5F5F5F5F5F5F5F5F5F5F5F5F5F5F5F5F5F5
310
F528F52828F52828282828282828F5F5DCDCDCF5DCF5F5F5F5F5F5F5F5F5F5F5F5F5F5F5F5F5F5F5F5F5F5F5F5F5F5F5F5F5F5F5F5F5F5F5F5F5F5F5F5F5F5F5F5F5F5F5F5F5F5F5F5F5F5F5DCF5F5F5F5F5F5F5F5F5F5F5F5F5F5E2F5F5F5F5F5F5F5F5F5F5F5E2E2E2F5F5F5F5F5F5F5F5F5F5F5E2F5F5F5F5F5F5F5F5F5
310
F5F5F5F5F5DCF5F5F5F5F5F5F5F5F5F5F5F5F5F5F5F5F5F5F5F5F5F5F5F5F5F5F5F5F5F5F5F5F5F5F5F5F5F5F5F5F5F5F5F5F5F5F5F528F52828282828282828282828F5F5F5F5F5F5DCF5F5F5F5F5F5F5F5F5F5F5F5F5F5F5F5F5F5F5F5F5F5F5F5F5F5F5F5F5F5F5F5F5F5F5F5F5F5F5F5F5F5F5F5F5F5F5F5F5F5F5F5F5
310
F5F5DCF5F5F5F5F5F5F5F5F5F5F5F5F5F5E2F5F5F5F5F5F5F5F5F5F5F5E2E2E2F5F5F5F5F5F5F5F5F5F5F5E2F5F5F5F5F5F5F5F5F5F5F5F5F5F5DCF5F5F5F5F5F5F5F5F5F5F5F5F5F5F5F5F5F5F5F5F5F5F5F5F5F5F5F5F5F5F5F5F5F5F5F5F5F5F5F5F5F5F5F5F5F5F5F528F52828282828BE2828282828F5F5F5F5F5F5F5
310
F5F5F5F5F5F5F5F5F5F5F5F5F5F5F5F5F5F5F5F5F5F5F5F5F5F5F5F5F5F5F5F5F5F5F5F5F5F5F5F5F5F5F5F5F5F5F5F5F5F5F5F5F5F5F5DCF5F5F5F5F5F5F5F5F5F5F5F5F5F5E2F5F5F5F5F5F5F5F5F5F5F5E2E2E2F5F5F5F5F5F5F5F5F5F5F5E2F5F5F5F5F5F5F5F5F5F5F5F5F5F5DCF5F5F5F5F5F5F5F5F5F5F5F5F5F5F5
310
F5F5F5F5F5F5F5F5F5F5F5F5F5F5F5F5F5F5F5F5F5F5F5F5F5F5F5F5F5F5F5F5F528F528282828F5BE2828282828F5F5F5F5F5F5F5F5F5F5F5F5F5F5F5F5F5F5F5F5F5F5F5F5F5F5F5F5F5F5F5F5F5F5F5F5F5F5F5F5F5F5F5F5F5F5F5F5F5F5F5F5F5F5F5F5F5F5F5F5F5F5DCF5F5F5F5F5F5F5F5F5F5F5F5F5F5E2F5F5F5
310
F5F5F5F5F5F5F5F5E2E2E2F5F5F5F5F5F5F5F5F5F5F5E2F5F5F5F5F5F5F5F5F5F5F5F5F5F5DCF5F5F5F5F5F5F5F5F5F5F5F5F5F5F5F5F5F5F5F5F5F5F5F5F5F5F5F5F5F5F5F5F5F5F5F5F5F5F5F5F5F5F5F5F5F5F5F528F52828282828282828282828F5F5F5F5F5F5F5F5F5F5F5F5F5F5F5F5F5F5F5F5F5F5F5F5F5F5F5F5
310
F5F5F5F5F5F5F5F5F5F5F5F5F5F5F5F5F5F5F5F5F5F5F5F5F5F5F5F5F5F5F5F5F5F5DCF5F5F5F5F5F5F5F5F5F5F5F5F5F5E2F5F5F5F5F5F5F5F5F5F5F5E2E2E2F5F5F5F5F5F5F5F5F5F5F5E2F5F5F5F5F5F5F5F5F5F5F5F5F5F5DCF5F5F5F5F5F5F5F5F5F5F5F5F5F5F5F5F5F5F5F5F5F5F5F5F5F5F5F5F5F5F5F5F5F5F5F5
310
F5F5F5F5F5F5F5F5F5F5F5F528F52828282828282828282828F5F5F5F5F5F5F5F5F5F5F5F5F5F5F5F5F5F5F5F5F5F5F5F5F5F5F5F5F5F5F5F5F5F5F5F5F5F5F5F5F5F5F5F5F5F5F5F5F5F5F5F5F5F5F5F5F5F5F5F5F5F5DCF5F5F5F5F5F5F5F5F5F5F5F5F5F5E2F5F5F5F5F5F5F5F5F5F5F5E2E2E2F5F5F5F5F5F5F5F5F5F5
310
F5E2F5F5F5F5F5F5F5F5F5F5F5F5F5F5DCF5F5F5F5F5F5F5F5F5F5F5F5F5F5F5F5F5F5F5F5F5F5F5F5F5F5F5F5F5F5F5F5F5F5F5F5F5F5F5F5F5F5F5F5F5F5F5F528F52828F52828282828282828F5F5F5F5F5F5F5F5F5F5F5F5F5F5F5F5F5F5F5F5F5F5F5F5F5F5F5F5F5F5F5F5F5F5F5F5F5F5F5F5F5F5F5F5F5F5F5F5F5
310
F5F5F5F5F5F5F5F5F5F5F5F5F5DCF5F5F5F5F5F5F5F5F5F5F5F5F5F5E2F5F5F5F5F5F5F5F5F5F5F5E2E2E2F5F5F5F5F5F5F5F5F5F5F5E2F5F5F5F5F5F5F5F5F5F5F5F5F5F5DCF5F5F5F5F5F5F5F5F5F5F5F5F5F5F5F5F5F5F5F5F5F5F5F5F5F5F5F5F5F5F5F5F5F5F5F5F5F5F5F5F5F5F5F5F5F5F5F528F52828F528F52828
310
28282828F5F5F5F5F5F5F5F5F5F5F5F5F5F5F5F5F5F5F5F5F5F5F5F5F5F5F5F5F5F5F5F5F5F5F5F5F5F5F5F5F5F5F5F5F5F5F5F5F5F5F5F5F5F5F5F5F5F5F5F5F5F5DCF5F5F5F5F5F5F5F5F5F5F5F5F5F5E2F5F5F5F5F5F5F5F5F5F5F5E2E2E2F5F5F5F5F5F5F5F5F5F5F5E2F5F5F5F5F5F5F5F5F5F5F5F5F5F5DCF5F5F5F5
310
F5F5F5F5F5F5F5F5F5F5F5F5F5F5F5F5F5F5F5F5F5F5F5F5F5F5F5F5F5F5F5F5F5F5F5F5F5F5F5F5F5F5F5F528F528282828F5282828282828F5F5F5F5F5F5F5F5F5F5F5F5F5F5F5F5F5F5F5F5F5F5F5F5F5F5F5F5F5F5F5F5F5F5F5F5F5F5F5F5F5F5F5F5F5F5F5F5F5F5F5F5F5F5F5F5F5F5F5F5F5F5DCF5F5F5F5F5F5F5
310
F5F5F5F5F5F5F5E2F5F5F5F5F5F5F5F5F5F5F5E2E2E2F5F5F5F5F5F5F5F5F5F5F5E2F5F5F5F5F5F5F5F5F5F5F5F5F5F5DCF5F5F5F5F5F5F5F5F5F5F5F5F5F5F5F5F5F5F5F5F5F5F5F5F5F5F5F5F5F5F5F5F5F5F5F5F5F5F5F5F5F5F5F5F5F5F5F528F528282828F5282828282828F5F5F5F5F5F5F5F5F5F5F5F5F5F5F5F5F5
310
F5F5F5F5F5F5F5F5F5F5F5F5F5F5F5F5F5F5F5F5F5F5F5F5F5F5F5F5F5F5F5F5F5F5F5F5F5F5F5F5F5F5F5F5F5DCF5F5F5F5F5F5F5F5F5F5F5F5F5F5E2F5F5F5F5F5F5F5F5F5F5F5E2E2E2F5F5F5F5F5F5F5F5F5F5F5E2F5F5F5F5F5F5F5F5F5F5F5F5F5F5DCF5F5F5F5F5F5F5F5F5F5F5F5F5F5F5F5F5F5F5F5F5F5F5F5F5
310
F5F5F5F5F5F5F5F5F5F5F5F5F5F5F5F5F5F5F5F5F5F5F528F52828282828282828282828F5F5F5F5F5F5F5F5F5F5F5F5F5F5F5F5F5F5F5F5F5F5F5F5F5F5F5F5F5F5F5F5F5F5F5F5F5F5F5F5F5F5F5F5F5F5F5F5F5F5F5F5F5F5F5F5F5F5F5F5F5F5DCF5F5F5F5F5F5F5F5F5F5F5F5F5F5E2F5F5F5F5F5F5F5F5F5F5F5E2E2
310
E2F5F5F5F5F5F5F5F5F5F5F5F5F5F5F5F5F5F5F5F5F5F5F5F5F5F5DCF5F5F5F5F5F5F5F5F5F5F5F5F5F5F5F5F5F5F5F5F5F5F5F5F5F5F5F5F5F5F5F5F5F5F5F5F5F5F5F5F5F5F5F5F5F5F5F528F52828F528F5282828282828F5F5F5F5F5F5F5F5F5F5F5F5F5F5F5F5F5F5F5F5F5F5F5F5F5F5F5F5F5F5F5F5F5F5F5F5F5F5
310
F5F5F5F5F5F5F5F5F5F5F5F5F5F5F5F5F5F5F5F5F5F5F5F5DCF5F5F5F5F5F5F5F5F5F5F5F5F5F5F5F5F5F5F5F5F5F5F5F5F5F5E2E2E2F5F5F5F5F5F5F5F5F5F5F5F5F5F5F5F5F5F5F5F5F5F5F5F5F5F5DCF5F5F5F5F5F5F5F5F5F5F5F5F5F5F5F5F5F5F5F5F5F5F5F5F5F5F5F5F5F5F5F5F5F5F5F5F5F5F5F5F5F5F5F5F5F5
310
F5F528F52828F528F5BE2828282828F5F5F5F5F5F5F5F5F5F5F5F5F5F5F5F5F5F5F5F5F5F5F5F5F5F5F5F5F5F5F5F5F5F5F5F5F5F5F5F5F5F5F5F5F5F5F5F5F5F5F5F5F5F5F5F5F5F5F5F5F5F5DCF5F5F5F5F5F5F5F5F5F5F5F5F5F5F5F5F5F5F5F5F5F5F5F5F5F5E2E2E2F5F5F5F5F5F5F5F5F5F5F5F5F5F5F5F5F5F5F5F5
310
F5F5F5F5F5F5DCF5F5F5F5F5F5F5F5F5F5F5F5F5F5F5F5F5F5F5F5F5F5F5F5F5F5F5F5F5F5F5F5F5F5F5F5F5F5F5F5F5F5F5F5F5F5F5F528F52828282828282828282828F5F5F5F5F5F5F5F5F5F5F5F5F5F5F5F5F5F5F5F5F5F5F5F5F5F5F5F5F5F5F5F5F5F5F5F5F5F5F5F5F5F5F5F5F5F5F5F5F5F5F5F5F5F5F5F5F5F5F5
310
F5F5F5DCF5F5F5F5F5F5F5F5F5F5F5F5F5F5F5F5F5F5F5F5F5F5F5F5F5F5E2E2E2F5F5F5F5F5F5F5F5F5F5F5F5F5F5F5F5F5F5F5F5F5F5F5F5F5F5DCF5F5F5F5F5F5F5F5F5F5F5F5F5F5F5F5F5F5F5F5F5F5F5F5F5F5F5F5F5F5F5F5F5F5F5F5F5F5F5F5F5F5F5F5F5F5F5F528F52828282828282828282828F5F5F5F5F5F5
310
F5F5F5F5F5F5F5F5F5F5F5F5F5F5F5F5F5F5F5F5F5F5F5F5F5F5F5F5F5F5F5F5F5F5F5F5F5F5F5F5F5F5F5F5F5F5F5F5F5F5F5F5F5F5F5F5DCF5F5F5F5F5F5F5F5F5F5F5F5F5F5F5F5F5F5F5F5F5F5F5F5F5F5E2E2E2F5F5F5F5F5F5F5F5F5F5F5F5F5F5F5F5F5F5F5F5F5F5F5F5F5F5DCF5F5F5F5F5F5F5F5F5F5F5F5F5F5
310
F5F5F5F5F5F5F5F5F5F5F5F5F5F5F5F5F5F5F5F5F5F5F5F5F5F5F5F5F5F5F5F5F5F528F52828F528F5BE2828282828F5F5F5F5F5F5F5F5F5F5F5F5F5F5F5F5F5F5F5F5F5F5F5F5F5F5F5F5F5F5F5F5F5F5F5F5F5F5F5F5F5F5F5F5F5F5F5F5F5F5F5F5F5F5F5F5F5F5F5F5F5F5DCF5F5F5F5F5F5F5F5F5F5F5F5F5F5F5F5F5
310
F5F5F5F5F5F5F5F5F5E2E2E2F5F5F5F5F5F5F5F5F5F5F5F5F5F5F5F5F5F5F5F5F5F5F5F5F5F5DCF5F5F5F5F5F5F5F5F5F5F5F5F5F5F5F5F5F5F5F5F5F5F5F5F5F5F5F5F5F5F5F5F5F5F5F5F5F5F5F5F5F5F5F5F5F5F5F528F52828F528F5BE2828282828F5F5F5F5F5F5F5F5F5F5F5F5F5F5F5F5F5F5F5F5F5F5F5F5F5F5F5
310
F5F5F5F5F5F5F5F5F5F5F5F5F5F5F5F5F5F5F5F5F5F5F5F5F5F5F5F5F5F5F5F5F5F5F5DCF5F5F5F5F5F5F5F5F5F5F5F5F5F5F5F5F5F5F5F5F5F5F5F5F5F5E2E2E2F5F5F5F5F5F5F5F5F5F5F5F5F5F5F5F5F5F5F5F5F5F5F5F5F5F5DCF5F5F5F5F5F5F5F5F5F5F5F5F5F5F5F5F5F5F5F5F5F5F5F5F5F5F5F5F5F5F5F5F5F5F5
310
F5F5F5F5F5F5F5F5F5F5F5F5F528F52828F528F5BE2828282828F5F5F5F5F5F5F5F5F5F5F5F5F5F5F5F5F5F5F5F5F5F5F5F5F5F5F5F5F5F5F5F5F5F5F5F5F5F5F5F5F5F5F5F5F5F5F5F5F5F5F5F5F5F5F5F5F5F5F5F5F5F5DCF5F5F5F5F5F5F5F5F5F5F5F5F5F5F5F5F5F5F5F5F5F5F5F5F5F5E2E2E2F5F5F5F5F5F5F5F5F5
310
F5F5F5F5F5F5F5F5F5F5F5F5F5F5F5F5F5DCF5F5F5F5F5F5F5F5F5F5F5F5F5F5F5F5F5F5F5F5F5F5F5F5F5F5F5F5F5F5F5F5F5F5F5F5F5F5F5F5F5F5F5F5F5F5F5F528F528282828F5BE2828282828F5F5F5F5F5F5F5F5F5F5F5F5F5F5F5F5F5F5F5F5F5F5F5F5F5F5F5F5F5F5F5F5F5F5F5F5F5F5F5F5F5F5F5F5F5F5F5F5
310
F5F5F5F5F5F5F5F5F5F5F5F5F5F5DCF5F5F5F5F5F5F5F5F5F5F5F5F5F5F5F5F5F5F5F5F5F5F5F5F5F5E2E2E2F5F5F5F5F5F5F5F5F5F5F5F5F5F5F5F5F5F5F5F5F5F5F5F5F5F5DCF5F5F5F5F5F5F5F5F5F5F5F5F5F5F5F5F5F5F5F5F5F5F5F5F5F5F5F5F5F5F5F5F5F5F5F5F5F5F5F5F5F5F5F5F5F5F5F528F528282828F5BE
310
2828282828F5F5F5F5F5F5F5F5F5F5F5F5F5F5F5F5F5F5F5F5F5F5F5F5F5F5F5F5F5F5F5F5F5F5F5F5F5F5F5F5F5F5F5F5F5F5F5F5F5F5F5F5F5F5F5F5F5F5F5F5F5F5DCF5F5F5F5F5F5F5F5F5F5F5F5F5F5F5F5F5F5F5F5F5F5F5F5F5F5E2E2E2F5F5F5F5F5F5F5F5F5F5F5E2F5F5F5F5F5F5F5F5F5F5F5F5F5F5DCF5F5F5
310
F5F5F5F5F5F5F5F5F5F5F5F5F5F5F5F5F5F5F5F5F5F5F5F5F5F5F5F5F5F5F5F5F5F5F5F5F5F5F5F5F5F5F5F5F528F52828F5F5F5BEF528282828F5F5F5F5F5F5F5F5F5F5F5F5F5F5F5F5F5F5F5F5F5F5F5F5F5F5F5F5F5F5F5F5F5F5F5F5F5F5F5F5F5F5F5F5F5F5F5F5F5F5F5F5F5F5F5F5F5F5F5F5F5F5DCF5F5F5F5F5F5
310
F5F5F5F5F5F5F5F5E2F5F5F5F5F5F5F5F5F5F5F5E2E2E2F5F5F5F5F5F5F5F5F5F5F5E2F5F5F5F5F5F5F5F5F5F5F5F5F5F5DCF5F5F5F5F5F5F5F5F5F5F5F5F5F5F5F5F5F5F5F5F5F5F5F5F5F5F5F5F5F5F5F5F5F5F5F5F5F5F5F5F5F5F5F5F5F5F5F528F52828F5F5F5F5F528282828F5F5F5F5F5F5F5F5F5F5F5F5F5F5F5F5
310
F5F5F5F5F5F5F5F5F5F5F5F5F5F5F5F5F5F5F5F5F5F5F5F5F5F5F5F5F5F5F5F5F5F5F5F5F5F5F5F5F5F5F5F5F5F5DCF5F5F5F5F5F5F5F5F5F5F5F5F5F5E2F5F5F5F5F5F5F5F5F5F5F5E2E2E2F5F5F5F5F5F5F5F5F5F5F5E2F5F5F5F5F5F5F5F5F5F5F5F5F5F5DCF5F5F5F5F5F5F5F5F5F5F5F5F5F5F5F5F5F5F5F5F5F5F5F5
310
F5F5F5F5F5F5F5F5F5F5F5F5F5F5F5F5F5F5F5F5F5F5F5F528282828F5F5F5BEF528282828F5F5F5F5F5F5F5F5F5F5F5F5F5F5F5F5F5F5F5F5F5F5F5F5F5F5F5F5F5F5F5F5F5F5F5F5F5F5F5F5F5F5F5F5F5F5F5F5F5F5F5F5F5F5F5F5F5F5F5F5F5F5DCF5F5F5F5F5F5F5F5F5F5F5F5F5F5E2F5F5F5F5F5F5F5F5F5F5F5E2
310
E2E2F5F5F5F5F5F5F5F5F5F5F5E2F5F5F5F5F5F5F5F5F5F5F5F5F5F5DCF5F5F5F5F5F5F5F5F5F5F5F5F5F5F5F5F5F5F5F5F5F5F5F5F5F5F5F5F5F5F5F5F5F5F5F5F5F5F5F5F5F5F5F5F5F5F5F528F52828F5F5F5BEF528282828F5F5F5F5F5F5F5F5F5F5F5F5F5F5F5F5F5F5F5F5F5F5F5F5F5F5F5F5F5F5F5F5F5F5F5F5F5
310
F5F5F5F5F5F5F5F5F5F5F5F5F5F5F5F5F5F5F5F5F5F5F5F5F5DCF5F5F5F5F5F5F5F5F5F5F5F5F5F5E2F5F5F5F5F5F5F5F5F5F5F5E2E2E2F5F5F5F5F5F5F5F5F5F5F5E2F5F5F5F5F5F5F5F5F5F5F5F5F5F5DCF5F5F5F5F5F5F5F5F5F5F5F5F5F5F5F5F5F5F5F5F5F5F5F5F5F5F5F5F5F5F5F5F5F5F5F5F5F5F5F5F5F5F5F5F5
310
F5F5F528F52828F5F5F5BEF528282828F5F5F5F5F5F5F5F5F5F5F5F5F5F5F5F5F5F5F5F5F5F5F5F5F5F5F5F5F5F5F5F5F5F5F5F5F5F5F5F5F5F5F5F5F5F5F5F5F5F5F5F5F5F5F5F5F5F5F5F5F5F5DCF5F5F5F5F5F5F5F5F5F5F5F5F5F5E2F5F5F5F5F5F5F5F5F5F5F5E2E2E2F5F5F5F5F5F5F5F5F5F5F5E2F5F5F5F5F5F5F5
310
F5F5F5F5F5F5F5DCF5F5F5F5F5F5F5F5F5F5F5F5F5F5F5F5F5F5F5F5F5F5F5F5F5F5F5F5F5F5F5F5F5F5F5F5F5F5F5F5F5F5F5F5F5F5F5F528F5282828282828F528282828F5F5F5F5F5F5F5F5F5F5F5F5F5F5F5F5F5F5F5F5F5F5F5F5F5F5F5F5F5F5F5F5F5F5F5F5F5F5F5F5F5F5F5F5F5F5F5F5F5F5F5F5F5F5F5F5F5F5
310
F5F5F5F5DCF5F5F5F5F5F5F5F5F5F5F5F5F5F5E2F5F5F5F5F5F5F5F5F5F5F5E2E2E2F5F5F5F5F5F5F5F5F5F5F5E2F5F5F5F5F5F5F5F5F5F5F5F5F5F5DCF5F5F5F5F5F5F5F5F5F5F5F5F5F5F5F5F5F5F5F5F5F5F5F5F5F5F5F5F5F5F5F5F5F5F5F5F5F5F5F5F5F5F5F5F5F5F5F528F5282828282828F528282828F5F5F5F5F5
310
F5F5F5F5F5F5F5F5F5F5F5F5F5F5F5F5F5F5F5F5F5F5F5F5F5F5F5F5F5F5F5F5F5F5F5F5F5F5F5F5F5F5F5F5F5F5F5F5F5F5F5F5F5F5F5F5F5DCF5F5F5F5F5F5F5F5F5F5F5F5F5F5E2F5F5F5F5F5F5F5F5F5F5F5E2E2E2F5F5F5F5F5F5F5F5F5F5F5E2F5F5F5F5F5F5F5F5F5F5F5F5F5F5DCF5F5F5F5F5F5F5F5F5F5F5F5F5
310
F5F5F5F5F5F5F5F5F5F5F5F5F5F5F5F5F5F5F5F5F5F5F5F5F5F5F5F5F5F5F5F5F5F5F528F52828F5F528BEF528282828F5F5F5F5F5F5F5F5F5F5F5F5F5F5F5F5F5F5F5F5F5F5F5F5F5F5F5F5F5F5F5F5F5F5F5F5F5F5F5F5F5F5F5F5F5F5F5F5F5F5F5F5F5F5F5F5F5F5F5F5F5F5DCF5F5F5F5F5F5F5F5F5F5F5F5F5F5E2F5
310
F5F5F5F5F5F5F5F5F5F5E2E2E2F5F5F5F5F5F5F5F5F5F5F5E2F5F5F5F5F5F5F5F5F5F5F5F5F5F5DCF5F5F5F5F5F5F5F5F5F5F5F5F5F5F5F5F5F5F5F5F5F5F5F5F5F5F5F5F5F5F5F5F5F5F5F5F5F5F5F5F5F5F5F5F5F5F5F528F52828F5F528BEF528282828F5F5F5F5F5F5F5F5F5F5F5F5F5F5F5F5F5F5F5F5F5F5F5F5F5F5
310
F5F5F5F5F5F5F5F5F5F5F5F5F5F5F5F5F5F5F5F5F5F5F5F5F5F5F5F5F5F5F5F5F5F5F5F5DCF5F5F5F5F5F5F5F5F5F5F5F5F5F5E2F5F5F5F5F5F5F5F5F5F5F5E2E2E2F5F5F5F5F5F5F5F5F5F5F5E2F5F5F5F5F5F5F5F5F5F5F5F5F5F5DCF5F5F5F5F5F5F5F5F5F5F5F5F5F5F5F5F5F5F5F5F5F5F5F5F5F5F5F5F5F5F5F5F5F5
310
F5F5F5F5F5F5F5F5F5F5F5F5F5F528F528282828F5BE2828282828F5F5F5F5F5F5F5F5F5F5F5F5F5F5F5F5F5F5F5F5F5F5F5F5F5F5F5F5F5F5F5F5F5F5F5F5F5F5F5F5F5F5F5F5F5F5F5F5F5F5F5F5F5F5F5F5F5F5F5F5F5F5DCF5F5F5F5F5F5F5F5F5F5F5F5F5F5E2F5F5F5F5F5F5F5F5F5F5F5E2E2E2F5F5F5F5F5F5F5F5
310
F5F5F5E2F5F5F5F5F5F5F5F5F5F5F5F5F5F5DCF5F5F5F5F5F5F5F5F5F5F5F5F5F5F5F5F5F5F5F5F5F5F5F5F5F5F5F5F5F5F5F5F5F5F5F5F5F5F5F5F5F5F5F5F5F5F5F528F5282828F528282828282828F5F5F5F5F5F5F5F5F5F5F5F5F5F5F5F5F5F5F5F5F5F5F5F5F5F5F5F5F5F5F5F5F5F5F5F5F5F5F5F5F5F5F5F5F5F5F5
310
F5F5F5F5F5F5F5F5F5F5F5F5F5F5F5DCF5F5F5F5F5F5F5F5F5F5F5F5F5F5E2F5F5F5F5F5F5F5F5F5F5F5E2E2E2F5F5F5F5F5F5F5F5F5F5F5E2F5F5F5F5F5F5F5F5F5F5F5F5F5F5DCF5F5F5F5F5F5F5F5F5F5F5F5F5F5F5F5F5F5F5F5F5F5F5F5F5F5F5F5F5F5F5F5F5F5F5F5F5F5F5F5F5F5F5F5F5F5F5F528F5282828F5F5
310
BEF528282828F5F5F5F5F5F5F5F5F5F5F5F5F5F5F5F5F5F5F5F5F5F5F5F5F5F5F5F5F5F5F5F5F5F5F5F5F5F5F5F5F5F5F5F5F5F5F5F5F5F5F5F5F5F5F5F5F5F5F5F5F5F5DCF5F5F5F5F5F5F5F5F5F5F5F5F5F5E2F5F5F5F5F5F5F5F5F5F5F5E2E2E2F5F5F5F5F5F5F5F5F5F5F5E2F5F5F5F5F5F5F5F5F5F5F5F5F5F5DCF5F5
310
F5F5F5F5F5F5F5F5F5F5F5F5F5F5F5F5F5F5F5F5F5F5F5F5F5F5F5F5F5F5F5F5F5F5F5F5F5F5F5F5F5F5F5F5F5F528F52828282828F52828282828F5F5F5F5F5F5F5F5F5F5F5F5F5F5F5F5F5F5F5F5F5F5F5F5F5F5F5F5F5F5F5F5F5F5F5F5F5F5F5F5F5F5F5F5F5F5F5F5F5F5F5F5F5F5F5F5F5F5F5F5F5F5DCF5F5F5F5F5
310
F5F5F5F5F5F5F5F5F5E2F5F5F5F5F5F5F5F5F5F5F5E2E2E2F5F5F5F5F5F5F5F5F5F5F5E2F5F5F5F5F5F5F5F5F5F5F5F5F5F5DCF5F5F5F5F5F5F5F5F5F5F5F5F5F5F5F5F5F5F5F5F5F5F5F5F5F5F5F5F5F5F5F5F5F5F5F5F5F5F5F5F5F5F5F5F5F5F5F528F52828F5F528BEF528282828F5F5F5F5F5F5F5F5F5F5F5F5F5F5F5
310
F5F5F5F5F5F5F5F5F5F5F5F5F5F5F5F5F5F5F5F5F5F5F5F5F5F5F5F5F5F5F5F5F5F5F5F5F5F5F5F5F5F5F5F5F5F5F5DCF5F5F5F5F5F5F5F5F5F5F5F5F5F5E2F5F5F5F5F5F5F5F5F5F5F5E2E2E2F5F5F5F5F5F5F5F5F5F5F5E2F5F5F5F5F5F5F5F5F5F5F5F5F5F5DCF5F5F5F5F5F5F5F5F5F5F5F5F5F5F5F5F5F5F5F5F5F5F5
310
F5F5F5F5F5F5F5F5F5F5F5F5F5F5F5F5F5F5F5F5F5F5F5F5F528F5282828282828F528282828F5F5F5F5F5F5F5F5F5F5F5F5F5F5F5F5F5F5F5F5F5F5F5F5F5F5F5F5F5F5F5F5F5F5F5F5F5F5F5F5F5F5F5F5F5F5F5F5F5F5F5F5F5F5F5F5F5F5F5F5F5F5DCF5F5F5F5F5F5F5F5F5F5F5F5F5F5E2F5F5F5F5F5F5F5F5F5F5F5
310
E2E2E2F5F5F5F5F5F5F5F5F5F5F5F5F5F5F5F5F5F5F5F5F5F5F5F5F5F5DCF5F5F5F5F5F5F5F5F5F5F5F5F5F5F5F5F5F5F5F5F5F5F5F5F5F5F5F5F5F5F5F5F5F5F5F5F5F5F5F5F5F5F5F5F5F5F5F528F52828282828282828282828F5F5F5F5F5F5F5F5F5F5F5F5F5F5F5F5F5F5F5F5F5F5F5F5F5F5F5F5F5F5F5F5F5F5F5F5
310
F5F5F5F5F5F5F5F5F5F5F5F5F5F5F5F5F5F5F5F5F5F5F5F5F5F5DCF5F5F5F5F5F5F5F5F5F5F5F5F5F5F5F5F5F5F5F5F5F5F5F5F5F5E2E2E2F5F5F5F5F5F5F5F5F5F5F5F5F5F5F5F5F5F5F5F5F5F5F5F5F5F5DCF5F5F5F5F5F5F5F5F5F5F5F5F5F5F5F5F5F5F5F5F5F5F5F5F5F5F5F5F5F5F5F5F5F5F5F5F5F5F5F5F5F5F5F5
310
F5F5F5F528F52828F5F5F5BEF528282828F5F5F5F5F5F5F5F5F5F5F5F5F5F5F5F5F5F5F5F5F5F5F5F5F5F5F5F5F5F5F5F5F5F5F5F5F5F5F5F5F5F5F5F5F5F5F5F5F5F5F5F5F5F5F5F5F5F5F5F5F5F5DCF5F5F5F5F5F5F5F5F5F5F5F5F5F5F5F5F5F5F5F5F5F5F5F5F5F5E2E2E2F5F5F5F5F5F5F5F5F5F5F5F5F5F5F5F5F5F5
310
F5F5F5F5F5F5F5F5DCF5F5F5F5F5F5F5F5F5F5F5F5F5F5F5F5F5F5F5F5F5F5F5F5F5F5F5F5F5F5F5F5F5F5F5F5F5F5F5F5F5F5F5F5F5F5F5F528F52828F5F5F5BEF528282828F5F5F5F5F5F5F5F5F5F5F5F5F5F5F5F5F5F5F5F5F5F5F5F5F5F5F5F5F5F5F5F5F5F5F5F5F5F5F5F5F5F5F5F5F5F5F5F5F5F5F5F5F5F5F5F5F5
310
F5F5F5F5F5DCF5F5F5F5F5F5F5F5F5F5F5F5F5F5F5F5F5F5F5F5F5F5F5F5F5F5E2E2E2F5F5F5F5F5F5F5F5F5F5F5F5F5F5F5F5F5F5F5F5F5F5F5F5F5F5DCF5F5F5F5F5F5F5F5F5F5F5F5F5F5F5F5F5F5F5F5F5F5F5F5F5F5F5F5F5F5F5F5F5F5F5F5F5F5F5F5F5F5F5F5F5F5F5F5F5282828F5F5F5BEF528282828F5F5F5F5
310
F5F5F5F5F5F5F5F5F5F5F5F5F5F5F5F5F5F5F5F5F5F5F5F5F5F5F5F5F5F5F5F5F5F5F5F5F5F5F5F5F5F5F5F5F5F5F5F5F5F5F5F5F5F5F5F5F5F5DCF5F5F5F5F5F5F5F5F5F5F5F5F5F5F5F5F5F5F5F5F5F5F5F5F5F5E2E2E2F5F5F5F5F5F5F5F5F5F5F5F5F5F5F5F5F5F5F5F5F5F5F5F5F5F5DCF5F5F5F5F5F5F5F5F5F5F5F5
310
F5F5F5F5F5F5F5F5F5F5F5F5F5F5F5F5F5F5F5F5F5F5F5F5F5F5F5F5F5F5F5F5F5F5F5F5F5282828F5F5F5BEF528282828F5F5F5F5F5F5F5F5F5F5F5F5F5F5F5F5F5F5F5F5F5F5F5F5F5F5F5F5F5F5F5F5F5F5F5F5F5F5F5F5F5F5F5F5F5F5F5F5F5F5F5F5F5F5F5F5F5F5F5F5F5F5DCF5F5F5F5F5F5F5F5F5F5F5F5F5F5F5
310
F5F5F5F5F5F5F5F5F5F5F5E2E2E2F5F5F5F5F5F5F5F5F5F5F5F5F5F5F5F5F5F5F5F5F5F5F5F5F5F5DCF5F5F5F5F5F5F5F5F5F5F5F5F5F5F5F5F5F5F5F5F5F5F5F5F5F5F5F5F5F5F5F5F5F5F5F5F5F5F5F5F5F5F5F5F5F5F5F5F5F52828F5F5F5BEF5282828F5F5F5F5F5F5F5F5F5F5F5F5F5F5F5F5F5F5F5F5F5F5F5F5F5F5
310
F5F5F5F5F5F5F5F5F5F5F5F5F5F5F5F5F5F5F5F5F5F5F5F5F5F5F5F5F5F5F5F5F5F5F5F5F5DCF5F5F5F5F5F5F5F5F5F5F5F5F5F5F5F5F5F5F5F5F5F5F5F5F5F5E2E2E2F5F5F5F5F5F5F5F5F5F5F5F5F5F5F5F5F5F5F5F5F5F5F5F5F5F5DCF5F5F5F5F5F5F5F5F5F5F5F5F5F5F5F5F5F5F5F5F5F5F5F5F5F5F5F5F5F5F5F5F5
310
F5F5F5F5F5F5F5F5F5F5F5F5F5F5F5F5F52828F5F5F5F5F5282828F5F5F5F5F5F5F5F5F5F5F5F5F5F5F5F5F5F5F5F5F5F5F5F5F5F5F5F5F5F5F5F5F5F5F5F5F5F5F5F5F5F5F5F5F5F5F5F5F5F5F5F5F5F5F5F5F5F5F5F5F5F5F5DCF5F5F5F5F5F5F5F5F5F5F5F5F5F5F5F5F5F5F5F5F5F5F5F5F5F5E2E2E2F5F5F5F5F5F5F5
310
F5F5F5F5F5F5F5F5F5F5F5F5F5F5F5F5F5F5F5DCF5F5F5F5F5F5F5F5F5F5F5F5F5F5F5F5F5F5F5F5F5F5F5F5F5F5F5F5F5F5F5F5F5F5F5F5F5F5F5F5F5F5F5F5F5F5F5F5F5F5F5BEF5F5F5BEF5BEF5F5F5F5F5F5F5F5F5F5F5F5F5F5F5F5F5F5F5F5F5F5F5F5F5F5F5F5F5F5F5F5F5F5F5F5F5F5F5F5F5F5F5F5F5F5F5F5F5
310
F5F5F5F5F5F5F5F5F5F5F5F5F5F5F5F5DCF5F5F5F5F5F5F5F5F5F5F5F5F5F5F5F5F5F5F5F5F5F5F5F5F5F5E2E2E2F5F5F5F5F5F5F5F5F5F5F5E2F5F5F5F5F5F5F5F5F5F5F5F5F5F5DCF5F5F5F5F5F5F5F5F5F5F5F5F5F5F5F5F5F5F5F5F5F5F5F5F5F5F5F5F5F5F5F5F5F5F5F5F5F5F5F5F5F5F5F5F5F5F5F5F5F5F5BEF5F5
310
F5F5F5BEF5F5F5F5F5F5F5F5F5F5F5F5F5F5F5F5F5F5F5F5F5F5F5F5F5F5F5F5F5F5F5F5F5F5F5F5F5F5F5F5F5F5F5F5F5F5F5F5F5F5F5F5F5F5F5F5F5F5F5F5F5F5F5F5F5DCF5F5F5F5F5F5F5F5F5F5F5F5F5F5E2F5F5F5F5F5F5F5F5F5F5F5E2E2E2F5F5F5F5F5F5F5F5F5F5F5E2F5F5F5F5F5F5F5F5F5F5F5F5F5F5DCF5
310
F5F5F5F5F5F5F5F5F5F5F5F5F5F5F5F5F5F5F5F5F5F5F5F5F5F5F5F5F5F5F5F5F5F5F5F5F5F5F5F5F5F5F5F5F5F5F5F5F5F5BEF5F5F5BEF5BEF5F5F5F5F5F5F5F5F5F5F5F5F5F5F5F5F5F5F5F5F5F5F5F5F5F5F5F5F5F5F5F5F5F5F5F5F5F5F5F5F5F5F5F5F5F5F5F5F5F5F5F5F5F5F5F5F5F5F5F5F5F5F5F5F5DCF5F5F5F5
310
F5F5F5F5F5F5F5F5F5F5E2F5F5F5F5F5F5F5F5F5F5F5E2E2E2F5F5F5F5F5F5F5F5F5F5F5E2F5F5F5F5F5F5F5F5F5F5F5F5F5F5DCF5F5F5F5F5F5F5F5F5F5F5F5F5F5F5F5F5F5F5F5F5F5F5F5F5F5F5F5F5F5F5F5F5F5F5F5F5F5F5F5F5F5F5F5F5F5F5F5F5F5F5BEF5F5F5BEF5BEF5F5F5F5F5F5F5F5F5F5F5F5F5F5F5F5F5
310
F5F5F5F5F5F5F5F5F5F5F5F5F5F5F5F5F5F5F5F5F5F5F5F5F5F5F5F5F5F5F5F5F5F5F5F5F5F5F5F5F5F5F5F5F5F5F5F5DCF5F5F5F5F5F5F5F5F5F5F5F5F5F5E2F5F5F5F5F5F5F5F5F5F5F5E2E2E2F5F5F5F5F5F5F5F5F5F5F5E2F5F5F5F5F5F5F5F5F5F5F5F5F5F5DCF5F5F5F5F5F5F5F5F5F5F5F5F5F5F5F5F5F5F5F5F5F5
310
F5F5F5F5F5F5F5F5F5F5F5F5F5F5F5F5F5F5F5F5F5F5F5F5F5F5F5F5F5BEF5F5F5BEF5BEF5F5F5F5F5F5F5F5F5F5F5F5F5F5F5F5F5F5F5F5F5F5F5F5F5F5F5F5F5F5F5F5F5F5F5F5F5F5F5F5F5F5F5F5F5F5F5F5F5F5F5F5F5F5F5F5F5F5F5F5F5F5F5F5F5DCF5F5F5F5F5F5F5F5F5F5F5F5F5F5E2F5F5F5F5F5F5F5F5F5F5
310
F5E2E2E2F5F5F5F5F5F5F5F5F5F5F5E2F5F5F5F5F5F5F5F5F5F5F5F5F5F5DCF5F5F5F5F5F5F5F5F5F5F5F5F5F5F5F5F5F5F5F5F5F5F5F5F5F5F5F5F5F5F5F5F5F5F5F5F5F5F5F5F5F5F5F5F5F5F5F5F5F5F5BEF5F5F5BEF5BEF5F5F5F5F5F5F5F5F5F5F5F5F5F5F5F5F5F5F5F5F5F5F5F5F5F5F5F5F5F5F5F5F5F5F5F5F5F5
310
F5F5F5F5F5F5F5F5F5F5F5F5F5F5F5F5F5F5F5F5F5F5F5F5F5F5F5DCF5F5F5F5F5F5F5F5F5F5F5F5F5F5E2F5F5F5F5F5F5F5F5F5F5F5E2E2E2F5F5F5F5F5F5F5F5F5F5F5E2F5F5F5F5F5F5F5F5F5F5F5F5F5F5DCF5F5F5F5F5F5F5F5F5F5F5F5F5F5F5F5F5F5F5F5F5F5F5F5F5F5F5F5F5F5F5F5F5F5F5F5F5F5F5F5F5F5F5
310
F5F5F5F5F5F5F5F5BEF5F5F5BEF5BEF5F5F5F5F5F5F5F5F5F5F5F5F5F5F5F5F5F5F5F5F5F5F5F5F5F5F5F5F5F5F5F5F5F5F5F5F5F5F5F5F5F5F5F5F5F5F5F5F5F5F5F5F5F5F5F5F5F5F5F5F5F5F5F5F5DCF5F5F5F5F5F5F5F5F5F5F5F5F5F5E2F5F5F5F5F5F5F5F5F5F5F5E2E2E2F5F5F5F5F5F5F5F5F5F5F5E2F5F5F5F5F5
310
F5F5F5F5F5F5F5F5F5DCF5F5F5F5F5F5F5F5F5F5F5F5F5F5F5F5F5F5F5F5F5F5F5F5F5F5F5F5F5F5F5F5F5F5F5F5F5F5F5F5F5F5F5F5F5F5F5F5F5F5F5BEF5F5F5BEF5BEF5F5F5F5F5F5F5F5F5F5F5F5F5F5F5F5F5F5F5F5F5F5F5F5F5F5F5F5F5F5F5F5F5F5F5F5F5F5F5F5F5F5F5F5F5F5F5F5F5F5F5F5F5F5F5F5F5F5F5
310
F5F5F5F5F5F5DCF5F5F5F5F5F5F5F5F5F5F5F5F5F5E2F5F5F5F5F5F5F5F5F5F5F5E2E2E2F5F5F5F5F5F5F5F5F5F5F5E2F5F5F5F5F5F5F5F5F5F5F5F5F5F5DCF5F5F5F5F5F5F5F5F5F5F5F5F5F5F5F5F5F5F5F5F5F5F5F5F5F5F5F5F5F5F5F5F5F5F5F5F5F5F5F5F5F5F5F5F5F5F5F5F5F5F5BEF5F5F5BEF5BEF5F5F5F5F5F5
310
F5F5F5F5F5F5F5F5F5F5F5F5F5F5F5F5F5F5F5F5F5F5F5F5F5F5F5F5F5F5F5F5F5F5F5F5F5F5F5F5F5F5F5F5F5F5F5F5F5F5F5F5F5F5F5F5F5F5F5DCF5F5F5F5F5F5F5F5F5F5F5F5F5F5E2F5F5F5F5F5F5F5F5F5F5F5E2E2E2F5F5F5F5F5F5F5F5F5F5F5E2F5F5F5F5F5F5F5F5F5F5F5F5F5F5DCF5F5F5F5F5F5F5F5F5F5F5
310
F5F5F5F5F5F5F5F5F5F5F5F5F5F5F5F5F5F5F5F5F5F5F5F5F5F5F5F5F5F5F5F5F5F5F5F5F5F5F5F5BEF5F5F5BEF5BEF5F5F5F5F5F5F5F5F5F5F5F5F5F5F5F5F5F5F5F5F5F5F5F5F5F5F5F5F5F5F5F5F5F5F5F5F5F5F5F5F5F5F5F5F5F5F5F5F5F5F5F5F5F5F5F5F5F5F5F5F5F5F5F5F5DCF5F5F5F5F5F5F5F5F5F5F5F5F5F5
310
E2F5F5F5F5F5F5F5F5F5F5F5E2E2E2F5F5F5F5F5F5F5F5F5F5F5E2F5F5F5F5F5F5F5F5F5F5F5F5F5F5DCF5F5F5F5F5F5F5F5F5F5F5F5F5F5F5F5F5F5F5F5F5F5F5F5F5F5F5F5F5F5F5F5F5F5F5F5F5F5F5F5F5F5F5F5F5F5F5F5F5F5F5BEF5F5F5BEF5BEF5F5F5F5F5F5F5F5F5F5F5F5F5F5F5F5F5F5F5F5F5F5F5F5F5F5F5
310
F5F5F5F5F5F5F5F5F5F5F5F5F5F5F5F5F5F5F5F5F5F5F5F5F5F5F5F5F5F5F5F5F5F5F5F5F5F5DCF5F5F5F5F5F5F5F5F5F5F5F5F5F5E2F5F5F5F5F5F5F5F5F5F5F5E2E2E2F5F5F5F5F5F5F5F5F5F5F5E2F5F5F5F5F5F5F5F5F5F5F5F5F5F5DCF5F5F5F5F5F5F5F5F5F5F5F5F5F5F5F5F5F5F5F5F5F5F5F5F5F5F5F5F5F5F5F5
310
F5F5F5F5F5F5F5F5F5F5DCDCDCDCDCDCDCDCDCBEDCDCDCDCDCBEDCF5F5F5F5F5F5F5F5F5F5F5F5F5F5F5F5F5F5F5F5F5F5F5F5F5F5F5F5F5F5F5F5F5F5F5F5F5F5F5F5F5F5F5F5F5F5F5F5F5F5F5F5F5F5F5F5F5F5F5F5F5F5F5F5DCF5F5F5F5F5F5F5F5F5F5F5F5F5F5E2F5F5F5F5F5F5F5F5F5F5F5E2E2E2F5F5F5F5F5F5
310
F5F5F5F5F5E2F5F5F5F5F5F5F5F5F5F5F5F5F5F5DCF5F5F5F5F5F5F5F5F5F5F5F5F5F5F5F5F5F5F5F5F5F5F5F5F5F5F5F5F5F5F5F5F5F5F5F5F5F5F5F5F5F5F5DCDCDCDCDCDCDCF5BEDCDCDCDCDCBEDCF5F5F5F5F5F5F5F5F5F5F5F5F5F5F5F5F5F5F5F5F5F5F5F5F5F5F5F5F5F5F5F5F5F5F5F5F5F5F5F5F5F5F5F5F5F5F5
310
F5F5F5F5F5F5F5F5F5F5F5F5F5F5F5F5F5DCF5F5F5F5F5F5F5F5F5F5F5F5F5F5E2F5F5F5F5F5F5F5F5F5F5F5E2E2E2F5F5F5F5F5F5F5F5F5F5F5E2F5F5F5F5F5F5F5F5F5F5F5F5F5F5DCF5F5F5F5F5F5F5F5F5F5F5F5F5F5F5F5F5F5F5F5F5F5F5F5F5F5F5F5F5F5F5F5F5F5F5F5F5F5F5F5F5F5F5DCDCDCDCDCDCDCF5BEDC
310
DCDCDCDCBEF5F5F5F5F5F5F5F5F5F5F5F5F5F5F5F5F5F5F5F5F5F5F5F5F5F5F5F5F5F5F5F5F5F5F5F5F5F5F5F5F5F5F5F5F5F5F5F5F5F5F5F5F5F5F5F5F5F5F5F5F5F5F5F5F5DCF5F5F5F5F5F5F5F5F5F5F5F5F5F5E2F5F5F5F5F5F5F5F5F5F5F5E2E2E2F5F5F5F5F5F5F5F5F5F5F5E2F5F5F5F5F5F5F5F5F5F5F5F5F5F5DC
310
F5F5F5F5F5F5F5F5F5F5F5F5F5F5F5F5F5F5F5F5F5F5F5F5F5F5F5F5F5F5F5F5F5F5F5F5F5F5F5F5F5F5F5DCDCDCDCDCDCDCF5BEF5F5F5F5F5BEF5F5F5F5F5F5F5F5F5F5F5F5F5F5F5F5F5F5F5F5F5F5F5F5F5F5F5F5F5F5F5F5F5F5F5F5F5F5F5F5F5F5F5F5F5F5F5F5F5F5F5F5F5F5F5F5F5F5F5F5F5F5F5F5F5DCF5F5F5
310
F5F5F5F5F5F5F5F5F5F5F5E2F5F5F5F5F5F5F5F5F5F5F5E2E2E2F5F5F5F5F5F5F5F5F5F5F5E2F5F5F5F5F5F5F5F5F5F5F5F5F5F5DCF5F5F5F5F5F5F5F5F5F5F5F5F5F5F5F5F5F5F5F5F5F5F5F5F5F5F5F5F5F5F5F5F5F5F5F5F5F5F5F5F5F5F5F5F5F5F5F5F5F5F5BEF5F5F5F5F5BEF5F5F5F5F5F5F5F5F5F5F5F5F5F5F5F5
310
F5F5F5F5F5F5F5F5F5F5F5F5F5F5F5F5F5F5F5F5F5F5F5F5F5F5F5F5F5F5F5F5F5F5F5F5F5F5F5F5F5F5F5F5F5F5F5F5F5DCF5F5F5F5F5F5F5F5F5F5F5F5F5F5E2F5F5F5F5F5F5F5F5F5F5F5E2E2E2F5F5F5F5F5F5F5F5F5F5F5F5F5F5F5F5F5F5F5F5F5F5F5F5F5F5DCF5F5F5F5F5F5F5F5F5F5F5F5F5F5F5F5F5F5F5F5F5
310
F5F5F5F5F5F5F5F5F5F5F5F5F5F5F5F5F5F5F5F5F5F5F5F5F5F5F5F5F5F5BEF5F5F5F5F5BEF5F5F5F5F5F5F5F5F5F5F5F5F5F5F5F5F5F5F5F5F5F5F5F5F5F5F5F5F5F5F5F5F5F5F5F5F5F5F5F5F5F5F5F5F5F5F5F5F5F5F5F5F5F5F5F5F5F5F5F5F5F5F5F5F5DCF5F5F5F5F5F5F5F5F5F5F5F5F5F5F5F5F5F5F5F5F5F5F5F5
310
F5F5E2E2E2F5F5F5F5F5F5F5F5F5F5F5F5F5F5F5F5F5F5F5F5F5F5F5F5F5F5DCF5F5F5F5F5F5F5F5F5F5F5F5F5F5F5F5F5F5F5F5F5F5F5F5F5F5F5F5F5F5F5F5F5F5F5F5F5F5F5F5F5F5F5F5F5F5F5F5F5F5F5BEF5F5F5F5F5BEF5F5F5F5F5F5F5F5F5F5F5F5F5F5F5F5F5F5F5F5F5F5F5F5F5F5F5F5F5F5F5F5F5F5F5F5F5
310
F5F5F5F5F5F5F5F5F5F5F5F5F5F5F5F5F5F5F5F5F5F5F5F5F5F5F5F5DCF5F5F5F5F5F5F5F5F5F5F5F5F5F5F5F5F5F5F5F5F5F5F5F5F5F5E2E2E2F5F5F5F5F5F5F5F5F5F5F5F5F5F5F5F5F5F5F5F5F5F5F5F5F5F5DCF5F5F5F5F5F5F5F5F5F5F5F5F5F5F5F5F5F5F5F5F5F5F5F5F5F5F5F5F5F5F5F5F5F5F5F5F5F5F5F5F5F5
310
F5F5F5F5F5F5F5F5F5BEF5F5F5F5F5BEF5F5F5F5F5F5F5F5F5F5F5F5F5F5F5F5F5F5F5F5F5F5F5F5F5F5F5F5F5F5F5F5F5F5F5F5F5F5F5F5F5F5F5F5F5F5F5F5F5F5F5F5F5F5F5F5F5F5F5F5F5F5F5F5F5DCF5F5F5F5F5F5F5F5F5F5F5F5F5F5F5F5F5F5F5F5F5F5F5F5F5F5E2E2E2F5F5F5F5F5F5F5F5F5F5F5F5F5F5F5F5
310
F5F5F5F5F5F5F5F5F5F5DCF5F5F5F5F5F5F5F5F5F5F5F5F5F5F5F5F5F5F5F5F5F5F5F5F5F5F5F5F5F5F5F5F5F5F5F5F5F5F5F5F5F5F5F5F5F5F5F5F5F5F5BEF5F5F5F5F5BEF5F5F5F5F5F5F5F5F5F5F5F5F5F5F5F5F5F5F5F5F5F5F5F5F5F5F5F5F5F5F5F5F5F5F5F5F5F5F5F5F5F5F5F5F5F5F5F5F5F5F5F5F5F5F5F5F5F5
310
F5F5F5F5F5F5F5DCF5F5F5F5F5F5F5F5F5F5F5F5F5F5F5F5F5F5F5F5F5F5F5F5F5F5E2E2E2F5F5F5F5F5F5F5F5F5F5F5F5F5F5F5F5F5F5F5F5F5F5F5F5F5F5DCDCDCDCDCDCDCDCDCDCDCDCDCDCDCDCDCDCDCDCDCDCDCDCDCDCDCDCDCDCDCDCDCDCDCDCDCDCDCDCDCDCDCDCDCDCDCDCDCDCDCDCDCDCDCDCDCDCDCDCDCDCDCDC
310
DCDCDCDCDCDCDCDCDCDCDCDCDCDCDCDCDCDCDCDCDCDCDCDCDCDCDCDCDCDCDCDCDCDCDCDCDCDCDCDCDCDCDCDCDCDCDCDCDCDCDCDCDCDCDCDCDCDCDCDCDCF5F5F5F5F5F5F5F5F5F5F5F5F5F5F5F5F5F5F5F5F5F5F5F5F5F5E2E2E2F5F5F5F5F5F5F5F5F5F5F5F5F5F5F5F5F5F5F5F5F5F5F5F5F5F5F5F5F5F5F5F5F5F5F5F5F5
310
F5F5F5F5F5F5F5F5F5F5F5F5F5F5F5F5F5F5F5F5F5F5F5F5F5F5F5F5F5F5F5F5F5F5F5F5F5F5F5F5F5F5F5F5F5F5F5F5F5F5F5F5F5F5F5F5F5F5F5F5F5F5F5F5F5F5F5F5F5F5F5F5F5F5F5F5F5F5F5F5F5F5F5F5F5F5F5F5F5F5F5F5F5F5F5F5F5F5F5F5F5F5F5F5F5F5F5F5F5F5F5F5F5F5F5F5F5F5F5F5F5F5F5F5F5F5F5
310
F5F5F5F5F5F5F5F5F5F5F5F5F5E2E2E2F5F5F5F5F5F5F5F5F5F5F5F5F5F5F5F5F5F5F5F5F5F5F5F5F5F5F5F5F5F5F5F5F5F5F5F5F5F5F5F5F5F5F5F5F5F5F5F5F5F5F5F5F5F5F5F5F5F5F5F5F5F5F5F5F5F5F5F5F5F5F5F5F5F5F5F5F5F5F5F5F5F5F5F5F5F5F5F5F5F5F5F5F5F5F5F5F5F5F5F5F5F5F5F5F5F5F5F5F5F5F5
310
F5F5F5F5F5F5F5F5F5F5F5F5F5F5F5F5F5F5F5F5F5F5F5F5F5F5F5F5F5F5F5F5F5F5F5F5F5F5F5F5F5F5F5F5F5F5F5F5F5F5F5F5F5F5F5F5F5F5F5F5F5F5F5F5F5F5E2E2E2F5F5F5F5F5F5F5F5F5F5F5F5F5F5F5F5F5F5F5F5F5F5F5F5F5F5F5F5F5F5F5F5F5F5F5F5F5F5F5F5F5F5F5F5F5F5F5F5F5F5F5F5F5F5F5F5F5F5
310
F5F5F5F5F5F5F5F5F5F5F5F5F5F5F5F5F5F5F5F5F5F5F5F5F5F5F5F5F5F5F5F5F5F5F5F5F5F5F5F5F5F5F5F5F5F5F5F5F5F5F5F5F5F5F5F5F5F5F5F5F5F5F5F5F5F5F5F5F5F5F5F5F5F5F5F5F5F5F5F5F5F5F5F5F5F5F5F5F5F5F5F5F5F5F5F5F5F5F5F5F5F5F5F5F5F5F5F5F5F5F5F5F5F5F5F5F5F5F5E2E2E2F5F5F5F5F5
310
F5F5F5F5F5F5E2F5F5F5F5F5F5F5F5F5F5F5F5F5F5F5F5F5F5F5F5F5F5F5F5F5F5F5F5F5F5F5F5F5F5F5F5F5F5F5F5F5F5F5F5F5F5F5F5F5F5F5F5F5F5F5F5F5F5F5F5F5F5F5F5F5F5F5F5F5F5F5F5F5F5F5F5F5F5F5F5F5F5F5F5F5F5F5F5F5F5F5F5F5F5F5F5F5F5F5F5F5F5F5F5F5F5F5F5F5F5F5F5F5F5F5F5F5F5F5F5
310
F5F5F5F5F5F5F5F5F5F5F5F5F5F5F5F5F5F5F5F5F5F5F5F5F5F5F5F5F5F5F5F5F5E2F5F5F5F5F5F5F5F5F5F5F5E2E2E2F5F5F5F5F5F5F5F5F5F5F5E2F5F5F5F5F5F5F5F5F5F5F5F5F5F5F5F5F5F5F5F5F5F5F5F5F5F5F5F5F5F5F5F5F5F5F5F5F5F5F5F5F5F5F5F5F5F5F5F5F5F5F5F5F5F5F5F5F5F5F5F5F5F5F5F5F5F5F5
310
F5F5F5F5F5F5F5F5F5F5F5F5F5F5F5F5F5F5F5F5F5F5F5F5F5F5F5F5F5F5F5F5F5F5F5F5F5F5F5F5F5F5F5F5F5F5F5F5F5F5F5F5F5F5F5F5F5F5F5F5F5F5F5F5F5F5F5F5F5F5F5F5F5F5F5F5F5F5F5F5F5F5F5F5F5F5E2F5F5F5F5F5F5F5F5F5F5F5E2E2E2F5F5F5F5F5F5F5F5F5F5F5E2F5F5F5F5F5F5F5F5F5F5F5F5F5F5
310
F5F5F5F5F5F5F5F5F5F5F5F5F5F5F5F5F5F5F5F5F5F5F5F5F5F5F5F5F5F5F5F5F5F5F5F5F5F5F5F5F5F5F5F5F5F5F5F5F5F5F5F5F5F5F5F5F5F5F5F5F5F5F5F5F5F5F5F5F5F5F5F5F5F5F5F5F5F5F5F5F5F5F5F5F5F5F5F5F5F5F5F5F5F5F5F5F5F5F5F5F5F5F5F5F5F5F5F5F5F5F5F5F5F5F5F5F5F5F5F5F5F5F5F5F5F5F5
310
F5F5F5F5F5F5F5F5F5F5F5F5E2F5F5F5F5F5F5F5F5F5F5F5E2E2E2F5F5F5F5F5F5F5F5F5F5F5E2F5F5F5F5F5F5F5F5F5F5F5F5F5F5F5F5F5F5F5F5F5F5F5F5F5F5F5F5F5F5F5F5F5F5F5F5F5F5F5F5F5F5F5F5F5F5F5F5F5F5F5F5F5F5F5F5F5F5F5F5F5F5F5F5F5F5F5F5F5F5F5F5F5F5F5F5F5F5F5F5F5F5F5F5F5F5F5F5
310
F5F5F5F5F5F5F5F5F5F5F5F5F5F5F5F5F5F5F5F5F5F5F5F5F5F5F5F5F5F5F5F5F5F5F5F5F5F5F5F5F5F5F5F5F5F5F5F5F5F5F5F5F5F5F5F5F5F5F5F5F5F5F5F5F5E2F5F5F5F5F5F5F5F5F5F5F5E2E2E2F5F5F5F5F5F5F5F5F5F5F5E2F5F5F5F5F5F5F5F5F5F5F5F5F5F5F5F5F5F5F5F5F5F5F5F5F5F5F5F5F5F5F5F5F5F5F5
310
F5F5F5F5F5F5F5F5F5F5F5F5F5F5F5F5F5F5F5F5F5F5F5F5F5F5F5F5F5F5F5F5F5F5F5F5F5F5F5F5F5F5F5F5F5F5F5F5F5F5F5F5F5F5F5F5F5F5F5F5F5F5F5F5F5F5F5F5F5F5F5F5F5F5F5F5F5F5F5F5F5F5F5F5F5F5F5F5F5F5F5F5F5F5F5F5F5F5F5F5F5F5F5F5F5F5F5F5F5F5F5F5F5F5F5F5F5F5E2F5F5F5F5F5F5F5F5
310
F5F5F5E2E2E2F5F5F5F5F5F5F5F5F5F5F5E2F5F5F5F5F5F5F5F5F5F5F5F5F5F5F5F5F5F5F5F5F5F5F5F5F5F5F5F5F5F5F5F5F5F5F5F5F5F5F5F5F5F5F5F5F5F5F5F5F5F5F5F5F5F5F5F5F5F5F5F5F5F5F5F5F5F5F5F5F5F5F5F5F5F5F5F5F5F5F5F5F5F5F5F5F5F5F5F5F5F5F5F5F5F5F5F5F5F5F5F5F5F5F5F5F5F5F5F5F5
310
F5F5F5F5F5F5F5F5F5F5F5F5F5F5F5F5F5F5F5F5F5F5F5F5F5F5F5F5F5F5F5F5F5F5F5F5F5F5F5F5F5F5F5F5E2F5F5F5F5F5F5F5F5F5F5F5E2E2E2F5F5F5F5F5F5F5F5F5F5F5E2F5F5F5F5F5F5F5F5F5F5F5F5F5F5F5F5F5F5F5F5F5F5F5F5F5F5F5F5F5F5F5F5F5F5F5F5F5F5F5F5F5F5F5F5F5F5F5F5F5F5F5F5F5F5F5F5
310
F5F5F5F5F5F5F5F5F5F5F5F5F5F5F5F5F5F5F5F5F5F5F5F5F5F5F5F5F5F5F5F5F5F5F5F5F5F5F5F5F5F5F5F5F5F5F5F5F5F5F5F5F5F5F5F5F5F5F5F5F5F5F5F5F5F5F5F5F5F5F5F5F5F5F5F5F5F5F5F5F5F5F5F5F5F5F5F5F5F5F5F5F5F5F5F5F5E2F5F5F5F5F5F5F5F5F5F5F5E2E2E2F5F5F5F5F5F5F5F5F5F5F5E2E2E2E2
310
E2E2E2E2E2F5F5F5F5F5F5F5F5F5E2E2E2E2E2E2E2E2E2E2E2E2E2E2E2E2F5F5F5F5F5F5F5F5F5F5E2E2E2E2E2E2E2E2E2E2E2E2E2E2E2E2F5F5F5F5F5F5F5F5F5E2E2E2E2E2E2E2E2E2E2E2E2E2E2E2E2E2F5F5F5F5F5F5F5F5F5E2E2E2E2E2E2E2E2E2E2E2E2E2E2E2E2F5F5F5F5F5F5F5F5F5F5E2E2E2E2E2E2E2E2E2E2
310
E2E2E2E2E2E2F5F5F5F5F5F5F5F5F5E2E2E2E2E2E2E2E2E2F5F5F5F5F5F5F5F5F5F5F5E2E2E2F5F5F5F5F5F5F5F5F5F5F5F5F5F5F5F5F5F5F5F5F5F5F5F5F5F5F5F5F5F5F5F5F5F5F5F5F5F5F5F5F5F5F5F5F5F5F5F5F5F5F5F5F5F5F5F5F5F5F5F5F5F5F5F5F5F5F5F5F5F5F5F5F5F5F5F5F5F5F5F5F5F5F5F5F5F5F5F5F5
310
F5F5F5F5F5F5F5F5F5F5F5F5F5F5F5F5F5F5F5F5F5F5F5F5F5F5F5F5F5F5F5F5F5F5F5F5F5F5F5F5F5F5F5F5F5F5F5F5F5F5F5F5F5F5F5F5F5F5F5F5F5F5F5F5F5F5F5F5F5F5F5F5F5F5F5F5F5F5F5F5F5F5F5F5F5F5F5F5E2E2E2F5F5F5F5F5F5F5F5F5F5F5F5F5F5F5F5F5F5F5F5F5F5F5F5F5F5F5F5F5F5F5F5F5F5F5F5
310
F5F5F5F5F5F5F5F5F5F5F5F5F5F5F5F5F5F5F5F5F5F5F5F5F5F5F5F5F5F5F5F5F5F5F5F5F5F5F5F5F5F5F5F5F5F5F5F5F5F5F5F5F5F5F5F5F5F5F5F5F5F5F5F5F5F5F5F5F5F5F5F5F5F5F5F5F5F5F5F5F5F5F5F5F5F5F5F5F5F5F5F5F5F5F5F5F5F5F5F5F5F5F5F5F5F5F5F5F5F5F5F5F5F5F5F5F5F5F5F5F5F5F5F5F5F5F5
310
F5F5F5F5F5F5F5F5F5F5F5F5F5F5E2E2E2F5F5F5F5F5F5F5F5F5F5F5F5F5F5F5F5F5F5F5F5F5F5F5F5F5F5F5F5F5F5F5F5F5F5F5F5F5F5F5F5F5F5F5F5F5F5F5F5F5F5F5F5F5F5F5F5F5F5F5F5F5F5F5F5F5F5F5F5F5F5F5F5F5F5F5F5F5F5F5F5F5F5F5F5F5F5F5F5F5F5F5F5F5F5F5F5F5F5F5F5F5F5F5F5F5F5F5F5F5F5
310
F5F5F5F5F5F5F5F5F5F5F5F5F5F5F5F5F5F5F5F5F5F5F5F5F5F5F5F5F5F5F5F5F5F5F5F5F5F5F5F5F5F5F5F5F5F5F5F5F5F5F5F5F5F5F5F5F5F5F5F5F5F5F5F5F5F5F5E2E2E2F5F5F5F5F5F5F5F5F5F5F5F5F5F5F5F5F5F5F5F5F5F5F5F5F5F5F5F5F5F5F5F5F5F5F5F5F5F5F5F5F5F5F5F5F5F5F5F5F5F5F5F5F5F5F5F5F5
310
F5F5F5F5F5F5F5F5F5F5F5F5F5F5F5F5F5F5F5F5F5F5F5F5F5F5F5F5F5F5F5F5F5F5F5F5F5F5F5F5F5F5F5F5F5F5F5F5F5F5F5F5F5F5F5F5F5F5F5F5F5F5F5F5F5F5F5F5F5F5F5F5F5F5F5F5F5F5F5F5F5F5F5F5F5F5F5F5F5F5F5F5F5F5F5F5F5F5F5F5F5F5F5F5F5F5F5F5F5F5F5F5F5F5F5F5F5F5F5F5E2EFE2E2E2E2E2
310
E2E2E2E2E2E2E2E2E2E2E2E2E2E2E2E2E2E2E2E2E2E2E2E2E2E2E2E2E2E2E2E2E2E2E2E2E2E2E2E2E2E2E2E2E2E2E2E2E2E2E2E2E2E2E2E2E2E2E2E2E2E2E2E2E2E2E2E2E2E2E2E2E2E2E2E2E2E2E2E2E2E2E2E2E2E2E2E2E2E2E2E2E2E2E2E2E2E2E2E2E2E2E2E2E2E2E2E2E2E2E2E2E2E2E2E2E2E2E2E2E2E2E2E2E2E2E2
310
E2E2E2E2E2E2E2E2E2E2E2E2E2E2E2E2E2E2E2E2E2E2E2E2E2E2E2E2E2E2E2E2E2E2E2E2E2E2E2E2E2E2E2E2E2E2E2EF
  0
XRECORD
  5
7CB
102
{ACAD_REACTORS
330
7CA
102
}
330
7CA
100
AcDbXrecord
280
     1
102
SHADEPLOT
 70
     0
102
SHADEPLOTRESLEVEL
 70
     2
102
SHADEPLOTCUSTOMDPI
 70
   300
  0
XRECORD
  5
7D0
102
{ACAD_REACTORS
330
7CF
102
}
330
7CF
100
AcDbXrecord
280
     1
102
MATERIAL
148
0.0
149
0.0
149
0.0
 93
        0
 94
       63
282
     0
 72
     1
 77
     1
171
     1
175
     1
179
     1
273
     0
  0
XRECORD
  5
7CE
102
{ACAD_REACTORS
330
7CD
102
}
330
7CD
100
AcDbXrecord
280
     1
102
MATERIAL
148
0.0
149
0.0
149
0.0
 93
        0
 94
       63
282
     0
 72
     1
 77
     1
171
     1
175
     1
179
     1
273
     0
  0
XRECORD
  5
7D2
102
{ACAD_REACTORS
330
7D1
102
}
330
7D1
100
AcDbXrecord
280
     1
102
MATERIAL
148
0.0
149
0.0
149
0.0
 93
        0
 94
       63
282
     0
 72
     1
 77
     1
171
     1
175
     1
179
     1
273
     0
  0
XRECORD
  5
7D4
102
{ACAD_REACTORS
330
7D3
102
}
330
7D3
100
AcDbXrecord
280
     1
102
ACAD_ROUNDTRIP_PRE2007_TABLESTYLE
 90
      512
 91
        0
  1

 92
      512
 93
        0
  2

 94
      512
 95
        0
  3

  0
ENDSEC
  0
EOF
