  0
SECTION
  2
HEADER
  9
$ACADVER
  1
AC1015
  9
$ACADMAINTVER
 70
    20
  9
$DWGCODEPAGE
  3
ANSI_1252
  9
$INSBASE
 10
0.0
 20
0.0
 30
0.0
  9
$EXTMIN
 10
53.82019147023118
 20
74.67599565148816
 30
-0.0000610304997082
  9
$EXTMAX
 10
158.0575568252914
 20
271.7892615264156
 30
0.000091555062788
  9
$LIMMIN
 10
0.0
 20
0.0
  9
$LIMMAX
 10
420.0
 20
297.0
  9
$ORTHOMODE
 70
     0
  9
$REGENMODE
 70
     1
  9
$FILLMODE
 70
     1
  9
$QTEXTMODE
 70
     0
  9
$MIRRTEXT
 70
     1
  9
$LTSCALE
 40
1.0
  9
$ATTMODE
 70
     1
  9
$TEXTSIZE
 40
2.5
  9
$TRACEWID
 40
1.0
  9
$TEXTSTYLE
  7
STANDARD
  9
$CLAYER
  8
HAWA1
  9
$CELTYPE
  6
BYLAYER
  9
$CECOLOR
 62
   256
  9
$CELTSCALE
 40
1.0
  9
$DISPSILH
 70
     0
  9
$DIMSCALE
 40
1.0
  9
$DIMASZ
 40
2.5
  9
$DIMEXO
 40
0.625
  9
$DIMDLI
 40
3.75
  9
$DIMRND
 40
0.0
  9
$DIMDLE
 40
0.0
  9
$DIMEXE
 40
1.25
  9
$DIMTP
 40
0.0
  9
$DIMTM
 40
0.0
  9
$DIMTXT
 40
2.5
  9
$DIMCEN
 40
2.5
  9
$DIMTSZ
 40
0.0
  9
$DIMTOL
 70
     0
  9
$DIMLIM
 70
     0
  9
$DIMTIH
 70
     0
  9
$DIMTOH
 70
     0
  9
$DIMSE1
 70
     0
  9
$DIMSE2
 70
     0
  9
$DIMTAD
 70
     1
  9
$DIMZIN
 70
     8
  9
$DIMBLK
  1

  9
$DIMASO
 70
     1
  9
$DIMSHO
 70
     1
  9
$DIMPOST
  1

  9
$DIMAPOST
  1

  9
$DIMALT
 70
     0
  9
$DIMALTD
 70
     3
  9
$DIMALTF
 40
0.03937
  9
$DIMLFAC
 40
1.0
  9
$DIMTOFL
 70
     1
  9
$DIMTVP
 40
0.0
  9
$DIMTIX
 70
     0
  9
$DIMSOXD
 70
     0
  9
$DIMSAH
 70
     0
  9
$DIMBLK1
  1

  9
$DIMBLK2
  1

  9
$DIMSTYLE
  2
STANDARD
  9
$DIMCLRD
 70
     0
  9
$DIMCLRE
 70
     0
  9
$DIMCLRT
 70
     0
  9
$DIMTFAC
 40
1.0
  9
$DIMGAP
 40
0.625
  9
$DIMJUST
 70
     0
  9
$DIMSD1
 70
     0
  9
$DIMSD2
 70
     0
  9
$DIMTOLJ
 70
     0
  9
$DIMTZIN
 70
     8
  9
$DIMALTZ
 70
     0
  9
$DIMALTTZ
 70
     0
  9
$DIMUPT
 70
     0
  9
$DIMDEC
 70
     2
  9
$DIMTDEC
 70
     2
  9
$DIMALTU
 70
     2
  9
$DIMALTTD
 70
     3
  9
$DIMTXSTY
  7
STANDARD
  9
$DIMAUNIT
 70
     0
  9
$DIMADEC
 70
     0
  9
$DIMALTRND
 40
0.0
  9
$DIMAZIN
 70
     0
  9
$DIMDSEP
 70
    46
  9
$DIMATFIT
 70
     0
  9
$DIMFRAC
 70
     0
  9
$DIMLDRBLK
  1

  9
$DIMLUNIT
 70
     2
  9
$DIMLWD
 70
    -2
  9
$DIMLWE
 70
    -2
  9
$DIMTMOVE
 70
     0
  9
$LUNITS
 70
     2
  9
$LUPREC
 70
     4
  9
$SKETCHINC
 40
1.0
  9
$FILLETRAD
 40
2.5
  9
$AUNITS
 70
     0
  9
$AUPREC
 70
     0
  9
$MENU
  1
.
  9
$ELEVATION
 40
0.0
  9
$PELEVATION
 40
0.0
  9
$THICKNESS
 40
0.0
  9
$LIMCHECK
 70
     0
  9
$CHAMFERA
 40
2.5
  9
$CHAMFERB
 40
2.5
  9
$CHAMFERC
 40
0.0
  9
$CHAMFERD
 40
0.0
  9
$SKPOLY
 70
     0
  9
$TDCREATE
 40
2447893.000000000
  9
$TDUCREATE
 40
2447892.958333333
  9
$TDUPDATE
 40
2455231.368000104
  9
$TDUUPDATE
 40
2455231.326333438
  9
$TDINDWG
 40
0.0002870602
  9
$TDUSRTIMER
 40
0.0002870602
  9
$USRTIMER
 70
     1
  9
$ANGBASE
 50
0.0
  9
$ANGDIR
 70
     0
  9
$PDMODE
 70
     0
  9
$PDSIZE
 40
0.0
  9
$PLINEWID
 40
0.0
  9
$SPLFRAME
 70
     0
  9
$SPLINETYPE
 70
     6
  9
$SPLINESEGS
 70
     8
  9
$HANDSEED
  5
BB6
  9
$SURFTAB1
 70
     6
  9
$SURFTAB2
 70
     6
  9
$SURFTYPE
 70
     6
  9
$SURFU
 70
     6
  9
$SURFV
 70
     6
  9
$UCSBASE
  2

  9
$UCSNAME
  2

  9
$UCSORG
 10
0.0
 20
0.0
 30
0.0
  9
$UCSXDIR
 10
1.0
 20
0.0
 30
0.0
  9
$UCSYDIR
 10
0.0
 20
1.0
 30
0.0
  9
$UCSORTHOREF
  2

  9
$UCSORTHOVIEW
 70
     0
  9
$UCSORGTOP
 10
0.0
 20
0.0
 30
0.0
  9
$UCSORGBOTTOM
 10
0.0
 20
0.0
 30
0.0
  9
$UCSORGLEFT
 10
0.0
 20
0.0
 30
0.0
  9
$UCSORGRIGHT
 10
0.0
 20
0.0
 30
0.0
  9
$UCSORGFRONT
 10
0.0
 20
0.0
 30
0.0
  9
$UCSORGBACK
 10
0.0
 20
0.0
 30
0.0
  9
$PUCSBASE
  2

  9
$PUCSNAME
  2

  9
$PUCSORG
 10
0.0
 20
0.0
 30
0.0
  9
$PUCSXDIR
 10
1.0
 20
0.0
 30
0.0
  9
$PUCSYDIR
 10
0.0
 20
1.0
 30
0.0
  9
$PUCSORTHOREF
  2

  9
$PUCSORTHOVIEW
 70
     0
  9
$PUCSORGTOP
 10
0.0
 20
0.0
 30
0.0
  9
$PUCSORGBOTTOM
 10
0.0
 20
0.0
 30
0.0
  9
$PUCSORGLEFT
 10
0.0
 20
0.0
 30
0.0
  9
$PUCSORGRIGHT
 10
0.0
 20
0.0
 30
0.0
  9
$PUCSORGFRONT
 10
0.0
 20
0.0
 30
0.0
  9
$PUCSORGBACK
 10
0.0
 20
0.0
 30
0.0
  9
$USERI1
 70
     0
  9
$USERI2
 70
     0
  9
$USERI3
 70
     0
  9
$USERI4
 70
     0
  9
$USERI5
 70
     0
  9
$USERR1
 40
0.0
  9
$USERR2
 40
0.0
  9
$USERR3
 40
0.0
  9
$USERR4
 40
0.0
  9
$USERR5
 40
0.0
  9
$WORLDVIEW
 70
     1
  9
$SHADEDGE
 70
     3
  9
$SHADEDIF
 70
    70
  9
$TILEMODE
 70
     1
  9
$MAXACTVP
 70
    48
  9
$PINSBASE
 10
0.0
 20
0.0
 30
0.0
  9
$PLIMCHECK
 70
     0
  9
$PEXTMIN
 10
0.0
 20
0.0
 30
0.0
  9
$PEXTMAX
 10
195.5
 20
253.664566
 30
2.0
  9
$PLIMMIN
 10
0.0
 20
0.0
  9
$PLIMMAX
 10
420.0
 20
297.0
  9
$UNITMODE
 70
     0
  9
$VISRETAIN
 70
     0
  9
$PLINEGEN
 70
     0
  9
$PSLTSCALE
 70
     1
  9
$TREEDEPTH
 70
  3020
  9
$CMLSTYLE
  2
STANDARD
  9
$CMLJUST
 70
     0
  9
$CMLSCALE
 40
20.0
  9
$PROXYGRAPHICS
 70
     1
  9
$MEASUREMENT
 70
     1
  9
$CELWEIGHT
370
    -1
  9
$ENDCAPS
280
     0
  9
$JOINSTYLE
280
     0
  9
$LWDISPLAY
290
     0
  9
$INSUNITS
 70
     0
  9
$HYPERLINKBASE
  1

  9
$STYLESHEET
  1

  9
$XEDIT
290
     1
  9
$CEPSNTYPE
380
     0
  9
$PSTYLEMODE
290
     1
  9
$FINGERPRINTGUID
  2
{175D85B9-6C0A-4CC9-96AE-622258E94BD4}
  9
$VERSIONGUID
  2
{8DC52CF4-F9AC-448A-94A3-DB5E44C7E3B9}
  9
$EXTNAMES
290
     1
  9
$PSVPSCALE
 40
0.0
  9
$OLESTARTUP
290
     0
  0
ENDSEC
  0
SECTION
  2
CLASSES
  0
CLASS
  1
IMAGE
  2
AcDbRasterImage
  3
ISM
 90
    34943
280
     0
281
     1
  0
CLASS
  1
DICTIONARYVAR
  2
AcDbDictionaryVar
  3
ObjectDBX Classes
 90
        0
280
     0
281
     0
  0
CLASS
  1
RASTERVARIABLES
  2
AcDbRasterVariables
  3
ISM
 90
    32768
280
     0
281
     0
  0
CLASS
  1
IMAGEDEF
  2
AcDbRasterImageDef
  3
ISM
 90
    32768
280
     0
281
     0
  0
CLASS
  1
IMAGEDEF_REACTOR
  2
AcDbRasterImageDefReactor
  3
ISM
 90
    32769
280
     0
281
     0
  0
CLASS
  1
IDBUFFER
  2
AcDbIdBuffer
  3
ObjectDBX Classes
 90
    32768
280
     0
281
     0
  0
CLASS
  1
SPATIAL_FILTER
  2
AcDbSpatialFilter
  3
ObjectDBX Classes
 90
    32768
280
     0
281
     0
  0
CLASS
  1
SORTENTSTABLE
  2
AcDbSortentsTable
  3
ObjectDBX Classes
 90
    32768
280
     0
281
     0
  0
CLASS
  1
LAYER_INDEX
  2
AcDbLayerIndex
  3
ObjectDBX Classes
 90
    32768
280
     0
281
     0
  0
CLASS
  1
SPATIAL_INDEX
  2
AcDbSpatialIndex
  3
ObjectDBX Classes
 90
    32768
280
     0
281
     0
  0
CLASS
  1
OBJECT_PTR
  2
CAseDLPNTableRecord
  3
ASE-LPNTableRecord
 90
    32769
280
     0
281
     0
  0
CLASS
  1
LAYOUT
  2
AcDbLayout
  3
ObjectDBX Classes
 90
        0
280
     0
281
     0
  0
CLASS
  1
PLOTSETTINGS
  2
AcDbPlotSettings
  3
ObjectDBX Classes
 90
    32768
280
     0
281
     0
  0
CLASS
  1
ACDBDICTIONARYWDFLT
  2
AcDbDictionaryWithDefault
  3
ObjectDBX Classes
 90
        0
280
     0
281
     0
  0
CLASS
  1
ACDBPLACEHOLDER
  2
AcDbPlaceHolder
  3
ObjectDBX Classes
 90
        0
280
     0
281
     0
  0
CLASS
  1
VBA_PROJECT
  2
AcDbVbaProject
  3
acad
 90
    32768
280
     0
281
     0
  0
CLASS
  1
WIPEOUT
  2
AcDbWipeout
  3
"WipeOut|Product Desc: Object Enabler for WipeOut entity                        |Company: Autodesk, Inc.                        |WEB Address: www.autodesk.com"
 90
    34943
280
     0
281
     1
  0
CLASS
  1
WIPEOUTVARIABLES
  2
AcDbWipeoutVariables
  3
"WipeOut|Product Desc:     WipeOut Dbx Application|Company:          Autodesk, Inc.|WEB Address:      www.autodesk.com"
 90
    32768
280
     0
281
     0
  0
CLASS
  1
RTEXT
  2
RText
  3
RText|AutoCAD Express Tool|expresstools@autodesk.com
 90
    32768
280
     0
281
     1
  0
CLASS
  1
ARCALIGNEDTEXT
  2
AcDbArcAlignedText
  3
ATEXT|AutoCAD Express Tool|expresstools@autodesk.com
 90
    32768
280
     0
281
     1
  0
CLASS
  1
MATERIAL
  2
AcDbMaterial
  3
ObjectDBX Classes
 90
     1024
280
     0
281
     0
  0
CLASS
  1
VISUALSTYLE
  2
AcDbVisualStyle
  3
ObjectDBX Classes
 90
     4095
280
     0
281
     0
  0
CLASS
  1
TABLESTYLE
  2
AcDbTableStyle
  3
ObjectDBX Classes
 90
     4095
280
     0
281
     0
  0
ENDSEC
  0
SECTION
  2
TABLES
  0
TABLE
  2
VPORT
  5
7
330
0
100
AcDbSymbolTable
 70
     1
  0
VPORT
  5
15
330
7
100
AcDbSymbolTableRecord
100
AcDbViewportTableRecord
  2
*ACTIVE
 70
     0
 10
0.0
 20
0.0
 11
1.0
 21
1.0
 12
105.9388741477613
 22
173.2326285889519
 13
0.0
 23
0.0
 14
1.0
 24
1.0
 15
0.0
 25
0.0
 16
0.0
 26
0.0
 36
1.0
 17
0.0
 27
0.0
 37
0.0
 40
198.3634557219143
 41
1.606349206349206
 42
50.0
 43
0.0
 44
0.0
 50
0.0
 51
0.0
 71
     0
 72
   100
 73
     1
 74
     1
 75
     0
 76
     0
 77
     0
 78
     0
281
     0
 65
     1
110
0.0
120
0.0
130
0.0
111
1.0
121
0.0
131
0.0
112
0.0
122
1.0
132
0.0
 79
     0
146
0.0
  0
ENDTAB
  0
TABLE
  2
LTYPE
  5
4
330
0
100
AcDbSymbolTable
 70
     8
  0
LTYPE
  5
11
330
4
100
AcDbSymbolTableRecord
100
AcDbLinetypeTableRecord
  2
BYBLOCK
 70
     0
  3

 72
    65
 73
     0
 40
0.0
  0
LTYPE
  5
12
330
4
100
AcDbSymbolTableRecord
100
AcDbLinetypeTableRecord
  2
BYLAYER
 70
     0
  3

 72
    65
 73
     0
 40
0.0
  0
LTYPE
  5
13
330
4
100
AcDbSymbolTableRecord
100
AcDbLinetypeTableRecord
  2
CONTINUOUS
 70
     0
  3
Solid line
 72
    65
 73
     0
 40
0.0
  0
LTYPE
  5
1D
330
4
100
AcDbSymbolTableRecord
100
AcDbLinetypeTableRecord
  2
DASHED
 70
     0
  3
__ __ __ __ __ __ __ __ __ __ __ __ __ __ __ __
 72
    65
 73
     2
 40
15.0
 49
12.0
 74
     0
 49
-3.0
 74
     0
  0
LTYPE
  5
1E
330
4
100
AcDbSymbolTableRecord
100
AcDbLinetypeTableRecord
  2
DASHDOT
 70
     0
  3
 __ . __ . __ . __ . __ . __ . __ . 
 72
    65
 73
     4
 40
18.5
 49
12.0
 74
     0
 49
-3.0
 74
     0
 49
0.5
 74
     0
 49
-3.0
 74
     0
  0
LTYPE
  5
1F
330
4
100
AcDbSymbolTableRecord
100
AcDbLinetypeTableRecord
  2
DOT
 70
     0
  3
 . . . . . . . . . . . . . . . .
 72
    65
 73
     2
 40
3.5
 49
0.5
 74
     0
 49
-3.0
 74
     0
  0
LTYPE
  5
20
330
4
100
AcDbSymbolTableRecord
100
AcDbLinetypeTableRecord
  2
DASHSPACE
 70
     0
  3
__    __    __    __    __   
 72
    65
 73
     2
 40
30.0
 49
12.0
 74
     0
 49
-18.0
 74
     0
  0
LTYPE
  5
21
330
4
100
AcDbSymbolTableRecord
100
AcDbLinetypeTableRecord
  2
DASHDOT2
 70
     0
  3
__ . . __ . . __ . . __ 
 72
    65
 73
     6
 40
22.0
 49
12.0
 74
     0
 49
-3.0
 74
     0
 49
0.5
 74
     0
 49
-3.0
 74
     0
 49
0.5
 74
     0
 49
-3.0
 74
     0
  0
LTYPE
  5
22
330
4
100
AcDbSymbolTableRecord
100
AcDbLinetypeTableRecord
  2
PHANTOM
 70
     0
  3
____________    ____    ____   _
 72
    65
 73
     6
 40
20.0
 49
10.0
 74
     0
 49
-2.0
 74
     0
 49
2.0
 74
     0
 49
-2.0
 74
     0
 49
2.0
 74
     0
 49
-2.0
 74
     0
  0
LTYPE
  5
23
330
4
100
AcDbSymbolTableRecord
100
AcDbLinetypeTableRecord
  2
AXES
 70
     0
  3
________  __  ________  __  _____
 72
    65
 73
     4
 40
24.0
 49
15.0
 74
     0
 49
-3.0
 74
     0
 49
3.0
 74
     0
 49
-3.0
 74
     0
  0
ENDTAB
  0
TABLE
  2
LAYER
  5
2
330
0
100
AcDbSymbolTable
 70
     5
  0
LAYER
  5
B7E
330
2
100
AcDbSymbolTableRecord
100
AcDbLayerTableRecord
  2
0
 70
     0
 62
     7
  6
CONTINUOUS
370
    -3
390
B80
  0
LAYER
  5
B7B
330
2
100
AcDbSymbolTableRecord
100
AcDbLayerTableRecord
  2
Hawa4
 70
     0
 62
     4
  6
CONTINUOUS
370
     0
390
B80
  0
LAYER
  5
B7C
330
2
100
AcDbSymbolTableRecord
100
AcDbLayerTableRecord
  2
Hawa5
 70
     0
 62
     1
  6
CONTINUOUS
370
    -3
390
B80
  0
LAYER
  5
B7D
330
2
100
AcDbSymbolTableRecord
100
AcDbLayerTableRecord
  2
Hawa6
 70
     0
 62
     3
  6
CONTINUOUS
370
    -3
390
B80
  0
LAYER
  5
14
330
2
100
AcDbSymbolTableRecord
100
AcDbLayerTableRecord
  2
HAWA1
 70
     0
 62
     2
  6
CONTINUOUS
370
     0
390
B80
  0
ENDTAB
  0
TABLE
  2
STYLE
  5
3
330
0
100
AcDbSymbolTable
 70
     2
  0
STYLE
  5
17
330
3
100
AcDbSymbolTableRecord
100
AcDbTextStyleTableRecord
  2
STANDARD
 70
     0
 40
0.0
 41
1.0
 50
0.0
 71
     0
 42
2.5
  3
isocp.shx
  4

  0
STYLE
  5
24
330
3
100
AcDbSymbolTableRecord
100
AcDbTextStyleTableRecord
  2
GDT
 70
     0
 40
0.0
 41
1.0
 50
0.0
 71
     0
 42
2.5
  3
amgdt.shx
  4

  0
ENDTAB
  0
TABLE
  2
VIEW
  5
5
330
0
100
AcDbSymbolTable
 70
     1
  0
ENDTAB
  0
TABLE
  2
UCS
  5
6
330
0
100
AcDbSymbolTable
 70
     0
  0
ENDTAB
  0
TABLE
  2
APPID
  5
8
330
0
100
AcDbSymbolTable
 70
     1
  0
APPID
  5
16
330
8
100
AcDbSymbolTableRecord
100
AcDbRegAppTableRecord
  2
ACAD
 70
     0
  0
ENDTAB
  0
TABLE
  2
DIMSTYLE
  5
9
330
0
100
AcDbSymbolTable
 70
     1
100
AcDbDimStyleTable
 71
     0
  0
DIMSTYLE
105
18
102
{ACAD_REACTORS
330
26
330
28
330
2A
330
2C
330
2E
330
30
330
32
330
34
330
36
330
38
330
3A
330
3C
330
3E
102
}
330
9
100
AcDbSymbolTableRecord
100
AcDbDimStyleTableRecord
  2
STANDARD
 70
     0
 41
2.5
 42
0.625
 43
3.75
 44
1.25
 73
     0
 74
     0
 77
     1
 78
     8
140
2.5
141
2.5
143
0.03937
147
0.625
171
     3
172
     1
271
     2
272
     2
274
     3
283
     0
284
     8
289
     0
340
17
  0
ENDTAB
  0
TABLE
  2
BLOCK_RECORD
  5
1
330
0
100
AcDbSymbolTable
 70
    15
  0
BLOCK_RECORD
  5
A
330
1
100
AcDbSymbolTableRecord
100
AcDbBlockTableRecord
  2
*MODEL_SPACE
340
8DD
  0
BLOCK_RECORD
  5
B
330
1
100
AcDbSymbolTableRecord
100
AcDbBlockTableRecord
  2
*PAPER_SPACE
340
8DE
  0
BLOCK_RECORD
  5
25
330
1
100
AcDbSymbolTableRecord
100
AcDbBlockTableRecord
  2
*D0
340
0
  0
BLOCK_RECORD
  5
27
330
1
100
AcDbSymbolTableRecord
100
AcDbBlockTableRecord
  2
*D1
340
0
  0
BLOCK_RECORD
  5
29
330
1
100
AcDbSymbolTableRecord
100
AcDbBlockTableRecord
  2
*D2
340
0
  0
BLOCK_RECORD
  5
2B
330
1
100
AcDbSymbolTableRecord
100
AcDbBlockTableRecord
  2
*D3
340
0
  0
BLOCK_RECORD
  5
2D
330
1
100
AcDbSymbolTableRecord
100
AcDbBlockTableRecord
  2
*D4
340
0
  0
BLOCK_RECORD
  5
2F
330
1
100
AcDbSymbolTableRecord
100
AcDbBlockTableRecord
  2
*D5
340
0
  0
BLOCK_RECORD
  5
31
330
1
100
AcDbSymbolTableRecord
100
AcDbBlockTableRecord
  2
*D6
340
0
  0
BLOCK_RECORD
  5
33
330
1
100
AcDbSymbolTableRecord
100
AcDbBlockTableRecord
  2
*D7
340
0
  0
BLOCK_RECORD
  5
35
330
1
100
AcDbSymbolTableRecord
100
AcDbBlockTableRecord
  2
*D8
340
0
  0
BLOCK_RECORD
  5
37
330
1
100
AcDbSymbolTableRecord
100
AcDbBlockTableRecord
  2
*D9
340
0
  0
BLOCK_RECORD
  5
39
330
1
100
AcDbSymbolTableRecord
100
AcDbBlockTableRecord
  2
*D10
340
0
  0
BLOCK_RECORD
  5
3B
330
1
100
AcDbSymbolTableRecord
100
AcDbBlockTableRecord
  2
*D11
340
0
  0
BLOCK_RECORD
  5
3D
330
1
100
AcDbSymbolTableRecord
100
AcDbBlockTableRecord
  2
*D12
340
0
  0
BLOCK_RECORD
  5
53
330
1
100
AcDbSymbolTableRecord
100
AcDbBlockTableRecord
  2
BLOCK0
340
0
  0
BLOCK_RECORD
  5
54
330
1
100
AcDbSymbolTableRecord
100
AcDbBlockTableRecord
  2
BLOCK1
340
0
  0
ENDTAB
  0
ENDSEC
  0
SECTION
  2
BLOCKS
  0
BLOCK
  5
D
330
A
100
AcDbEntity
  8
HAWA1
100
AcDbBlockBegin
  2
*MODEL_SPACE
 70
     0
 10
0.0
 20
0.0
 30
0.0
  3
*MODEL_SPACE
  1

  0
ENDBLK
  5
E
330
A
100
AcDbEntity
  8
HAWA1
100
AcDbBlockEnd
  0
BLOCK
  5
F
330
B
100
AcDbEntity
 67
     1
  8
HAWA1
100
AcDbBlockBegin
  2
*PAPER_SPACE
 70
     0
 10
0.0
 20
0.0
 30
0.0
  3
*PAPER_SPACE
  1

  0
ENDBLK
  5
10
330
B
100
AcDbEntity
 67
     1
  8
HAWA1
100
AcDbBlockEnd
  0
BLOCK
  5
55
330
25
100
AcDbEntity
  8
HAWA1
100
AcDbBlockBegin
  2
*D0
 70
     1
 10
0.0
 20
0.0
 30
0.0
  3
*D0
  1

  0
TEXT
  5
56
330
25
100
AcDbEntity
  8
HAWA1
 62
     2
100
AcDbText
 10
75.070442
 20
101.081098
 30
0.0
 40
3.5
  1
5
 41
1.29106019486079
 72
     5
 11
77.74290400000001
 21
101.081098
 31
0.0
100
AcDbText
  0
TEXT
  5
57
330
25
100
AcDbEntity
  8
HAWA1
 62
     2
100
AcDbText
 10
81.867114
 20
103.181119
 30
0.0
 40
2.33345
  1
3
 41
1.291059893857668
 72
     5
 11
83.64884399999999
 21
103.181119
 31
0.0
100
AcDbText
  0
TEXT
  5
58
330
25
100
AcDbEntity
  8
HAWA1
 62
     2
100
AcDbText
 10
80.74290299999999
 20
100.147657
 30
0.0
 40
2.33345
  1
16
 41
1.57067274455826
 72
     5
 11
84.77305499999999
 21
100.147657
 31
0.0
100
AcDbText
  0
TEXT
  5
59
330
25
100
AcDbEntity
  8
HAWA1
 62
     2
100
AcDbText
 10
84.77305499999999
 20
101.956098
 30
0.0
 40
3.5
  1
"
 41
1.629629206349205
 72
     5
 11
87.339721
 21
101.956098
 31
0.0
100
AcDbText
  0
TEXT
  5
5A
330
25
100
AcDbEntity
  8
HAWA1
 62
     2
100
AcDbText
 10
78.742903
 20
102.331098
 30
0.0
 40
1.0
  1
/
 41
1.818181818181818
 72
     5
 11
79.74290299999999
 21
102.331098
 31
0.0
100
AcDbText
  0
LINE
  5
5B
330
25
100
AcDbEntity
  8
HAWA1
 62
     2
 48
0.100754
100
AcDbLine
 10
80.74290299999999
 20
102.831098
 30
0.0
 11
84.77305499999999
 21
102.831098
 31
0.0
  0
LINE
  5
5C
330
25
100
AcDbEntity
  8
HAWA1
 62
     2
100
AcDbLine
 10
88.847087
 20
143.677617
 30
0.0
 11
88.847087
 21
98.147657
 31
0.0
  0
LINE
  5
5D
330
25
100
AcDbEntity
  8
HAWA1
 62
     2
 48
0.075
100
AcDbLine
 10
92.786427
 20
98.08698800000001
 30
0.0
 11
94.907748
 21
100.20831
 31
0.0
  0
LINE
  5
5E
330
25
100
AcDbEntity
  8
HAWA1
 62
     2
 48
0.075
100
AcDbLine
 10
89.907748
 20
100.20831
 30
0.0
 11
87.786427
 21
98.08698800000001
 31
0.0
  0
LINE
  5
5F
330
25
100
AcDbEntity
  8
HAWA1
 62
     2
 48
0.469416
100
AcDbLine
 10
75.070442
 20
99.147657
 30
0.0
 11
93.847087
 21
99.147657
 31
0.0
  0
ENDBLK
  5
60
330
25
100
AcDbEntity
  8
HAWA1
100
AcDbBlockEnd
  0
BLOCK
  5
61
330
27
100
AcDbEntity
  8
HAWA1
100
AcDbBlockBegin
  2
*D1
 70
     1
 10
0.0
 20
0.0
 30
0.0
  3
*D1
  1

  0
TEXT
  5
62
330
27
100
AcDbEntity
  8
HAWA1
 62
     2
100
AcDbText
 10
104.158004
 20
101.081098
 30
0.0
 40
3.5
  1
5
 41
1.291060677958464
 72
     5
 11
106.830467
 21
101.081098
 31
0.0
100
AcDbText
  0
TEXT
  5
63
330
27
100
AcDbEntity
  8
HAWA1
 62
     2
100
AcDbText
 10
110.954677
 20
103.181119
 30
0.0
 40
2.33345
  1
3
 41
1.291060618467967
 72
     5
 11
112.736408
 21
103.181119
 31
0.0
100
AcDbText
  0
TEXT
  5
64
330
27
100
AcDbEntity
  8
HAWA1
 62
     2
100
AcDbText
 10
109.830467
 20
100.147657
 30
0.0
 40
2.33345
  1
16
 41
1.570672354827857
 72
     5
 11
113.860618
 21
100.147657
 31
0.0
100
AcDbText
  0
TEXT
  5
65
330
27
100
AcDbEntity
  8
HAWA1
 62
     2
100
AcDbText
 10
113.860618
 20
101.956098
 30
0.0
 40
3.5
  1
"
 41
1.629629206349223
 72
     5
 11
116.427284
 21
101.956098
 31
0.0
100
AcDbText
  0
TEXT
  5
66
330
27
100
AcDbEntity
  8
HAWA1
 62
     2
100
AcDbText
 10
107.830467
 20
102.331098
 30
0.0
 40
1.0
  1
/
 41
1.818181818181818
 72
     5
 11
108.830467
 21
102.331098
 31
0.0
100
AcDbText
  0
LINE
  5
67
330
27
100
AcDbEntity
  8
HAWA1
 62
     2
 48
0.100754
100
AcDbLine
 10
109.830467
 20
102.831098
 30
0.0
 11
113.860616
 21
102.831098
 31
0.0
  0
LINE
  5
68
330
27
100
AcDbEntity
  8
HAWA1
 62
     2
 48
0.213249
100
AcDbLine
 10
98.847087
 20
106.67761
 30
0.0
 11
98.847087
 21
98.147657
 31
0.0
  0
LINE
  5
69
330
27
100
AcDbEntity
  8
HAWA1
 62
     2
 48
0.075
100
AcDbLine
 10
97.786427
 20
98.08698800000001
 30
0.0
 11
99.907748
 21
100.20831
 31
0.0
  0
LINE
  5
6A
330
27
100
AcDbEntity
  8
HAWA1
 62
     2
 48
0.075
100
AcDbLine
 10
94.907748
 20
100.20831
 30
0.0
 11
92.786427
 21
98.08698800000001
 31
0.0
  0
LINE
  5
6B
330
27
100
AcDbEntity
  8
HAWA1
 62
     2
100
AcDbLine
 10
93.847087
 20
99.147657
 30
0.0
 11
116.427284
 21
99.147657
 31
0.0
  0
ENDBLK
  5
6C
330
27
100
AcDbEntity
  8
HAWA1
100
AcDbBlockEnd
  0
BLOCK
  5
6D
330
29
100
AcDbEntity
  8
HAWA1
100
AcDbBlockBegin
  2
*D2
 70
     1
 10
0.0
 20
0.0
 30
0.0
  3
*D2
  1

  0
TEXT
  5
6E
330
29
100
AcDbEntity
  8
HAWA1
 62
     2
100
AcDbText
 10
83.814986
 20
267.468437
 30
0.0
 40
3.5
  1
34
 41
1.279348994708993
 72
     5
 11
89.85991
 21
267.468437
 31
0.0
100
AcDbText
  0
TEXT
  5
6F
330
29
100
AcDbEntity
  8
HAWA1
 62
     2
100
AcDbText
 10
90.85990999999999
 20
268.718437
 30
0.0
 40
1.0
  1
/
 41
1.818181818181818
 72
     5
 11
91.85990999999999
 21
268.718437
 31
0.0
100
AcDbText
  0
TEXT
  5
70
330
29
100
AcDbEntity
  8
HAWA1
 62
     2
100
AcDbText
 10
92.85991
 20
267.468437
 30
0.0
 40
3.5
  1
1
 41
2.181600816326529
 72
     5
 11
95.532371
 21
267.468437
 31
0.0
100
AcDbText
  0
TEXT
  5
71
330
29
100
AcDbEntity
  8
HAWA1
 62
     2
100
AcDbText
 10
97.28237100000001
 20
269.568437
 30
0.0
 40
2.33345
  1
11
 41
2.031907312197416
 72
     5
 11
101.312522
 21
269.568437
 31
0.0
100
AcDbText
  0
TEXT
  5
72
330
29
100
AcDbEntity
  8
HAWA1
 62
     2
100
AcDbText
 10
97.28237100000001
 20
266.534986
 30
0.0
 40
2.33345
  1
32
 41
1.318353709796764
 72
     5
 11
101.312522
 21
266.534986
 31
0.0
100
AcDbText
  0
TEXT
  5
73
330
29
100
AcDbEntity
  8
HAWA1
 62
     2
100
AcDbText
 10
101.312522
 20
268.343437
 30
0.0
 40
3.5
  1
"
 41
1.629629206349205
 72
     5
 11
103.879188
 21
268.343437
 31
0.0
100
AcDbText
  0
LINE
  5
74
330
29
100
AcDbEntity
  8
HAWA1
 62
     2
 48
0.100754
100
AcDbLine
 10
97.28237100000001
 20
269.218437
 30
0.0
 11
101.312522
 21
269.218437
 31
0.0
  0
LINE
  5
75
330
29
100
AcDbEntity
  8
HAWA1
 62
     2
100
AcDbLine
 10
76.847087
 20
242.677616
 30
0.0
 11
76.847087
 21
266.534986
 31
0.0
  0
LINE
  5
76
330
29
100
AcDbEntity
  8
HAWA1
 62
     2
 48
0.261485
100
AcDbLine
 10
110.847087
 20
242.677616
 30
0.0
 11
110.847087
 21
253.137033
 31
0.0
  0
LINE
  5
77
330
29
100
AcDbEntity
  8
HAWA1
 62
     2
 48
0.139443
100
AcDbLine
 10
110.847087
 20
260.957255
 30
0.0
 11
110.847087
 21
266.534986
 31
0.0
  0
LINE
  5
78
330
29
100
AcDbEntity
  8
HAWA1
 62
     2
 48
0.075
100
AcDbLine
 10
109.786428
 20
264.474326
 30
0.0
 11
111.907747
 21
266.5956470000001
 31
0.0
  0
LINE
  5
79
330
29
100
AcDbEntity
  8
HAWA1
 62
     2
 48
0.075
100
AcDbLine
 10
77.907748
 20
266.5956470000001
 30
0.0
 11
75.786427
 21
264.474326
 31
0.0
  0
LINE
  5
7A
330
29
100
AcDbEntity
  8
HAWA1
 62
     2
100
AcDbLine
 10
76.847087
 20
265.534986
 30
0.0
 11
110.847087
 21
265.534986
 31
0.0
  0
ENDBLK
  5
7B
330
29
100
AcDbEntity
  8
HAWA1
100
AcDbBlockEnd
  0
BLOCK
  5
7C
330
2B
100
AcDbEntity
  8
HAWA1
100
AcDbBlockBegin
  2
*D3
 70
     1
 10
0.0
 20
0.0
 30
0.0
  3
*D3
  1

  0
TEXT
  5
7D
330
2B
100
AcDbEntity
  8
HAWA1
 62
     2
100
AcDbText
 10
119.305635
 20
215.655839
 30
0.0
 40
3.5
  1
40
 50
90.0
 41
1.27860281300745
 72
     5
 11
119.305635
 21
221.700761
 31
0.0
100
AcDbText
  0
TEXT
  5
7E
330
2B
100
AcDbEntity
  8
HAWA1
 62
     2
100
AcDbText
 10
118.055635
 20
222.700761
 30
0.0
 40
1.0
  1
/
 50
90.0
 41
1.818181818181818
 72
     5
 11
118.055635
 21
223.700761
 31
0.0
100
AcDbText
  0
TEXT
  5
7F
330
2B
100
AcDbEntity
  8
HAWA1
 62
     2
100
AcDbText
 10
119.305635
 20
224.700761
 30
0.0
 40
3.5
  1
1
 50
90.0
 41
2.181602448979609
 72
     5
 11
119.305635
 21
227.373224
 31
0.0
100
AcDbText
  0
TEXT
  5
80
330
2B
100
AcDbEntity
  8
HAWA1
 62
     2
100
AcDbText
 10
117.205637
 20
230.247434
 30
0.0
 40
2.33345
  1
9
 50
90.0
 41
1.228392587362928
 72
     5
 11
117.205637
 21
232.029165
 31
0.0
100
AcDbText
  0
TEXT
  5
81
330
2B
100
AcDbEntity
  8
HAWA1
 62
     2
100
AcDbText
 10
120.239086
 20
229.123224
 30
0.0
 40
2.33345
  1
16
 50
90.0
 41
1.570672354827857
 72
     5
 11
120.239086
 21
233.153375
 31
0.0
100
AcDbText
  0
TEXT
  5
82
330
2B
100
AcDbEntity
  8
HAWA1
 62
     2
100
AcDbText
 10
118.430635
 20
233.153373
 30
0.0
 40
3.5
  1
"
 50
90.0
 41
1.629630476190489
 72
     5
 11
118.430635
 21
235.720041
 31
0.0
100
AcDbText
  0
LINE
  5
83
330
2B
100
AcDbEntity
  8
HAWA1
 62
     2
 48
0.100754
100
AcDbLine
 10
117.555635
 20
229.123224
 30
0.0
 11
117.555635
 21
233.153374
 31
0.0
  0
LINE
  5
84
330
2B
100
AcDbEntity
  8
HAWA1
 62
     2
 48
0.3098
100
AcDbLine
 10
109.847087
 20
203.677617
 30
0.0
 11
122.239086
 21
203.677617
 31
0.0
  0
LINE
  5
85
330
2B
100
AcDbEntity
  8
HAWA1
 62
     2
 48
0.075
100
AcDbLine
 10
122.299747
 20
242.616957
 30
0.0
 11
120.178426
 21
244.738277
 31
0.0
  0
LINE
  5
86
330
2B
100
AcDbEntity
  8
HAWA1
 62
     2
 48
0.075
100
AcDbLine
 10
120.178426
 20
204.738279
 30
0.0
 11
122.299747
 21
202.616956
 31
0.0
  0
LINE
  5
87
330
2B
100
AcDbEntity
  8
HAWA1
 62
     2
100
AcDbLine
 10
121.239086
 20
203.677617
 30
0.0
 11
121.239086
 21
243.677616
 31
0.0
  0
ENDBLK
  5
88
330
2B
100
AcDbEntity
  8
HAWA1
100
AcDbBlockEnd
  0
BLOCK
  5
89
330
2D
100
AcDbEntity
  8
HAWA1
100
AcDbBlockBegin
  2
*D4
 70
     1
 10
0.0
 20
0.0
 30
0.0
  3
*D4
  1

  0
TEXT
  5
8A
330
2D
100
AcDbEntity
  8
HAWA1
 62
     2
100
AcDbText
 10
119.305635
 20
182.96597
 30
0.0
 40
3.5
  1
5
 50
90.0
 41
1.291060677958477
 72
     5
 11
119.305635
 21
185.638433
 31
0.0
100
AcDbText
  0
TEXT
  5
8B
330
2D
100
AcDbEntity
  8
HAWA1
 62
     2
100
AcDbText
 10
117.205637
 20
189.762643
 30
0.0
 40
2.33345
  1
3
 50
90.0
 41
1.291060618467968
 72
     5
 11
117.205637
 21
191.544374
 31
0.0
100
AcDbText
  0
TEXT
  5
8C
330
2D
100
AcDbEntity
  8
HAWA1
 62
     2
100
AcDbText
 10
120.239086
 20
188.638433
 30
0.0
 40
2.33345
  1
16
 50
90.0
 41
1.570672354827857
 72
     5
 11
120.239086
 21
192.668584
 31
0.0
100
AcDbText
  0
TEXT
  5
8D
330
2D
100
AcDbEntity
  8
HAWA1
 62
     2
100
AcDbText
 10
118.430635
 20
192.668584
 30
0.0
 40
3.5
  1
"
 50
90.0
 41
1.629629206349205
 72
     5
 11
118.430635
 21
195.23525
 31
0.0
100
AcDbText
  0
TEXT
  5
8E
330
2D
100
AcDbEntity
  8
HAWA1
 62
     2
100
AcDbText
 10
118.055635
 20
186.638433
 30
0.0
 40
1.0
  1
/
 50
90.0
 41
1.818181818181818
 72
     5
 11
118.055635
 21
187.638433
 31
0.0
100
AcDbText
  0
LINE
  5
8F
330
2D
100
AcDbEntity
  8
HAWA1
 62
     2
 48
0.100754
100
AcDbLine
 10
117.555635
 20
188.638433
 30
0.0
 11
117.555635
 21
192.668584
 31
0.0
  0
LINE
  5
90
330
2D
100
AcDbEntity
  8
HAWA1
 62
     2
100
AcDbLine
 10
97.84708700000001
 20
198.677591
 30
0.0
 11
122.239086
 21
198.677591
 31
0.0
  0
LINE
  5
91
330
2D
100
AcDbEntity
  8
HAWA1
 62
     2
 48
0.3098
100
AcDbLine
 10
109.847087
 20
203.677617
 30
0.0
 11
122.239086
 21
203.677617
 31
0.0
  0
LINE
  5
92
330
2D
100
AcDbEntity
  8
HAWA1
 62
     2
 48
0.075
100
AcDbLine
 10
122.299747
 20
202.616956
 30
0.0
 11
120.178426
 21
204.738279
 31
0.0
  0
LINE
  5
93
330
2D
100
AcDbEntity
  8
HAWA1
 62
     2
 48
0.075
100
AcDbLine
 10
120.178426
 20
199.738248
 30
0.0
 11
122.299747
 21
197.616929
 31
0.0
  0
LINE
  5
94
330
2D
100
AcDbEntity
  8
HAWA1
 62
     2
100
AcDbLine
 10
121.239086
 20
182.96597
 30
0.0
 11
121.239086
 21
203.677617
 31
0.0
  0
ENDBLK
  5
95
330
2D
100
AcDbEntity
  8
HAWA1
100
AcDbBlockEnd
  0
BLOCK
  5
96
330
2F
100
AcDbEntity
  8
HAWA1
100
AcDbBlockBegin
  2
*D5
 70
     1
 10
0.0
 20
0.0
 30
0.0
  3
*D5
  1

  0
TEXT
  5
97
330
2F
100
AcDbEntity
  8
HAWA1
 62
     2
100
AcDbText
 10
134.903171
 20
203.717
 30
0.0
 40
3.5
  1
45
 50
90.0
 41
1.241263520705953
 72
     5
 11
134.903171
 21
209.761922
 31
0.0
100
AcDbText
  0
TEXT
  5
98
330
2F
100
AcDbEntity
  8
HAWA1
 62
     2
100
AcDbText
 10
134.903171
 20
211.861924
 30
0.0
 40
3.5
  1
%%p3
 50
90.0
 41
1.643239048007533
 72
     5
 11
134.903171
 21
219.289323
 31
0.0
100
AcDbText
  0
TEXT
  5
99
330
2F
100
AcDbEntity
  8
HAWA1
 62
     2
100
AcDbText
 10
133.653171
 20
220.289321
 30
0.0
 40
1.0
  1
/
 50
90.0
 41
1.818181818181818
 72
     5
 11
133.653171
 21
221.289321
 31
0.0
100
AcDbText
  0
TEXT
  5
9A
330
2F
100
AcDbEntity
  8
HAWA1
 62
     2
100
AcDbText
 10
134.903171
 20
222.289321
 30
0.0
 40
3.5
  1
1
 50
90.0
 41
2.181602448979586
 72
     5
 11
134.903171
 21
224.961784
 31
0.0
100
AcDbText
  0
TEXT
  5
9B
330
2F
100
AcDbEntity
  8
HAWA1
 62
     2
100
AcDbText
 10
132.803169
 20
226.711784
 30
0.0
 40
2.33345
  1
25
 50
90.0
 41
1.337380094441025
 72
     5
 11
132.803169
 21
230.741935
 31
0.0
100
AcDbText
  0
TEXT
  5
9C
330
2F
100
AcDbEntity
  8
HAWA1
 62
     2
100
AcDbText
 10
135.83662
 20
226.711784
 30
0.0
 40
2.33345
  1
32
 50
90.0
 41
1.318353709796768
 72
     5
 11
135.83662
 21
230.741935
 31
0.0
100
AcDbText
  0
TEXT
  5
9D
330
2F
100
AcDbEntity
  8
HAWA1
 62
     2
100
AcDbText
 10
134.028171
 20
230.741935
 30
0.0
 40
3.5
  1
"
 50
90.0
 41
1.629629206349187
 72
     5
 11
134.028171
 21
233.308601
 31
0.0
100
AcDbText
  0
LINE
  5
9E
330
2F
100
AcDbEntity
  8
HAWA1
 62
     2
 48
0.100754
100
AcDbLine
 10
133.153171
 20
226.711784
 30
0.0
 11
133.153171
 21
230.741935
 31
0.0
  0
LINE
  5
9F
330
2F
100
AcDbEntity
  8
HAWA1
 62
     2
100
AcDbLine
 10
97.84708700000001
 20
198.677591
 30
0.0
 11
137.83662
 21
198.677591
 31
0.0
  0
LINE
  5
A0
330
2F
100
AcDbEntity
  8
HAWA1
 62
     2
 48
0.099738
100
AcDbLine
 10
133.847087
 20
243.677616
 30
0.0
 11
137.83662
 21
243.677616
 31
0.0
  0
LINE
  5
A1
330
2F
100
AcDbEntity
  8
HAWA1
 62
     2
 48
0.075
100
AcDbLine
 10
137.897281
 20
242.616957
 30
0.0
 11
135.775959
 21
244.738277
 31
0.0
  0
LINE
  5
A2
330
2F
100
AcDbEntity
  8
HAWA1
 62
     2
 48
0.075
100
AcDbLine
 10
135.775959
 20
199.738248
 30
0.0
 11
137.897281
 21
197.616929
 31
0.0
  0
LINE
  5
A3
330
2F
100
AcDbEntity
  8
HAWA1
 62
     2
100
AcDbLine
 10
136.83662
 20
198.677591
 30
0.0
 11
136.83662
 21
243.677616
 31
0.0
  0
ENDBLK
  5
A4
330
2F
100
AcDbEntity
  8
HAWA1
100
AcDbBlockEnd
  0
BLOCK
  5
A5
330
31
100
AcDbEntity
  8
HAWA1
100
AcDbBlockBegin
  2
*D6
 70
     1
 10
0.0
 20
0.0
 30
0.0
  3
*D6
  1

  0
TEXT
  5
A6
330
31
100
AcDbEntity
  8
HAWA1
 62
     2
100
AcDbText
 10
72.907995
 20
142.145513
 30
0.0
 40
3.5
  1
91
 50
90.0
 41
1.639420850625983
 72
     5
 11
72.907995
 21
148.190435
 31
0.0
100
AcDbText
  0
TEXT
  5
A7
330
31
100
AcDbEntity
  8
HAWA1
 62
     2
100
AcDbText
 10
71.657995
 20
149.190442
 30
0.0
 40
1.0
  1
/
 50
90.0
 41
1.818181818181818
 72
     5
 11
71.657995
 21
150.190442
 31
0.0
100
AcDbText
  0
TEXT
  5
A8
330
31
100
AcDbEntity
  8
HAWA1
 62
     2
100
AcDbText
 10
72.907995
 20
151.190442
 30
0.0
 40
3.5
  1
3
 50
90.0
 41
1.291056813177025
 72
     5
 11
72.907995
 21
153.862897
 31
0.0
100
AcDbText
  0
TEXT
  5
A9
330
31
100
AcDbEntity
  8
HAWA1
 62
     2
100
AcDbText
 10
70.807996
 20
155.612897
 30
0.0
 40
2.33345
  1
19
 50
90.0
 41
1.539882030568663
 72
     5
 11
70.807996
 21
159.643049
 31
0.0
100
AcDbText
  0
TEXT
  5
AA
330
31
100
AcDbEntity
  8
HAWA1
 62
     2
100
AcDbText
 10
73.84144499999999
 20
155.612897
 30
0.0
 40
2.33345
  1
32
 50
90.0
 41
1.318354036919417
 72
     5
 11
73.84144499999999
 21
159.643049
 31
0.0
100
AcDbText
  0
TEXT
  5
AB
330
31
100
AcDbEntity
  8
HAWA1
 62
     2
100
AcDbText
 10
72.03299499999999
 20
159.643049
 30
0.0
 40
3.5
  1
"
 50
90.0
 41
1.629628571428571
 72
     5
 11
72.03299499999999
 21
162.209714
 31
0.0
100
AcDbText
  0
LINE
  5
AC
330
31
100
AcDbEntity
  8
HAWA1
 62
     2
 48
0.100754
100
AcDbLine
 10
71.157995
 20
155.612897
 30
0.0
 11
71.157995
 21
159.643049
 31
0.0
  0
LINE
  5
AD
330
31
100
AcDbEntity
  8
HAWA1
 62
     2
 48
0.332641
100
AcDbLine
 10
87.147087
 20
106.67761
 30
0.0
 11
73.84144499999999
 21
106.67761
 31
0.0
  0
LINE
  5
AE
330
31
100
AcDbEntity
  8
HAWA1
 62
     2
 48
0.237203
100
AcDbLine
 10
83.32954599999998
 20
197.677617
 30
0.0
 11
73.84144499999999
 21
197.677617
 31
0.0
  0
LINE
  5
AF
330
31
100
AcDbEntity
  8
HAWA1
 62
     2
 48
0.075
100
AcDbLine
 10
75.902106
 20
196.616956
 30
0.0
 11
73.78078499999999
 21
198.738279
 31
0.0
  0
LINE
  5
B0
330
31
100
AcDbEntity
  8
HAWA1
 62
     2
 48
0.075
100
AcDbLine
 10
73.78078499999999
 20
107.738279
 30
0.0
 11
75.902106
 21
105.616956
 31
0.0
  0
LINE
  5
B1
330
31
100
AcDbEntity
  8
HAWA1
 62
     2
100
AcDbLine
 10
74.84144499999999
 20
106.67761
 30
0.0
 11
74.84144499999999
 21
197.677617
 31
0.0
  0
ENDBLK
  5
B2
330
31
100
AcDbEntity
  8
HAWA1
100
AcDbBlockEnd
  0
BLOCK
  5
B3
330
33
100
AcDbEntity
  8
HAWA1
100
AcDbBlockBegin
  2
*D7
 70
     1
 10
0.0
 20
0.0
 30
0.0
  3
*D7
  1

  0
TEXT
  5
B4
330
33
100
AcDbEntity
  8
HAWA1
 62
     2
100
AcDbText
 10
107.738922
 20
123.102681
 30
0.0
 40
3.5
  1
22
 41
1.318353218262253
 72
     5
 11
113.783844
 21
123.102681
 31
0.0
100
AcDbText
  0
TEXT
  5
B5
330
33
100
AcDbEntity
  8
HAWA1
 62
     2
100
AcDbText
 10
116.783844
 20
125.20268
 30
0.0
 40
2.33345
  1
7
 41
1.388291624379827
 72
     5
 11
118.565574
 21
125.20268
 31
0.0
100
AcDbText
  0
TEXT
  5
B6
330
33
100
AcDbEntity
  8
HAWA1
 62
     2
100
AcDbText
 10
116.783844
 20
122.169233
 30
0.0
 40
2.33345
  1
8
 41
1.388291624379827
 72
     5
 11
118.565574
 21
122.169233
 31
0.0
100
AcDbText
  0
TEXT
  5
B7
330
33
100
AcDbEntity
  8
HAWA1
 62
     2
100
AcDbText
 10
118.565574
 20
123.977681
 30
0.0
 40
3.5
  1
"
 41
1.629629206349205
 72
     5
 11
121.13224
 21
123.977681
 31
0.0
100
AcDbText
  0
TEXT
  5
B8
330
33
100
AcDbEntity
  8
HAWA1
 62
     2
100
AcDbText
 10
114.783844
 20
124.352681
 30
0.0
 40
1.0
  1
/
 41
1.818181818181818
 72
     5
 11
115.783844
 21
124.352681
 31
0.0
100
AcDbText
  0
LINE
  5
B9
330
33
100
AcDbEntity
  8
HAWA1
 62
     2
 48
0.044543
100
AcDbLine
 10
116.783844
 20
124.852681
 30
0.0
 11
118.565574
 21
124.852681
 31
0.0
  0
LINE
  5
BA
330
33
100
AcDbEntity
  8
HAWA1
 62
     2
 48
0.075
100
AcDbLine
 10
81.78642700000001
 20
120.108571
 30
0.0
 11
83.907748
 21
122.229894
 31
0.0
  0
LINE
  5
BB
330
33
100
AcDbEntity
  8
HAWA1
 62
     2
 48
0.075
100
AcDbLine
 10
105.907747
 20
122.229894
 30
0.0
 11
103.786427
 21
120.108571
 31
0.0
  0
LINE
  5
BC
330
33
100
AcDbEntity
  8
HAWA1
 62
     2
100
AcDbLine
 10
82.84708700000001
 20
121.169233
 30
0.0
 11
121.13224
 21
121.169233
 31
0.0
  0
ENDBLK
  5
BD
330
33
100
AcDbEntity
  8
HAWA1
100
AcDbBlockEnd
  0
BLOCK
  5
BE
330
35
100
AcDbEntity
  8
HAWA1
100
AcDbBlockBegin
  2
*D8
 70
     1
 10
0.0
 20
0.0
 30
0.0
  3
*D8
  1

  0
TEXT
  5
BF
330
35
100
AcDbEntity
  8
HAWA1
 62
     2
100
AcDbText
 10
107.843128
 20
144.939878
 30
0.0
 40
3.5
  1
6
 41
1.273436540662217
 72
     5
 11
110.51559
 21
144.939878
 31
0.0
100
AcDbText
  0
TEXT
  5
C0
330
35
100
AcDbEntity
  8
HAWA1
 62
     2
100
AcDbText
 10
113.51559
 20
147.039876
 30
0.0
 40
2.33345
  1
1
 41
2.181602348454015
 72
     5
 11
115.297321
 21
147.039876
 31
0.0
100
AcDbText
  0
TEXT
  5
C1
330
35
100
AcDbEntity
  8
HAWA1
 62
     2
100
AcDbText
 10
113.51559
 20
144.006429
 30
0.0
 40
2.33345
  1
4
 41
1.174708956859854
 72
     5
 11
115.297321
 21
144.006429
 31
0.0
100
AcDbText
  0
TEXT
  5
C2
330
35
100
AcDbEntity
  8
HAWA1
 62
     2
100
AcDbText
 10
115.297321
 20
145.814878
 30
0.0
 40
3.5
  1
"
 41
1.629629206349214
 72
     5
 11
117.863987
 21
145.814878
 31
0.0
100
AcDbText
  0
TEXT
  5
C3
330
35
100
AcDbEntity
  8
HAWA1
 62
     2
100
AcDbText
 10
111.51559
 20
146.189878
 30
0.0
 40
1.0
  1
/
 41
1.818181818181818
 72
     5
 11
112.51559
 21
146.189878
 31
0.0
100
AcDbText
  0
LINE
  5
C4
330
35
100
AcDbEntity
  8
HAWA1
 62
     2
 48
0.044543
100
AcDbLine
 10
113.51559
 20
146.689878
 30
0.0
 11
115.297319
 21
146.689878
 31
0.0
  0
LINE
  5
C5
330
35
100
AcDbEntity
  8
HAWA1
 62
     2
 48
0.075
100
AcDbLine
 10
99.907748
 20
144.0670899999999
 30
0.0
 11
97.786427
 21
141.945768
 31
0.0
  0
LINE
  5
C6
330
35
100
AcDbEntity
  8
HAWA1
 62
     2
 48
0.075
100
AcDbLine
 10
103.786427
 20
141.945768
 30
0.0
 11
105.907747
 21
144.0670899999999
 31
0.0
  0
LINE
  5
C7
330
35
100
AcDbEntity
  8
HAWA1
 62
     2
 48
0.4754220000000001
100
AcDbLine
 10
98.847087
 20
143.006429
 30
0.0
 11
117.863987
 21
143.006429
 31
0.0
  0
ENDBLK
  5
C8
330
35
100
AcDbEntity
  8
HAWA1
100
AcDbBlockEnd
  0
BLOCK
  5
C9
330
37
100
AcDbEntity
  8
HAWA1
100
AcDbBlockBegin
  2
*D9
 70
     1
 10
0.0
 20
0.0
 30
0.0
  3
*D9
  1

  0
TEXT
  5
CA
330
37
100
AcDbEntity
  8
HAWA1
 62
     2
100
AcDbText
 10
99.824809
 20
84.83273100000001
 30
0.0
 40
3.5
  1
10
 41
1.64364415564952
 72
     5
 11
105.869731
 21
84.83273100000001
 31
0.0
100
AcDbText
  0
TEXT
  5
CB
330
37
100
AcDbEntity
  8
HAWA1
 62
     2
100
AcDbText
 10
108.869731
 20
86.932737
 30
0.0
 40
2.33345
  1
13
 41
1.582451758019543
 72
     5
 11
112.899883
 21
86.932737
 31
0.0
100
AcDbText
  0
TEXT
  5
CC
330
37
100
AcDbEntity
  8
HAWA1
 62
     2
100
AcDbText
 10
108.869731
 20
83.89928899999999
 30
0.0
 40
2.33345
  1
32
 41
1.318354036919422
 72
     5
 11
112.899883
 21
83.89928899999999
 31
0.0
100
AcDbText
  0
TEXT
  5
CD
330
37
100
AcDbEntity
  8
HAWA1
 62
     2
100
AcDbText
 10
112.899883
 20
85.70773100000002
 30
0.0
 40
3.5
  1
"
 41
1.629628571428571
 72
     5
 11
115.466548
 21
85.70773100000002
 31
0.0
100
AcDbText
  0
TEXT
  5
CE
330
37
100
AcDbEntity
  8
HAWA1
 62
     2
100
AcDbText
 10
106.869731
 20
86.08273100000001
 30
0.0
 40
1.0
  1
/
 41
1.818181818181818
 72
     5
 11
107.869731
 21
86.08273100000001
 31
0.0
100
AcDbText
  0
LINE
  5
CF
330
37
100
AcDbEntity
  8
HAWA1
 62
     2
 48
0.100754
100
AcDbLine
 10
108.869731
 20
86.582731
 30
0.0
 11
112.899883
 21
86.582731
 31
0.0
  0
LINE
  5
D0
330
37
100
AcDbEntity
  8
HAWA1
 62
     2
 48
0.075
100
AcDbLine
 10
87.786427
 20
81.83861999999999
 30
0.0
 11
89.907748
 21
83.95994300000001
 31
0.0
  0
LINE
  5
D1
330
37
100
AcDbEntity
  8
HAWA1
 62
     2
 48
0.075
100
AcDbLine
 10
99.907748
 20
83.95994300000001
 30
0.0
 11
97.786427
 21
81.83861999999999
 31
0.0
  0
LINE
  5
D2
330
37
100
AcDbEntity
  8
HAWA1
 62
     2
100
AcDbLine
 10
88.847087
 20
82.89928899999999
 30
0.0
 11
115.46655
 21
82.89928899999999
 31
0.0
  0
ENDBLK
  5
D3
330
37
100
AcDbEntity
  8
HAWA1
100
AcDbBlockEnd
  0
BLOCK
  5
D4
330
39
100
AcDbEntity
  8
HAWA1
100
AcDbBlockBegin
  2
*D10
 70
     1
 10
0.0
 20
0.0
 30
0.0
  3
*D10
  1

  0
TEXT
  5
D5
330
39
100
AcDbEntity
  8
HAWA1
 62
     2
100
AcDbText
 10
118.426315
 20
84.83273100000001
 30
0.0
 40
3.5
  1
8
 41
1.388291948051953
 72
     5
 11
121.098777
 21
84.83273100000001
 31
0.0
100
AcDbText
  0
TEXT
  5
D6
330
39
100
AcDbEntity
  8
HAWA1
 62
     2
100
AcDbText
 10
125.222988
 20
86.932737
 30
0.0
 40
2.33345
  1
5
 41
1.291059893857678
 72
     5
 11
127.004718
 21
86.932737
 31
0.0
100
AcDbText
  0
TEXT
  5
D7
330
39
100
AcDbEntity
  8
HAWA1
 62
     2
100
AcDbText
 10
124.098777
 20
83.89928899999999
 30
0.0
 40
2.33345
  1
16
 41
1.57067274455826
 72
     5
 11
128.128929
 21
83.89928899999999
 31
0.0
100
AcDbText
  0
TEXT
  5
D8
330
39
100
AcDbEntity
  8
HAWA1
 62
     2
100
AcDbText
 10
128.128929
 20
85.70773100000002
 30
0.0
 40
3.5
  1
"
 41
1.629628571428571
 72
     5
 11
130.695594
 21
85.70773100000002
 31
0.0
100
AcDbText
  0
TEXT
  5
D9
330
39
100
AcDbEntity
  8
HAWA1
 62
     2
100
AcDbText
 10
115.79071
 20
84.83273100000001
 30
0.0
 40
3.5
  1
(
 41
1.869262857142838
 72
     5
 11
117.426315
 21
84.83273100000001
 31
0.0
100
AcDbText
  0
TEXT
  5
DA
330
39
100
AcDbEntity
  8
HAWA1
 62
     2
100
AcDbText
 10
122.098777
 20
86.08273100000001
 30
0.0
 40
1.0
  1
/
 41
1.818181818181818
 72
     5
 11
123.098777
 21
86.08273100000001
 31
0.0
100
AcDbText
  0
LINE
  5
DB
330
39
100
AcDbEntity
  8
HAWA1
 62
     2
 48
0.100754
100
AcDbLine
 10
124.098777
 20
86.582731
 30
0.0
 11
128.128929
 21
86.582731
 31
0.0
  0
LINE
  5
DC
330
39
100
AcDbEntity
  8
HAWA1
 62
     2
 48
0.075
100
AcDbLine
 10
99.907748
 20
83.95994300000001
 30
0.0
 11
97.786427
 21
81.83861999999999
 31
0.0
  0
LINE
  5
DD
330
39
100
AcDbEntity
  8
HAWA1
 62
     2
 48
0.075
100
AcDbLine
 10
87.786427
 20
81.83861999999999
 30
0.0
 11
89.907748
 21
83.95994300000001
 31
0.0
  0
LINE
  5
DE
330
39
100
AcDbEntity
  8
HAWA1
 62
     2
100
AcDbLine
 10
88.847087
 20
82.89928899999999
 30
0.0
 11
130.695594
 21
82.89928899999999
 31
0.0
  0
ENDBLK
  5
DF
330
39
100
AcDbEntity
  8
HAWA1
100
AcDbBlockEnd
  0
BLOCK
  5
E0
330
3B
100
AcDbEntity
  8
HAWA1
100
AcDbBlockBegin
  2
*D11
 70
     1
 10
0.0
 20
0.0
 30
0.0
  3
*D11
  1

  0
TEXT
  5
E1
330
3B
100
AcDbEntity
  8
HAWA1
 62
     2
100
AcDbText
 10
134.897655
 20
84.83273100000001
 30
0.0
 40
3.5
  1
12.7
 41
1.595983275261323
 72
     5
 11
146.348835
 21
84.83273100000001
 31
0.0
100
AcDbText
  0
TEXT
  5
E2
330
3B
100
AcDbEntity
  8
HAWA1
 62
     2
100
AcDbText
 10
149.348835
 20
86.932737
 30
0.0
 40
2.33345
  1
1
 41
2.181601124025408
 72
     5
 11
151.130565
 21
86.932737
 31
0.0
100
AcDbText
  0
TEXT
  5
E3
330
3B
100
AcDbEntity
  8
HAWA1
 62
     2
100
AcDbText
 10
149.348835
 20
83.89928899999999
 30
0.0
 40
2.33345
  1
2
 41
1.251617178702583
 72
     5
 11
151.130565
 21
83.89928899999999
 31
0.0
100
AcDbText
  0
TEXT
  5
E4
330
3B
100
AcDbEntity
  8
HAWA1
 62
     2
100
AcDbText
 10
151.130565
 20
85.70773100000002
 30
0.0
 40
3.5
  1
"
 41
1.629629206349223
 72
     5
 11
153.697231
 21
85.70773100000002
 31
0.0
100
AcDbText
  0
TEXT
  5
E5
330
3B
100
AcDbEntity
  8
HAWA1
 62
     2
100
AcDbText
 10
132.378875
 20
84.83273100000001
 30
0.0
 40
3.5
  1
-
 41
0.7889745454545468
 72
     5
 11
133.897651
 21
84.83273100000001
 31
0.0
100
AcDbText
  0
TEXT
  5
E6
330
3B
100
AcDbEntity
  8
HAWA1
 62
     2
100
AcDbText
 10
147.348835
 20
86.08273100000001
 30
0.0
 40
1.0
  1
/
 41
1.818181818181818
 72
     5
 11
148.348835
 21
86.08273100000001
 31
0.0
100
AcDbText
  0
TEXT
  5
E7
330
3B
100
AcDbEntity
  8
HAWA1
 62
     2
100
AcDbText
 10
154.697231
 20
84.83273100000001
 30
0.0
 40
3.5
  1
)
 41
1.87221122127084
 72
     5
 11
156.332836
 21
84.83273100000001
 31
0.0
100
AcDbText
  0
LINE
  5
E8
330
3B
100
AcDbEntity
  8
HAWA1
 62
     2
 48
0.044543
100
AcDbLine
 10
149.348835
 20
86.582731
 30
0.0
 11
151.130565
 21
86.582731
 31
0.0
  0
LINE
  5
E9
330
3B
100
AcDbEntity
  8
HAWA1
 62
     2
 48
0.075
100
AcDbLine
 10
99.907748
 20
83.95994300000001
 30
0.0
 11
97.786427
 21
81.83861999999999
 31
0.0
  0
LINE
  5
EA
330
3B
100
AcDbEntity
  8
HAWA1
 62
     2
 48
0.075
100
AcDbLine
 10
87.786427
 20
81.83861999999999
 30
0.0
 11
89.907748
 21
83.95994300000001
 31
0.0
  0
LINE
  5
EB
330
3B
100
AcDbEntity
  8
HAWA1
 62
     2
100
AcDbLine
 10
88.847087
 20
82.89928899999999
 30
0.0
 11
156.332836
 21
82.89928899999999
 31
0.0
  0
ENDBLK
  5
EC
330
3B
100
AcDbEntity
  8
HAWA1
100
AcDbBlockEnd
  0
BLOCK
  5
ED
330
3D
100
AcDbEntity
  8
HAWA1
100
AcDbBlockBegin
  2
*D12
 70
     1
 10
0.0
 20
0.0
 30
0.0
  3
*D12
  1

  0
TEXT
  5
EE
330
3D
100
AcDbEntity
  8
HAWA1
 62
     2
100
AcDbText
 10
103.476543
 20
255.8409
 30
0.0
 40
3.5
  1
5.3
 41
1.450405139555958
 72
     5
 11
111.555263
 21
255.8409
 31
0.0
100
AcDbText
  0
TEXT
  5
EF
330
3D
100
AcDbEntity
  8
HAWA1
 62
     2
100
AcDbText
 10
98.97654200000001
 20
255.8409
 30
0.0
 40
3.5
  1
%%c
 41
1.333333333333332
 72
     5
 11
102.476542
 21
255.8409
 31
0.0
100
AcDbText
  0
TEXT
  5
F0
330
3D
100
AcDbEntity
  8
HAWA1
 62
     2
100
AcDbText
 10
115.679473
 20
257.9409
 30
0.0
 40
2.33345
  1
7
 41
1.388292403561645
 72
     5
 11
117.461204
 21
257.9409
 31
0.0
100
AcDbText
  0
TEXT
  5
F1
330
3D
100
AcDbEntity
  8
HAWA1
 62
     2
100
AcDbText
 10
114.555263
 20
254.90745
 30
0.0
 40
2.33345
  1
32
 41
1.318353709796764
 72
     5
 11
118.585414
 21
254.90745
 31
0.0
100
AcDbText
  0
TEXT
  5
F2
330
3D
100
AcDbEntity
  8
HAWA1
 62
     2
100
AcDbText
 10
118.585414
 20
256.7159
 30
0.0
 40
3.5
  1
"
 41
1.629629206349214
 72
     5
 11
121.15208
 21
256.7159
 31
0.0
100
AcDbText
  0
TEXT
  5
F3
330
3D
100
AcDbEntity
  8
HAWA1
 62
     2
100
AcDbText
 10
112.555263
 20
257.0909
 30
0.0
 40
1.0
  1
/
 41
1.818181818181818
 72
     5
 11
113.555263
 21
257.0909
 31
0.0
100
AcDbText
  0
LINE
  5
F4
330
3D
100
AcDbEntity
  8
HAWA1
 62
     2
 48
0.100754
100
AcDbLine
 10
114.555263
 20
257.5909
 30
0.0
 11
118.585414
 21
257.5909
 31
0.0
  0
LINE
  5
F5
330
3D
100
AcDbEntity
  8
HAWA1
 62
     2
 48
0.280746
100
AcDbLine
 10
91.197087
 20
243.677616
 30
0.0
 11
91.197087
 21
254.90745
 31
0.0
  0
LINE
  5
F6
330
3D
100
AcDbEntity
  8
HAWA1
 62
     2
 48
0.280746
100
AcDbLine
 10
96.49708699999999
 20
243.677616
 30
0.0
 11
96.49708699999999
 21
254.90745
 31
0.0
  0
LINE
  5
F7
330
3D
100
AcDbEntity
  8
HAWA1
 62
     2
 48
0.075
100
AcDbLine
 10
95.43642699999999
 20
252.84679
 30
0.0
 11
97.55774699999999
 21
254.96811
 31
0.0
  0
LINE
  5
F8
330
3D
100
AcDbEntity
  8
HAWA1
 62
     2
 48
0.075
100
AcDbLine
 10
92.25774799999999
 20
254.96811
 30
0.0
 11
90.136427
 21
252.84679
 31
0.0
  0
LINE
  5
F9
330
3D
100
AcDbEntity
  8
HAWA1
 62
     2
100
AcDbLine
 10
91.197087
 20
253.90745
 30
0.0
 11
121.15208
 21
253.90745
 31
0.0
  0
ENDBLK
  5
FA
330
3D
100
AcDbEntity
  8
HAWA1
100
AcDbBlockEnd
  0
BLOCK
  5
FB
330
53
100
AcDbEntity
  8
HAWA1
100
AcDbBlockBegin
  2
BLOCK0
 70
     0
 10
0.0
 20
0.0
 30
0.0
  3
BLOCK0
  1

  0
LINE
  5
FC
330
53
100
AcDbEntity
  8
Hawa6
  6
DASHSPACE
 62
     3
 48
0.10075
100
AcDbLine
 10
7.014999999999999
 20
-85.509239
 30
0.0
 11
2.984999999999999
 21
-85.509239
 31
0.0
  0
LINE
  5
FD
330
53
100
AcDbEntity
  8
Hawa6
  6
DASHSPACE
 62
     3
 48
0.10075
100
AcDbLine
 10
5.0
 20
-83.49424
 30
0.0
 11
5.0
 21
-87.524239
 31
0.0
  0
ENDBLK
  5
FE
330
53
100
AcDbEntity
  8
HAWA1
100
AcDbBlockEnd
  0
BLOCK
  5
FF
330
54
100
AcDbEntity
  8
HAWA1
100
AcDbBlockBegin
  2
BLOCK1
 70
     0
 10
0.0
 20
0.0
 30
0.0
  3
BLOCK1
  1

  0
LINE
  5
100
330
54
100
AcDbEntity
  8
Hawa5
  6
PHANTOM
 62
     1
 48
0.25
100
AcDbLine
 10
10.0
 20
-173.259247
 30
0.0
 11
0.0
 21
-173.259247
 31
0.0
  0
LINE
  5
101
330
54
100
AcDbEntity
  8
Hawa5
 62
     1
100
AcDbLine
 10
0.0
 20
-130.759247
 30
0.0
 11
0.0
 21
-173.259247
 31
0.0
  0
LINE
  5
102
330
54
100
AcDbEntity
  8
Hawa5
 62
     1
 48
0.035355
100
AcDbLine
 10
1.0
 20
-129.759247
 30
0.0
 11
0.0
 21
-130.759247
 31
0.0
  0
LINE
  5
103
330
54
100
AcDbEntity
  8
Hawa5
 62
     1
 48
0.2
100
AcDbLine
 10
1.0
 20
-129.759247
 30
0.0
 11
9.0
 21
-129.759247
 31
0.0
  0
LINE
  5
104
330
54
100
AcDbEntity
  8
Hawa5
 62
     1
 48
0.035355
100
AcDbLine
 10
9.0
 20
-129.759247
 30
0.0
 11
10.0
 21
-130.759247
 31
0.0
  0
LINE
  5
105
330
54
100
AcDbEntity
  8
Hawa5
 62
     1
100
AcDbLine
 10
10.0
 20
-141.259247
 30
0.0
 11
10.0
 21
-173.259247
 31
0.0
  0
LINE
  5
106
330
54
100
AcDbEntity
  8
Hawa6
 62
     3
 48
0.099145
100
AcDbLine
 10
0.0
 20
-101.092056
 30
0.0
 11
0.0
 21
-97.126274
 31
0.0
  0
LINE
  5
107
330
54
100
AcDbEntity
  8
Hawa6
 62
     3
 48
0.253195
100
AcDbLine
 10
0.0
 20
-111.219849
 30
0.0
 11
0.0
 21
-101.092056
 31
0.0
  0
LINE
  5
108
330
54
100
AcDbEntity
  8
Hawa6
 62
     3
 48
0.125
100
AcDbLine
 10
0.0
 20
-130.759247
 30
0.0
 11
0.0
 21
-125.759239
 31
0.0
  0
LINE
  5
109
330
54
100
AcDbEntity
  8
Hawa6
 62
     3
 48
0.113485
100
AcDbLine
 10
0.0
 20
-115.759247
 30
0.0
 11
0.0
 21
-111.219849
 31
0.0
  0
LINE
  5
10A
330
54
100
AcDbEntity
  8
Hawa5
 62
     1
 48
0.058179
100
AcDbLine
 10
1.0
 20
-100.086357
 30
0.0
 11
1.0
 21
-97.759186
 31
0.0
  0
LINE
  5
10B
330
54
100
AcDbEntity
  8
Hawa5
 62
     1
 48
0.015776
100
AcDbLine
 10
0.0
 20
-101.092056
 30
0.0
 11
0.468682
 21
-100.669525
 31
0.0
  0
LINE
  5
10C
330
54
100
AcDbEntity
  8
Hawa5
 62
     1
 48
0.019723
100
AcDbLine
 10
0.468682
 20
-100.669525
 30
0.0
 11
1.0
 21
-100.086357
 31
0.0
  0
LINE
  5
10D
330
54
100
AcDbEntity
  8
Hawa5
 62
     1
 48
0.202977
100
AcDbLine
 10
1.0
 20
-109.459244
 30
0.0
 11
1.0
 21
-101.340149
 31
0.0
  0
LINE
  5
10E
330
54
100
AcDbEntity
  8
Hawa5
 62
     1
 48
0.02139
100
AcDbLine
 10
1.0
 20
-101.340149
 30
0.0
 11
0.468682
 21
-100.669525
 31
0.0
  0
LINE
  5
10F
330
54
100
AcDbEntity
  8
Hawa6
 62
     3
 48
0.003129
100
AcDbLine
 10
0.0
 20
-111.219849
 30
0.0
 11
0.10077
 21
-111.294083
 31
0.0
  0
LINE
  5
110
330
54
100
AcDbEntity
  8
Hawa6
 62
     3
 48
0.002501
100
AcDbLine
 10
1.0
 20
-129.759247
 30
0.0
 11
1.0
 21
-129.659225
 31
0.0
  0
LINE
  5
111
330
54
100
AcDbEntity
  8
Hawa5
 62
     1
 48
0.2
100
AcDbLine
 10
1.0
 20
-100.086357
 30
0.0
 11
9.0
 21
-100.086357
 31
0.0
  0
LINE
  5
112
330
54
100
AcDbEntity
  8
Hawa5
 62
     1
 48
0.058179
100
AcDbLine
 10
9.0
 20
-100.086357
 30
0.0
 11
9.0
 21
-97.759186
 31
0.0
  0
LINE
  5
113
330
54
100
AcDbEntity
  8
Hawa5
 62
     1
 48
0.2
100
AcDbLine
 10
1.0
 20
-101.340149
 30
0.0
 11
9.0
 21
-101.340149
 31
0.0
  0
LINE
  5
114
330
54
100
AcDbEntity
  8
Hawa5
 62
     1
 48
0.02139
100
AcDbLine
 10
9.0
 20
-101.340149
 30
0.0
 11
9.531317999999998
 21
-100.669525
 31
0.0
  0
LINE
  5
115
330
54
100
AcDbEntity
  8
Hawa5
 62
     1
 48
0.019723
100
AcDbLine
 10
9.531317999999998
 20
-100.669525
 30
0.0
 11
9.0
 21
-100.086357
 31
0.0
  0
LINE
  5
116
330
54
100
AcDbEntity
  8
Hawa5
 62
     1
 48
0.202977
100
AcDbLine
 10
9.0
 20
-109.459244
 30
0.0
 11
9.0
 21
-101.340149
 31
0.0
  0
LINE
  5
117
330
54
100
AcDbEntity
  8
Hawa6
 62
     3
 48
0.002501
100
AcDbLine
 10
9.0
 20
-129.759247
 30
0.0
 11
9.0
 21
-129.659225
 31
0.0
  0
LINE
  5
118
330
54
100
AcDbEntity
  8
Hawa5
 62
     1
 48
0.015776
100
AcDbLine
 10
9.531317999999998
 20
-100.669525
 30
0.0
 11
10.0
 21
-101.092056
 31
0.0
  0
LINE
  5
119
330
54
100
AcDbEntity
  8
Hawa6
 62
     3
 48
0.006219
100
AcDbLine
 10
9.8
 20
-111.367752
 30
0.0
 11
10.0
 21
-111.219849
 31
0.0
  0
LINE
  5
11A
330
54
100
AcDbEntity
  8
Hawa6
  6
DASHSPACE
 62
     3
 48
0.08
100
AcDbLine
 10
3.2
 20
-52.259239
 30
0.0
 11
-0.00001
 21
-52.259239
 31
0.0
  0
LINE
  5
11B
330
54
100
AcDbEntity
  8
Hawa6
  6
DASHSPACE
 62
     3
100
AcDbLine
 10
3.2
 20
-52.259239
 30
0.0
 11
3.2
 21
-72.75923900000001
 31
0.0
  0
LINE
  5
11C
330
54
100
AcDbEntity
  8
Hawa6
  6
DASHSPACE
 62
     3
100
AcDbLine
 10
3.2
 20
-95.75923900000001
 30
0.0
 11
3.2
 21
-72.75923900000001
 31
0.0
  0
LINE
  5
11D
330
54
100
AcDbEntity
  8
Hawa6
  6
DASHSPACE
 62
     3
 48
0.09
100
AcDbLine
 10
3.2
 20
-70.234238
 30
0.0
 11
6.799995
 21
-70.234238
 31
0.0
  0
LINE
  5
11E
330
54
100
AcDbEntity
  8
Hawa6
  6
DASHSPACE
 62
     3
 48
0.09
100
AcDbLine
 10
3.2
 20
-79.884239
 30
0.0
 11
6.799996000000001
 21
-79.884239
 31
0.0
  0
LINE
  5
11F
330
54
100
AcDbEntity
  8
Hawa6
  6
DASHSPACE
 62
     3
 48
0.0025
100
AcDbLine
 10
-0.000018
 20
-115.759239
 30
0.0
 11
0.099995
 21
-115.759239
 31
0.0
  0
LINE
  5
120
330
54
100
AcDbEntity
  8
Hawa6
  6
DASHSPACE
 62
     3
 48
0.0025
100
AcDbLine
 10
-0.000013
 20
-125.759239
 30
0.0
 11
0.099995
 21
-125.759239
 31
0.0
  0
LINE
  5
121
330
54
100
AcDbEntity
  8
Hawa6
 62
     3
100
AcDbLine
 10
0.0
 20
-133.559601
 30
0.0
 11
0.0
 21
-109.222931
 31
0.0
  0
LINE
  5
122
330
54
100
AcDbEntity
  8
Hawa6
  6
DASHSPACE
 62
     3
 48
0.175
100
AcDbLine
 10
3.2
 20
-95.75923900000001
 30
0.0
 11
3.2
 21
-88.75923900000001
 31
0.0
  0
LINE
  5
123
330
54
100
AcDbEntity
  8
Hawa6
  6
DASHSPACE
 62
     3
 48
0.0625
100
AcDbLine
 10
0.2
 20
-52.259239
 30
0.0
 11
2.7
 21
-52.259239
 31
0.0
  0
LINE
  5
124
330
54
100
AcDbEntity
  8
Hawa6
  6
DASHSPACE
 62
     3
 48
0.0125
100
AcDbLine
 10
3.2
 20
-52.259239
 30
0.0
 11
2.7
 21
-52.259239
 31
0.0
  0
LINE
  5
125
330
54
100
AcDbEntity
  8
Hawa6
  6
DASHSPACE
 62
     3
 48
0.005
100
AcDbLine
 10
0.2
 20
-52.259239
 30
0.0
 11
0.0
 21
-52.259239
 31
0.0
  0
LINE
  5
126
330
54
100
AcDbEntity
  8
Hawa6
  6
DASHSPACE
 62
     3
100
AcDbLine
 10
0.0
 20
-52.259239
 30
0.0
 11
0.0
 21
-109.222931
 31
0.0
  0
LINE
  5
127
330
54
100
AcDbEntity
  8
Hawa6
  6
DASHSPACE
 62
     3
100
AcDbLine
 10
3.2
 20
-52.259239
 30
0.0
 11
3.2
 21
-72.87942499999999
 31
0.0
  0
LINE
  5
128
330
54
100
AcDbEntity
  8
Hawa6
  6
DASHSPACE
 62
     3
100
AcDbLine
 10
3.2
 20
-97.470566
 30
0.0
 11
3.2
 21
-72.87942499999999
 31
0.0
  0
LINE
  5
129
330
54
100
AcDbEntity
  8
Hawa6
  6
DASHSPACE
 62
     3
 48
0.116335
100
AcDbLine
 10
0.2
 20
-56.91263199999999
 30
0.0
 11
0.2
 21
-52.259239
 31
0.0
  0
LINE
  5
12A
330
54
100
AcDbEntity
  8
Hawa6
  6
DASHSPACE
 62
     3
100
AcDbLine
 10
2.7
 20
-52.259239
 30
0.0
 11
2.7
 21
-72.880829
 31
0.0
  0
LINE
  5
12B
330
54
100
AcDbEntity
  8
Hawa6
  6
DASHSPACE
 62
     3
 48
0.399205
100
AcDbLine
 10
0.2
 20
-72.880829
 30
0.0
 11
0.2
 21
-56.91263199999999
 31
0.0
  0
LINE
  5
12C
330
54
100
AcDbEntity
  8
Hawa6
  6
DASHSPACE
 62
     3
 48
0.0625
100
AcDbLine
 10
0.2
 20
-72.880829
 30
0.0
 11
2.7
 21
-72.880829
 31
0.0
  0
LINE
  5
12D
330
54
100
AcDbEntity
  8
Hawa6
  6
DASHSPACE
 62
     3
 48
0.0125
100
AcDbLine
 10
2.7
 20
-72.880829
 30
0.0
 11
3.2
 21
-72.87942499999999
 31
0.0
  0
LINE
  5
12E
330
54
100
AcDbEntity
  8
Hawa6
  6
DASHSPACE
 62
     3
100
AcDbLine
 10
2.7
 20
-97.75923900000002
 30
0.0
 11
2.7
 21
-72.880829
 31
0.0
  0
LINE
  5
12F
330
54
100
AcDbEntity
  8
Hawa6
  6
DASHSPACE
 62
     3
100
AcDbLine
 10
0.2
 20
-97.75923900000002
 30
0.0
 11
0.2
 21
-72.880829
 31
0.0
  0
LINE
  5
130
330
54
100
AcDbEntity
  8
Hawa6
  6
DASHSPACE
 62
     3
 48
0.005
100
AcDbLine
 10
0.2
 20
-72.75923900000001
 30
0.0
 11
0.0
 21
-72.75923900000001
 31
0.0
  0
LINE
  5
131
330
54
100
AcDbEntity
  8
Hawa6
  6
DASHSPACE
 62
     3
 48
0.014434
100
AcDbLine
 10
3.2
 20
-97.470566
 30
0.0
 11
2.7
 21
-97.75923900000002
 31
0.0
  0
LINE
  5
132
330
54
100
AcDbEntity
  8
Hawa6
  6
DASHSPACE
 62
     3
 48
0.0625
100
AcDbLine
 10
0.2
 20
-97.75923900000002
 30
0.0
 11
2.7
 21
-97.75923900000002
 31
0.0
  0
LINE
  5
133
330
54
100
AcDbEntity
  8
Hawa6
  6
DASHSPACE
 62
     3
 48
0.005
100
AcDbLine
 10
-0.000019
 20
-97.126274
 30
0.0
 11
0.2
 21
-97.126274
 31
0.0
  0
LINE
  5
134
330
54
100
AcDbEntity
  8
Hawa6
  6
DASHSPACE
 62
     3
 48
0.09
100
AcDbLine
 10
6.799999999999999
 20
-82.25923900000001
 30
0.0
 11
3.199990999999999
 21
-82.25923900000001
 31
0.0
  0
LINE
  5
135
330
54
100
AcDbEntity
  8
Hawa6
  6
DASHSPACE
 62
     3
 48
0.007501
100
AcDbLine
 10
-0.00002
 20
-52.259239
 30
0.0
 11
0.3
 21
-52.259239
 31
0.0
  0
LINE
  5
136
330
54
100
AcDbEntity
  8
Hawa6
  6
DASHSPACE
 62
     3
 48
0.1625
100
AcDbLine
 10
6.799999999999999
 20
-52.259239
 30
0.0
 11
0.3
 21
-52.259239
 31
0.0
  0
LINE
  5
137
330
54
100
AcDbEntity
  8
Hawa6
  6
DASHSPACE
 62
     3
 48
0.08
100
AcDbLine
 10
9.999989999999998
 20
-52.259239
 30
0.0
 11
6.799999999999999
 21
-52.259239
 31
0.0
  0
LINE
  5
138
330
54
100
AcDbEntity
  8
Hawa6
  6
DASHSPACE
 62
     3
 48
0.09
100
AcDbLine
 10
6.799999999999999
 20
-53.759239
 30
0.0
 11
3.199988999999999
 21
-53.759239
 31
0.0
  0
LINE
  5
139
330
54
100
AcDbEntity
  8
Hawa6
  6
DASHSPACE
 62
     3
 48
0.09
100
AcDbLine
 10
6.799999999999999
 20
-55.759239
 30
0.0
 11
3.199990999999999
 21
-55.759239
 31
0.0
  0
LINE
  5
13A
330
54
100
AcDbEntity
  8
Hawa6
  6
DASHSPACE
 62
     3
 48
0.09
100
AcDbLine
 10
6.799999999999999
 20
-69.75923900000001
 30
0.0
 11
3.199990999999999
 21
-69.75923900000001
 31
0.0
  0
LINE
  5
13B
330
54
100
AcDbEntity
  8
Hawa6
  6
DASHSPACE
 62
     3
 48
0.021651
100
AcDbLine
 10
6.799999999999999
 20
-52.259239
 30
0.0
 11
7.666025999999999
 21
-52.259239
 31
0.0
  0
LINE
  5
13C
330
54
100
AcDbEntity
  8
Hawa6
  6
DASHSPACE
 62
     3
 48
0.053349
100
AcDbLine
 10
9.8
 20
-52.259239
 30
0.0
 11
7.666025999999999
 21
-52.259239
 31
0.0
  0
LINE
  5
13D
330
54
100
AcDbEntity
  8
Hawa6
  6
DASHSPACE
 62
     3
 48
0.005
100
AcDbLine
 10
9.8
 20
-52.259239
 30
0.0
 11
10.0
 21
-52.259239
 31
0.0
  0
LINE
  5
13E
330
54
100
AcDbEntity
  8
Hawa6
  6
DASHSPACE
 62
     3
100
AcDbLine
 10
6.799999999999999
 20
-72.878395
 30
0.0
 11
6.799999999999999
 21
-97.25923900000001
 31
0.0
  0
LINE
  5
13F
330
54
100
AcDbEntity
  8
Hawa6
  6
DASHSPACE
 62
     3
100
AcDbLine
 10
6.799999999999999
 20
-72.878395
 30
0.0
 11
6.799999999999999
 21
-52.259239
 31
0.0
  0
LINE
  5
140
330
54
100
AcDbEntity
  8
Hawa6
  6
DASHSPACE
 62
     3
 48
0.021651
100
AcDbLine
 10
6.799999999999999
 20
-72.878395
 30
0.0
 11
7.666025999999999
 21
-72.880829
 31
0.0
  0
LINE
  5
141
330
54
100
AcDbEntity
  8
Hawa6
  6
DASHSPACE
 62
     3
100
AcDbLine
 10
7.666025999999999
 20
-72.880829
 30
0.0
 11
7.666025999999999
 21
-52.259239
 31
0.0
  0
LINE
  5
142
330
54
100
AcDbEntity
  8
Hawa6
  6
DASHSPACE
 62
     3
100
AcDbLine
 10
7.666025999999999
 20
-72.880829
 30
0.0
 11
7.666025999999999
 21
-97.75923900000002
 31
0.0
  0
LINE
  5
143
330
54
100
AcDbEntity
  8
Hawa6
  6
DASHSPACE
 62
     3
 48
0.005
100
AcDbLine
 10
9.8
 20
-72.880829
 30
0.0
 11
10.0
 21
-72.880829
 31
0.0
  0
LINE
  5
144
330
54
100
AcDbEntity
  8
Hawa6
  6
DASHSPACE
 62
     3
 48
0.053349
100
AcDbLine
 10
9.8
 20
-72.880829
 30
0.0
 11
7.666025999999999
 21
-72.880829
 31
0.0
  0
LINE
  5
145
330
54
100
AcDbEntity
  8
Hawa6
  6
DASHSPACE
 62
     3
 48
0.025
100
AcDbLine
 10
6.799999999999999
 20
-97.25923900000001
 30
0.0
 11
7.666025999999999
 21
-97.75923900000002
 31
0.0
  0
LINE
  5
146
330
54
100
AcDbEntity
  8
Hawa6
  6
DASHSPACE
 62
     3
 48
0.058349
100
AcDbLine
 10
9.999974999999999
 20
-97.75923900000002
 30
0.0
 11
7.666025999999999
 21
-97.75923900000002
 31
0.0
  0
LWPOLYLINE
  5
147
330
54
100
AcDbEntity
  8
Hawa6
  6
DASHED
 62
     3
100
AcDbPolyline
 90
        8
 70
     0
 43
0.0
 10
12.655022
 20
-119.003586
 10
12.659935
 20
-118.931862
 10
12.670885
 20
-118.859169
 10
12.688157
 20
-118.784729
 10
12.712222
 20
-118.707642
 10
12.743763
 20
-118.62693
 10
12.783711
 20
-118.541458
 10
12.833333
 20
-118.449837
  0
LWPOLYLINE
  5
151
330
54
100
AcDbEntity
  8
Hawa6
  6
DASHED
 62
     3
100
AcDbPolyline
 90
       23
 70
     0
 43
0.0
 10
12.833333
 20
-119.604538
 10
12.800214
 20
-119.5448
 10
12.769406
 20
-119.483856
 10
12.744476
 20
-119.429115
 10
12.721926
 20
-119.373352
 10
12.703845
 20
-119.322037
 10
12.688229
 20
-119.26992
 10
12.676138
 20
-119.220772
 10
12.666592
 20
-119.171066
 10
12.660003
 20
-119.123116
 10
12.656013
 20
-119.074875
 10
12.654702
 20
-119.027245
 10
12.656006
 20
-118.979614
 10
12.659984
 20
-118.931435
 10
12.666553
 20
-118.883537
 10
12.676083
 20
-118.833862
 10
12.688152
 20
-118.784744
 10
12.703773
 20
-118.732567
 10
12.721862
 20
-118.681198
 10
12.744433
 20
-118.625366
 10
12.769389
 20
-118.570557
 10
12.800205
 20
-118.509598
 10
12.833333
 20
-118.449837
  0
LWPOLYLINE
  5
16A
330
54
100
AcDbEntity
  8
Hawa6
  6
DASHED
 62
     3
100
AcDbPolyline
 90
       23
 70
     0
 43
0.0
 10
12.833333
 20
-119.604538
 10
12.799992
 20
-119.724861
 10
12.769406
 20
-119.845901
 10
12.74432
 20
-119.956116
 10
12.721926
 20
-120.06691
 10
12.70375
 20
-120.170128
 10
12.688229
 20
-120.273781
 10
12.676092
 20
-120.37249
 10
12.666592
 20
-120.471481
 10
12.65999
 20
-120.567604
 10
12.656013
 20
-120.663872
 10
12.654701
 20
-120.759132
 10
12.656006
 20
-120.854385
 10
12.659971
 20
-120.950539
 10
12.666553
 20
-121.046555
 10
12.676037
 20
-121.145485
 10
12.688152
 20
-121.244133
 10
12.703677
 20
-121.347893
 10
12.721862
 20
-121.451225
 10
12.744277
 20
-121.562157
 10
12.769389
 20
-121.672501
 10
12.799982
 20
-121.793579
 10
12.833333
 20
-121.91394
  0
LWPOLYLINE
  5
183
330
54
100
AcDbEntity
  8
Hawa6
  6
DASHED
 62
     3
100
AcDbPolyline
 90
        8
 70
     0
 43
0.0
 10
12.655022
 20
-122.514893
 10
12.656423
 20
-122.436653
 10
12.664949
 20
-122.357758
 10
12.680864
 20
-122.277206
 10
12.704683
 20
-122.193893
 10
12.7372
 20
-122.10659
 10
12.779552
 20
-122.013863
 10
12.833333
 20
-121.91394
  0
LINE
  5
18D
330
54
100
AcDbEntity
  8
Hawa6
  6
DASHED
 62
     3
 48
0.0625
100
AcDbLine
 10
15.33333299999999
 20
-121.91394
 30
0.0
 11
12.833333
 21
-121.91394
 31
0.0
  0
LINE
  5
18E
330
54
100
AcDbEntity
  8
Hawa6
  6
DASHED
 62
     3
 48
0.0625
100
AcDbLine
 10
15.33333299999999
 20
-123.068642
 30
0.0
 11
12.833333
 21
-123.068642
 31
0.0
  0
LWPOLYLINE
  5
18F
330
54
100
AcDbEntity
  8
Hawa6
  6
DASHED
 62
     3
100
AcDbPolyline
 90
        8
 70
     0
 43
0.0
 10
12.655022
 20
-122.514893
 10
12.659935
 20
-122.586617
 10
12.670885
 20
-122.659309
 10
12.688157
 20
-122.733757
 10
12.712222
 20
-122.810837
 10
12.743763
 20
-122.891556
 10
12.783711
 20
-122.97702
 10
12.833333
 20
-123.068642
  0
LINE
  5
199
330
54
100
AcDbEntity
  8
Hawa6
  6
DASHED
 62
     3
 48
0.0625
100
AcDbLine
 10
12.833333
 20
-119.604538
 30
0.0
 11
15.33333299999999
 21
-119.604538
 31
0.0
  0
LINE
  5
19A
330
54
100
AcDbEntity
  8
Hawa6
  6
DASHED
 62
     3
 48
0.0625
100
AcDbLine
 10
15.33333299999999
 20
-118.449837
 30
0.0
 11
12.833333
 21
-118.449837
 31
0.0
  0
LWPOLYLINE
  5
19C
330
54
100
AcDbEntity
  8
Hawa6
  6
DASHED
 62
     3
100
AcDbPolyline
 90
        8
 70
     0
 43
0.0
 10
12.655022
 20
-119.003586
 10
12.656423
 20
-119.081825
 10
12.664949
 20
-119.160721
 10
12.680864
 20
-119.241272
 10
12.704683
 20
-119.324585
 10
12.7372
 20
-119.411896
 10
12.779552
 20
-119.504616
 10
12.833333
 20
-119.604538
  0
LWPOLYLINE
  5
1A6
330
54
100
AcDbEntity
  8
Hawa6
  6
DASHED
 62
     3
100
AcDbPolyline
 90
       15
 70
     0
 43
0.0
 10
12.833333
 20
-121.91394
 10
12.784
 20
-122.004951
 10
12.740456
 20
-122.098801
 10
12.709414
 20
-122.179825
 10
12.684429
 20
-122.262917
 10
12.668014
 20
-122.339066
 10
12.657944
 20
-122.416298
 10
12.654716
 20
-122.491226
 10
12.657931
 20
-122.566154
 10
12.667976
 20
-122.643311
 10
12.684357
 20
-122.719383
 10
12.70935
 20
-122.802559
 10
12.740412
 20
-122.883675
 10
12.783975
 20
-122.977577
 10
12.833333
 20
-123.068642
  0
LWPOLYLINE
  5
1B7
330
54
100
AcDbEntity
  8
Hawa6
  6
DASHED
 62
     3
100
AcDbPolyline
 90
       15
 70
     0
 43
0.0
 10
12.833333
 20
-121.91394
 10
12.783506
 20
-121.729912
 10
12.740456
 20
-121.544228
 10
12.709159
 20
-121.380669
 10
12.684429
 20
-121.215996
 10
12.667939
 20
-121.062889
 10
12.657944
 20
-120.909233
 10
12.654708
 20
-120.759377
 10
12.657931
 20
-120.60952
 10
12.667902
 20
-120.456009
 10
12.684357
 20
-120.303055
 10
12.709093
 20
-120.138199
 10
12.740412
 20
-119.974472
 10
12.783481
 20
-119.788673
 10
12.833333
 20
-119.604538
  0
LINE
  5
1C9
330
54
100
AcDbEntity
  8
Hawa6
  6
DASHSPACE
 62
     3
 48
0.00689
100
AcDbLine
 10
-0.666667
 20
-122.734871
 30
0.0
 11
-0.666667
 21
-123.01046
 31
0.0
  0
LINE
  5
1CA
330
54
100
AcDbEntity
  8
Hawa6
  6
DASHSPACE
 62
     3
 48
0.140819
100
AcDbLine
 10
0.082114
 20
-118.126495
 30
0.0
 11
0.082114
 21
-123.759239
 31
0.0
  0
LINE
  5
1CB
330
54
100
AcDbEntity
  8
Hawa6
  6
DASHSPACE
 62
     3
 48
0.105671
100
AcDbLine
 10
-0.666667
 20
-118.508018
 30
0.0
 11
-0.666667
 21
-122.734871
 31
0.0
  0
LINE
  5
1CC
330
54
100
AcDbEntity
  8
Hawa6
  6
DASHSPACE
 62
     3
 48
0.140819
100
AcDbLine
 10
0.082114
 20
-117.759239
 30
0.0
 11
0.082114
 21
-123.391991
 31
0.0
  0
LINE
  5
1CD
330
54
100
AcDbEntity
  8
Hawa6
  6
DASHED
 62
     3
 48
0.281637
100
AcDbLine
 10
15.1
 20
-115.493744
 30
0.0
 11
15.1
 21
-126.759239
 31
0.0
  0
LINE
  5
1CE
330
54
100
AcDbEntity
  8
Hawa6
  6
DASHED
 62
     3
 48
0.018363
100
AcDbLine
 10
15.33333299999999
 20
-126.024734
 30
0.0
 11
15.33333299999999
 21
-126.759239
 31
0.0
  0
LINE
  5
1CF
330
54
100
AcDbEntity
  8
Hawa6
  6
DASHED
 62
     3
 48
0.281637
100
AcDbLine
 10
15.1
 20
-114.759239
 30
0.0
 11
15.1
 21
-126.024734
 31
0.0
  0
LINE
  5
1D0
330
54
100
AcDbEntity
  8
Hawa6
  6
DASHED
 62
     3
 48
0.281637
100
AcDbLine
 10
15.33333299999999
 20
-114.759239
 30
0.0
 11
15.33333299999999
 21
-126.024734
 31
0.0
  0
LINE
  5
1D1
330
54
100
AcDbEntity
  8
Hawa6
  6
DASHED
 62
     3
 48
0.140819
100
AcDbLine
 10
12.017158
 20
-118.126495
 30
0.0
 11
12.017158
 21
-123.759239
 31
0.0
  0
LINE
  5
1D2
330
54
100
AcDbEntity
  8
Hawa6
  6
DASHED
 62
     3
 48
0.140819
100
AcDbLine
 10
12.017158
 20
-123.391991
 30
0.0
 11
12.017158
 21
-117.759239
 31
0.0
  0
LINE
  5
1D3
330
54
100
AcDbEntity
  8
Hawa6
  6
DASHED
 62
     3
 48
0.143568
100
AcDbLine
 10
12.158579
 20
-118.075081
 30
0.0
 11
12.158579
 21
-123.817818
 31
0.0
  0
LINE
  5
1D4
330
54
100
AcDbEntity
  8
Hawa6
  6
DASHED
 62
     3
 48
0.143568
100
AcDbLine
 10
12.158579
 20
-123.443398
 30
0.0
 11
12.158579
 21
-117.700661
 31
0.0
  0
LINE
  5
1D5
330
54
100
AcDbEntity
  8
Hawa6
  6
DASHED
 62
     3
 48
0.066667
100
AcDbLine
 10
11.5
 20
-120.759239
 30
0.0
 11
12.833333
 21
-118.449837
 31
0.0
  0
LINE
  5
1D6
330
54
100
AcDbEntity
  8
Hawa6
  6
DASHED
 62
     3
 48
0.066667
100
AcDbLine
 10
11.5
 20
-120.759239
 30
0.0
 11
12.833333
 21
-123.068642
 31
0.0
  0
LINE
  5
1D7
330
54
100
AcDbEntity
  8
Hawa6
  6
DASHSPACE
 62
     3
 48
0.026473
100
AcDbLine
 10
-0.666667
 20
-123.01046
 30
0.0
 11
0.082114
 21
-123.759239
 31
0.0
  0
LINE
  5
1D8
330
54
100
AcDbEntity
  8
Hawa6
  6
DASHSPACE
 62
     3
 48
0.026473
100
AcDbLine
 10
-0.666667
 20
-118.508018
 30
0.0
 11
0.082114
 21
-117.759239
 31
0.0
  0
LINE
  5
1D9
330
54
100
AcDbEntity
  8
Hawa6
  6
DASHED
 62
     3
 48
0.005833
100
AcDbLine
 10
15.33333299999999
 20
-126.759239
 30
0.0
 11
15.1
 21
-126.759239
 31
0.0
  0
LINE
  5
1DA
330
54
100
AcDbEntity
  8
Hawa6
  6
DASHED
 62
     3
 48
0.005833
100
AcDbLine
 10
15.33333299999999
 20
-114.759239
 30
0.0
 11
15.1
 21
-114.759239
 31
0.0
  0
LINE
  5
1DB
330
54
100
AcDbEntity
  8
Hawa6
  6
DASHSPACE
 62
     3
 48
0.050429
100
AcDbLine
 10
12.017158
 20
-123.759239
 30
0.0
 11
9.999978999999999
 21
-123.759239
 31
0.0
  0
LINE
  5
1DC
330
54
100
AcDbEntity
  8
Hawa6
  6
DASHSPACE
 62
     3
 48
0.005
100
AcDbLine
 10
9.999978999999999
 20
-123.759239
 30
0.0
 11
9.799993999999999
 21
-123.759239
 31
0.0
  0
LINE
  5
1DD
330
54
100
AcDbEntity
  8
Hawa6
  6
DASHSPACE
 62
     3
 48
0.242947
100
AcDbLine
 10
9.799993999999999
 20
-123.759239
 30
0.0
 11
0.082114
 21
-123.759239
 31
0.0
  0
LINE
  5
1DE
330
54
100
AcDbEntity
  8
Hawa6
  6
DASHSPACE
 62
     3
 48
0.05043
100
AcDbLine
 10
12.017158
 20
-117.759239
 30
0.0
 11
9.999976
 21
-117.759239
 31
0.0
  0
LINE
  5
1DF
330
54
100
AcDbEntity
  8
Hawa6
  6
DASHSPACE
 62
     3
 48
0.005
100
AcDbLine
 10
9.999976
 20
-117.759239
 30
0.0
 11
9.799993999999999
 21
-117.759239
 31
0.0
  0
LINE
  5
1E0
330
54
100
AcDbEntity
  8
Hawa6
  6
DASHSPACE
 62
     3
 48
0.242947
100
AcDbLine
 10
9.799993999999999
 20
-117.759239
 30
0.0
 11
0.082114
 21
-117.759239
 31
0.0
  0
LINE
  5
1E1
330
54
100
AcDbEntity
  8
Hawa6
  6
DASHED
 62
     3
 48
0.103995
100
AcDbLine
 10
12.158579
 20
-123.817818
 30
0.0
 11
15.1
 21
-126.759239
 31
0.0
  0
LINE
  5
1E2
330
54
100
AcDbEntity
  8
Hawa6
  6
DASHED
 62
     3
 48
0.103995
100
AcDbLine
 10
12.158579
 20
-117.700661
 30
0.0
 11
15.1
 21
-114.759239
 31
0.0
  0
ARC
  5
1E3
330
54
100
AcDbEntity
  8
Hawa6
  6
DASHED
 62
     3
100
AcDbCircle
 10
12.017141
 20
-123.959274
 30
0.0
 40
0.200036
100
AcDbArc
 50
45.004489
 51
89.99550799999999
  0
ARC
  5
1E4
330
54
100
AcDbEntity
  8
Hawa6
  6
DASHED
 62
     3
100
AcDbCircle
 10
12.017141
 20
-117.559204
 30
0.0
 40
0.200036
100
AcDbArc
 50
270.004492
 51
314.995508
  0
LINE
  5
1E5
330
54
100
AcDbEntity
  8
Hawa6
 62
     3
 48
0.154896
100
AcDbLine
 10
9.187999999999998
 20
-45.259239
 30
0.0
 11
2.992166
 21
-45.259239
 31
0.0
  0
LINE
  5
1E6
330
54
100
AcDbEntity
  8
Hawa6
 62
     3
 48
0.184928
100
AcDbLine
 10
7.397127999999999
 20
-45.259239
 30
0.0
 11
0.0
 21
-45.259239
 31
0.0
  0
LINE
  5
1E7
330
54
100
AcDbEntity
  8
Hawa6
 62
     3
 48
0.065072
100
AcDbLine
 10
10.0
 20
-45.259239
 30
0.0
 11
7.397127999999999
 21
-45.259239
 31
0.0
  0
LINE
  5
1E8
330
54
100
AcDbEntity
  8
Hawa6
 62
     3
 48
0.334999
100
AcDbLine
 10
0.812
 20
-45.259239
 30
0.0
 11
0.812
 21
-31.859272
 31
0.0
  0
LINE
  5
1E9
330
54
100
AcDbEntity
  8
Hawa6
 62
     3
 48
0.334999
100
AcDbLine
 10
9.187999999999998
 20
-45.259239
 30
0.0
 11
9.187999999999998
 21
-31.859272
 31
0.0
  0
LINE
  5
1EA
330
54
100
AcDbEntity
  8
Hawa6
 62
     3
 48
0.0406
100
AcDbLine
 10
9.187999999999998
 20
-45.259239
 30
0.0
 11
10.0
 21
-46.665665
 31
0.0
  0
LINE
  5
1EB
330
54
100
AcDbEntity
  8
Hawa6
 62
     3
 48
0.0406
100
AcDbLine
 10
0.812
 20
-45.259239
 30
0.0
 11
0.0
 21
-46.665665
 31
0.0
  0
LWPOLYLINE
  5
1EC
330
54
100
AcDbEntity
  8
Hawa4
  6
DASHED
 62
     4
100
AcDbPolyline
 90
       18
 70
     0
 43
0.0
 10
4.999994
 20
-6.859239999999999
 10
5.053226
 20
-6.856688
 10
5.106303999999999
 20
-6.848963999999999
 10
5.159018999999999
 20
-6.835872
 10
5.211162999999999
 20
-6.817053999999999
 10
5.262483999999999
 20
-6.791935
 10
5.312669
 20
-6.759611
 10
5.337259999999999
 20
-6.740277999999999
 10
5.361444999999999
 20
-6.718466
 10
5.385131999999999
 20
-6.693792
 10
5.408212999999999
 20
-6.665700999999999
 10
5.430545999999999
 20
-6.633335999999999
 10
5.451894
 20
-6.595305999999999
 10
5.471851999999999
 20
-6.548954
 10
5.481663
 20
-6.518914999999999
 10
5.489379
 20
-6.488267999999999
 10
5.497359999999999
 20
-6.43824
 10
5.5
 20
-6.387558
  0
LWPOLYLINE
  5
200
330
54
100
AcDbEntity
  8
Hawa4
  6
DASHED
 62
     4
100
AcDbPolyline
 90
       18
 70
     0
 43
0.0
 10
4.5
 20
-6.387558
 10
4.503392999999999
 20
-6.444937
 10
4.513643
 20
-6.501358999999999
 10
4.523112
 20
-6.534416999999999
 10
4.535048
 20
-6.566661999999999
 10
4.559096
 20
-6.615963
 10
4.584711
 20
-6.656086
 10
4.61143
 20
-6.689888
 10
4.638999999999999
 20
-6.718896
 10
4.667248999999999
 20
-6.744022
 10
4.696057999999999
 20
-6.765871999999999
 10
4.725337
 20
-6.784866
 10
4.755009999999999
 20
-6.801308
 10
4.785009999999999
 20
-6.815421
 10
4.815275999999999
 20
-6.827372
 10
4.876383
 20
-6.845283
 10
4.938025999999999
 20
-6.855777999999999
 10
4.999994
 20
-6.859239999999999
  0
LINE
  5
214
330
54
100
AcDbEntity
  8
Hawa4
  6
DASHED
 62
     4
 48
0.0125
100
AcDbLine
 10
4.5
 20
-4.25924
 30
0.0
 11
5.0
 21
-4.25924
 31
0.0
  0
LINE
  5
215
330
54
100
AcDbEntity
  8
Hawa4
  6
DASHED
 62
     4
 48
0.019262
100
AcDbLine
 10
3.729522
 20
-4.25924
 30
0.0
 11
4.5
 21
-4.25924
 31
0.0
  0
LINE
  5
216
330
54
100
AcDbEntity
  8
Hawa4
  6
DASHED
 62
     4
 48
0.018332
100
AcDbLine
 10
2.996252999999999
 20
-4.25924
 30
0.0
 11
3.729522
 21
-4.25924
 31
0.0
  0
LINE
  5
217
330
54
100
AcDbEntity
  8
Hawa4
  6
DASHED
 62
     4
 48
0.0125
100
AcDbLine
 10
2.996252999999999
 20
-4.25924
 30
0.0
 11
2.496252
 21
-4.25924
 31
0.0
  0
LINE
  5
218
330
54
100
AcDbEntity
  8
Hawa4
  6
DASHED
 62
     4
 48
0.003656
100
AcDbLine
 10
2.35
 20
-4.25924
 30
0.0
 11
2.496252999999999
 21
-4.25924
 31
0.0
  0
LINE
  5
219
330
54
100
AcDbEntity
  8
Hawa4
 62
     4
 48
0.33375
100
AcDbLine
 10
2.35
 20
-4.25924
 30
0.0
 11
-11.0
 21
-4.25924
 31
0.0
  0
LINE
  5
21A
330
54
100
AcDbEntity
  8
Hawa4
  6
DASHED
 62
     4
 48
0.019262
100
AcDbLine
 10
4.5
 20
-4.609239999999999
 30
0.0
 11
3.729522
 21
-4.609239999999999
 31
0.0
  0
LINE
  5
21B
330
54
100
AcDbEntity
  8
Hawa4
  6
DASHED
 62
     4
 48
0.003656
100
AcDbLine
 10
7.503746999999999
 20
-4.25924
 30
0.0
 11
7.65
 21
-4.25924
 31
0.0
  0
LINE
  5
21C
330
54
100
AcDbEntity
  8
Hawa4
  6
DASHED
 62
     4
 48
0.0125
100
AcDbLine
 10
7.503746
 20
-4.25924
 30
0.0
 11
7.003746999999999
 21
-4.25924
 31
0.0
  0
LINE
  5
21D
330
54
100
AcDbEntity
  8
Hawa4
  6
DASHED
 62
     4
 48
0.037594
100
AcDbLine
 10
5.5
 20
-4.25924
 30
0.0
 11
7.003746999999999
 21
-4.25924
 31
0.0
  0
LINE
  5
21E
330
54
100
AcDbEntity
  8
Hawa4
  6
DASHED
 62
     4
 48
0.0125
100
AcDbLine
 10
5.0
 20
-4.25924
 30
0.0
 11
5.5
 21
-4.25924
 31
0.0
  0
LINE
  5
21F
330
54
100
AcDbEntity
  8
Hawa4
 62
     4
 48
0.33375
100
AcDbLine
 10
21.0
 20
-4.25924
 30
0.0
 11
7.65
 21
-4.25924
 31
0.0
  0
LINE
  5
220
330
54
100
AcDbEntity
  8
Hawa4
  6
DASHED
 62
     4
 48
0.037594
100
AcDbLine
 10
7.003746999999999
 20
-4.609239999999999
 30
0.0
 11
5.5
 21
-4.609239999999999
 31
0.0
  0
ARC
  5
221
330
54
100
AcDbEntity
  8
Hawa4
  6
DASHED
 62
     4
100
AcDbCircle
 10
-311.789124
 20
-285.206818
 30
0.0
 40
424.6928099999999
100
AcDbArc
 50
41.03498
 51
41.353838
  0
LWPOLYLINE
  5
222
330
54
100
AcDbEntity
  8
Hawa4
  6
DASHED
 62
     4
100
AcDbPolyline
 90
       22
 70
     0
 43
0.0
 10
8.560511999999999
 20
-6.387558
 10
8.61053
 20
-6.442804999999999
 10
8.662535999999999
 20
-6.496169
 10
8.729074
 20
-6.559236999999999
 10
8.783730999999999
 20
-6.607114999999999
 10
8.87453
 20
-6.679385
 10
8.950366999999999
 20
-6.732921000000001
 10
9.016005999999999
 20
-6.773975
 10
9.073605999999999
 20
-6.805461
 10
9.124278999999999
 20
-6.828955
 10
9.168623
 20
-6.845394
 10
9.207017
 20
-6.855364999999999
 10
9.239644
 20
-6.859188
 10
9.253797999999999
 20
-6.858830999999999
 10
9.266488999999999
 20
-6.856958999999999
 10
9.277683999999998
 20
-6.853558
 10
9.287346000000001
 20
-6.848600999999999
 10
9.295427999999999
 20
-6.842052
 10
9.301868999999999
 20
-6.833858999999999
 10
9.306597
 20
-6.823955
 10
9.309516
 20
-6.812249999999999
 10
9.310511999999999
 20
-6.798635
  0
LWPOLYLINE
  5
23A
330
54
100
AcDbEntity
  8
Hawa4
  6
DASHED
 62
     4
100
AcDbPolyline
 90
       11
 70
     0
 43
0.0
 10
9.310511999999999
 20
-6.798635
 10
9.309036
 20
-6.780071
 10
9.304419000000001
 20
-6.758372999999999
 10
9.296225999999998
 20
-6.733075999999999
 10
9.283844
 20
-6.703539999999999
 10
9.266355
 20
-6.668808
 10
9.242231
 20
-6.627252999999999
 10
9.208605999999999
 20
-6.575816999999999
 10
9.158474999999999
 20
-6.506986
 10
9.110450999999999
 20
-6.446496999999999
 10
9.060511999999999
 20
-6.387558
  0
ARC
  5
247
330
54
100
AcDbEntity
  8
Hawa4
  6
DASHED
 62
     4
100
AcDbCircle
 10
-311.289124
 20
-285.206818
 30
0.0
 40
424.6928099999999
100
AcDbArc
 50
41.03498
 51
41.353838
  0
LINE
  5
248
330
54
100
AcDbEntity
  8
Hawa4
  6
DASHED
 62
     4
 48
0.003656
100
AcDbLine
 10
7.65
 20
-4.609239999999999
 30
0.0
 11
7.503746999999999
 21
-4.609239999999999
 31
0.0
  0
LWPOLYLINE
  5
257
330
54
100
AcDbEntity
  8
Hawa4
  6
DASHED
 62
     4
100
AcDbPolyline
 90
       22
 70
     0
 43
0.0
 10
9.310511999999999
 20
-6.798721999999999
 10
9.309502
 20
-6.812338999999999
 10
9.306567999999998
 20
-6.824036
 10
9.301828999999999
 20
-6.833925999999999
 10
9.295382
 20
-6.842099
 10
9.287304999999999
 20
-6.848628999999998
 10
9.277652999999999
 20
-6.853571999999999
 10
9.266469999999999
 20
-6.856964999999999
 10
9.253788
 20
-6.858832
 10
9.224
 20
-6.858028
 10
9.18838
 20
-6.851117999999999
 10
9.146892999999998
 20
-6.837892999999999
 10
9.099311
 20
-6.817928
 10
9.045192999999999
 20
-6.790505999999999
 10
8.983736
 20
-6.754436
 10
8.913250999999998
 20
-6.707505999999999
 10
8.830635
 20
-6.645557000000001
 10
8.782711
 20
-6.606252
 10
8.727836999999999
 20
-6.558113999999999
 10
8.660878999999999
 20
-6.494527999999999
 10
8.609732000000001
 20
-6.441955
 10
8.560511999999999
 20
-6.387558
  0
LINE
  5
270
330
54
100
AcDbEntity
  8
Hawa4
  6
DASHED
 62
     4
 48
0.018332
100
AcDbLine
 10
7.003746999999999
 20
-4.609239999999999
 30
0.0
 11
6.270477999999999
 21
-4.609239999999999
 31
0.0
  0
ARC
  5
271
330
54
100
AcDbEntity
  8
Hawa4
 62
     4
100
AcDbCircle
 10
-11.0
 20
-5.25924
 30
0.0
 40
1.0
100
AcDbArc
 50
90.00000300000001
 51
180.000005
  0
LINE
  5
272
330
54
100
AcDbEntity
  8
Hawa4
  6
DASHED
 62
     4
 48
0.018332
100
AcDbLine
 10
3.729522
 20
-4.609239999999999
 30
0.0
 11
2.996252999999999
 21
-4.609239999999999
 31
0.0
  0
LINE
  5
273
330
54
100
AcDbEntity
  8
Hawa4
  6
DASHED
 62
     4
 48
0.00875
100
AcDbLine
 10
2.996252999999999
 20
-4.25924
 30
0.0
 11
2.996252999999999
 21
-4.609239999999999
 31
0.0
  0
ARC
  5
274
330
54
100
AcDbEntity
  8
Hawa4
  6
DASHED
 62
     4
100
AcDbCircle
 10
321.789124
 20
-285.206818
 30
0.0
 40
424.6928099999999
100
AcDbArc
 50
138.646159
 51
138.965022
  0
LINE
  5
275
330
54
100
AcDbEntity
  8
Hawa4
  6
DASHED
 62
     4
 48
0.053208
100
AcDbLine
 10
1.439487999999999
 20
-4.25924
 30
0.0
 11
1.439487999999999
 21
-6.387558
 31
0.0
  0
LINE
  5
276
330
54
100
AcDbEntity
  8
Hawa4
  6
DASHED
 62
     4
 48
0.053208
100
AcDbLine
 10
0.9394879999999998
 20
-4.25924
 30
0.0
 11
0.9394879999999998
 21
-6.387558
 31
0.0
  0
LWPOLYLINE
  5
277
330
54
100
AcDbEntity
  8
Hawa4
  6
DASHED
 62
     4
100
AcDbPolyline
 90
       22
 70
     0
 43
0.0
 10
1.439487999999999
 20
-6.387558
 10
1.389477999999999
 20
-6.442797
 10
1.33748
 20
-6.496152999999999
 10
1.270952
 20
-6.559214999999999
 10
1.216301999999999
 20
-6.607088
 10
1.125513999999999
 20
-6.679352999999999
 10
1.049684999999999
 20
-6.732885999999999
 10
0.9840530000000001
 20
-6.773941
 10
0.9264569999999999
 20
-6.805428999999999
 10
0.875787
 20
-6.828927999999999
 10
0.8314429999999999
 20
-6.845372999999999
 10
0.7930470000000001
 20
-6.855353
 10
0.7604160000000001
 20
-6.859186
 10
0.7462590000000001
 20
-6.858836
 10
0.733565
 20
-6.856971
 10
0.722365
 20
-6.853577
 10
0.712697
 20
-6.848628999999998
 10
0.7046090000000001
 20
-6.842088999999999
 10
0.6981600000000001
 20
-6.833907
 10
0.693425
 20
-6.824014999999999
 10
0.690495
 20
-6.812322999999999
 10
0.689488
 20
-6.798722999999999
  0
LWPOLYLINE
  5
28F
330
54
100
AcDbEntity
  8
Hawa4
  6
DASHED
 62
     4
100
AcDbPolyline
 90
       11
 70
     0
 43
0.0
 10
0.689488
 20
-6.798722999999999
 10
0.69095
 20
-6.780161999999999
 10
0.6955560000000001
 20
-6.758466
 10
0.7037399999999999
 20
-6.733167999999999
 10
0.7161140000000001
 20
-6.70363
 10
0.733599
 20
-6.668892999999999
 10
0.757721
 20
-6.62733
 10
0.791349
 20
-6.575882
 10
0.8414889999999999
 20
-6.507031999999999
 10
0.8895299999999998
 20
-6.446519999999999
 10
0.9394879999999998
 20
-6.387558
  0
ARC
  5
29C
330
54
100
AcDbEntity
  8
Hawa4
  6
DASHED
 62
     4
100
AcDbCircle
 10
321.289124
 20
-285.206818
 30
0.0
 40
424.6928099999999
100
AcDbArc
 50
138.646159
 51
138.965022
  0
LINE
  5
29D
330
54
100
AcDbEntity
  8
Hawa4
  6
DASHED
 62
     4
 48
0.00875
100
AcDbLine
 10
2.496252999999999
 20
-4.25924
 30
0.0
 11
2.496252999999999
 21
-4.609239999999999
 31
0.0
  0
LINE
  5
29E
330
54
100
AcDbEntity
  8
Hawa4
  6
DASHED
 62
     4
 48
0.003656
100
AcDbLine
 10
2.496252999999999
 20
-4.609239999999999
 30
0.0
 11
2.35
 21
-4.609239999999999
 31
0.0
  0
LWPOLYLINE
  5
2B0
330
54
100
AcDbEntity
  8
Hawa4
  6
DASHED
 62
     4
100
AcDbPolyline
 90
       22
 70
     0
 43
0.0
 10
0.689488
 20
-6.798721999999999
 10
0.690498
 20
-6.812338999999999
 10
0.693432
 20
-6.824036
 10
0.698171
 20
-6.833925999999999
 10
0.704617
 20
-6.842099
 10
0.7126960000000001
 20
-6.848628999999998
 10
0.7223470000000001
 20
-6.853571999999999
 10
0.7335300000000001
 20
-6.856964999999999
 10
0.746212
 20
-6.858832
 10
0.7759999999999999
 20
-6.858028
 10
0.8116189999999999
 20
-6.851117999999999
 10
0.8531079999999999
 20
-6.837892999999999
 10
0.900689
 20
-6.817928
 10
0.9548069999999999
 20
-6.790505999999999
 10
1.016263999999999
 20
-6.754436
 10
1.086748999999999
 20
-6.707505999999999
 10
1.169364999999999
 20
-6.645557000000001
 10
1.217288999999999
 20
-6.606252
 10
1.272162999999999
 20
-6.558113999999999
 10
1.339121
 20
-6.494527999999999
 10
1.390268999999999
 20
-6.441955
 10
1.439487999999999
 20
-6.387558
  0
LINE
  5
2CA
330
54
100
AcDbEntity
  8
Hawa4
  6
DASHED
 62
     4
 48
0.037594
100
AcDbLine
 10
4.5
 20
-4.609239999999999
 30
0.0
 11
2.996252999999999
 21
-4.609239999999999
 31
0.0
  0
LWPOLYLINE
  5
2F3
330
54
100
AcDbEntity
  8
Hawa4
  6
DASHED
 62
     4
100
AcDbPolyline
 90
       17
 70
     0
 43
0.0
 10
4.999997
 20
-6.859239999999999
 10
5.048601
 20
-6.857113
 10
5.097094
 20
-6.850686
 10
5.145312999999999
 20
-6.839821
 10
5.193103999999999
 20
-6.824279999999999
 10
5.240294
 20
-6.803677
 10
5.286639
 20
-6.777453999999999
 10
5.331946
 20
-6.744680999999999
 10
5.375929
 20
-6.703819
 10
5.397257999999999
 20
-6.679607
 10
5.418025
 20
-6.652221
 10
5.438096999999999
 20
-6.620846
 10
5.457258
 20
-6.584175
 10
5.475122999999999
 20
-6.53969
 10
5.490671999999999
 20
-6.482059999999999
 10
5.497681
 20
-6.435076999999999
 10
5.5
 20
-6.387558
  0
ARC
  5
31D
330
54
100
AcDbEntity
  8
Hawa4
  6
DASHED
 62
     4
100
AcDbCircle
 10
321.822327
 20
-285.235779
 30
0.0
 40
424.7368469999999
100
AcDbArc
 50
138.646186
 51
138.965008
  0
ARC
  5
345
330
54
100
AcDbEntity
  8
Hawa4
  6
DASHED
 62
     4
100
AcDbCircle
 10
321.254425
 20
-285.176544
 30
0.0
 40
424.6467589999999
100
AcDbArc
 50
138.646132
 51
138.965022
  0
LWPOLYLINE
  5
34C
330
54
100
AcDbEntity
  8
Hawa4
  6
DASHED
 62
     4
100
AcDbPolyline
 90
       11
 70
     0
 43
0.0
 10
0.9394879999999998
 20
-6.387558
 10
0.8889709999999999
 20
-6.447201
 10
0.8404189999999999
 20
-6.508430999999999
 10
0.7907910000000001
 20
-6.576693999999999
 10
0.757397
 20
-6.627857
 10
0.7334170000000001
 20
-6.66923
 10
0.7160210000000001
 20
-6.703835
 10
0.703699
 20
-6.733277
 10
0.695543
 20
-6.758514999999999
 10
0.690947
 20
-6.780183999999999
 10
0.689488
 20
-6.798721999999999
  0
LWPOLYLINE
  5
39B
330
54
100
AcDbEntity
  8
Hawa4
  6
DASHED
 62
     4
100
AcDbPolyline
 90
       17
 70
     0
 43
0.0
 10
4.999997
 20
-6.859239999999999
 10
5.048601
 20
-6.857113
 10
5.097094
 20
-6.850686
 10
5.145312999999999
 20
-6.839821
 10
5.193103999999999
 20
-6.824279999999999
 10
5.240294
 20
-6.803677
 10
5.286639
 20
-6.777453999999999
 10
5.331946
 20
-6.744680999999999
 10
5.375929
 20
-6.703819
 10
5.397257999999999
 20
-6.679607
 10
5.418025
 20
-6.652221
 10
5.438096999999999
 20
-6.620846
 10
5.457258
 20
-6.584175
 10
5.475122999999999
 20
-6.53969
 10
5.490671999999999
 20
-6.482059999999999
 10
5.497681
 20
-6.435076999999999
 10
5.5
 20
-6.387558
  0
ARC
  5
3C5
330
54
100
AcDbEntity
  8
Hawa4
  6
DASHED
 62
     4
100
AcDbCircle
 10
321.822327
 20
-285.235779
 30
0.0
 40
424.7368469999999
100
AcDbArc
 50
138.646186
 51
138.965008
  0
ARC
  5
3F1
330
54
100
AcDbEntity
  8
Hawa4
  6
DASHED
 62
     4
100
AcDbCircle
 10
321.254425
 20
-285.176544
 30
0.0
 40
424.6467589999999
100
AcDbArc
 50
138.646132
 51
138.965022
  0
LINE
  5
41B
330
54
100
AcDbEntity
  8
Hawa4
  6
DASHED
 62
     4
 48
0.037594
100
AcDbLine
 10
4.5
 20
-4.609239999999999
 30
0.0
 11
2.996252999999999
 21
-4.609239999999999
 31
0.0
  0
LWPOLYLINE
  5
4EB
330
54
100
AcDbEntity
  8
Hawa4
  6
DASHED
 62
     4
100
AcDbPolyline
 90
       17
 70
     0
 43
0.0
 10
4.999997
 20
-6.859239999999999
 10
5.048601
 20
-6.857113
 10
5.097094
 20
-6.850686
 10
5.145312999999999
 20
-6.839821
 10
5.193103999999999
 20
-6.824279999999999
 10
5.240294
 20
-6.803677
 10
5.286639
 20
-6.777453999999999
 10
5.331946
 20
-6.744680999999999
 10
5.375929
 20
-6.703819
 10
5.397257999999999
 20
-6.679607
 10
5.418025
 20
-6.652221
 10
5.438096999999999
 20
-6.620846
 10
5.457258
 20
-6.584175
 10
5.475122999999999
 20
-6.53969
 10
5.490671999999999
 20
-6.482059999999999
 10
5.497681
 20
-6.435076999999999
 10
5.5
 20
-6.387558
  0
ARC
  5
541
330
54
100
AcDbEntity
  8
Hawa4
  6
DASHED
 62
     4
100
AcDbCircle
 10
321.254425
 20
-285.176544
 30
0.0
 40
424.6467589999999
100
AcDbArc
 50
138.646132
 51
138.965022
  0
LINE
  5
5BA
330
54
100
AcDbEntity
  8
Hawa4
  6
DASHED
 62
     4
 48
0.044458
100
AcDbLine
 10
4.5
 20
-6.387558
 30
0.0
 11
4.5
 21
-4.609239999999999
 31
0.0
  0
LINE
  5
5BB
330
54
100
AcDbEntity
  8
Hawa4
  6
DASHED
 62
     4
 48
0.00875
100
AcDbLine
 10
4.5
 20
-4.25924
 30
0.0
 11
4.5
 21
-4.609239999999999
 31
0.0
  0
LINE
  5
5E8
330
54
100
AcDbEntity
  8
Hawa4
 62
     4
 48
0.005094
100
AcDbLine
 10
2.496252999999999
 20
-4.25924
 30
0.0
 11
2.496252999999999
 21
-4.462987
 31
0.0
  0
LINE
  5
5E9
330
54
100
AcDbEntity
  8
Hawa4
  6
DASHED
 62
     4
 48
0.003656
100
AcDbLine
 10
2.496252999999999
 20
-4.462987
 30
0.0
 11
2.496252999999999
 21
-4.609239999999999
 31
0.0
  0
LINE
  5
5EB
330
54
100
AcDbEntity
  8
Hawa4
 62
     4
 48
0.00875
100
AcDbLine
 10
2.35
 20
-4.609239999999999
 30
0.0
 11
2.35
 21
-4.25924
 31
0.0
  0
LINE
  5
5EC
330
54
100
AcDbEntity
  8
Hawa4
 62
     4
 48
0.050683
100
AcDbLine
 10
2.506987
 20
-7.159239999999999
 30
0.0
 11
4.534315
 21
-7.159239999999999
 31
0.0
  0
LINE
  5
5ED
330
54
100
AcDbEntity
  8
Hawa4
 62
     4
 48
0.067675
100
AcDbLine
 10
-0.2
 20
-7.159239999999999
 30
0.0
 11
2.506987
 21
-7.159239999999999
 31
0.0
  0
LINE
  5
5EE
330
54
100
AcDbEntity
  8
Hawa4
 62
     4
 48
0.1725
100
AcDbLine
 10
-0.2
 20
-7.159239999999999
 30
0.0
 11
-7.099999999999999
 21
-7.159239999999999
 31
0.0
  0
LINE
  5
5F0
330
54
100
AcDbEntity
  8
Hawa4
 62
     4
 48
0.005094
100
AcDbLine
 10
7.503746999999999
 20
-4.25924
 30
0.0
 11
7.503746999999999
 21
-4.462988
 31
0.0
  0
LINE
  5
5F1
330
54
100
AcDbEntity
  8
Hawa4
  6
DASHED
 62
     4
 48
0.003656
100
AcDbLine
 10
7.503746999999999
 20
-4.462988
 30
0.0
 11
7.503746999999999
 21
-4.609239999999999
 31
0.0
  0
LINE
  5
5F2
330
54
100
AcDbEntity
  8
Hawa4
 62
     4
 48
0.00875
100
AcDbLine
 10
7.65
 20
-4.609239999999999
 30
0.0
 11
7.65
 21
-4.25924
 31
0.0
  0
LINE
  5
5F3
330
54
100
AcDbEntity
  8
Hawa4
  6
DASHED
 62
     4
 48
0.053208
100
AcDbLine
 10
9.060511999999999
 20
-4.25924
 30
0.0
 11
9.060511999999999
 21
-6.387558
 31
0.0
  0
ARC
  5
5F4
330
54
100
AcDbEntity
  8
Hawa4
  6
DASHED
 62
     4
100
AcDbCircle
 10
-311.254425
 20
-285.176544
 30
0.0
 40
424.6467589999999
100
AcDbArc
 50
41.03497299999999
 51
41.353865
  0
LINE
  5
5F5
330
54
100
AcDbEntity
  8
Hawa4
  6
DASHED
 62
     4
 48
0.053208
100
AcDbLine
 10
8.560511999999999
 20
-4.25924
 30
0.0
 11
8.560511999999999
 21
-6.387558
 31
0.0
  0
ARC
  5
61B
330
54
100
AcDbEntity
  8
Hawa4
  6
DASHED
 62
     4
100
AcDbCircle
 10
-311.822327
 20
-285.235779
 30
0.0
 40
424.7368469999999
100
AcDbArc
 50
41.03498799999999
 51
41.35380999999999
  0
LINE
  5
61C
330
54
100
AcDbEntity
  8
Hawa4
  6
DASHED
 62
     4
 48
0.00875
100
AcDbLine
 10
7.003746999999999
 20
-4.25924
 30
0.0
 11
7.003746999999999
 21
-4.609239999999999
 31
0.0
  0
LINE
  5
61E
330
54
100
AcDbEntity
  8
Hawa4
  6
DASHED
 62
     4
 48
0.00875
100
AcDbLine
 10
5.5
 20
-4.25924
 30
0.0
 11
5.5
 21
-4.609239999999999
 31
0.0
  0
LINE
  5
61F
330
54
100
AcDbEntity
  8
Hawa4
  6
DASHED
 62
     4
 48
0.044458
100
AcDbLine
 10
5.5
 20
-6.387558
 30
0.0
 11
5.5
 21
-4.609239999999999
 31
0.0
  0
LINE
  5
620
330
54
100
AcDbEntity
  8
Hawa4
  6
DASHED
 62
     4
 48
0.019262
100
AcDbLine
 10
6.270477999999999
 20
-4.609239999999999
 30
0.0
 11
5.5
 21
-4.609239999999999
 31
0.0
  0
LWPOLYLINE
  5
626
330
54
100
AcDbEntity
  8
Hawa4
  6
DASHED
 62
     4
100
AcDbPolyline
 90
       11
 70
     0
 43
0.0
 10
9.060511999999999
 20
-6.387558
 10
9.111029999999999
 20
-6.447201
 10
9.15958
 20
-6.508430999999999
 10
9.209208999999999
 20
-6.576693999999999
 10
9.242601999999999
 20
-6.627857
 10
9.266583
 20
-6.66923
 10
9.283978999999998
 20
-6.703835
 10
9.296300999999999
 20
-6.733277
 10
9.304457000000001
 20
-6.758514999999999
 10
9.309052000000001
 20
-6.780183999999999
 10
9.310511999999999
 20
-6.798721999999999
  0
ARC
  5
64B
330
54
100
AcDbEntity
  8
Hawa4
  6
DASHED
 62
     4
100
AcDbCircle
 10
-311.417969
 20
-285.32431
 30
0.0
 40
424.8671569999999
100
AcDbArc
 50
41.035522
 51
41.354252
  0
LINE
  5
64C
330
54
100
AcDbEntity
  8
Hawa4
  6
DASHED
 62
     4
 48
0.00875
100
AcDbLine
 10
7.503746999999999
 20
-4.25924
 30
0.0
 11
7.503746999999999
 21
-4.609239999999999
 31
0.0
  0
ARC
  5
67E
330
54
100
AcDbEntity
  8
Hawa4
  6
DASHED
 62
     4
100
AcDbCircle
 10
-311.822327
 20
-285.235779
 30
0.0
 40
424.7368469999999
100
AcDbArc
 50
41.03498799999999
 51
41.35380999999999
  0
LINE
  5
6A6
330
54
100
AcDbEntity
  8
Hawa4
  6
DASHED
 62
     4
 48
0.00875
100
AcDbLine
 10
7.503746999999999
 20
-4.25924
 30
0.0
 11
7.503746999999999
 21
-4.609239999999999
 31
0.0
  0
LWPOLYLINE
  5
6DA
330
54
100
AcDbEntity
  8
Hawa4
  6
DASHED
 62
     4
100
AcDbPolyline
 90
       11
 70
     0
 43
0.0
 10
9.060511999999999
 20
-6.387558
 10
9.111029999999999
 20
-6.447201
 10
9.15958
 20
-6.508430999999999
 10
9.209208999999999
 20
-6.576693999999999
 10
9.242601999999999
 20
-6.627857
 10
9.266583
 20
-6.66923
 10
9.283978999999998
 20
-6.703835
 10
9.296300999999999
 20
-6.733277
 10
9.304457000000001
 20
-6.758514999999999
 10
9.309052000000001
 20
-6.780183999999999
 10
9.310511999999999
 20
-6.798721999999999
  0
ARC
  5
732
330
54
100
AcDbEntity
  8
Hawa4
  6
DASHED
 62
     4
100
AcDbCircle
 10
-311.822327
 20
-285.235779
 30
0.0
 40
424.7368469999999
100
AcDbArc
 50
41.03498799999999
 51
41.35380999999999
  0
LINE
  5
75A
330
54
100
AcDbEntity
  8
Hawa4
  6
DASHED
 62
     4
 48
0.00875
100
AcDbLine
 10
7.503746999999999
 20
-4.25924
 30
0.0
 11
7.503746999999999
 21
-4.609239999999999
 31
0.0
  0
ARC
  5
791
330
54
100
AcDbEntity
  8
Hawa4
 62
     4
100
AcDbCircle
 10
21.0
 20
-5.25924
 30
0.0
 40
1.0
100
AcDbArc
 50
0.0
 51
90.00000300000001
  0
LINE
  5
792
330
54
100
AcDbEntity
  8
Hawa4
 62
     4
 48
0.118358
100
AcDbLine
 10
5.465684999999999
 20
-7.159239999999999
 30
0.0
 11
10.2
 21
-7.159239999999999
 31
0.0
  0
LINE
  5
793
330
54
100
AcDbEntity
  8
Hawa4
 62
     4
 48
0.1725
100
AcDbLine
 10
17.1
 20
-7.159239999999999
 30
0.0
 11
10.2
 21
-7.159239999999999
 31
0.0
  0
LINE
  5
794
330
54
100
AcDbEntity
  8
Hawa4
 62
     4
100
AcDbLine
 10
-12.0
 20
-43.259239
 30
0.0
 11
-12.0
 21
-9.131036999999999
 31
0.0
  0
LINE
  5
795
330
54
100
AcDbEntity
  8
Hawa4
 62
     4
 48
0.096795
100
AcDbLine
 10
-12.0
 20
-5.25924
 30
0.0
 11
-12.0
 21
-9.131036999999999
 31
0.0
  0
ARC
  5
796
330
54
100
AcDbEntity
  8
Hawa4
 62
     4
100
AcDbCircle
 10
-2.5
 20
-43.259239
 30
0.0
 40
1.0
100
AcDbArc
 50
270.000001
 51
0.00001
  0
LINE
  5
797
330
54
100
AcDbEntity
  8
Hawa4
 62
     4
 48
0.045
100
AcDbLine
 10
-1.5
 20
-41.45923999999999
 30
0.0
 11
-1.5
 21
-43.259239
 31
0.0
  0
ARC
  5
798
330
54
100
AcDbEntity
  8
Hawa4
 62
     4
100
AcDbCircle
 10
-1.7
 20
-41.45923999999999
 30
0.0
 40
0.2
100
AcDbArc
 50
0.0
 51
90.00000300000001
  0
LINE
  5
799
330
54
100
AcDbEntity
  8
Hawa4
 62
     4
 48
0.0775
100
AcDbLine
 10
-4.799999999999999
 20
-41.259239
 30
0.0
 11
-1.7
 21
-41.259239
 31
0.0
  0
ARC
  5
79A
330
54
100
AcDbEntity
  8
Hawa4
 62
     4
100
AcDbCircle
 10
-4.799999999999999
 20
-40.759239
 30
0.0
 40
0.5
100
AcDbArc
 50
180.000005
 51
270.000001
  0
LINE
  5
79B
330
54
100
AcDbEntity
  8
Hawa4
 62
     4
 48
0.0125
100
AcDbLine
 10
-5.299999999999999
 20
-40.259239
 30
0.0
 11
-5.299999999999999
 21
-40.759239
 31
0.0
  0
ARC
  5
79C
330
54
100
AcDbEntity
  8
Hawa4
 62
     4
100
AcDbCircle
 10
-6.299999999999999
 20
-40.259239
 30
0.0
 40
1.0
100
AcDbArc
 50
0.0
 51
90.00000300000001
  0
LINE
  5
79D
330
54
100
AcDbEntity
  8
Hawa4
 62
     4
 48
0.02
100
AcDbLine
 10
-7.099999999999999
 20
-39.259239
 30
0.0
 11
-6.299999999999999
 21
-39.259239
 31
0.0
  0
ARC
  5
79E
330
54
100
AcDbEntity
  8
Hawa4
 62
     4
100
AcDbCircle
 10
-7.099999999999999
 20
-37.259239
 30
0.0
 40
2.0
100
AcDbArc
 50
180.000005
 51
270.000001
  0
LINE
  5
79F
330
54
100
AcDbEntity
  8
Hawa4
 62
     4
100
AcDbLine
 10
-9.099999999999999
 20
-9.159239999999998
 30
0.0
 11
-9.099999999999999
 21
-37.259239
 31
0.0
  0
ARC
  5
7A0
330
54
100
AcDbEntity
  8
Hawa6
 62
     3
100
AcDbCircle
 10
-7.099999999999999
 20
-9.159239999999998
 30
0.0
 40
2.0
100
AcDbArc
 50
179.192007
 51
180.000005
  0
ARC
  5
7A1
330
54
100
AcDbEntity
  8
Hawa4
 62
     4
100
AcDbCircle
 10
-7.099999999999999
 20
-9.159239999999998
 30
0.0
 40
2.0
100
AcDbArc
 50
90.00000300000001
 51
179.192007
  0
ARC
  5
7A2
330
54
100
AcDbEntity
  8
Hawa4
 62
     4
100
AcDbCircle
 10
17.1
 20
-9.159239999999998
 30
0.0
 40
2.0
100
AcDbArc
 50
0.807989
 51
90.00000300000001
  0
ARC
  5
7A3
330
54
100
AcDbEntity
  8
Hawa6
 62
     3
100
AcDbCircle
 10
17.1
 20
-9.159239999999998
 30
0.0
 40
2.0
100
AcDbArc
 50
0.00001
 51
0.807994
  0
LINE
  5
7A4
330
54
100
AcDbEntity
  8
Hawa4
 62
     4
100
AcDbLine
 10
19.1
 20
-9.159239999999998
 30
0.0
 11
19.1
 21
-37.259239
 31
0.0
  0
ARC
  5
7A5
330
54
100
AcDbEntity
  8
Hawa4
 62
     4
100
AcDbCircle
 10
17.1
 20
-37.259239
 30
0.0
 40
2.0
100
AcDbArc
 50
270.000001
 51
0.00001
  0
LINE
  5
7A6
330
54
100
AcDbEntity
  8
Hawa4
 62
     4
 48
0.02
100
AcDbLine
 10
16.299999
 20
-39.259239
 30
0.0
 11
17.1
 21
-39.259239
 31
0.0
  0
ARC
  5
7A7
330
54
100
AcDbEntity
  8
Hawa4
 62
     4
100
AcDbCircle
 10
16.299999
 20
-40.259239
 30
0.0
 40
1.0
100
AcDbArc
 50
90.00000300000001
 51
180.000005
  0
LINE
  5
7A8
330
54
100
AcDbEntity
  8
Hawa4
 62
     4
 48
0.0125
100
AcDbLine
 10
15.3
 20
-40.259239
 30
0.0
 11
15.3
 21
-40.759239
 31
0.0
  0
ARC
  5
7A9
330
54
100
AcDbEntity
  8
Hawa4
 62
     4
100
AcDbCircle
 10
14.8
 20
-40.759239
 30
0.0
 40
0.5
100
AcDbArc
 50
270.000001
 51
0.00001
  0
LINE
  5
7AA
330
54
100
AcDbEntity
  8
Hawa4
 62
     4
 48
0.0775
100
AcDbLine
 10
11.7
 20
-41.259239
 30
0.0
 11
14.8
 21
-41.259239
 31
0.0
  0
ARC
  5
7AB
330
54
100
AcDbEntity
  8
Hawa4
 62
     4
100
AcDbCircle
 10
11.7
 20
-41.45923999999999
 30
0.0
 40
0.2
100
AcDbArc
 50
90.00000300000001
 51
180.000005
  0
LINE
  5
7AC
330
54
100
AcDbEntity
  8
Hawa4
 62
     4
 48
0.045
100
AcDbLine
 10
11.5
 20
-41.45923999999999
 30
0.0
 11
11.5
 21
-43.259239
 31
0.0
  0
ARC
  5
7AD
330
54
100
AcDbEntity
  8
Hawa4
 62
     4
100
AcDbCircle
 10
12.5
 20
-43.259239
 30
0.0
 40
1.0
100
AcDbArc
 50
180.000005
 51
270.000001
  0
LINE
  5
7AE
330
54
100
AcDbEntity
  8
Hawa4
 62
     4
 48
0.2125
100
AcDbLine
 10
12.5
 20
-44.25923899999999
 30
0.0
 11
21.0
 21
-44.25923899999999
 31
0.0
  0
ARC
  5
7AF
330
54
100
AcDbEntity
  8
Hawa4
 62
     4
100
AcDbCircle
 10
21.0
 20
-43.259239
 30
0.0
 40
1.0
100
AcDbArc
 50
270.000001
 51
0.00001
  0
LINE
  5
7B0
330
54
100
AcDbEntity
  8
Hawa4
 62
     4
100
AcDbLine
 10
22.0
 20
-43.259239
 30
0.0
 11
22.0
 21
-9.131036999999999
 31
0.0
  0
LINE
  5
7B1
330
54
100
AcDbEntity
  8
Hawa4
 62
     4
 48
0.096795
100
AcDbLine
 10
22.0
 20
-5.25924
 30
0.0
 11
22.0
 21
-9.131036999999999
 31
0.0
  0
ARC
  5
7B2
330
54
100
AcDbEntity
  8
Hawa4
 62
     4
100
AcDbCircle
 10
-11.0
 20
-43.259239
 30
0.0
 40
1.0
100
AcDbArc
 50
180.000005
 51
270.000001
  0
LINE
  5
7B3
330
54
100
AcDbEntity
  8
Hawa4
 62
     4
 48
0.2125
100
AcDbLine
 10
-11.0
 20
-44.25923899999999
 30
0.0
 11
-2.5
 21
-44.25923899999999
 31
0.0
  0
ARC
  5
7B4
330
54
100
AcDbEntity
  8
Hawa4
 62
     4
100
AcDbCircle
 10
4.534315
 20
-6.959239999999999
 30
0.0
 40
0.2
100
AcDbArc
 50
269.999997
 51
315.0
  0
LINE
  5
7B5
330
54
100
AcDbEntity
  8
Hawa4
 62
     4
 48
0.003939
100
AcDbLine
 10
4.675735999999999
 20
-7.100660999999999
 30
0.0
 11
4.787156999999999
 21
-6.989239999999999
 31
0.0
  0
LINE
  5
7B6
330
54
100
AcDbEntity
  8
Hawa4
  6
DASHED
 62
     4
 48
0.002525
100
AcDbLine
 10
4.787156999999999
 20
-6.989239999999999
 30
0.0
 11
4.858578999999999
 21
-6.917819
 31
0.0
  0
ARC
  5
7B7
330
54
100
AcDbEntity
  8
Hawa4
  6
DASHED
 62
     4
100
AcDbCircle
 10
5.0
 20
-7.059239999999999
 30
0.0
 40
0.2
100
AcDbArc
 50
45.0
 51
135.0
  0
LINE
  5
7B8
330
54
100
AcDbEntity
  8
Hawa4
 62
     4
 48
0.003939
100
AcDbLine
 10
5.212844
 20
-6.989241
 30
0.0
 11
5.324264
 21
-7.100660999999999
 31
0.0
  0
LINE
  5
7B9
330
54
100
AcDbEntity
  8
Hawa4
  6
DASHED
 62
     4
 48
0.002525
100
AcDbLine
 10
5.141421
 20
-6.917819
 30
0.0
 11
5.212844
 21
-6.989241
 31
0.0
  0
ARC
  5
7BA
330
54
100
AcDbEntity
  8
Hawa4
 62
     4
100
AcDbCircle
 10
5.465684999999999
 20
-6.959239999999999
 30
0.0
 40
0.2
100
AcDbArc
 50
225.0
 51
269.999997
  0
LINE
  5
7BB
330
54
100
AcDbEntity
  8
Hawa4
 62
     4
 48
0.090156
100
AcDbLine
 10
7.65
 20
-4.609239999999999
 30
0.0
 11
10.2
 21
-7.159239999999999
 31
0.0
  0
LINE
  5
7BC
330
54
100
AcDbEntity
  8
Hawa4
 62
     4
 48
0.090156
100
AcDbLine
 10
2.35
 20
-4.609239999999999
 30
0.0
 11
-0.2
 21
-7.159239999999999
 31
0.0
  0
LINE
  5
7BD
330
54
100
AcDbEntity
  8
Hawa4
  6
DASHED
 62
     4
 48
0.090156
100
AcDbLine
 10
7.65
 20
-4.609239999999999
 30
0.0
 11
10.2
 21
-7.159239999999999
 31
0.0
  0
LINE
  5
7BE
330
54
100
AcDbEntity
  8
Hawa4
  6
DASHED
 62
     4
 48
0.063487
100
AcDbLine
 10
0.689488
 20
-4.25924
 30
0.0
 11
0.689488
 21
-6.798722999999999
 31
0.0
  0
LINE
  5
7BF
330
54
100
AcDbEntity
  8
Hawa4
  6
DASHED
 62
     4
 48
0.00875
100
AcDbLine
 10
2.35
 20
-4.609239999999999
 30
0.0
 11
2.35
 21
-4.25924
 31
0.0
  0
LINE
  5
7C1
330
54
100
AcDbEntity
  8
Hawa4
  6
DASHED
 62
     4
 48
0.0725
100
AcDbLine
 10
7.599999999999999
 20
-7.159239999999999
 30
0.0
 11
7.599999999999999
 21
-4.25924
 31
0.0
  0
LINE
  5
7C2
330
54
100
AcDbEntity
  8
Hawa4
  6
DASHED
 62
     4
 48
0.0725
100
AcDbLine
 10
2.399999999999999
 20
-7.159239999999999
 30
0.0
 11
2.399999999999999
 21
-4.25924
 31
0.0
  0
LINE
  5
7CC
330
54
100
AcDbEntity
  8
Hawa4
  6
DASHED
 62
     4
 48
0.0725
100
AcDbLine
 10
2.399999999999999
 20
-7.159239999999999
 30
0.0
 11
2.399999999999999
 21
-4.25924
 31
0.0
  0
LINE
  5
7D8
330
54
100
AcDbEntity
  8
Hawa4
  6
DASHED
 62
     4
 48
0.090156
100
AcDbLine
 10
2.35
 20
-4.609239999999999
 30
0.0
 11
-0.2
 21
-7.159239999999999
 31
0.0
  0
LINE
  5
7D9
330
54
100
AcDbEntity
  8
Hawa4
  6
DASHED
 62
     4
 48
0.063487
100
AcDbLine
 10
9.310511999999999
 20
-4.25924
 30
0.0
 11
9.310511999999999
 21
-6.798722999999999
 31
0.0
  0
LINE
  5
7DB
330
54
100
AcDbEntity
  8
Hawa4
  6
DASHED
 62
     4
 48
0.00875
100
AcDbLine
 10
7.65
 20
-4.609239999999999
 30
0.0
 11
7.65
 21
-4.25924
 31
0.0
  0
LINE
  5
7DD
330
54
100
AcDbEntity
  8
Hawa4
  6
DASHED
 62
     4
 48
0.063487
100
AcDbLine
 10
9.310511999999999
 20
-4.25924
 30
0.0
 11
9.310511999999999
 21
-6.798721999999999
 31
0.0
  0
LINE
  5
7E3
330
54
100
AcDbEntity
  8
Hawa4
  6
DASHED
 62
     4
 48
0.063487
100
AcDbLine
 10
9.310511999999999
 20
-4.25924
 30
0.0
 11
9.310511999999999
 21
-6.798721999999999
 31
0.0
  0
LINE
  5
7EC
330
54
100
AcDbEntity
  8
Hawa4
  6
DASHED
 62
     4
 48
0.090156
100
AcDbLine
 10
2.35
 20
-4.609239999999999
 30
0.0
 11
-0.2
 21
-7.159239999999999
 31
0.0
  0
LINE
  5
7F1
330
54
100
AcDbEntity
  8
Hawa6
 62
     3
 48
0.025964
100
AcDbLine
 10
-8.15
 20
-22.364241
 30
0.0
 11
-8.15
 21
-23.402786
 31
0.0
  0
LINE
  5
7F2
330
54
100
AcDbEntity
  8
Hawa6
 62
     3
 48
0.025964
100
AcDbLine
 10
18.15
 20
-22.364241
 30
0.0
 11
18.15
 21
-23.402786
 31
0.0
  0
LINE
  5
7F3
330
54
100
AcDbEntity
  8
Hawa6
 62
     3
 48
0.073786
100
AcDbLine
 10
-8.15
 20
-23.402786
 30
0.0
 11
-8.15
 21
-26.35424
 31
0.0
  0
LINE
  5
7F4
330
54
100
AcDbEntity
  8
Hawa6
 62
     3
 48
0.073786
100
AcDbLine
 10
18.15
 20
-23.402786
 30
0.0
 11
18.15
 21
-26.35424
 31
0.0
  0
LINE
  5
7F5
330
54
100
AcDbEntity
  8
Hawa6
 62
     3
 48
0.003751
100
AcDbLine
 10
18.15
 20
-22.364241
 30
0.0
 11
17.99995
 21
-22.364241
 31
0.0
  0
LINE
  5
7F6
330
54
100
AcDbEntity
  8
Hawa6
 62
     3
 48
0.003749
100
AcDbLine
 10
-8.000049999999999
 20
-22.364241
 30
0.0
 11
-8.15
 21
-22.364241
 31
0.0
  0
LINE
  5
7F7
330
54
100
AcDbEntity
  8
Hawa6
 62
     3
 48
0.003751
100
AcDbLine
 10
18.15
 20
-26.35424
 30
0.0
 11
17.99995
 21
-26.35424
 31
0.0
  0
LINE
  5
7F8
330
54
100
AcDbEntity
  8
Hawa6
 62
     3
 48
0.003749
100
AcDbLine
 10
-8.000049999999999
 20
-26.35424
 30
0.0
 11
-8.15
 21
-26.35424
 31
0.0
  0
LINE
  5
7F9
330
54
100
AcDbEntity
  8
Hawa6
 62
     3
 48
0.025
100
AcDbLine
 10
-8.0
 20
-31.85924
 30
0.0
 11
-7.0
 21
-31.85924
 31
0.0
  0
LINE
  5
7FA
330
54
100
AcDbEntity
  8
Hawa6
 62
     3
 48
0.025
100
AcDbLine
 10
17.0
 20
-31.85924
 30
0.0
 11
18.0
 21
-31.85924
 31
0.0
  0
LINE
  5
7FB
330
54
100
AcDbEntity
  8
Hawa6
 62
     3
100
AcDbLine
 10
17.0
 20
-31.85924
 30
0.0
 11
-7.0
 21
-31.85924
 31
0.0
  0
LINE
  5
7FC
330
54
100
AcDbEntity
  8
Hawa6
 62
     3
 48
0.375
100
AcDbLine
 10
-7.0
 20
-16.85924
 30
0.0
 11
-7.0
 21
-31.85924
 31
0.0
  0
LINE
  5
7FD
330
54
100
AcDbEntity
  8
Hawa6
 62
     3
 48
0.025
100
AcDbLine
 10
-8.0
 20
-16.85924
 30
0.0
 11
-7.0
 21
-16.85924
 31
0.0
  0
LINE
  5
7FE
330
54
100
AcDbEntity
  8
Hawa6
 62
     3
 48
0.375
100
AcDbLine
 10
-8.0
 20
-16.85924
 30
0.0
 11
-8.0
 21
-31.85924
 31
0.0
  0
LINE
  5
7FF
330
54
100
AcDbEntity
  8
Hawa6
 62
     3
 48
0.375
100
AcDbLine
 10
18.0
 20
-16.85924
 30
0.0
 11
18.0
 21
-31.85924
 31
0.0
  0
LINE
  5
800
330
54
100
AcDbEntity
  8
Hawa6
 62
     3
 48
0.025
100
AcDbLine
 10
17.0
 20
-16.85924
 30
0.0
 11
18.0
 21
-16.85924
 31
0.0
  0
LINE
  5
801
330
54
100
AcDbEntity
  8
Hawa6
 62
     3
 48
0.375
100
AcDbLine
 10
17.0
 20
-16.85924
 30
0.0
 11
17.0
 21
-31.85924
 31
0.0
  0
LINE
  5
802
330
54
100
AcDbEntity
  8
Hawa6
 62
     3
100
AcDbLine
 10
17.0
 20
-16.85924
 30
0.0
 11
-7.0
 21
-16.85924
 31
0.0
  0
LINE
  5
803
330
54
100
AcDbEntity
  8
Hawa6
 62
     3
 48
0.23
100
AcDbLine
 10
15.0
 20
-41.059238
 30
0.0
 11
15.0
 21
-31.859219
 31
0.0
  0
LINE
  5
804
330
54
100
AcDbEntity
  8
Hawa6
 62
     3
 48
0.229117
100
AcDbLine
 10
15.0
 20
-16.823921
 30
0.0
 11
15.0
 21
-7.659239999999999
 31
0.0
  0
LINE
  5
805
330
54
100
AcDbEntity
  8
Hawa6
 62
     3
 48
0.23
100
AcDbLine
 10
-5.0
 20
-41.059238
 30
0.0
 11
-5.0
 21
-31.859219
 31
0.0
  0
LINE
  5
806
330
54
100
AcDbEntity
  8
Hawa6
 62
     3
 48
0.229117
100
AcDbLine
 10
-5.0
 20
-16.823921
 30
0.0
 11
-5.0
 21
-7.659239999999999
 31
0.0
  0
LINE
  5
807
330
54
100
AcDbEntity
  8
Hawa6
 62
     3
 48
0.235
100
AcDbLine
 10
14.8
 20
-41.259239
 30
0.0
 11
14.8
 21
-31.859221
 31
0.0
  0
LINE
  5
808
330
54
100
AcDbEntity
  8
Hawa6
 62
     3
 48
0.235
100
AcDbLine
 10
14.8
 20
-16.859259
 30
0.0
 11
14.8
 21
-7.459239999999999
 31
0.0
  0
LINE
  5
809
330
54
100
AcDbEntity
  8
Hawa6
 62
     3
 48
0.235
100
AcDbLine
 10
-4.799999999999999
 20
-16.859259
 30
0.0
 11
-4.799999999999999
 21
-7.459239999999999
 31
0.0
  0
LINE
  5
80A
330
54
100
AcDbEntity
  8
Hawa6
 62
     3
 48
0.235
100
AcDbLine
 10
-4.799999999999999
 20
-41.259239
 30
0.0
 11
-4.799999999999999
 21
-31.859221
 31
0.0
  0
LINE
  5
80B
330
54
100
AcDbEntity
  8
Hawa6
 62
     3
 48
0.235
100
AcDbLine
 10
11.5
 20
-41.259239
 30
0.0
 11
11.5
 21
-31.859236
 31
0.0
  0
LINE
  5
80C
330
54
100
AcDbEntity
  8
Hawa6
 62
     3
 48
0.051721
100
AcDbLine
 10
11.5
 20
-9.528093999999999
 30
0.0
 11
11.5
 21
-7.459239999999999
 31
0.0
  0
LINE
  5
80D
330
54
100
AcDbEntity
  8
Hawa6
 62
     3
 48
0.18286
100
AcDbLine
 10
11.5
 20
-16.842501
 30
0.0
 11
11.5
 21
-9.528093999999999
 31
0.0
  0
LINE
  5
80E
330
54
100
AcDbEntity
  8
Hawa6
 62
     3
 48
0.183279
100
AcDbLine
 10
-1.5
 20
-16.859245
 30
0.0
 11
-1.5
 21
-9.528093999999999
 31
0.0
  0
LINE
  5
80F
330
54
100
AcDbEntity
  8
Hawa6
 62
     3
 48
0.051721
100
AcDbLine
 10
-1.5
 20
-9.528093999999999
 30
0.0
 11
-1.5
 21
-7.459239999999999
 31
0.0
  0
LINE
  5
810
330
54
100
AcDbEntity
  8
Hawa6
 62
     3
 48
0.235
100
AcDbLine
 10
-1.5
 20
-41.259239
 30
0.0
 11
-1.5
 21
-31.859236
 31
0.0
  0
LINE
  5
811
330
54
100
AcDbEntity
  8
Hawa6
 62
     3
 48
0.098945
100
AcDbLine
 10
11.038795
 20
-35.817017
 30
0.0
 11
11.038795
 21
-31.859232
 31
0.0
  0
LINE
  5
812
330
54
100
AcDbEntity
  8
Hawa6
 62
     3
 48
0.063879
100
AcDbLine
 10
11.038795
 20
-16.859268
 30
0.0
 11
11.038795
 21
-14.304093
 31
0.0
  0
LINE
  5
813
330
54
100
AcDbEntity
  8
Hawa6
 62
     3
 48
0.035066
100
AcDbLine
 10
11.038795
 20
-14.304093
 30
0.0
 11
11.038795
 21
-12.901462
 31
0.0
  0
LINE
  5
814
330
54
100
AcDbEntity
  8
Hawa6
 62
     3
 48
0.098945
100
AcDbLine
 10
-1.038795
 20
-35.817017
 30
0.0
 11
-1.038795
 21
-31.859232
 31
0.0
  0
LINE
  5
815
330
54
100
AcDbEntity
  8
Hawa6
 62
     3
 48
0.063879
100
AcDbLine
 10
-1.038795
 20
-16.859268
 30
0.0
 11
-1.038795
 21
-14.304093
 31
0.0
  0
LINE
  5
816
330
54
100
AcDbEntity
  8
Hawa6
 62
     3
 48
0.035066
100
AcDbLine
 10
-1.038795
 20
-14.304093
 30
0.0
 11
-1.038795
 21
-12.901462
 31
0.0
  0
LINE
  5
817
330
54
100
AcDbEntity
  8
Hawa6
 62
     3
 48
0.087501
100
AcDbLine
 10
10.540581
 20
-35.359241
 30
0.0
 11
10.540581
 21
-31.859184
 31
0.0
  0
LINE
  5
818
330
54
100
AcDbEntity
  8
Hawa6
 62
     3
 48
0.053837
100
AcDbLine
 10
10.540581
 20
-16.859312
 30
0.0
 11
10.540581
 21
-14.705832
 31
0.0
  0
LINE
  5
819
330
54
100
AcDbEntity
  8
Hawa6
 62
     3
 48
0.033665
100
AcDbLine
 10
10.540581
 20
-14.705832
 30
0.0
 11
10.540581
 21
-13.35924
 31
0.0
  0
LINE
  5
81A
330
54
100
AcDbEntity
  8
Hawa6
 62
     3
 48
0.087501
100
AcDbLine
 10
-0.5405810000000001
 20
-35.359241
 30
0.0
 11
-0.5405810000000001
 21
-31.859184
 31
0.0
  0
LINE
  5
81B
330
54
100
AcDbEntity
  8
Hawa6
 62
     3
 48
0.053837
100
AcDbLine
 10
-0.5405810000000001
 20
-16.859312
 30
0.0
 11
-0.5405810000000001
 21
-14.705832
 31
0.0
  0
LINE
  5
81C
330
54
100
AcDbEntity
  8
Hawa6
 62
     3
 48
0.033665
100
AcDbLine
 10
-0.5405810000000001
 20
-14.705832
 30
0.0
 11
-0.5405810000000001
 21
-13.35924
 31
0.0
  0
ARC
  5
81D
330
54
100
AcDbEntity
  8
Hawa6
 62
     3
100
AcDbCircle
 10
14.8
 20
-41.059238
 30
0.0
 40
0.2
100
AcDbArc
 50
269.999997
 51
360.0
  0
LWPOLYLINE
  5
81E
330
54
100
AcDbEntity
  8
Hawa6
 62
     3
100
AcDbPolyline
 90
       16
 70
     0
 43
0.0
 10
14.8
 20
-7.459239999999999
 10
14.826771
 20
-7.460677999999999
 10
14.852651
 20
-7.466408
 10
14.877321
 20
-7.475999999999999
 10
14.89483599999999
 20
-7.485469
 10
14.911355
 20
-7.496686
 10
14.940864
 20
-7.523639999999999
 10
14.965502
 20
-7.556425999999999
 10
14.983823
 20
-7.592939
 10
14.995448
 20
-7.631810999999999
 10
14.999999
 20
-7.671669999999999
 10
15.0
 20
-7.687105999999999
 10
15.0
 20
-7.776738
 10
15.0
 20
-8.133644999999999
 10
15.0
 20
-15.13441
 10
15.0
 20
-16.859247
  0
LWPOLYLINE
  5
830
330
54
100
AcDbEntity
  8
Hawa6
 62
     3
100
AcDbPolyline
 90
       15
 70
     0
 43
0.0
 10
-4.799999999999999
 20
-7.459239999999999
 10
-4.830156999999999
 20
-7.463133999999999
 10
-4.844949999999999
 20
-7.465944
 10
-4.866461
 20
-7.47221
 10
-4.882565
 20
-7.479361999999999
 10
-4.897909999999999
 20
-7.488328999999999
 10
-4.926124999999999
 20
-7.510355
 10
-4.951179999999999
 20
-7.536596
 10
-4.972038999999999
 20
-7.566163
 10
-4.987733
 20
-7.598078
 10
-4.993375
 20
-7.614897
 10
-4.997252999999999
 20
-7.632117999999999
 10
-4.999448
 20
-7.651949
 10
-4.999951999999999
 20
-7.692035
 10
-4.999926999999999
 20
-7.70945
  0
LINE
  5
841
330
54
100
AcDbEntity
  8
Hawa6
 62
     3
 48
0.067123
100
AcDbLine
 10
-5.0
 20
-10.359247
 30
0.0
 11
-5.0
 21
-7.674324
 31
0.0
  0
LWPOLYLINE
  5
842
330
54
100
AcDbEntity
  8
Hawa6
 62
     3
100
AcDbPolyline
 90
       15
 70
     0
 43
0.0
 10
-5.0
 20
-38.359234
 10
-5.0
 20
-40.842663
 10
-5.0
 20
-41.02127099999999
 10
-4.999991999999999
 20
-41.051582
 10
-4.998676999999999
 20
-41.07107199999999
 10
-4.995379999999999
 20
-41.09042399999999
 10
-4.983223999999999
 20
-41.128132
 10
-4.964291999999999
 20
-41.16350599999999
 10
-4.939346999999999
 20
-41.195343
 10
-4.909761
 20
-41.221962
 10
-4.893362999999999
 20
-41.233086
 10
-4.87605
 20
-41.242496
 10
-4.851746
 20
-41.252056
 10
-4.826304
 20
-41.25779
 10
-4.799999999999999
 20
-41.259239
  0
LINE
  5
853
330
54
100
AcDbEntity
  8
Hawa6
 62
     3
 48
0.0825
100
AcDbLine
 10
11.5
 20
-41.259239
 30
0.0
 11
14.8
 21
-41.259239
 31
0.0
  0
LINE
  5
854
330
54
100
AcDbEntity
  8
Hawa6
 62
     3
 48
0.0825
100
AcDbLine
 10
11.5
 20
-7.459239999999999
 30
0.0
 11
14.8
 21
-7.459239999999999
 31
0.0
  0
LINE
  5
855
330
54
100
AcDbEntity
  8
Hawa6
 62
     3
 48
0.0825
100
AcDbLine
 10
-4.799999999999999
 20
-7.459239999999999
 30
0.0
 11
-1.5
 21
-7.459239999999999
 31
0.0
  0
LINE
  5
856
330
54
100
AcDbEntity
  8
Hawa6
 62
     3
 48
0.0825
100
AcDbLine
 10
-4.799999999999999
 20
-41.259239
 30
0.0
 11
-1.5
 21
-41.259239
 31
0.0
  0
LINE
  5
857
330
54
100
AcDbEntity
  8
Hawa6
 62
     3
 48
0.136543
100
AcDbLine
 10
11.038795
 20
-35.817017
 30
0.0
 11
11.5
 21
-41.259239
 31
0.0
  0
LINE
  5
858
330
54
100
AcDbEntity
  8
Hawa6
 62
     3
 48
0.136543
100
AcDbLine
 10
11.038795
 20
-12.901462
 30
0.0
 11
11.5
 21
-7.459239999999999
 31
0.0
  0
LINE
  5
859
330
54
100
AcDbEntity
  8
Hawa6
 62
     3
 48
0.136543
100
AcDbLine
 10
-1.038795
 20
-35.817017
 30
0.0
 11
-1.5
 21
-41.259239
 31
0.0
  0
LINE
  5
85A
330
54
100
AcDbEntity
  8
Hawa6
 62
     3
 48
0.136543
100
AcDbLine
 10
-1.038795
 20
-12.901462
 30
0.0
 11
-1.5
 21
-7.459239999999999
 31
0.0
  0
ARC
  5
85B
330
54
100
AcDbEntity
  8
Hawa6
 62
     3
100
AcDbCircle
 10
10.540581
 20
-35.859241
 30
0.0
 40
0.5
100
AcDbArc
 50
4.843994
 51
90.00000300000001
  0
ARC
  5
85C
330
54
100
AcDbEntity
  8
Hawa6
 62
     3
100
AcDbCircle
 10
10.540581
 20
-12.85924
 30
0.0
 40
0.5
100
AcDbArc
 50
269.999997
 51
355.156006
  0
ARC
  5
85D
330
54
100
AcDbEntity
  8
Hawa6
 62
     3
100
AcDbCircle
 10
-0.5405810000000001
 20
-35.859241
 30
0.0
 40
0.5
100
AcDbArc
 50
89.999996
 51
175.156008
  0
ARC
  5
85E
330
54
100
AcDbEntity
  8
Hawa6
 62
     3
100
AcDbCircle
 10
-0.5405810000000001
 20
-12.85924
 30
0.0
 40
0.5
100
AcDbArc
 50
184.843992
 51
270.000004
  0
LINE
  5
85F
330
54
100
AcDbEntity
  8
Hawa6
 62
     3
 48
0.013514
100
AcDbLine
 10
-0.5405810000000001
 20
-35.359241
 30
0.0
 11
-0.000018
 21
-35.359241
 31
0.0
  0
LINE
  5
860
330
54
100
AcDbEntity
  8
Hawa6
 62
     3
 48
0.013515
100
AcDbLine
 10
9.999982000000001
 20
-35.359241
 30
0.0
 11
10.540581
 21
-35.359241
 31
0.0
  0
LINE
  5
861
330
54
100
AcDbEntity
  8
Hawa6
 62
     3
 48
0.277029
100
AcDbLine
 10
-0.5405810000000001
 20
-13.35924
 30
0.0
 11
10.540581
 21
-13.35924
 31
0.0
  0
LINE
  5
862
330
54
100
AcDbEntity
  8
Hawa6
  6
DASHSPACE
 62
     3
 48
0.003408
100
AcDbLine
 10
4.95
 20
-109.595573
 30
0.0
 11
4.95
 21
-109.459236
 31
0.0
  0
LINE
  5
863
330
54
100
AcDbEntity
  8
Hawa6
  6
DASHSPACE
 62
     3
 48
0.056876
100
AcDbLine
 10
4.95
 20
-109.595573
 30
0.0
 11
4.95
 21
-111.870621
 31
0.0
  0
LINE
  5
864
330
54
100
AcDbEntity
  8
Hawa6
  6
DASHSPACE
 62
     3
 48
0.004884
100
AcDbLine
 10
4.95
 20
-112.065979
 30
0.0
 11
4.95
 21
-111.870621
 31
0.0
  0
LINE
  5
865
330
54
100
AcDbEntity
  8
Hawa6
  6
DASHSPACE
 62
     3
 48
0.207096
100
AcDbLine
 10
4.95
 20
-120.349815
 30
0.0
 11
4.95
 21
-112.065979
 31
0.0
  0
LINE
  5
866
330
54
100
AcDbEntity
  8
Hawa6
  6
DASHSPACE
 62
     3
 48
0.010236
100
AcDbLine
 10
4.95
 20
-120.349815
 30
0.0
 11
4.95
 21
-120.759239
 31
0.0
  0
LINE
  5
867
330
54
100
AcDbEntity
  8
Hawa6
  6
DASHSPACE
 62
     3
 48
0.010236
100
AcDbLine
 10
4.95
 20
-121.168663
 30
0.0
 11
4.95
 21
-120.759239
 31
0.0
  0
LINE
  5
868
330
54
100
AcDbEntity
  8
Hawa6
  6
DASHSPACE
 62
     3
 48
0.212264
100
AcDbLine
 10
4.95
 20
-129.659241
 30
0.0
 11
4.95
 21
-121.168663
 31
0.0
  0
LINE
  5
869
330
54
100
AcDbEntity
  8
Hawa6
  6
DASHSPACE
 62
     3
 48
0.003408
100
AcDbLine
 10
9.8
 20
-109.595573
 30
0.0
 11
9.8
 21
-109.459236
 31
0.0
  0
LINE
  5
86A
330
54
100
AcDbEntity
  8
Hawa6
  6
DASHSPACE
 62
     3
 48
0.056876
100
AcDbLine
 10
9.8
 20
-109.595573
 30
0.0
 11
9.8
 21
-111.870621
 31
0.0
  0
LINE
  5
86B
330
54
100
AcDbEntity
  8
Hawa6
  6
DASHSPACE
 62
     3
 48
0.004884
100
AcDbLine
 10
9.8
 20
-112.065979
 30
0.0
 11
9.8
 21
-111.870621
 31
0.0
  0
LINE
  5
86C
330
54
100
AcDbEntity
  8
Hawa6
  6
DASHSPACE
 62
     3
 48
0.207096
100
AcDbLine
 10
9.8
 20
-120.349815
 30
0.0
 11
9.8
 21
-112.065979
 31
0.0
  0
LINE
  5
86D
330
54
100
AcDbEntity
  8
Hawa6
  6
DASHSPACE
 62
     3
 48
0.010236
100
AcDbLine
 10
9.8
 20
-120.349815
 30
0.0
 11
9.8
 21
-120.759239
 31
0.0
  0
LINE
  5
86E
330
54
100
AcDbEntity
  8
Hawa6
  6
DASHSPACE
 62
     3
 48
0.010236
100
AcDbLine
 10
9.8
 20
-121.168663
 30
0.0
 11
9.8
 21
-120.759239
 31
0.0
  0
LINE
  5
86F
330
54
100
AcDbEntity
  8
Hawa6
  6
DASHSPACE
 62
     3
 48
0.212264
100
AcDbLine
 10
9.8
 20
-129.659241
 30
0.0
 11
9.8
 21
-121.168663
 31
0.0
  0
LINE
  5
870
330
54
100
AcDbEntity
  8
Hawa6
  6
DASHSPACE
 62
     3
 48
0.12125
100
AcDbLine
 10
9.8
 20
-112.065979
 30
0.0
 11
4.95
 21
-112.065979
 31
0.0
  0
LINE
  5
871
330
54
100
AcDbEntity
  8
Hawa6
  6
DASHSPACE
 62
     3
 48
0.12125
100
AcDbLine
 10
9.8
 20
-111.870621
 30
0.0
 11
4.95
 21
-111.870621
 31
0.0
  0
LINE
  5
872
330
54
100
AcDbEntity
  8
Hawa6
  6
DASHSPACE
 62
     3
 48
0.12125
100
AcDbLine
 10
9.8
 20
-109.595573
 30
0.0
 11
4.95
 21
-109.595573
 31
0.0
  0
LINE
  5
873
330
54
100
AcDbEntity
  8
Hawa6
  6
DASHSPACE
 62
     3
 48
0.12125
100
AcDbLine
 10
4.95
 20
-129.659241
 30
0.0
 11
9.8
 21
-129.659241
 31
0.0
  0
LINE
  5
874
330
54
100
AcDbEntity
  8
Hawa6
  6
DASHSPACE
 62
     3
 48
0.12125
100
AcDbLine
 10
4.95
 20
-109.459236
 30
0.0
 11
9.8
 21
-109.459236
 31
0.0
  0
LINE
  5
875
330
54
100
AcDbEntity
  8
Hawa6
 62
     3
 48
0.0425
100
AcDbLine
 10
11.7
 20
-141.259247
 30
0.0
 11
10.0
 21
-141.259247
 31
0.0
  0
LINE
  5
876
330
54
100
AcDbEntity
  8
Hawa6
 62
     3
100
AcDbLine
 10
11.7
 20
-141.259247
 30
0.0
 11
11.7
 21
-104.259239
 31
0.0
  0
LINE
  5
877
330
54
100
AcDbEntity
  8
Hawa6
 62
     3
 48
0.0425
100
AcDbLine
 10
11.7
 20
-104.259239
 30
0.0
 11
10.0
 21
-104.259239
 31
0.0
  0
LINE
  5
878
330
54
100
AcDbEntity
  8
Hawa6
 62
     3
100
AcDbLine
 10
10.0
 20
-104.259239
 30
0.0
 11
10.0
 21
-141.259247
 31
0.0
  0
LINE
  5
879
330
54
100
AcDbEntity
  8
Hawa6
 62
     3
 48
0.0425
100
AcDbLine
 10
11.7
 20
-50.259239
 30
0.0
 11
10.0
 21
-50.259239
 31
0.0
  0
LINE
  5
87A
330
54
100
AcDbEntity
  8
Hawa6
 62
     3
100
AcDbLine
 10
11.7
 20
-104.259239
 30
0.0
 11
11.7
 21
-50.259239
 31
0.0
  0
LINE
  5
87B
330
54
100
AcDbEntity
  8
Hawa6
 62
     3
100
AcDbLine
 10
10.0
 20
-104.259239
 30
0.0
 11
10.0
 21
-50.259239
 31
0.0
  0
LINE
  5
87C
330
54
100
AcDbEntity
  8
Hawa6
 62
     3
 48
0.035238
100
AcDbLine
 10
11.7
 20
-50.259239
 30
0.0
 11
13.109539
 21
-50.259239
 31
0.0
  0
LINE
  5
87D
330
54
100
AcDbEntity
  8
Hawa6
 62
     3
100
AcDbLine
 10
13.109539
 20
-104.259239
 30
0.0
 11
13.109539
 21
-50.259239
 31
0.0
  0
LINE
  5
87E
330
54
100
AcDbEntity
  8
Hawa6
 62
     3
 48
0.035238
100
AcDbLine
 10
13.109539
 20
-104.259239
 30
0.0
 11
11.7
 21
-104.259239
 31
0.0
  0
LINE
  5
87F
330
54
100
AcDbEntity
  8
Hawa6
 62
     3
 48
0.0602
100
AcDbLine
 10
15.517541
 20
-50.259239
 30
0.0
 11
13.109539
 21
-50.259239
 31
0.0
  0
LINE
  5
880
330
54
100
AcDbEntity
  8
Hawa6
 62
     3
100
AcDbLine
 10
15.517541
 20
-104.259239
 30
0.0
 11
15.517541
 21
-50.259239
 31
0.0
  0
LINE
  5
881
330
54
100
AcDbEntity
  8
Hawa6
 62
     3
 48
0.0602
100
AcDbLine
 10
15.517541
 20
-104.259239
 30
0.0
 11
13.109539
 21
-104.259239
 31
0.0
  0
LINE
  5
882
330
54
100
AcDbEntity
  8
Hawa6
 62
     3
 48
0.012061
100
AcDbLine
 10
15.517541
 20
-50.259239
 30
0.0
 11
16.0
 21
-50.259239
 31
0.0
  0
LINE
  5
883
330
54
100
AcDbEntity
  8
Hawa6
 62
     3
100
AcDbLine
 10
16.0
 20
-104.259239
 30
0.0
 11
16.0
 21
-50.259239
 31
0.0
  0
LINE
  5
884
330
54
100
AcDbEntity
  8
Hawa6
 62
     3
 48
0.012061
100
AcDbLine
 10
16.0
 20
-104.259239
 30
0.0
 11
15.517541
 21
-104.259239
 31
0.0
  0
LINE
  5
885
330
54
100
AcDbEntity
  8
Hawa6
 62
     3
100
AcDbLine
 10
16.0
 20
-130.920181
 30
0.0
 11
16.0
 21
-104.259239
 31
0.0
  0
LINE
  5
886
330
54
100
AcDbEntity
  8
Hawa6
 62
     3
100
AcDbLine
 10
15.517541
 20
-133.656342
 30
0.0
 11
15.517541
 21
-104.259239
 31
0.0
  0
LINE
  5
887
330
54
100
AcDbEntity
  8
Hawa6
 62
     3
100
AcDbLine
 10
13.109539
 20
-140.2722629999999
 30
0.0
 11
13.109539
 21
-104.259239
 31
0.0
  0
ARC
  5
888
330
54
100
AcDbEntity
  8
Hawa6
 62
     3
100
AcDbCircle
 10
8.0
 20
-130.920181
 30
0.0
 40
8.0
100
AcDbArc
 50
340.000001
 51
0.0
  0
LINE
  5
889
330
54
100
AcDbEntity
  8
Hawa6
 62
     3
 48
0.176013
100
AcDbLine
 10
15.517541
 20
-133.656342
 30
0.0
 11
13.109539
 21
-140.2722629999999
 31
0.0
  0
ARC
  5
88A
330
54
100
AcDbEntity
  8
Hawa6
 62
     3
100
AcDbCircle
 10
11.7
 20
-139.759247
 30
0.0
 40
1.5
100
AcDbArc
 50
269.999997
 51
340.000001
  0
LINE
  5
88B
330
54
100
AcDbEntity
  8
Hawa6
 62
     3
100
AcDbLine
 10
0.0
 20
-104.259239
 30
0.0
 11
0.0
 21
-50.259239
 31
0.0
  0
LINE
  5
88C
330
54
100
AcDbEntity
  8
Hawa6
 62
     3
 48
0.0425
100
AcDbLine
 10
-1.7
 20
-104.259239
 30
0.0
 11
0.0
 21
-104.259239
 31
0.0
  0
LINE
  5
88D
330
54
100
AcDbEntity
  8
Hawa6
 62
     3
100
AcDbLine
 10
-1.7
 20
-104.259239
 30
0.0
 11
-1.7
 21
-50.259239
 31
0.0
  0
LINE
  5
88E
330
54
100
AcDbEntity
  8
Hawa6
 62
     3
 48
0.0425
100
AcDbLine
 10
-1.7
 20
-50.259239
 30
0.0
 11
0.0
 21
-50.259239
 31
0.0
  0
LINE
  5
88F
330
54
100
AcDbEntity
  8
Hawa6
 62
     3
 48
0.035238
100
AcDbLine
 10
-3.109538999999999
 20
-104.259239
 30
0.0
 11
-1.7
 21
-104.259239
 31
0.0
  0
LINE
  5
890
330
54
100
AcDbEntity
  8
Hawa6
 62
     3
100
AcDbLine
 10
-3.109538999999999
 20
-104.259239
 30
0.0
 11
-3.109538999999999
 21
-50.259239
 31
0.0
  0
LINE
  5
891
330
54
100
AcDbEntity
  8
Hawa6
 62
     3
 48
0.035238
100
AcDbLine
 10
-3.109538999999999
 20
-50.259239
 30
0.0
 11
-1.7
 21
-50.259239
 31
0.0
  0
LINE
  5
892
330
54
100
AcDbEntity
  8
Hawa6
 62
     3
 48
0.0602
100
AcDbLine
 10
-5.517541
 20
-104.259239
 30
0.0
 11
-3.109538999999999
 21
-104.259239
 31
0.0
  0
LINE
  5
893
330
54
100
AcDbEntity
  8
Hawa6
 62
     3
100
AcDbLine
 10
-5.517541
 20
-104.259239
 30
0.0
 11
-5.517541
 21
-50.259239
 31
0.0
  0
LINE
  5
894
330
54
100
AcDbEntity
  8
Hawa6
 62
     3
 48
0.0602
100
AcDbLine
 10
-5.517541
 20
-50.259239
 30
0.0
 11
-3.109538999999999
 21
-50.259239
 31
0.0
  0
LINE
  5
895
330
54
100
AcDbEntity
  8
Hawa6
 62
     3
 48
0.012061
100
AcDbLine
 10
-6.0
 20
-104.259239
 30
0.0
 11
-5.517541
 21
-104.259239
 31
0.0
  0
LINE
  5
896
330
54
100
AcDbEntity
  8
Hawa6
 62
     3
100
AcDbLine
 10
-6.0
 20
-104.259239
 30
0.0
 11
-6.0
 21
-50.259239
 31
0.0
  0
LINE
  5
897
330
54
100
AcDbEntity
  8
Hawa6
 62
     3
 48
0.012061
100
AcDbLine
 10
-6.0
 20
-50.259239
 30
0.0
 11
-5.517541
 21
-50.259239
 31
0.0
  0
LINE
  5
898
330
54
100
AcDbEntity
  8
Hawa6
 62
     3
100
AcDbLine
 10
0.0
 20
-141.259247
 30
0.0
 11
0.0
 21
-104.259239
 31
0.0
  0
LINE
  5
899
330
54
100
AcDbEntity
  8
Hawa6
 62
     3
100
AcDbLine
 10
-1.7
 20
-141.259247
 30
0.0
 11
-1.7
 21
-104.259239
 31
0.0
  0
LINE
  5
89A
330
54
100
AcDbEntity
  8
Hawa6
 62
     3
 48
0.0425
100
AcDbLine
 10
-1.7
 20
-141.259247
 30
0.0
 11
0.0
 21
-141.259247
 31
0.0
  0
LINE
  5
89B
330
54
100
AcDbEntity
  8
Hawa6
 62
     3
100
AcDbLine
 10
-5.517541
 20
-133.656342
 30
0.0
 11
-5.517541
 21
-104.259239
 31
0.0
  0
LINE
  5
89C
330
54
100
AcDbEntity
  8
Hawa6
 62
     3
100
AcDbLine
 10
-6.0
 20
-130.920181
 30
0.0
 11
-6.0
 21
-104.259239
 31
0.0
  0
LINE
  5
89D
330
54
100
AcDbEntity
  8
Hawa6
 62
     3
100
AcDbLine
 10
-3.109538999999999
 20
-140.2722629999999
 30
0.0
 11
-3.109538999999999
 21
-104.259239
 31
0.0
  0
ARC
  5
89E
330
54
100
AcDbEntity
  8
Hawa6
 62
     3
100
AcDbCircle
 10
2.0
 20
-130.920181
 30
0.0
 40
8.0
100
AcDbArc
 50
180.000005
 51
200.000001
  0
LINE
  5
89F
330
54
100
AcDbEntity
  8
Hawa6
 62
     3
 48
0.176013
100
AcDbLine
 10
-5.517541
 20
-133.656342
 30
0.0
 11
-3.109538999999999
 21
-140.2722629999999
 31
0.0
  0
ARC
  5
8A0
330
54
100
AcDbEntity
  8
Hawa6
 62
     3
100
AcDbCircle
 10
-1.7
 20
-139.759247
 30
0.0
 40
1.5
100
AcDbArc
 50
200.000004
 51
269.999997
  0
LINE
  5
8A1
330
54
100
AcDbEntity
  8
Hawa6
  6
DASHSPACE
 62
     3
 48
0.045
100
AcDbLine
 10
5.0
 20
-88.75923900000001
 30
0.0
 11
3.200000999999999
 21
-88.75923900000001
 31
0.0
  0
LINE
  5
8A2
330
54
100
AcDbEntity
  8
Hawa6
  6
DASHSPACE
 62
     3
 48
0.045134
100
AcDbLine
 10
6.805366999999999
 20
-88.75923900000001
 30
0.0
 11
5.0
 21
-88.75923900000001
 31
0.0
  0
ARC
  5
8A3
330
54
100
AcDbEntity
  8
Hawa6
  6
DASHSPACE
 62
     3
100
AcDbCircle
 10
4.980302
 20
-94.019791
 30
0.0
 40
11.760742
100
AcDbArc
 50
81.096236
 51
89.90403200000001
  0
ARC
  5
8A4
330
54
100
AcDbEntity
  8
Hawa6
  6
DASHSPACE
 62
     3
100
AcDbCircle
 10
4.980509999999999
 20
-77.00223499999999
 30
0.0
 40
11.757193
100
AcDbArc
 50
270.094985
 51
278.873643
  0
ARC
  5
8A5
330
54
100
AcDbEntity
  8
Hawa6
  6
DASHSPACE
 62
     3
100
AcDbCircle
 10
5.019491
 20
-94.016251
 30
0.0
 40
11.757201
100
AcDbArc
 50
90.094983
 51
98.873723
  0
ARC
  5
8A6
330
54
100
AcDbEntity
  8
Hawa6
  6
DASHSPACE
 62
     3
100
AcDbCircle
 10
5.019674
 20
-76.9991
 30
0.0
 40
11.760335
100
AcDbArc
 50
261.099687
 51
269.904149
  0
CIRCLE
  5
8A7
330
54
100
AcDbEntity
  8
Hawa6
  6
DASHSPACE
 62
     3
100
AcDbCircle
 10
5.0
 20
-85.509239
 30
0.0
 40
1.55
  0
LINE
  5
8A8
330
54
100
AcDbEntity
  8
Hawa6
  6
DASHSPACE
 62
     3
 48
0.028247
100
AcDbLine
 10
3.556623999999999
 20
-84.94429000000002
 30
0.0
 11
3.556623999999999
 21
-86.07418800000001
 31
0.0
  0
LINE
  5
8A9
330
54
100
AcDbEntity
  8
Hawa6
  6
DASHSPACE
 62
     3
 48
0.028247
100
AcDbLine
 10
6.443375999999999
 20
-84.94429000000002
 30
0.0
 11
6.443375999999999
 21
-86.07418800000001
 31
0.0
  0
LINE
  5
8AA
330
54
100
AcDbEntity
  8
Hawa6
 62
     3
 48
0.4600010000000001
100
AcDbLine
 10
10.0
 20
-50.259266
 30
0.0
 11
10.0
 21
-31.85924
 31
0.0
  0
LINE
  5
8AB
330
54
100
AcDbEntity
  8
Hawa6
 62
     3
100
AcDbLine
 10
0.0
 20
-52.259247
 30
0.0
 11
0.0
 21
-31.85924
 31
0.0
  0
LINE
  5
8B3
330
54
100
AcDbEntity
  8
Hawa6
  6
DASHSPACE
 62
     3
 48
0.003408
100
AcDbLine
 10
0.1
 20
-109.595573
 30
0.0
 11
0.1
 21
-109.459236
 31
0.0
  0
LINE
  5
8B4
330
54
100
AcDbEntity
  8
Hawa6
  6
DASHSPACE
 62
     3
 48
0.056876
100
AcDbLine
 10
0.1
 20
-109.595573
 30
0.0
 11
0.1
 21
-111.870621
 31
0.0
  0
LINE
  5
8B5
330
54
100
AcDbEntity
  8
Hawa6
  6
DASHSPACE
 62
     3
 48
0.004884
100
AcDbLine
 10
0.1
 20
-112.065979
 30
0.0
 11
0.1
 21
-111.870621
 31
0.0
  0
LINE
  5
8B6
330
54
100
AcDbEntity
  8
Hawa6
  6
DASHSPACE
 62
     3
 48
0.207096
100
AcDbLine
 10
0.1
 20
-120.349815
 30
0.0
 11
0.1
 21
-112.065979
 31
0.0
  0
LINE
  5
8B7
330
54
100
AcDbEntity
  8
Hawa6
  6
DASHSPACE
 62
     3
 48
0.010236
100
AcDbLine
 10
0.1
 20
-120.349815
 30
0.0
 11
0.1
 21
-120.759239
 31
0.0
  0
LINE
  5
8B8
330
54
100
AcDbEntity
  8
Hawa6
  6
DASHSPACE
 62
     3
 48
0.010236
100
AcDbLine
 10
0.1
 20
-121.168663
 30
0.0
 11
0.1
 21
-120.759239
 31
0.0
  0
LINE
  5
8B9
330
54
100
AcDbEntity
  8
Hawa6
  6
DASHSPACE
 62
     3
 48
0.212264
100
AcDbLine
 10
0.1
 20
-129.659241
 30
0.0
 11
0.1
 21
-121.168663
 31
0.0
  0
LINE
  5
8C1
330
54
100
AcDbEntity
  8
Hawa6
  6
DASHSPACE
 62
     3
 48
0.12125
100
AcDbLine
 10
4.95
 20
-112.065979
 30
0.0
 11
0.1
 21
-112.065979
 31
0.0
  0
LINE
  5
8C2
330
54
100
AcDbEntity
  8
Hawa6
  6
DASHSPACE
 62
     3
 48
0.12125
100
AcDbLine
 10
4.95
 20
-111.870621
 30
0.0
 11
0.1
 21
-111.870621
 31
0.0
  0
LINE
  5
8C3
330
54
100
AcDbEntity
  8
Hawa6
  6
DASHSPACE
 62
     3
 48
0.12125
100
AcDbLine
 10
4.95
 20
-109.595573
 30
0.0
 11
0.1
 21
-109.595573
 31
0.0
  0
LINE
  5
8C4
330
54
100
AcDbEntity
  8
Hawa6
  6
DASHSPACE
 62
     3
 48
0.12125
100
AcDbLine
 10
0.1
 20
-129.659241
 30
0.0
 11
4.95
 21
-129.659241
 31
0.0
  0
LINE
  5
8C5
330
54
100
AcDbEntity
  8
Hawa6
  6
DASHSPACE
 62
     3
 48
0.12125
100
AcDbLine
 10
0.1
 20
-109.459236
 30
0.0
 11
4.95
 21
-109.459236
 31
0.0
  0
LINE
  5
8C6
330
54
100
AcDbEntity
  8
Hawa5
 62
     1
100
AcDbLine
 10
-35.0
 20
-4.25924
 30
0.0
 11
45.0
 21
-4.25924
 31
0.0
  0
LINE
  5
8C7
330
54
100
AcDbEntity
  8
Hawa5
 62
     1
 48
0.2375
100
AcDbLine
 10
6.799999999999999
 20
-3.75924
 30
0.0
 11
6.799999999999999
 21
5.740759999999999
 31
0.0
  0
LINE
  5
8C8
330
54
100
AcDbEntity
  8
Hawa5
 62
     1
 48
0.104298
100
AcDbLine
 10
6.799999999999999
 20
-3.75924
 30
0.0
 11
9.75
 21
-6.709239999999999
 31
0.0
  0
LINE
  5
8C9
330
54
100
AcDbEntity
  8
Hawa5
 62
     1
 48
0.007
100
AcDbLine
 10
9.75
 20
-6.989239999999999
 30
0.0
 11
9.75
 21
-6.709239999999999
 31
0.0
  0
LINE
  5
8CA
330
54
100
AcDbEntity
  8
Hawa5
 62
     1
 48
0.052472
100
AcDbLine
 10
7.651102
 20
-6.989239999999999
 30
0.0
 11
9.75
 21
-6.989239999999999
 31
0.0
  0
LINE
  5
8CB
330
54
100
AcDbEntity
  8
Hawa5
 62
     1
 48
0.087795
100
AcDbLine
 10
6.45
 20
-3.68924
 30
0.0
 11
7.651102
 21
-6.989239999999999
 31
0.0
  0
LINE
  5
8CC
330
54
100
AcDbEntity
  8
Hawa5
 62
     1
 48
0.0725
100
AcDbLine
 10
3.549999999999999
 20
-3.68924
 30
0.0
 11
6.45
 21
-3.68924
 31
0.0
  0
LINE
  5
8CD
330
54
100
AcDbEntity
  8
Hawa5
 62
     1
 48
0.087795
100
AcDbLine
 10
3.549999999999999
 20
-3.68924
 30
0.0
 11
2.348898
 21
-6.989239999999999
 31
0.0
  0
LINE
  5
8CE
330
54
100
AcDbEntity
  8
Hawa5
 62
     1
 48
0.052472
100
AcDbLine
 10
0.25
 20
-6.989239999999999
 30
0.0
 11
2.348898
 21
-6.989239999999999
 31
0.0
  0
LINE
  5
8CF
330
54
100
AcDbEntity
  8
Hawa5
 62
     1
 48
0.007
100
AcDbLine
 10
0.25
 20
-6.989239999999999
 30
0.0
 11
0.25
 21
-6.709239999999999
 31
0.0
  0
LINE
  5
8D0
330
54
100
AcDbEntity
  8
Hawa5
 62
     1
 48
0.104298
100
AcDbLine
 10
3.2
 20
-3.75924
 30
0.0
 11
0.25
 21
-6.709239999999999
 31
0.0
  0
LINE
  5
8D1
330
54
100
AcDbEntity
  8
Hawa5
 62
     1
 48
0.2375
100
AcDbLine
 10
3.2
 20
-3.75924
 30
0.0
 11
3.2
 21
5.740759999999999
 31
0.0
  0
LINE
  5
8D2
330
54
100
AcDbEntity
  8
Hawa5
 62
     1
 48
0.06825
100
AcDbLine
 10
4.4
 20
-6.989239999999999
 30
0.0
 11
4.4
 21
-4.25924
 31
0.0
  0
LINE
  5
8D3
330
54
100
AcDbEntity
  8
Hawa5
 62
     1
 48
0.030028
100
AcDbLine
 10
2.348898
 20
-6.989239999999999
 30
0.0
 11
3.549999999999999
 21
-6.989239999999999
 31
0.0
  0
LINE
  5
8D4
330
54
100
AcDbEntity
  8
Hawa5
 62
     1
 48
0.02125
100
AcDbLine
 10
3.549999999999999
 20
-6.989239999999999
 30
0.0
 11
4.4
 21
-6.989239999999999
 31
0.0
  0
LINE
  5
8D5
330
54
100
AcDbEntity
  8
Hawa5
 62
     1
 48
0.03
100
AcDbLine
 10
4.4
 20
-6.989239999999999
 30
0.0
 11
5.599999999999999
 21
-6.989239999999999
 31
0.0
  0
LINE
  5
8D6
330
54
100
AcDbEntity
  8
Hawa5
 62
     1
 48
0.02125
100
AcDbLine
 10
6.45
 20
-6.989239999999999
 30
0.0
 11
5.599999999999999
 21
-6.989239999999999
 31
0.0
  0
LINE
  5
8D7
330
54
100
AcDbEntity
  8
Hawa5
 62
     1
 48
0.030028
100
AcDbLine
 10
6.45
 20
-6.989239999999999
 30
0.0
 11
7.651102
 21
-6.989239999999999
 31
0.0
  0
LINE
  5
8D8
330
54
100
AcDbEntity
  8
Hawa5
 62
     1
 48
0.06825
100
AcDbLine
 10
5.599999999999999
 20
-6.989239999999999
 30
0.0
 11
5.599999999999999
 21
-4.25924
 31
0.0
  0
ENDBLK
  5
8D9
330
54
100
AcDbEntity
  8
HAWA1
100
AcDbBlockEnd
  0
ENDSEC
  0
SECTION
  2
ENTITIES
  0
DIMENSION
  5
26
330
A
100
AcDbEntity
  8
HAWA1
 62
     0
100
AcDbDimension
  2
*D0
 10
93.847087
 20
99.14765500000001
 30
0.0
 11
81.205081
 21
99.14765500000001
 31
0.0
 70
   160
 71
     5
 42
-1.0
 52
89.999523
  3
STANDARD
100
AcDbAlignedDimension
 13
88.847087
 23
143.677617
 33
0.0
 14
93.847087
 24
74.68794200000001
 34
0.0
 50
359.998092
100
AcDbRotatedDimension
  0
DIMENSION
  5
28
330
A
100
AcDbEntity
  8
HAWA1
 62
     0
100
AcDbDimension
  2
*D1
 10
98.847087
 20
99.14765500000001
 30
0.0
 11
110.292644
 21
99.14765500000001
 31
0.0
 70
   160
 71
     5
 42
-1.0
 52
89.999523
  3
STANDARD
100
AcDbAlignedDimension
 13
93.847087
 23
74.68794200000001
 33
0.0
 14
98.847087
 24
106.677617
 34
0.0
 50
359.998092
100
AcDbRotatedDimension
  0
DIMENSION
  5
2A
330
A
100
AcDbEntity
  8
HAWA1
 62
     0
100
AcDbDimension
  2
*D2
 10
110.847087
 20
265.534986
 30
0.0
 11
93.847087
 21
265.534986
 31
0.0
 70
   161
 71
     5
 42
-1.0
 52
89.999523
  3
STANDARD
100
AcDbAlignedDimension
 13
76.847087
 23
242.677617
 33
0.0
 14
110.847087
 24
242.677617
 34
0.0
  0
DIMENSION
  5
2C
330
A
100
AcDbEntity
  8
HAWA1
 62
     0
100
AcDbDimension
  2
*D3
 10
121.239086
 20
243.677617
 30
0.0
 11
121.239086
 21
225.687939
 31
0.0
 70
   160
 71
     5
 42
-1.0
 52
89.999523
  3
STANDARD
100
AcDbAlignedDimension
 13
109.847087
 23
203.677617
 33
0.0
 14
131.239086
 24
243.677617
 34
0.0
 50
89.999523
100
AcDbRotatedDimension
  0
DIMENSION
  5
2E
330
A
100
AcDbEntity
  8
HAWA1
 62
     0
100
AcDbDimension
  2
*D4
 10
121.239086
 20
203.677617
 30
0.0
 11
121.239086
 21
189.10061
 31
0.0
 70
   160
 71
     5
 42
-1.0
 52
89.999523
  3
STANDARD
100
AcDbAlignedDimension
 13
97.84708700000001
 23
198.6775899999999
 33
0.0
 14
109.847087
 24
203.677617
 34
0.0
 50
89.999523
100
AcDbRotatedDimension
  0
DIMENSION
  5
30
330
A
100
AcDbEntity
  8
HAWA1
 62
     0
100
AcDbDimension
  2
*D5
 10
136.83662
 20
243.677617
 30
0.0
 11
136.83662
 21
218.5128
 31
0.0
 70
   160
  1
<>{}{%%p3}
 71
     5
 42
-1.0
 52
89.999523
  3
STANDARD
100
AcDbAlignedDimension
 13
97.84708700000001
 23
198.6775899999999
 33
0.0
 14
133.847087
 24
243.677617
 34
0.0
 50
89.999523
100
AcDbRotatedDimension
1001
ACAD
1000
DSTYLE
1002
{
1070
    71
1070
     0
1070
    72
1070
     0
1070
    47
1040
3.0
1070
    48
1040
3.0
1002
}
  0
DIMENSION
  5
32
330
A
100
AcDbEntity
  8
HAWA1
 62
     0
100
AcDbDimension
  2
*D6
 10
74.84144599999999
 20
197.677617
 30
0.0
 11
74.84144599999999
 21
152.177617
 31
0.0
 70
   160
 71
     5
 42
-1.0
 52
89.999523
  3
STANDARD
100
AcDbAlignedDimension
 13
87.147087
 23
106.677617
 33
0.0
 14
83.32954599999998
 24
197.677617
 34
0.0
 50
89.999523
100
AcDbRotatedDimension
  0
DIMENSION
  5
34
330
A
100
AcDbEntity
  8
HAWA1
 62
     0
100
AcDbDimension
  2
*D7
 10
82.84708700000001
 20
121.169234
 30
0.0
 11
114.435581
 21
121.169234
 31
0.0
 70
   161
 71
     5
 42
-1.0
 52
89.999523
  3
STANDARD
100
AcDbAlignedDimension
 13
104.847087
 23
117.016679
 33
0.0
 14
82.84708700000001
 24
117.016679
 34
0.0
  0
DIMENSION
  5
36
330
A
100
AcDbEntity
  8
HAWA1
 62
     0
100
AcDbDimension
  2
*D8
 10
98.847087
 20
143.00643
 30
0.0
 11
112.853557
 21
143.00643
 31
0.0
 70
   161
 71
     5
 42
-1.0
 52
89.999523
  3
STANDARD
100
AcDbAlignedDimension
 13
104.847087
 23
153.00643
 33
0.0
 14
98.847087
 24
153.00643
 34
0.0
  0
DIMENSION
  5
38
330
A
100
AcDbEntity
  8
HAWA1
 62
     0
100
AcDbDimension
  2
*D9
 10
88.847087
 20
82.89928600000001
 30
0.0
 11
107.645679
 21
82.89928600000001
 31
0.0
 70
   161
 71
     5
 42
-1.0
 52
89.999523
  3
STANDARD
100
AcDbAlignedDimension
 13
98.847087
 23
72.899286
 33
0.0
 14
88.847087
 24
72.899286
 34
0.0
  0
DIMENSION
  5
3A
330
A
100
AcDbEntity
  8
HAWA1
 62
     0
100
AcDbDimension
  2
*D10
 10
98.847087
 20
82.89928600000001
 30
0.0
 11
123.243152
 21
82.89928600000001
 31
0.0
 70
   161
  1
(8
 71
     5
 42
-1.0
 52
89.999523
  3
STANDARD
100
AcDbAlignedDimension
 13
88.847087
 23
72.899286
 33
0.0
 14
98.847087
 24
72.899286
 34
0.0
  0
DIMENSION
  5
3C
330
A
100
AcDbEntity
  8
HAWA1
 62
     0
100
AcDbDimension
  2
*D11
 10
98.847087
 20
82.89928600000001
 30
0.0
 11
144.355857
 21
82.89928600000001
 31
0.0
 70
   161
  1
-12,7
 71
     5
 42
-1.0
 52
89.999523
  3
STANDARD
100
AcDbAlignedDimension
 13
88.847087
 23
72.899286
 33
0.0
 14
98.847087
 24
72.899286
 34
0.0
  0
DIMENSION
  5
3E
330
A
100
AcDbEntity
  8
HAWA1
 62
     0
100
AcDbDimension
  2
*D12
 10
96.49708699999999
 20
253.90745
 30
0.0
 11
110.064312
 21
253.90745
 31
0.0
 70
   161
  1
%%c<>
 71
     5
 42
-1.0
 52
89.999523
  3
STANDARD
100
AcDbAlignedDimension
 13
91.197087
 23
243.677617
 33
0.0
 14
96.49708699999999
 24
243.677617
 34
0.0
  0
LINE
  5
3F
330
A
100
AcDbEntity
  8
Hawa6
  6
DASHDOT
 62
     3
 48
0.013851
100
AcDbLine
 10
87.854463
 20
223.577617
 30
0.0
 11
87.30041700000001
 21
223.577617
 31
0.0
  0
LINE
  5
40
330
A
100
AcDbEntity
  8
Hawa5
  6
DASHDOT
 62
     1
100
AcDbLine
 10
93.847087
 20
74.68793999999999
 30
0.0
 11
93.847087
 21
235.983721
 31
0.0
  0
LINE
  5
41
330
A
100
AcDbEntity
  8
Hawa6
  6
DASHSPACE
 62
     3
 48
0.004266
100
AcDbLine
 10
93.847087
 20
165.692014
 30
0.0
 11
93.847087
 21
165.521367
 31
0.0
  0
LINE
  5
42
330
A
100
AcDbEntity
  8
Hawa6
  6
DASHSPACE
 62
     3
 48
0.004221
100
AcDbLine
 10
93.847087
 20
159.163373
 30
0.0
 11
93.847087
 21
159.332219
 31
0.0
  0
LINE
  5
43
330
A
100
AcDbEntity
  8
Hawa6
  6
DASHSPACE
 62
     3
 48
0.1455
100
AcDbLine
 10
88.462087
 20
136.066236
 30
0.0
 11
94.282087
 21
136.066236
 31
0.0
  0
LINE
  5
44
330
A
100
AcDbEntity
  8
Hawa6
  6
DASHDOT
 62
     3
 48
0.1455
100
AcDbLine
 10
93.312088
 20
136.066236
 30
0.0
 11
99.132087
 21
136.066236
 31
0.0
  0
LINE
  5
45
330
A
100
AcDbEntity
  8
Hawa6
  6
DASHDOT
 62
     3
 48
0.04
100
AcDbLine
 10
100.213754
 20
127.177617
 30
0.0
 11
101.813754
 21
127.177617
 31
0.0
  0
LINE
  5
46
330
A
100
AcDbEntity
  8
Hawa6
  6
DASHDOT
 62
     3
 48
0.108
100
AcDbLine
 10
91.687088
 20
172.877614
 30
0.0
 11
96.00708500000001
 21
172.877614
 31
0.0
  0
LINE
  5
47
330
A
100
AcDbEntity
  8
Hawa6
  6
DASHDOT
 62
     3
 48
0.015015
100
AcDbLine
 10
92.097137
 20
175.177617
 30
0.0
 11
91.496537
 21
175.177617
 31
0.0
  0
LINE
  5
48
330
A
100
AcDbEntity
  8
Hawa6
  6
DASHDOT
 62
     3
 48
0.108015
100
AcDbLine
 10
96.00713800000001
 20
194.177617
 30
0.0
 11
91.68652599999999
 21
194.177617
 31
0.0
  0
LINE
  5
49
330
A
100
AcDbEntity
  8
Hawa6
  6
DASHDOT
 62
     3
 48
0.108015
100
AcDbLine
 10
96.00713800000001
 20
185.177617
 30
0.0
 11
91.686527
 21
185.177617
 31
0.0
  0
LINE
  5
4A
330
A
100
AcDbEntity
  8
Hawa6
  6
DASHDOT
 62
     3
 48
0.108015
100
AcDbLine
 10
96.00713800000001
 20
176.177617
 30
0.0
 11
91.686527
 21
176.177617
 31
0.0
  0
LINE
  5
4B
330
A
100
AcDbEntity
  8
Hawa6
  6
DASHDOT
 62
     3
 48
0.025981
100
AcDbLine
 10
95.56048500000001
 20
175.177617
 30
0.0
 11
96.59971500000001
 21
175.177617
 31
0.0
  0
LINE
  5
4C
330
A
100
AcDbEntity
  8
HAWA1
 48
0.285
100
AcDbLine
 10
93.847087
 20
243.227617
 30
0.0
 11
93.847087
 21
254.627617
 31
0.0
  0
LINE
  5
4D
330
A
100
AcDbEntity
  8
Hawa4
  6
DASHDOT
 62
     4
 48
0.078004
100
AcDbLine
 10
90.036576
 20
243.93763
 30
0.0
 11
90.036576
 21
240.817463
 31
0.0
  0
LINE
  5
4E
330
A
100
AcDbEntity
  8
Hawa4
  6
DASHDOT
 62
     4
 48
0.078004
100
AcDbLine
 10
97.657599
 20
243.93763
 30
0.0
 11
97.657599
 21
240.817463
 31
0.0
  0
LINE
  5
4F
330
A
100
AcDbEntity
  8
Hawa5
 62
     1
 48
0.2
100
AcDbLine
 10
97.84708700000001
 20
198.677591
 30
0.0
 11
89.847087
 21
198.677591
 31
0.0
  0
LINE
  5
50
330
A
100
AcDbEntity
  8
Hawa5
 62
     1
 48
0.035355
100
AcDbLine
 10
88.847087
 20
197.6775909999999
 30
0.0
 11
89.847087
 21
198.677591
 31
0.0
  0
LINE
  5
51
330
A
100
AcDbEntity
  8
Hawa5
 62
     1
 48
0.035355
100
AcDbLine
 10
98.847087
 20
197.6775909999999
 30
0.0
 11
97.84708700000001
 21
198.677591
 31
0.0
  0
LINE
  5
8DF
330
A
100
AcDbEntity
  8
Hawa6
  6
DASHSPACE
 62
     3
 48
0.10075
100
AcDbLine
 10
95.862087
 20
162.427618
 30
0.0
 11
91.83208699999999
 21
162.427618
 31
0.0
  0
LINE
  5
8E0
330
A
100
AcDbEntity
  8
Hawa6
  6
DASHSPACE
 62
     3
 48
0.10075
100
AcDbLine
 10
93.847087
 20
164.442617
 30
0.0
 11
93.847087
 21
160.4126179999999
 31
0.0
  0
LINE
  5
8E1
330
A
100
AcDbEntity
  8
Hawa5
  6
PHANTOM
 62
     1
 48
0.25
100
AcDbLine
 10
98.847087
 20
74.67761000000002
 30
0.0
 11
88.847087
 21
74.67761000000002
 31
0.0
  0
LINE
  5
8E2
330
A
100
AcDbEntity
  8
Hawa5
 62
     1
100
AcDbLine
 10
88.847087
 20
117.17761
 30
0.0
 11
88.847087
 21
74.67761000000002
 31
0.0
  0
LINE
  5
8E3
330
A
100
AcDbEntity
  8
Hawa5
 62
     1
 48
0.035355
100
AcDbLine
 10
89.847087
 20
118.17761
 30
0.0
 11
88.847087
 21
117.17761
 31
0.0
  0
LINE
  5
8E4
330
A
100
AcDbEntity
  8
Hawa5
 62
     1
 48
0.2
100
AcDbLine
 10
89.847087
 20
118.17761
 30
0.0
 11
97.84708700000001
 21
118.17761
 31
0.0
  0
LINE
  5
8E5
330
A
100
AcDbEntity
  8
Hawa5
 62
     1
 48
0.035355
100
AcDbLine
 10
97.84708700000001
 20
118.17761
 30
0.0
 11
98.847087
 21
117.17761
 31
0.0
  0
LINE
  5
8E6
330
A
100
AcDbEntity
  8
Hawa5
 62
     1
100
AcDbLine
 10
98.847087
 20
106.67761
 30
0.0
 11
98.847087
 21
74.67761000000002
 31
0.0
  0
LINE
  5
8E7
330
A
100
AcDbEntity
  8
Hawa6
 62
     3
 48
0.099145
100
AcDbLine
 10
88.847087
 20
146.844801
 30
0.0
 11
88.847087
 21
150.810583
 31
0.0
  0
LINE
  5
8E8
330
A
100
AcDbEntity
  8
Hawa6
 62
     3
 48
0.253195
100
AcDbLine
 10
88.847087
 20
136.717008
 30
0.0
 11
88.847087
 21
146.844801
 31
0.0
  0
LINE
  5
8E9
330
A
100
AcDbEntity
  8
Hawa6
 62
     3
 48
0.125
100
AcDbLine
 10
88.847087
 20
117.17761
 30
0.0
 11
88.847087
 21
122.177618
 31
0.0
  0
LINE
  5
8EA
330
A
100
AcDbEntity
  8
Hawa6
 62
     3
 48
0.113485
100
AcDbLine
 10
88.847087
 20
132.17761
 30
0.0
 11
88.847087
 21
136.717008
 31
0.0
  0
LINE
  5
8EB
330
A
100
AcDbEntity
  8
Hawa5
 62
     1
 48
0.058179
100
AcDbLine
 10
89.847087
 20
147.8505
 30
0.0
 11
89.847087
 21
150.177671
 31
0.0
  0
LINE
  5
8EC
330
A
100
AcDbEntity
  8
Hawa5
 62
     1
 48
0.015776
100
AcDbLine
 10
88.847087
 20
146.844801
 30
0.0
 11
89.31576899999999
 21
147.267332
 31
0.0
  0
LINE
  5
8ED
330
A
100
AcDbEntity
  8
Hawa5
 62
     1
 48
0.019723
100
AcDbLine
 10
89.31576899999999
 20
147.267332
 30
0.0
 11
89.847087
 21
147.8505
 31
0.0
  0
LINE
  5
8EE
330
A
100
AcDbEntity
  8
Hawa5
 62
     1
 48
0.202977
100
AcDbLine
 10
89.847087
 20
138.477613
 30
0.0
 11
89.847087
 21
146.596708
 31
0.0
  0
LINE
  5
8EF
330
A
100
AcDbEntity
  8
Hawa5
 62
     1
 48
0.02139
100
AcDbLine
 10
89.847087
 20
146.596708
 30
0.0
 11
89.31576899999999
 21
147.267332
 31
0.0
  0
LINE
  5
8F0
330
A
100
AcDbEntity
  8
Hawa6
 62
     3
 48
0.003129
100
AcDbLine
 10
88.847087
 20
136.717008
 30
0.0
 11
88.94785699999999
 21
136.642774
 31
0.0
  0
LINE
  5
8F1
330
A
100
AcDbEntity
  8
Hawa6
 62
     3
 48
0.002501
100
AcDbLine
 10
89.847087
 20
118.17761
 30
0.0
 11
89.847087
 21
118.277632
 31
0.0
  0
LINE
  5
8F2
330
A
100
AcDbEntity
  8
Hawa5
 62
     1
 48
0.2
100
AcDbLine
 10
89.847087
 20
147.8505
 30
0.0
 11
97.84708700000001
 21
147.8505
 31
0.0
  0
LINE
  5
8F3
330
A
100
AcDbEntity
  8
Hawa5
 62
     1
 48
0.058179
100
AcDbLine
 10
97.84708700000001
 20
147.8505
 30
0.0
 11
97.84708700000001
 21
150.177671
 31
0.0
  0
LINE
  5
8F4
330
A
100
AcDbEntity
  8
Hawa5
 62
     1
 48
0.2
100
AcDbLine
 10
89.847087
 20
146.596708
 30
0.0
 11
97.84708700000001
 21
146.596708
 31
0.0
  0
LINE
  5
8F5
330
A
100
AcDbEntity
  8
Hawa5
 62
     1
 48
0.02139
100
AcDbLine
 10
97.84708700000001
 20
146.596708
 30
0.0
 11
98.378405
 21
147.267332
 31
0.0
  0
LINE
  5
8F6
330
A
100
AcDbEntity
  8
Hawa5
 62
     1
 48
0.019723
100
AcDbLine
 10
98.378405
 20
147.267332
 30
0.0
 11
97.84708700000001
 21
147.8505
 31
0.0
  0
LINE
  5
8F7
330
A
100
AcDbEntity
  8
Hawa5
 62
     1
 48
0.202977
100
AcDbLine
 10
97.84708700000001
 20
138.477613
 30
0.0
 11
97.84708700000001
 21
146.596708
 31
0.0
  0
LINE
  5
8F8
330
A
100
AcDbEntity
  8
Hawa6
 62
     3
 48
0.002501
100
AcDbLine
 10
97.84708700000001
 20
118.17761
 30
0.0
 11
97.84708700000001
 21
118.277632
 31
0.0
  0
LINE
  5
8F9
330
A
100
AcDbEntity
  8
Hawa5
 62
     1
 48
0.015776
100
AcDbLine
 10
98.378405
 20
147.267332
 30
0.0
 11
98.847087
 21
146.844801
 31
0.0
  0
LINE
  5
8FA
330
A
100
AcDbEntity
  8
Hawa6
 62
     3
 48
0.006219
100
AcDbLine
 10
98.64708700000001
 20
136.569105
 30
0.0
 11
98.847087
 21
136.717008
 31
0.0
  0
LINE
  5
8FB
330
A
100
AcDbEntity
  8
Hawa6
  6
DASHSPACE
 62
     3
 48
0.08
100
AcDbLine
 10
92.04708700000001
 20
195.677618
 30
0.0
 11
88.84707699999999
 21
195.677618
 31
0.0
  0
LINE
  5
8FC
330
A
100
AcDbEntity
  8
Hawa6
  6
DASHSPACE
 62
     3
100
AcDbLine
 10
92.04708700000001
 20
195.677618
 30
0.0
 11
92.04708700000001
 21
175.177618
 31
0.0
  0
LINE
  5
8FD
330
A
100
AcDbEntity
  8
Hawa6
  6
DASHSPACE
 62
     3
100
AcDbLine
 10
92.04708700000001
 20
152.177618
 30
0.0
 11
92.04708700000001
 21
175.177618
 31
0.0
  0
LINE
  5
8FE
330
A
100
AcDbEntity
  8
Hawa6
  6
DASHSPACE
 62
     3
 48
0.09
100
AcDbLine
 10
92.04708700000001
 20
177.702619
 30
0.0
 11
95.647082
 21
177.702619
 31
0.0
  0
LINE
  5
8FF
330
A
100
AcDbEntity
  8
Hawa6
  6
DASHSPACE
 62
     3
 48
0.09
100
AcDbLine
 10
92.04708700000001
 20
168.052618
 30
0.0
 11
95.64708299999999
 21
168.052618
 31
0.0
  0
LINE
  5
900
330
A
100
AcDbEntity
  8
Hawa6
  6
DASHSPACE
 62
     3
 48
0.0025
100
AcDbLine
 10
88.84706899999999
 20
132.177618
 30
0.0
 11
88.94708200000001
 21
132.177618
 31
0.0
  0
LINE
  5
901
330
A
100
AcDbEntity
  8
Hawa6
  6
DASHSPACE
 62
     3
 48
0.0025
100
AcDbLine
 10
88.84707399999999
 20
122.177618
 30
0.0
 11
88.94708200000001
 21
122.177618
 31
0.0
  0
LINE
  5
902
330
A
100
AcDbEntity
  8
Hawa6
 62
     3
100
AcDbLine
 10
88.847087
 20
114.377256
 30
0.0
 11
88.847087
 21
138.713926
 31
0.0
  0
LINE
  5
903
330
A
100
AcDbEntity
  8
Hawa6
  6
DASHSPACE
 62
     3
 48
0.175
100
AcDbLine
 10
92.04708700000001
 20
152.177618
 30
0.0
 11
92.04708700000001
 21
159.177618
 31
0.0
  0
LINE
  5
904
330
A
100
AcDbEntity
  8
Hawa6
  6
DASHSPACE
 62
     3
 48
0.0625
100
AcDbLine
 10
89.047087
 20
195.677618
 30
0.0
 11
91.547087
 21
195.677618
 31
0.0
  0
LINE
  5
905
330
A
100
AcDbEntity
  8
Hawa6
  6
DASHSPACE
 62
     3
 48
0.0125
100
AcDbLine
 10
92.04708700000001
 20
195.677618
 30
0.0
 11
91.547087
 21
195.677618
 31
0.0
  0
LINE
  5
906
330
A
100
AcDbEntity
  8
Hawa6
  6
DASHSPACE
 62
     3
 48
0.005
100
AcDbLine
 10
89.047087
 20
195.677618
 30
0.0
 11
88.847087
 21
195.677618
 31
0.0
  0
LINE
  5
907
330
A
100
AcDbEntity
  8
Hawa6
  6
DASHSPACE
 62
     3
100
AcDbLine
 10
88.847087
 20
195.677618
 30
0.0
 11
88.847087
 21
138.713926
 31
0.0
  0
LINE
  5
908
330
A
100
AcDbEntity
  8
Hawa6
  6
DASHSPACE
 62
     3
100
AcDbLine
 10
92.04708700000001
 20
195.677618
 30
0.0
 11
92.04708700000001
 21
175.057432
 31
0.0
  0
LINE
  5
909
330
A
100
AcDbEntity
  8
Hawa6
  6
DASHSPACE
 62
     3
100
AcDbLine
 10
92.04708700000001
 20
150.466291
 30
0.0
 11
92.04708700000001
 21
175.057432
 31
0.0
  0
LINE
  5
90A
330
A
100
AcDbEntity
  8
Hawa6
  6
DASHSPACE
 62
     3
 48
0.116335
100
AcDbLine
 10
89.047087
 20
191.024225
 30
0.0
 11
89.047087
 21
195.677618
 31
0.0
  0
LINE
  5
90B
330
A
100
AcDbEntity
  8
Hawa6
  6
DASHSPACE
 62
     3
100
AcDbLine
 10
91.547087
 20
195.677618
 30
0.0
 11
91.547087
 21
175.056028
 31
0.0
  0
LINE
  5
90C
330
A
100
AcDbEntity
  8
Hawa6
  6
DASHSPACE
 62
     3
 48
0.399205
100
AcDbLine
 10
89.047087
 20
175.056028
 30
0.0
 11
89.047087
 21
191.024225
 31
0.0
  0
LINE
  5
90D
330
A
100
AcDbEntity
  8
Hawa6
  6
DASHSPACE
 62
     3
 48
0.0625
100
AcDbLine
 10
89.047087
 20
175.056028
 30
0.0
 11
91.547087
 21
175.056028
 31
0.0
  0
LINE
  5
90E
330
A
100
AcDbEntity
  8
Hawa6
  6
DASHSPACE
 62
     3
 48
0.0125
100
AcDbLine
 10
91.547087
 20
175.056028
 30
0.0
 11
92.04708700000001
 21
175.057432
 31
0.0
  0
LINE
  5
90F
330
A
100
AcDbEntity
  8
Hawa6
  6
DASHSPACE
 62
     3
100
AcDbLine
 10
91.547087
 20
150.177618
 30
0.0
 11
91.547087
 21
175.056028
 31
0.0
  0
LINE
  5
910
330
A
100
AcDbEntity
  8
Hawa6
  6
DASHSPACE
 62
     3
100
AcDbLine
 10
89.047087
 20
150.177618
 30
0.0
 11
89.047087
 21
175.056028
 31
0.0
  0
LINE
  5
911
330
A
100
AcDbEntity
  8
Hawa6
  6
DASHSPACE
 62
     3
 48
0.005
100
AcDbLine
 10
89.047087
 20
175.177618
 30
0.0
 11
88.847087
 21
175.177618
 31
0.0
  0
LINE
  5
912
330
A
100
AcDbEntity
  8
Hawa6
  6
DASHSPACE
 62
     3
 48
0.014434
100
AcDbLine
 10
92.04708700000001
 20
150.466291
 30
0.0
 11
91.547087
 21
150.177618
 31
0.0
  0
LINE
  5
913
330
A
100
AcDbEntity
  8
Hawa6
  6
DASHSPACE
 62
     3
 48
0.0625
100
AcDbLine
 10
89.047087
 20
150.177618
 30
0.0
 11
91.547087
 21
150.177618
 31
0.0
  0
LINE
  5
914
330
A
100
AcDbEntity
  8
Hawa6
  6
DASHSPACE
 62
     3
 48
0.005
100
AcDbLine
 10
88.84706800000001
 20
150.810583
 30
0.0
 11
89.047087
 21
150.810583
 31
0.0
  0
LINE
  5
915
330
A
100
AcDbEntity
  8
Hawa6
  6
DASHSPACE
 62
     3
 48
0.09
100
AcDbLine
 10
95.647087
 20
165.677618
 30
0.0
 11
92.04707799999999
 21
165.677618
 31
0.0
  0
LINE
  5
916
330
A
100
AcDbEntity
  8
Hawa6
  6
DASHSPACE
 62
     3
 48
0.007501
100
AcDbLine
 10
88.847067
 20
195.677618
 30
0.0
 11
89.147087
 21
195.677618
 31
0.0
  0
LINE
  5
917
330
A
100
AcDbEntity
  8
Hawa6
  6
DASHSPACE
 62
     3
 48
0.1625
100
AcDbLine
 10
95.647087
 20
195.677618
 30
0.0
 11
89.147087
 21
195.677618
 31
0.0
  0
LINE
  5
918
330
A
100
AcDbEntity
  8
Hawa6
  6
DASHSPACE
 62
     3
 48
0.08
100
AcDbLine
 10
98.84707699999999
 20
195.677618
 30
0.0
 11
95.647087
 21
195.677618
 31
0.0
  0
LINE
  5
919
330
A
100
AcDbEntity
  8
Hawa6
  6
DASHSPACE
 62
     3
 48
0.09
100
AcDbLine
 10
95.647087
 20
194.177618
 30
0.0
 11
92.047076
 21
194.177618
 31
0.0
  0
LINE
  5
91A
330
A
100
AcDbEntity
  8
Hawa6
  6
DASHSPACE
 62
     3
 48
0.09
100
AcDbLine
 10
95.647087
 20
192.177618
 30
0.0
 11
92.04707799999999
 21
192.177618
 31
0.0
  0
LINE
  5
91B
330
A
100
AcDbEntity
  8
Hawa6
  6
DASHSPACE
 62
     3
 48
0.09
100
AcDbLine
 10
95.647087
 20
178.177618
 30
0.0
 11
92.04707799999999
 21
178.177618
 31
0.0
  0
LINE
  5
91C
330
A
100
AcDbEntity
  8
Hawa6
  6
DASHSPACE
 62
     3
 48
0.021651
100
AcDbLine
 10
95.647087
 20
195.677618
 30
0.0
 11
96.51311300000001
 21
195.677618
 31
0.0
  0
LINE
  5
91D
330
A
100
AcDbEntity
  8
Hawa6
  6
DASHSPACE
 62
     3
 48
0.053349
100
AcDbLine
 10
98.64708700000001
 20
195.677618
 30
0.0
 11
96.51311300000001
 21
195.677618
 31
0.0
  0
LINE
  5
91E
330
A
100
AcDbEntity
  8
Hawa6
  6
DASHSPACE
 62
     3
 48
0.005
100
AcDbLine
 10
98.64708700000001
 20
195.677618
 30
0.0
 11
98.847087
 21
195.677618
 31
0.0
  0
LINE
  5
91F
330
A
100
AcDbEntity
  8
Hawa6
  6
DASHSPACE
 62
     3
100
AcDbLine
 10
95.647087
 20
175.058462
 30
0.0
 11
95.647087
 21
150.677618
 31
0.0
  0
LINE
  5
920
330
A
100
AcDbEntity
  8
Hawa6
  6
DASHSPACE
 62
     3
100
AcDbLine
 10
95.647087
 20
175.058462
 30
0.0
 11
95.647087
 21
195.677618
 31
0.0
  0
LINE
  5
921
330
A
100
AcDbEntity
  8
Hawa6
  6
DASHSPACE
 62
     3
 48
0.021651
100
AcDbLine
 10
95.647087
 20
175.058462
 30
0.0
 11
96.51311300000001
 21
175.056028
 31
0.0
  0
LINE
  5
922
330
A
100
AcDbEntity
  8
Hawa6
  6
DASHSPACE
 62
     3
100
AcDbLine
 10
96.51311300000001
 20
175.056028
 30
0.0
 11
96.51311300000001
 21
195.677618
 31
0.0
  0
LINE
  5
923
330
A
100
AcDbEntity
  8
Hawa6
  6
DASHSPACE
 62
     3
100
AcDbLine
 10
96.51311300000001
 20
175.056028
 30
0.0
 11
96.51311300000001
 21
150.177618
 31
0.0
  0
LINE
  5
924
330
A
100
AcDbEntity
  8
Hawa6
  6
DASHSPACE
 62
     3
 48
0.005
100
AcDbLine
 10
98.64708700000001
 20
175.056028
 30
0.0
 11
98.847087
 21
175.056028
 31
0.0
  0
LINE
  5
925
330
A
100
AcDbEntity
  8
Hawa6
  6
DASHSPACE
 62
     3
 48
0.053349
100
AcDbLine
 10
98.64708700000001
 20
175.056028
 30
0.0
 11
96.51311300000001
 21
175.056028
 31
0.0
  0
LINE
  5
926
330
A
100
AcDbEntity
  8
Hawa6
  6
DASHSPACE
 62
     3
 48
0.025
100
AcDbLine
 10
95.647087
 20
150.677618
 30
0.0
 11
96.51311300000001
 21
150.177618
 31
0.0
  0
LINE
  5
927
330
A
100
AcDbEntity
  8
Hawa6
  6
DASHSPACE
 62
     3
 48
0.058349
100
AcDbLine
 10
98.847062
 20
150.177618
 30
0.0
 11
96.51311300000001
 21
150.177618
 31
0.0
  0
LWPOLYLINE
  5
928
330
A
100
AcDbEntity
  8
Hawa6
  6
DASHED
 62
     3
100
AcDbPolyline
 90
        8
 70
     0
 43
0.0
 10
101.502109
 20
128.933271
 10
101.507022
 20
129.004995
 10
101.517972
 20
129.077688
 10
101.535244
 20
129.152128
 10
101.559309
 20
129.2292149999999
 10
101.59085
 20
129.309927
 10
101.630798
 20
129.395399
 10
101.68042
 20
129.48702
  0
LWPOLYLINE
  5
929
330
A
100
AcDbEntity
  8
Hawa6
  6
DASHED
 62
     3
100
AcDbPolyline
 90
       23
 70
     0
 43
0.0
 10
101.68042
 20
128.332319
 10
101.647301
 20
128.392057
 10
101.616493
 20
128.453001
 10
101.591563
 20
128.507742
 10
101.569013
 20
128.563505
 10
101.550932
 20
128.61482
 10
101.535316
 20
128.666937
 10
101.523225
 20
128.716085
 10
101.513679
 20
128.765791
 10
101.50709
 20
128.813741
 10
101.5031
 20
128.861982
 10
101.501789
 20
128.909612
 10
101.503093
 20
128.957243
 10
101.507071
 20
129.005422
 10
101.51364
 20
129.05332
 10
101.52317
 20
129.102995
 10
101.535239
 20
129.152113
 10
101.55086
 20
129.20429
 10
101.568949
 20
129.255659
 10
101.59152
 20
129.311491
 10
101.616476
 20
129.3663
 10
101.647292
 20
129.427259
 10
101.68042
 20
129.48702
  0
LWPOLYLINE
  5
92A
330
A
100
AcDbEntity
  8
Hawa6
  6
DASHED
 62
     3
100
AcDbPolyline
 90
       23
 70
     0
 43
0.0
 10
101.68042
 20
128.332319
 10
101.647079
 20
128.211996
 10
101.616493
 20
128.090956
 10
101.591407
 20
127.980741
 10
101.569013
 20
127.869947
 10
101.550837
 20
127.766729
 10
101.535316
 20
127.663076
 10
101.523179
 20
127.564367
 10
101.513679
 20
127.465376
 10
101.507077
 20
127.369253
 10
101.5031
 20
127.272985
 10
101.501788
 20
127.177725
 10
101.503093
 20
127.082472
 10
101.507058
 20
126.986318
 10
101.51364
 20
126.890302
 10
101.523124
 20
126.791372
 10
101.535239
 20
126.692724
 10
101.550764
 20
126.588964
 10
101.568949
 20
126.485632
 10
101.591364
 20
126.3747
 10
101.616476
 20
126.264356
 10
101.647069
 20
126.143278
 10
101.68042
 20
126.022917
  0
LWPOLYLINE
  5
92B
330
A
100
AcDbEntity
  8
Hawa6
  6
DASHED
 62
     3
100
AcDbPolyline
 90
        8
 70
     0
 43
0.0
 10
101.502109
 20
125.421964
 10
101.50351
 20
125.500204
 10
101.512036
 20
125.579099
 10
101.527951
 20
125.659651
 10
101.55177
 20
125.742964
 10
101.584287
 20
125.830267
 10
101.626639
 20
125.922994
 10
101.68042
 20
126.022917
  0
LINE
  5
92C
330
A
100
AcDbEntity
  8
Hawa6
  6
DASHED
 62
     3
 48
0.0625
100
AcDbLine
 10
104.18042
 20
126.022917
 30
0.0
 11
101.68042
 21
126.022917
 31
0.0
  0
LINE
  5
92D
330
A
100
AcDbEntity
  8
Hawa6
  6
DASHED
 62
     3
 48
0.0625
100
AcDbLine
 10
104.18042
 20
124.868215
 30
0.0
 11
101.68042
 21
124.868215
 31
0.0
  0
LWPOLYLINE
  5
92E
330
A
100
AcDbEntity
  8
Hawa6
  6
DASHED
 62
     3
100
AcDbPolyline
 90
        8
 70
     0
 43
0.0
 10
101.502109
 20
125.421964
 10
101.507022
 20
125.35024
 10
101.517972
 20
125.277548
 10
101.535244
 20
125.2031
 10
101.559309
 20
125.12602
 10
101.59085
 20
125.045301
 10
101.630798
 20
124.959837
 10
101.68042
 20
124.868215
  0
LINE
  5
92F
330
A
100
AcDbEntity
  8
Hawa6
  6
DASHED
 62
     3
 48
0.0625
100
AcDbLine
 10
101.68042
 20
128.332319
 30
0.0
 11
104.18042
 21
128.332319
 31
0.0
  0
LINE
  5
930
330
A
100
AcDbEntity
  8
Hawa6
  6
DASHED
 62
     3
 48
0.0625
100
AcDbLine
 10
104.18042
 20
129.48702
 30
0.0
 11
101.68042
 21
129.48702
 31
0.0
  0
LWPOLYLINE
  5
932
330
A
100
AcDbEntity
  8
Hawa6
  6
DASHED
 62
     3
100
AcDbPolyline
 90
        8
 70
     0
 43
0.0
 10
101.502109
 20
128.933271
 10
101.50351
 20
128.855032
 10
101.512036
 20
128.776136
 10
101.527951
 20
128.695585
 10
101.55177
 20
128.612272
 10
101.584287
 20
128.524961
 10
101.626639
 20
128.432241
 10
101.68042
 20
128.332319
  0
LWPOLYLINE
  5
933
330
A
100
AcDbEntity
  8
Hawa6
  6
DASHED
 62
     3
100
AcDbPolyline
 90
       15
 70
     0
 43
0.0
 10
101.68042
 20
126.022917
 10
101.631087
 20
125.931906
 10
101.587543
 20
125.838056
 10
101.556501
 20
125.757032
 10
101.531516
 20
125.67394
 10
101.515101
 20
125.597791
 10
101.505031
 20
125.520559
 10
101.501803
 20
125.445631
 10
101.505018
 20
125.370703
 10
101.515063
 20
125.293546
 10
101.531444
 20
125.217474
 10
101.556437
 20
125.134298
 10
101.587499
 20
125.053182
 10
101.631062
 20
124.95928
 10
101.68042
 20
124.868215
  0
LWPOLYLINE
  5
934
330
A
100
AcDbEntity
  8
Hawa6
  6
DASHED
 62
     3
100
AcDbPolyline
 90
       15
 70
     0
 43
0.0
 10
101.68042
 20
126.022917
 10
101.630593
 20
126.206945
 10
101.587543
 20
126.392629
 10
101.556246
 20
126.556188
 10
101.531516
 20
126.720861
 10
101.515026
 20
126.873968
 10
101.505031
 20
127.027624
 10
101.501795
 20
127.17748
 10
101.505018
 20
127.327337
 10
101.514989
 20
127.480848
 10
101.531444
 20
127.633802
 10
101.55618
 20
127.798658
 10
101.587499
 20
127.962385
 10
101.630568
 20
128.148184
 10
101.68042
 20
128.332319
  0
LINE
  5
936
330
A
100
AcDbEntity
  8
Hawa6
  6
DASHSPACE
 62
     3
 48
0.00689
100
AcDbLine
 10
88.18042
 20
125.201986
 30
0.0
 11
88.18042
 21
124.926397
 31
0.0
  0
LINE
  5
937
330
A
100
AcDbEntity
  8
Hawa6
  6
DASHSPACE
 62
     3
 48
0.140819
100
AcDbLine
 10
88.92920100000001
 20
129.810362
 30
0.0
 11
88.92920100000001
 21
124.177618
 31
0.0
  0
LINE
  5
938
330
A
100
AcDbEntity
  8
Hawa6
  6
DASHSPACE
 62
     3
 48
0.105671
100
AcDbLine
 10
88.18042
 20
129.428839
 30
0.0
 11
88.18042
 21
125.201986
 31
0.0
  0
LINE
  5
939
330
A
100
AcDbEntity
  8
Hawa6
  6
DASHSPACE
 62
     3
 48
0.140819
100
AcDbLine
 10
88.92920100000001
 20
130.177618
 30
0.0
 11
88.92920100000001
 21
124.544866
 31
0.0
  0
LINE
  5
93A
330
A
100
AcDbEntity
  8
Hawa6
  6
DASHED
 62
     3
 48
0.281637
100
AcDbLine
 10
103.947087
 20
132.443113
 30
0.0
 11
103.947087
 21
121.177618
 31
0.0
  0
LINE
  5
93B
330
A
100
AcDbEntity
  8
Hawa6
  6
DASHED
 62
     3
 48
0.018363
100
AcDbLine
 10
104.18042
 20
121.912123
 30
0.0
 11
104.18042
 21
121.177618
 31
0.0
  0
LINE
  5
93C
330
A
100
AcDbEntity
  8
Hawa6
  6
DASHED
 62
     3
 48
0.281637
100
AcDbLine
 10
103.947087
 20
133.177618
 30
0.0
 11
103.947087
 21
121.912123
 31
0.0
  0
LINE
  5
93D
330
A
100
AcDbEntity
  8
Hawa6
  6
DASHED
 62
     3
 48
0.281637
100
AcDbLine
 10
104.18042
 20
133.177618
 30
0.0
 11
104.18042
 21
121.912123
 31
0.0
  0
LINE
  5
93E
330
A
100
AcDbEntity
  8
Hawa6
  6
DASHED
 62
     3
 48
0.140819
100
AcDbLine
 10
100.864245
 20
129.810362
 30
0.0
 11
100.864245
 21
124.177618
 31
0.0
  0
LINE
  5
93F
330
A
100
AcDbEntity
  8
Hawa6
  6
DASHED
 62
     3
 48
0.140819
100
AcDbLine
 10
100.864245
 20
124.544866
 30
0.0
 11
100.864245
 21
130.177618
 31
0.0
  0
LINE
  5
940
330
A
100
AcDbEntity
  8
Hawa6
  6
DASHED
 62
     3
 48
0.143568
100
AcDbLine
 10
101.005666
 20
129.861776
 30
0.0
 11
101.005666
 21
124.119039
 31
0.0
  0
LINE
  5
941
330
A
100
AcDbEntity
  8
Hawa6
  6
DASHED
 62
     3
 48
0.143568
100
AcDbLine
 10
101.005666
 20
124.493459
 30
0.0
 11
101.005666
 21
130.236196
 31
0.0
  0
LINE
  5
942
330
A
100
AcDbEntity
  8
Hawa6
  6
DASHED
 62
     3
 48
0.066667
100
AcDbLine
 10
100.347087
 20
127.177618
 30
0.0
 11
101.68042
 21
129.48702
 31
0.0
  0
LINE
  5
943
330
A
100
AcDbEntity
  8
Hawa6
  6
DASHED
 62
     3
 48
0.066667
100
AcDbLine
 10
100.347087
 20
127.177618
 30
0.0
 11
101.68042
 21
124.868215
 31
0.0
  0
LINE
  5
944
330
A
100
AcDbEntity
  8
Hawa6
  6
DASHSPACE
 62
     3
 48
0.026473
100
AcDbLine
 10
88.18042
 20
124.926397
 30
0.0
 11
88.92920100000001
 21
124.177618
 31
0.0
  0
LINE
  5
945
330
A
100
AcDbEntity
  8
Hawa6
  6
DASHSPACE
 62
     3
 48
0.026473
100
AcDbLine
 10
88.18042
 20
129.428839
 30
0.0
 11
88.92920100000001
 21
130.177618
 31
0.0
  0
LINE
  5
946
330
A
100
AcDbEntity
  8
Hawa6
  6
DASHED
 62
     3
 48
0.005833
100
AcDbLine
 10
104.18042
 20
121.177618
 30
0.0
 11
103.947087
 21
121.177618
 31
0.0
  0
LINE
  5
947
330
A
100
AcDbEntity
  8
Hawa6
  6
DASHED
 62
     3
 48
0.005833
100
AcDbLine
 10
104.18042
 20
133.177618
 30
0.0
 11
103.947087
 21
133.177618
 31
0.0
  0
LINE
  5
948
330
A
100
AcDbEntity
  8
Hawa6
  6
DASHSPACE
 62
     3
 48
0.050429
100
AcDbLine
 10
100.864245
 20
124.177618
 30
0.0
 11
98.84706600000001
 21
124.177618
 31
0.0
  0
LINE
  5
949
330
A
100
AcDbEntity
  8
Hawa6
  6
DASHSPACE
 62
     3
 48
0.005
100
AcDbLine
 10
98.84706600000001
 20
124.177618
 30
0.0
 11
98.64708100000001
 21
124.177618
 31
0.0
  0
LINE
  5
94A
330
A
100
AcDbEntity
  8
Hawa6
  6
DASHSPACE
 62
     3
 48
0.242947
100
AcDbLine
 10
98.64708100000001
 20
124.177618
 30
0.0
 11
88.92920100000001
 21
124.177618
 31
0.0
  0
LINE
  5
94B
330
A
100
AcDbEntity
  8
Hawa6
  6
DASHSPACE
 62
     3
 48
0.05043
100
AcDbLine
 10
100.864245
 20
130.177618
 30
0.0
 11
98.84706300000001
 21
130.177618
 31
0.0
  0
LINE
  5
94C
330
A
100
AcDbEntity
  8
Hawa6
  6
DASHSPACE
 62
     3
 48
0.005
100
AcDbLine
 10
98.84706300000001
 20
130.177618
 30
0.0
 11
98.64708100000001
 21
130.177618
 31
0.0
  0
LINE
  5
94D
330
A
100
AcDbEntity
  8
Hawa6
  6
DASHSPACE
 62
     3
 48
0.242947
100
AcDbLine
 10
98.64708100000001
 20
130.177618
 30
0.0
 11
88.92920100000001
 21
130.177618
 31
0.0
  0
LINE
  5
94E
330
A
100
AcDbEntity
  8
Hawa6
  6
DASHED
 62
     3
 48
0.103995
100
AcDbLine
 10
101.005666
 20
124.119039
 30
0.0
 11
103.947087
 21
121.177618
 31
0.0
  0
LINE
  5
94F
330
A
100
AcDbEntity
  8
Hawa6
  6
DASHED
 62
     3
 48
0.103995
100
AcDbLine
 10
101.005666
 20
130.236196
 30
0.0
 11
103.947087
 21
133.177618
 31
0.0
  0
ARC
  5
950
330
A
100
AcDbEntity
  8
Hawa6
  6
DASHED
 62
     3
100
AcDbCircle
 10
100.864228
 20
123.977583
 30
0.0
 40
0.200036
100
AcDbArc
 50
45.00448899999877
 51
89.99550799999921
  0
ARC
  5
951
330
A
100
AcDbEntity
  8
Hawa6
  6
DASHED
 62
     3
100
AcDbCircle
 10
100.864228
 20
130.377653
 30
0.0
 40
0.200036
100
AcDbArc
 50
270.0044920000008
 51
314.9955080000018
  0
LINE
  5
952
330
A
100
AcDbEntity
  8
Hawa6
 62
     3
 48
0.154896
100
AcDbLine
 10
98.03508700000001
 20
202.677618
 30
0.0
 11
91.839253
 21
202.677618
 31
0.0
  0
LINE
  5
953
330
A
100
AcDbEntity
  8
Hawa6
 62
     3
 48
0.184928
100
AcDbLine
 10
96.244215
 20
202.677618
 30
0.0
 11
88.847087
 21
202.677618
 31
0.0
  0
LINE
  5
954
330
A
100
AcDbEntity
  8
Hawa6
 62
     3
 48
0.065072
100
AcDbLine
 10
98.847087
 20
202.677618
 30
0.0
 11
96.244215
 21
202.677618
 31
0.0
  0
LINE
  5
955
330
A
100
AcDbEntity
  8
Hawa6
 62
     3
 48
0.334999
100
AcDbLine
 10
89.65908699999999
 20
202.677618
 30
0.0
 11
89.65908699999999
 21
216.077585
 31
0.0
  0
LINE
  5
956
330
A
100
AcDbEntity
  8
Hawa6
 62
     3
 48
0.334999
100
AcDbLine
 10
98.03508700000001
 20
202.677618
 30
0.0
 11
98.03508700000001
 21
216.077585
 31
0.0
  0
LINE
  5
957
330
A
100
AcDbEntity
  8
Hawa6
 62
     3
 48
0.0406
100
AcDbLine
 10
98.03508700000001
 20
202.677618
 30
0.0
 11
98.847087
 21
201.271192
 31
0.0
  0
LINE
  5
958
330
A
100
AcDbEntity
  8
Hawa6
 62
     3
 48
0.0406
100
AcDbLine
 10
89.65908699999999
 20
202.677618
 30
0.0
 11
88.847087
 21
201.271192
 31
0.0
  0
LWPOLYLINE
  5
959
330
A
100
AcDbEntity
  8
Hawa4
  6
DASHED
 62
     4
100
AcDbPolyline
 90
       18
 70
     0
 43
0.0
 10
93.847081
 20
241.077617
 10
93.900313
 20
241.080169
 10
93.95339099999999
 20
241.087893
 10
94.006106
 20
241.100985
 10
94.05825
 20
241.119803
 10
94.109571
 20
241.144922
 10
94.15975600000001
 20
241.177246
 10
94.184347
 20
241.196579
 10
94.20853199999999
 20
241.218391
 10
94.23221899999999
 20
241.243065
 10
94.2553
 20
241.271156
 10
94.277633
 20
241.303521
 10
94.298981
 20
241.341551
 10
94.318939
 20
241.387903
 10
94.32875000000001
 20
241.417942
 10
94.33646600000001
 20
241.448589
 10
94.344447
 20
241.498617
 10
94.34708699999999
 20
241.549299
  0
LWPOLYLINE
  5
95A
330
A
100
AcDbEntity
  8
Hawa4
  6
DASHED
 62
     4
100
AcDbPolyline
 90
       18
 70
     0
 43
0.0
 10
93.347087
 20
241.549299
 10
93.35048
 20
241.49192
 10
93.36073
 20
241.435498
 10
93.37019899999999
 20
241.40244
 10
93.382135
 20
241.370195
 10
93.406183
 20
241.320894
 10
93.43179799999999
 20
241.280771
 10
93.458517
 20
241.246969
 10
93.48608699999999
 20
241.217961
 10
93.514336
 20
241.192835
 10
93.54314499999999
 20
241.170985
 10
93.572424
 20
241.151991
 10
93.602097
 20
241.135549
 10
93.632097
 20
241.121436
 10
93.662363
 20
241.109485
 10
93.72346999999999
 20
241.091574
 10
93.78511299999999
 20
241.081079
 10
93.847081
 20
241.077617
  0
LINE
  5
95B
330
A
100
AcDbEntity
  8
Hawa4
  6
DASHED
 62
     4
 48
0.0125
100
AcDbLine
 10
93.347087
 20
243.677617
 30
0.0
 11
93.847087
 21
243.677617
 31
0.0
  0
LINE
  5
95C
330
A
100
AcDbEntity
  8
Hawa4
  6
DASHED
 62
     4
 48
0.019262
100
AcDbLine
 10
92.57660899999999
 20
243.677617
 30
0.0
 11
93.347087
 21
243.677617
 31
0.0
  0
LINE
  5
95D
330
A
100
AcDbEntity
  8
Hawa4
  6
DASHED
 62
     4
 48
0.018332
100
AcDbLine
 10
91.84333999999999
 20
243.677617
 30
0.0
 11
92.57660899999999
 21
243.677617
 31
0.0
  0
LINE
  5
95E
330
A
100
AcDbEntity
  8
Hawa4
  6
DASHED
 62
     4
 48
0.0125
100
AcDbLine
 10
91.84333999999999
 20
243.677617
 30
0.0
 11
91.34333899999999
 21
243.677617
 31
0.0
  0
LINE
  5
95F
330
A
100
AcDbEntity
  8
Hawa4
  6
DASHED
 62
     4
 48
0.003656
100
AcDbLine
 10
91.197087
 20
243.677617
 30
0.0
 11
91.34334
 21
243.677617
 31
0.0
  0
LINE
  5
960
330
A
100
AcDbEntity
  8
Hawa4
 62
     4
 48
0.33375
100
AcDbLine
 10
91.197087
 20
243.677617
 30
0.0
 11
77.847087
 21
243.677617
 31
0.0
  0
LINE
  5
961
330
A
100
AcDbEntity
  8
Hawa4
  6
DASHED
 62
     4
 48
0.019262
100
AcDbLine
 10
93.347087
 20
243.327617
 30
0.0
 11
92.57660899999999
 21
243.327617
 31
0.0
  0
LINE
  5
962
330
A
100
AcDbEntity
  8
Hawa4
  6
DASHED
 62
     4
 48
0.003656
100
AcDbLine
 10
96.35083399999999
 20
243.677617
 30
0.0
 11
96.49708699999999
 21
243.677617
 31
0.0
  0
LINE
  5
963
330
A
100
AcDbEntity
  8
Hawa4
  6
DASHED
 62
     4
 48
0.0125
100
AcDbLine
 10
96.35083299999999
 20
243.677617
 30
0.0
 11
95.850834
 21
243.677617
 31
0.0
  0
LINE
  5
964
330
A
100
AcDbEntity
  8
Hawa4
  6
DASHED
 62
     4
 48
0.037594
100
AcDbLine
 10
94.34708699999999
 20
243.677617
 30
0.0
 11
95.850834
 21
243.677617
 31
0.0
  0
LINE
  5
965
330
A
100
AcDbEntity
  8
Hawa4
  6
DASHED
 62
     4
 48
0.0125
100
AcDbLine
 10
93.847087
 20
243.677617
 30
0.0
 11
94.34708699999999
 21
243.677617
 31
0.0
  0
LINE
  5
966
330
A
100
AcDbEntity
  8
Hawa4
 62
     4
 48
0.33375
100
AcDbLine
 10
109.847087
 20
243.677617
 30
0.0
 11
96.49708699999999
 21
243.677617
 31
0.0
  0
LINE
  5
967
330
A
100
AcDbEntity
  8
Hawa4
  6
DASHED
 62
     4
 48
0.037594
100
AcDbLine
 10
95.850834
 20
243.327617
 30
0.0
 11
94.34708699999999
 21
243.327617
 31
0.0
  0
ARC
  5
968
330
A
100
AcDbEntity
  8
Hawa4
  6
DASHED
 62
     4
100
AcDbCircle
 10
-222.942037
 20
-37.269961
 30
0.0
 40
424.6928099999999
100
AcDbArc
 50
41.03498
 51
41.35383800000002
  0
LWPOLYLINE
  5
969
330
A
100
AcDbEntity
  8
Hawa4
  6
DASHED
 62
     4
100
AcDbPolyline
 90
       22
 70
     0
 43
0.0
 10
97.407599
 20
241.549299
 10
97.457617
 20
241.494052
 10
97.50962300000001
 20
241.440688
 10
97.57616099999999
 20
241.37762
 10
97.63081800000001
 20
241.329742
 10
97.72161699999999
 20
241.257472
 10
97.79745400000001
 20
241.203936
 10
97.863093
 20
241.162882
 10
97.92069300000001
 20
241.131396
 10
97.97136600000001
 20
241.107902
 10
98.01571
 20
241.091463
 10
98.05410400000001
 20
241.081492
 10
98.086731
 20
241.077669
 10
98.10088499999999
 20
241.078026
 10
98.113576
 20
241.079898
 10
98.124771
 20
241.083299
 10
98.13443300000001
 20
241.088256
 10
98.14251500000001
 20
241.094805
 10
98.14895600000001
 20
241.102998
 10
98.153684
 20
241.112902
 10
98.15660300000001
 20
241.124607
 10
98.15759900000001
 20
241.138222
  0
LWPOLYLINE
  5
96A
330
A
100
AcDbEntity
  8
Hawa4
  6
DASHED
 62
     4
100
AcDbPolyline
 90
       11
 70
     0
 43
0.0
 10
98.15759900000001
 20
241.138222
 10
98.15612299999999
 20
241.156786
 10
98.15150600000002
 20
241.178484
 10
98.143313
 20
241.203781
 10
98.13093100000001
 20
241.233317
 10
98.113442
 20
241.268049
 10
98.08931800000001
 20
241.309604
 10
98.05569300000001
 20
241.36104
 10
98.005562
 20
241.429871
 10
97.95753799999999
 20
241.49036
 10
97.90759900000001
 20
241.549299
  0
ARC
  5
96B
330
A
100
AcDbEntity
  8
Hawa4
  6
DASHED
 62
     4
100
AcDbCircle
 10
-222.442037
 20
-37.269961
 30
0.0
 40
424.6928099999999
100
AcDbArc
 50
41.03498
 51
41.35383800000002
  0
LINE
  5
96C
330
A
100
AcDbEntity
  8
Hawa4
  6
DASHED
 62
     4
 48
0.003656
100
AcDbLine
 10
96.49708699999999
 20
243.327617
 30
0.0
 11
96.35083399999999
 21
243.327617
 31
0.0
  0
LWPOLYLINE
  5
96F
330
A
100
AcDbEntity
  8
Hawa4
  6
DASHED
 62
     4
100
AcDbPolyline
 90
       22
 70
     0
 43
0.0
 10
98.15759900000001
 20
241.138135
 10
98.156589
 20
241.124518
 10
98.153655
 20
241.112821
 10
98.14891600000001
 20
241.102931
 10
98.142469
 20
241.094758
 10
98.13439200000001
 20
241.088228
 10
98.12474000000001
 20
241.083285
 10
98.113557
 20
241.079892
 10
98.10087500000001
 20
241.078025
 10
98.071087
 20
241.078829
 10
98.03546700000001
 20
241.085739
 10
97.99398
 20
241.098964
 10
97.946398
 20
241.118929
 10
97.89228000000001
 20
241.146351
 10
97.830823
 20
241.182421
 10
97.760338
 20
241.229351
 10
97.67772200000001
 20
241.2913
 10
97.629798
 20
241.330605
 10
97.574924
 20
241.378743
 10
97.50796600000001
 20
241.442329
 10
97.45681900000001
 20
241.494902
 10
97.407599
 20
241.549299
  0
LINE
  5
971
330
A
100
AcDbEntity
  8
Hawa4
  6
DASHED
 62
     4
 48
0.018332
100
AcDbLine
 10
95.850834
 20
243.327617
 30
0.0
 11
95.117565
 21
243.327617
 31
0.0
  0
ARC
  5
972
330
A
100
AcDbEntity
  8
Hawa4
 62
     4
100
AcDbCircle
 10
77.847087
 20
242.677617
 30
0.0
 40
1.0
100
AcDbArc
 50
90.00000300000014
 51
180.0000049783131
  0
LINE
  5
973
330
A
100
AcDbEntity
  8
Hawa4
  6
DASHED
 62
     4
 48
0.018332
100
AcDbLine
 10
92.57660899999999
 20
243.327617
 30
0.0
 11
91.84333999999999
 21
243.327617
 31
0.0
  0
LINE
  5
974
330
A
100
AcDbEntity
  8
Hawa4
  6
DASHED
 62
     4
 48
0.00875
100
AcDbLine
 10
91.84333999999999
 20
243.677617
 30
0.0
 11
91.84333999999999
 21
243.327617
 31
0.0
  0
ARC
  5
975
330
A
100
AcDbEntity
  8
Hawa4
  6
DASHED
 62
     4
100
AcDbCircle
 10
410.636211
 20
-37.269961
 30
0.0
 40
424.6928099999999
100
AcDbArc
 50
138.646159
 51
138.965022
  0
LINE
  5
976
330
A
100
AcDbEntity
  8
Hawa4
  6
DASHED
 62
     4
 48
0.053208
100
AcDbLine
 10
90.28657499999999
 20
243.677617
 30
0.0
 11
90.28657499999999
 21
241.549299
 31
0.0
  0
LINE
  5
977
330
A
100
AcDbEntity
  8
Hawa4
  6
DASHED
 62
     4
 48
0.053208
100
AcDbLine
 10
89.786575
 20
243.677617
 30
0.0
 11
89.786575
 21
241.549299
 31
0.0
  0
LWPOLYLINE
  5
978
330
A
100
AcDbEntity
  8
Hawa4
  6
DASHED
 62
     4
100
AcDbPolyline
 90
       22
 70
     0
 43
0.0
 10
90.28657499999999
 20
241.549299
 10
90.23656499999999
 20
241.49406
 10
90.18456699999999
 20
241.440704
 10
90.118039
 20
241.377642
 10
90.06338900000001
 20
241.329769
 10
89.972601
 20
241.257504
 10
89.896772
 20
241.203971
 10
89.83114
 20
241.162916
 10
89.77354400000001
 20
241.131428
 10
89.722874
 20
241.107929
 10
89.67853000000001
 20
241.091484
 10
89.640134
 20
241.081504
 10
89.60750300000002
 20
241.077671
 10
89.593346
 20
241.078021
 10
89.580652
 20
241.079886
 10
89.56945199999999
 20
241.08328
 10
89.55978400000002
 20
241.088228
 10
89.55169599999999
 20
241.094768
 10
89.545247
 20
241.10295
 10
89.540512
 20
241.112842
 10
89.53758200000001
 20
241.124534
 10
89.536575
 20
241.138134
  0
LWPOLYLINE
  5
979
330
A
100
AcDbEntity
  8
Hawa4
  6
DASHED
 62
     4
100
AcDbPolyline
 90
       11
 70
     0
 43
0.0
 10
89.536575
 20
241.138134
 10
89.53803699999999
 20
241.156695
 10
89.542643
 20
241.178391
 10
89.550827
 20
241.203689
 10
89.56320100000001
 20
241.233227
 10
89.580686
 20
241.267964
 10
89.60480799999999
 20
241.309527
 10
89.638436
 20
241.360975
 10
89.68857599999999
 20
241.429825
 10
89.736617
 20
241.490337
 10
89.786575
 20
241.549299
  0
ARC
  5
97A
330
A
100
AcDbEntity
  8
Hawa4
  6
DASHED
 62
     4
100
AcDbCircle
 10
410.136211
 20
-37.269961
 30
0.0
 40
424.6928099999999
100
AcDbArc
 50
138.646159
 51
138.965022
  0
LINE
  5
97B
330
A
100
AcDbEntity
  8
Hawa4
  6
DASHED
 62
     4
 48
0.00875
100
AcDbLine
 10
91.34334
 20
243.677617
 30
0.0
 11
91.34334
 21
243.327617
 31
0.0
  0
LINE
  5
97C
330
A
100
AcDbEntity
  8
Hawa4
  6
DASHED
 62
     4
 48
0.003656
100
AcDbLine
 10
91.34334
 20
243.327617
 30
0.0
 11
91.197087
 21
243.327617
 31
0.0
  0
LWPOLYLINE
  5
982
330
A
100
AcDbEntity
  8
Hawa4
  6
DASHED
 62
     4
100
AcDbPolyline
 90
       22
 70
     0
 43
0.0
 10
89.536575
 20
241.138135
 10
89.53758499999999
 20
241.124518
 10
89.54051899999999
 20
241.112821
 10
89.54525799999998
 20
241.102931
 10
89.551704
 20
241.094758
 10
89.55978299999999
 20
241.088228
 10
89.569434
 20
241.083285
 10
89.580617
 20
241.079892
 10
89.593299
 20
241.078025
 10
89.62308699999999
 20
241.078829
 10
89.658706
 20
241.085739
 10
89.70019500000002
 20
241.098964
 10
89.74777600000001
 20
241.118929
 10
89.80189399999998
 20
241.146351
 10
89.86335100000003
 20
241.182421
 10
89.93383599999999
 20
241.229351
 10
90.016452
 20
241.2913
 10
90.06437599999999
 20
241.330605
 10
90.11924999999999
 20
241.378743
 10
90.18620799999998
 20
241.442329
 10
90.237356
 20
241.494902
 10
90.28657499999999
 20
241.549299
  0
LINE
  5
985
330
A
100
AcDbEntity
  8
Hawa4
  6
DASHED
 62
     4
 48
0.037594
100
AcDbLine
 10
93.347087
 20
243.327617
 30
0.0
 11
91.84333999999999
 21
243.327617
 31
0.0
  0
LWPOLYLINE
  5
988
330
A
100
AcDbEntity
  8
Hawa4
  6
DASHED
 62
     4
100
AcDbPolyline
 90
       17
 70
     0
 43
0.0
 10
93.84708399999999
 20
241.077617
 10
93.89568800000001
 20
241.079744
 10
93.94418100000001
 20
241.086171
 10
93.9924
 20
241.097036
 10
94.04019099999999
 20
241.112577
 10
94.08738099999998
 20
241.13318
 10
94.133726
 20
241.159403
 10
94.17903299999998
 20
241.192176
 10
94.223016
 20
241.233038
 10
94.244345
 20
241.25725
 10
94.265112
 20
241.284636
 10
94.28518399999999
 20
241.316011
 10
94.304345
 20
241.352682
 10
94.32221
 20
241.397167
 10
94.33775899999998
 20
241.454797
 10
94.344768
 20
241.50178
 10
94.34708699999999
 20
241.549299
  0
ARC
  5
98D
330
A
100
AcDbEntity
  8
Hawa4
  6
DASHED
 62
     4
100
AcDbCircle
 10
410.669414
 20
-37.29892199999998
 30
0.0
 40
424.7368469999999
100
AcDbArc
 50
138.646186
 51
138.965008
  0
ARC
  5
992
330
A
100
AcDbEntity
  8
Hawa4
  6
DASHED
 62
     4
100
AcDbCircle
 10
410.101512
 20
-37.23968699999998
 30
0.0
 40
424.6467589999999
100
AcDbArc
 50
138.646132
 51
138.965022
  0
LWPOLYLINE
  5
999
330
A
100
AcDbEntity
  8
Hawa4
  6
DASHED
 62
     4
100
AcDbPolyline
 90
       11
 70
     0
 43
0.0
 10
89.786575
 20
241.549299
 10
89.73605799999999
 20
241.489656
 10
89.68750599999999
 20
241.428426
 10
89.637878
 20
241.360163
 10
89.604484
 20
241.309
 10
89.58050400000001
 20
241.267627
 10
89.563108
 20
241.233022
 10
89.550786
 20
241.20358
 10
89.54263
 20
241.178342
 10
89.53803399999999
 20
241.156673
 10
89.536575
 20
241.138135
  0
LWPOLYLINE
  5
9A0
330
A
100
AcDbEntity
  8
Hawa4
  6
DASHED
 62
     4
100
AcDbPolyline
 90
       17
 70
     0
 43
0.0
 10
93.84708399999999
 20
241.077617
 10
93.89568800000001
 20
241.079744
 10
93.94418100000001
 20
241.086171
 10
93.9924
 20
241.097036
 10
94.04019099999999
 20
241.112577
 10
94.08738099999998
 20
241.13318
 10
94.133726
 20
241.159403
 10
94.17903299999998
 20
241.192176
 10
94.223016
 20
241.233038
 10
94.244345
 20
241.25725
 10
94.265112
 20
241.284636
 10
94.28518399999999
 20
241.316011
 10
94.304345
 20
241.352682
 10
94.32221
 20
241.397167
 10
94.33775899999998
 20
241.454797
 10
94.344768
 20
241.50178
 10
94.34708699999999
 20
241.549299
  0
ARC
  5
9A5
330
A
100
AcDbEntity
  8
Hawa4
  6
DASHED
 62
     4
100
AcDbCircle
 10
410.669414
 20
-37.29892199999998
 30
0.0
 40
424.7368469999999
100
AcDbArc
 50
138.646186
 51
138.965008
  0
ARC
  5
9AE
330
A
100
AcDbEntity
  8
Hawa4
  6
DASHED
 62
     4
100
AcDbCircle
 10
410.101512
 20
-37.23968699999998
 30
0.0
 40
424.6467589999999
100
AcDbArc
 50
138.646132
 51
138.965022
  0
LINE
  5
9B5
330
A
100
AcDbEntity
  8
Hawa4
  6
DASHED
 62
     4
 48
0.037594
100
AcDbLine
 10
93.347087
 20
243.327617
 30
0.0
 11
91.84333999999999
 21
243.327617
 31
0.0
  0
LWPOLYLINE
  5
9D0
330
A
100
AcDbEntity
  8
Hawa4
  6
DASHED
 62
     4
100
AcDbPolyline
 90
       17
 70
     0
 43
0.0
 10
93.84708399999999
 20
241.077617
 10
93.89568800000001
 20
241.079744
 10
93.94418100000001
 20
241.086171
 10
93.9924
 20
241.097036
 10
94.04019099999999
 20
241.112577
 10
94.08738099999998
 20
241.13318
 10
94.133726
 20
241.159403
 10
94.17903299999998
 20
241.192176
 10
94.223016
 20
241.233038
 10
94.244345
 20
241.25725
 10
94.265112
 20
241.284636
 10
94.28518399999999
 20
241.316011
 10
94.304345
 20
241.352682
 10
94.32221
 20
241.397167
 10
94.33775899999998
 20
241.454797
 10
94.344768
 20
241.50178
 10
94.34708699999999
 20
241.549299
  0
ARC
  5
9DE
330
A
100
AcDbEntity
  8
Hawa4
  6
DASHED
 62
     4
100
AcDbCircle
 10
410.101512
 20
-37.23968699999998
 30
0.0
 40
424.6467589999999
100
AcDbArc
 50
138.646132
 51
138.965022
  0
LINE
  5
9EA
330
A
100
AcDbEntity
  8
Hawa4
  6
DASHED
 62
     4
 48
0.044458
100
AcDbLine
 10
93.347087
 20
241.549299
 30
0.0
 11
93.347087
 21
243.327617
 31
0.0
  0
LINE
  5
9EB
330
A
100
AcDbEntity
  8
Hawa4
  6
DASHED
 62
     4
 48
0.00875
100
AcDbLine
 10
93.347087
 20
243.677617
 30
0.0
 11
93.347087
 21
243.327617
 31
0.0
  0
LINE
  5
9F5
330
A
100
AcDbEntity
  8
Hawa4
 62
     4
 48
0.005094
100
AcDbLine
 10
91.34334
 20
243.677617
 30
0.0
 11
91.34334
 21
243.47387
 31
0.0
  0
LINE
  5
9F6
330
A
100
AcDbEntity
  8
Hawa4
  6
DASHED
 62
     4
 48
0.003656
100
AcDbLine
 10
91.34334
 20
243.47387
 30
0.0
 11
91.34334
 21
243.327617
 31
0.0
  0
LINE
  5
9F8
330
A
100
AcDbEntity
  8
Hawa4
 62
     4
 48
0.00875
100
AcDbLine
 10
91.197087
 20
243.327617
 30
0.0
 11
91.197087
 21
243.677617
 31
0.0
  0
LINE
  5
9F9
330
A
100
AcDbEntity
  8
Hawa4
 62
     4
 48
0.050683
100
AcDbLine
 10
91.354074
 20
240.777617
 30
0.0
 11
93.38140199999999
 21
240.777617
 31
0.0
  0
LINE
  5
9FA
330
A
100
AcDbEntity
  8
Hawa4
 62
     4
 48
0.067675
100
AcDbLine
 10
88.64708699999999
 20
240.777617
 30
0.0
 11
91.354074
 21
240.777617
 31
0.0
  0
LINE
  5
9FB
330
A
100
AcDbEntity
  8
Hawa4
 62
     4
 48
0.1725
100
AcDbLine
 10
88.64708699999999
 20
240.777617
 30
0.0
 11
81.74708700000001
 21
240.777617
 31
0.0
  0
LINE
  5
9FD
330
A
100
AcDbEntity
  8
Hawa4
 62
     4
 48
0.005094
100
AcDbLine
 10
96.35083399999999
 20
243.677617
 30
0.0
 11
96.35083399999999
 21
243.473869
 31
0.0
  0
LINE
  5
9FE
330
A
100
AcDbEntity
  8
Hawa4
  6
DASHED
 62
     4
 48
0.003656
100
AcDbLine
 10
96.35083399999999
 20
243.473869
 30
0.0
 11
96.35083399999999
 21
243.327617
 31
0.0
  0
LINE
  5
9FF
330
A
100
AcDbEntity
  8
Hawa4
 62
     4
 48
0.00875
100
AcDbLine
 10
96.49708699999999
 20
243.327617
 30
0.0
 11
96.49708699999999
 21
243.677617
 31
0.0
  0
LINE
  5
A00
330
A
100
AcDbEntity
  8
Hawa4
  6
DASHED
 62
     4
 48
0.053208
100
AcDbLine
 10
97.90759900000001
 20
243.677617
 30
0.0
 11
97.90759900000001
 21
241.549299
 31
0.0
  0
ARC
  5
A01
330
A
100
AcDbEntity
  8
Hawa4
  6
DASHED
 62
     4
100
AcDbCircle
 10
-222.407338
 20
-37.23968699999998
 30
0.0
 40
424.6467589999999
100
AcDbArc
 50
41.03497299999999
 51
41.35386499999999
  0
LINE
  5
A02
330
A
100
AcDbEntity
  8
Hawa4
  6
DASHED
 62
     4
 48
0.053208
100
AcDbLine
 10
97.407599
 20
243.677617
 30
0.0
 11
97.407599
 21
241.549299
 31
0.0
  0
ARC
  5
A05
330
A
100
AcDbEntity
  8
Hawa4
  6
DASHED
 62
     4
100
AcDbCircle
 10
-222.97524
 20
-37.29892199999998
 30
0.0
 40
424.7368469999999
100
AcDbArc
 50
41.03498799999999
 51
41.35381000000001
  0
LINE
  5
A06
330
A
100
AcDbEntity
  8
Hawa4
  6
DASHED
 62
     4
 48
0.00875
100
AcDbLine
 10
95.850834
 20
243.677617
 30
0.0
 11
95.850834
 21
243.327617
 31
0.0
  0
LINE
  5
A08
330
A
100
AcDbEntity
  8
Hawa4
  6
DASHED
 62
     4
 48
0.00875
100
AcDbLine
 10
94.34708699999999
 20
243.677617
 30
0.0
 11
94.34708699999999
 21
243.327617
 31
0.0
  0
LINE
  5
A09
330
A
100
AcDbEntity
  8
Hawa4
  6
DASHED
 62
     4
 48
0.044458
100
AcDbLine
 10
94.34708699999999
 20
241.549299
 30
0.0
 11
94.34708699999999
 21
243.327617
 31
0.0
  0
LINE
  5
A0A
330
A
100
AcDbEntity
  8
Hawa4
  6
DASHED
 62
     4
 48
0.019262
100
AcDbLine
 10
95.117565
 20
243.327617
 30
0.0
 11
94.34708699999999
 21
243.327617
 31
0.0
  0
LWPOLYLINE
  5
A10
330
A
100
AcDbEntity
  8
Hawa4
  6
DASHED
 62
     4
100
AcDbPolyline
 90
       11
 70
     0
 43
0.0
 10
97.90759900000001
 20
241.549299
 10
97.95811700000001
 20
241.489656
 10
98.006667
 20
241.428426
 10
98.05629600000001
 20
241.360163
 10
98.08968900000001
 20
241.309
 10
98.11367
 20
241.267627
 10
98.13106600000001
 20
241.233022
 10
98.14338800000001
 20
241.20358
 10
98.151544
 20
241.178342
 10
98.156139
 20
241.156673
 10
98.15759900000001
 20
241.138135
  0
ARC
  5
A12
330
A
100
AcDbEntity
  8
Hawa4
  6
DASHED
 62
     4
100
AcDbCircle
 10
-222.570882
 20
-37.38745300000002
 30
0.0
 40
424.8671569999999
100
AcDbArc
 50
41.035522
 51
41.35425200000001
  0
LINE
  5
A13
330
A
100
AcDbEntity
  8
Hawa4
  6
DASHED
 62
     4
 48
0.00875
100
AcDbLine
 10
96.35083399999999
 20
243.677617
 30
0.0
 11
96.35083399999999
 21
243.327617
 31
0.0
  0
ARC
  5
A22
330
A
100
AcDbEntity
  8
Hawa4
  6
DASHED
 62
     4
100
AcDbCircle
 10
-222.97524
 20
-37.29892199999998
 30
0.0
 40
424.7368469999999
100
AcDbArc
 50
41.03498799999999
 51
41.35381000000001
  0
LINE
  5
A27
330
A
100
AcDbEntity
  8
Hawa4
  6
DASHED
 62
     4
 48
0.00875
100
AcDbLine
 10
96.35083399999999
 20
243.677617
 30
0.0
 11
96.35083399999999
 21
243.327617
 31
0.0
  0
LWPOLYLINE
  5
A38
330
A
100
AcDbEntity
  8
Hawa4
  6
DASHED
 62
     4
100
AcDbPolyline
 90
       11
 70
     0
 43
0.0
 10
97.90759900000001
 20
241.549299
 10
97.95811700000001
 20
241.489656
 10
98.006667
 20
241.428426
 10
98.05629600000001
 20
241.360163
 10
98.08968900000001
 20
241.309
 10
98.11367
 20
241.267627
 10
98.13106600000001
 20
241.233022
 10
98.14338800000001
 20
241.20358
 10
98.151544
 20
241.178342
 10
98.156139
 20
241.156673
 10
98.15759900000001
 20
241.138135
  0
ARC
  5
A4A
330
A
100
AcDbEntity
  8
Hawa4
  6
DASHED
 62
     4
100
AcDbCircle
 10
-222.97524
 20
-37.29892199999998
 30
0.0
 40
424.7368469999999
100
AcDbArc
 50
41.03498799999999
 51
41.35381000000001
  0
LINE
  5
A4F
330
A
100
AcDbEntity
  8
Hawa4
  6
DASHED
 62
     4
 48
0.00875
100
AcDbLine
 10
96.35083399999999
 20
243.677617
 30
0.0
 11
96.35083399999999
 21
243.327617
 31
0.0
  0
ARC
  5
A63
330
A
100
AcDbEntity
  8
Hawa4
 62
     4
100
AcDbCircle
 10
109.847087
 20
242.677617
 30
0.0
 40
1.0
100
AcDbArc
 50
0.0
 51
90.00000300000014
  0
LINE
  5
A64
330
A
100
AcDbEntity
  8
Hawa4
 62
     4
 48
0.118358
100
AcDbLine
 10
94.312772
 20
240.777617
 30
0.0
 11
99.047087
 21
240.777617
 31
0.0
  0
LINE
  5
A65
330
A
100
AcDbEntity
  8
Hawa4
 62
     4
 48
0.1725
100
AcDbLine
 10
105.947087
 20
240.777617
 30
0.0
 11
99.047087
 21
240.777617
 31
0.0
  0
LINE
  5
A66
330
A
100
AcDbEntity
  8
Hawa4
 62
     4
100
AcDbLine
 10
76.847087
 20
204.677618
 30
0.0
 11
76.847087
 21
238.80582
 31
0.0
  0
LINE
  5
A67
330
A
100
AcDbEntity
  8
Hawa4
 62
     4
 48
0.096795
100
AcDbLine
 10
76.847087
 20
242.677617
 30
0.0
 11
76.847087
 21
238.80582
 31
0.0
  0
ARC
  5
A68
330
A
100
AcDbEntity
  8
Hawa4
 62
     4
100
AcDbCircle
 10
86.347087
 20
204.677618
 30
0.0
 40
1.0
100
AcDbArc
 50
270.0000009999998
 51
0.0000099566261208
  0
LINE
  5
A69
330
A
100
AcDbEntity
  8
Hawa4
 62
     4
 48
0.045
100
AcDbLine
 10
87.347087
 20
206.477617
 30
0.0
 11
87.347087
 21
204.677618
 31
0.0
  0
ARC
  5
A6A
330
A
100
AcDbEntity
  8
Hawa4
 62
     4
100
AcDbCircle
 10
87.147087
 20
206.477617
 30
0.0
 40
0.2
100
AcDbArc
 50
0.0
 51
90.00000300000095
  0
LINE
  5
A6B
330
A
100
AcDbEntity
  8
Hawa4
 62
     4
 48
0.0775
100
AcDbLine
 10
84.047087
 20
206.677618
 30
0.0
 11
87.147087
 21
206.677618
 31
0.0
  0
ARC
  5
A6C
330
A
100
AcDbEntity
  8
Hawa4
 62
     4
100
AcDbCircle
 10
84.047087
 20
207.177618
 30
0.0
 40
0.5
100
AcDbArc
 50
180.0000049783131
 51
270.0000009999998
  0
LINE
  5
A6D
330
A
100
AcDbEntity
  8
Hawa4
 62
     4
 48
0.0125
100
AcDbLine
 10
83.54708700000001
 20
207.677618
 30
0.0
 11
83.54708700000001
 21
207.177618
 31
0.0
  0
ARC
  5
A6E
330
A
100
AcDbEntity
  8
Hawa4
 62
     4
100
AcDbCircle
 10
82.547087
 20
207.677618
 30
0.0
 40
1.0
100
AcDbArc
 50
0.0
 51
90.00000300000014
  0
LINE
  5
A6F
330
A
100
AcDbEntity
  8
Hawa4
 62
     4
 48
0.02
100
AcDbLine
 10
81.74708700000001
 20
208.677618
 30
0.0
 11
82.547087
 21
208.677618
 31
0.0
  0
ARC
  5
A70
330
A
100
AcDbEntity
  8
Hawa4
 62
     4
100
AcDbCircle
 10
81.74708700000001
 20
210.677618
 30
0.0
 40
2.0
100
AcDbArc
 50
180.0000049783131
 51
270.0000009999998
  0
LINE
  5
A71
330
A
100
AcDbEntity
  8
Hawa4
 62
     4
100
AcDbLine
 10
79.74708700000002
 20
238.777617
 30
0.0
 11
79.74708700000002
 21
210.677618
 31
0.0
  0
ARC
  5
A72
330
A
100
AcDbEntity
  8
Hawa6
 62
     3
100
AcDbCircle
 10
81.74708700000001
 20
238.777617
 30
0.0
 40
2.0
100
AcDbArc
 50
179.1920069999997
 51
180.0000049783131
  0
ARC
  5
A73
330
A
100
AcDbEntity
  8
Hawa4
 62
     4
100
AcDbCircle
 10
81.74708700000001
 20
238.777617
 30
0.0
 40
2.0
100
AcDbArc
 50
90.00000300000014
 51
179.1920069999997
  0
ARC
  5
A74
330
A
100
AcDbEntity
  8
Hawa4
 62
     4
100
AcDbCircle
 10
105.947087
 20
238.777617
 30
0.0
 40
2.0
100
AcDbArc
 50
0.8079890000001825
 51
90.00000300000014
  0
ARC
  5
A75
330
A
100
AcDbEntity
  8
Hawa6
 62
     3
100
AcDbCircle
 10
105.947087
 20
238.777617
 30
0.0
 40
2.0
100
AcDbArc
 50
0.0000099566261208
 51
0.8079939999996533
  0
LINE
  5
A76
330
A
100
AcDbEntity
  8
Hawa4
 62
     4
100
AcDbLine
 10
107.947087
 20
238.777617
 30
0.0
 11
107.947087
 21
210.677618
 31
0.0
  0
ARC
  5
A77
330
A
100
AcDbEntity
  8
Hawa4
 62
     4
100
AcDbCircle
 10
105.947087
 20
210.677618
 30
0.0
 40
2.0
100
AcDbArc
 50
270.0000009999998
 51
0.0000099566261208
  0
LINE
  5
A78
330
A
100
AcDbEntity
  8
Hawa4
 62
     4
 48
0.02
100
AcDbLine
 10
105.147086
 20
208.677618
 30
0.0
 11
105.947087
 21
208.677618
 31
0.0
  0
ARC
  5
A79
330
A
100
AcDbEntity
  8
Hawa4
 62
     4
100
AcDbCircle
 10
105.147086
 20
207.677618
 30
0.0
 40
1.0
100
AcDbArc
 50
90.00000300000014
 51
180.0000049783131
  0
LINE
  5
A7A
330
A
100
AcDbEntity
  8
Hawa4
 62
     4
 48
0.0125
100
AcDbLine
 10
104.147087
 20
207.677618
 30
0.0
 11
104.147087
 21
207.177618
 31
0.0
  0
ARC
  5
A7B
330
A
100
AcDbEntity
  8
Hawa4
 62
     4
100
AcDbCircle
 10
103.647087
 20
207.177618
 30
0.0
 40
0.5
100
AcDbArc
 50
270.0000009999998
 51
0.0000099566261208
  0
LINE
  5
A7C
330
A
100
AcDbEntity
  8
Hawa4
 62
     4
 48
0.0775
100
AcDbLine
 10
100.547087
 20
206.677618
 30
0.0
 11
103.647087
 21
206.677618
 31
0.0
  0
ARC
  5
A7D
330
A
100
AcDbEntity
  8
Hawa4
 62
     4
100
AcDbCircle
 10
100.547087
 20
206.477617
 30
0.0
 40
0.2
100
AcDbArc
 50
90.00000300000095
 51
180.0000049783131
  0
LINE
  5
A7E
330
A
100
AcDbEntity
  8
Hawa4
 62
     4
 48
0.045
100
AcDbLine
 10
100.347087
 20
206.477617
 30
0.0
 11
100.347087
 21
204.677618
 31
0.0
  0
ARC
  5
A7F
330
A
100
AcDbEntity
  8
Hawa4
 62
     4
100
AcDbCircle
 10
101.347087
 20
204.677618
 30
0.0
 40
1.0
100
AcDbArc
 50
180.0000049783131
 51
270.0000009999998
  0
LINE
  5
A80
330
A
100
AcDbEntity
  8
Hawa4
 62
     4
 48
0.2125
100
AcDbLine
 10
101.347087
 20
203.677618
 30
0.0
 11
109.847087
 21
203.677618
 31
0.0
  0
ARC
  5
A81
330
A
100
AcDbEntity
  8
Hawa4
 62
     4
100
AcDbCircle
 10
109.847087
 20
204.677618
 30
0.0
 40
1.0
100
AcDbArc
 50
270.0000009999998
 51
0.0000099566261208
  0
LINE
  5
A82
330
A
100
AcDbEntity
  8
Hawa4
 62
     4
100
AcDbLine
 10
110.847087
 20
204.677618
 30
0.0
 11
110.847087
 21
238.80582
 31
0.0
  0
LINE
  5
A83
330
A
100
AcDbEntity
  8
Hawa4
 62
     4
 48
0.096795
100
AcDbLine
 10
110.847087
 20
242.677617
 30
0.0
 11
110.847087
 21
238.80582
 31
0.0
  0
ARC
  5
A84
330
A
100
AcDbEntity
  8
Hawa4
 62
     4
100
AcDbCircle
 10
77.847087
 20
204.677618
 30
0.0
 40
1.0
100
AcDbArc
 50
180.0000049783131
 51
270.0000009999998
  0
LINE
  5
A85
330
A
100
AcDbEntity
  8
Hawa4
 62
     4
 48
0.2125
100
AcDbLine
 10
77.847087
 20
203.677618
 30
0.0
 11
86.347087
 21
203.677618
 31
0.0
  0
ARC
  5
A86
330
A
100
AcDbEntity
  8
Hawa4
 62
     4
100
AcDbCircle
 10
93.38140199999999
 20
240.977617
 30
0.0
 40
0.2
100
AcDbArc
 50
269.999996999999
 51
314.9999999999971
  0
LINE
  5
A87
330
A
100
AcDbEntity
  8
Hawa4
 62
     4
 48
0.003939
100
AcDbLine
 10
93.522823
 20
240.836196
 30
0.0
 11
93.63424399999999
 21
240.947617
 31
0.0
  0
LINE
  5
A88
330
A
100
AcDbEntity
  8
Hawa4
  6
DASHED
 62
     4
 48
0.002525
100
AcDbLine
 10
93.63424399999999
 20
240.947617
 30
0.0
 11
93.705666
 21
241.019038
 31
0.0
  0
ARC
  5
A89
330
A
100
AcDbEntity
  8
Hawa4
  6
DASHED
 62
     4
100
AcDbCircle
 10
93.847087
 20
240.877617
 30
0.0
 40
0.2
100
AcDbArc
 50
44.99999999999712
 51
135.0000000000029
  0
LINE
  5
A8A
330
A
100
AcDbEntity
  8
Hawa4
 62
     4
 48
0.003939
100
AcDbLine
 10
94.05993100000001
 20
240.947616
 30
0.0
 11
94.17135100000001
 21
240.836196
 31
0.0
  0
LINE
  5
A8B
330
A
100
AcDbEntity
  8
Hawa4
  6
DASHED
 62
     4
 48
0.002525
100
AcDbLine
 10
93.98850799999999
 20
241.019038
 30
0.0
 11
94.05993100000001
 21
240.947616
 31
0.0
  0
ARC
  5
A8C
330
A
100
AcDbEntity
  8
Hawa4
 62
     4
100
AcDbCircle
 10
94.312772
 20
240.977617
 30
0.0
 40
0.2
100
AcDbArc
 50
225.0000000000029
 51
269.9999970000031
  0
LINE
  5
A8D
330
A
100
AcDbEntity
  8
Hawa4
 62
     4
 48
0.090156
100
AcDbLine
 10
96.49708699999999
 20
243.327617
 30
0.0
 11
99.047087
 21
240.777617
 31
0.0
  0
LINE
  5
A8E
330
A
100
AcDbEntity
  8
Hawa4
 62
     4
 48
0.090156
100
AcDbLine
 10
91.197087
 20
243.327617
 30
0.0
 11
88.64708699999999
 21
240.777617
 31
0.0
  0
LINE
  5
A8F
330
A
100
AcDbEntity
  8
Hawa4
  6
DASHED
 62
     4
 48
0.090156
100
AcDbLine
 10
96.49708699999999
 20
243.327617
 30
0.0
 11
99.047087
 21
240.777617
 31
0.0
  0
LINE
  5
A90
330
A
100
AcDbEntity
  8
Hawa4
  6
DASHED
 62
     4
 48
0.063487
100
AcDbLine
 10
89.536575
 20
243.677617
 30
0.0
 11
89.536575
 21
241.138134
 31
0.0
  0
LINE
  5
A91
330
A
100
AcDbEntity
  8
Hawa4
  6
DASHED
 62
     4
 48
0.00875
100
AcDbLine
 10
91.197087
 20
243.327617
 30
0.0
 11
91.197087
 21
243.677617
 31
0.0
  0
LINE
  5
A93
330
A
100
AcDbEntity
  8
Hawa4
  6
DASHED
 62
     4
 48
0.0725
100
AcDbLine
 10
96.447087
 20
240.777617
 30
0.0
 11
96.447087
 21
243.677617
 31
0.0
  0
LINE
  5
A94
330
A
100
AcDbEntity
  8
Hawa4
  6
DASHED
 62
     4
 48
0.0725
100
AcDbLine
 10
91.24708699999999
 20
240.777617
 30
0.0
 11
91.24708699999999
 21
243.677617
 31
0.0
  0
LINE
  5
A9E
330
A
100
AcDbEntity
  8
Hawa4
  6
DASHED
 62
     4
 48
0.0725
100
AcDbLine
 10
91.24708699999999
 20
240.777617
 30
0.0
 11
91.24708699999999
 21
243.677617
 31
0.0
  0
LINE
  5
AAA
330
A
100
AcDbEntity
  8
Hawa4
  6
DASHED
 62
     4
 48
0.090156
100
AcDbLine
 10
91.197087
 20
243.327617
 30
0.0
 11
88.64708699999999
 21
240.777617
 31
0.0
  0
LINE
  5
AAB
330
A
100
AcDbEntity
  8
Hawa4
  6
DASHED
 62
     4
 48
0.063487
100
AcDbLine
 10
98.15759900000001
 20
243.677617
 30
0.0
 11
98.15759900000001
 21
241.138134
 31
0.0
  0
LINE
  5
AAD
330
A
100
AcDbEntity
  8
Hawa4
  6
DASHED
 62
     4
 48
0.00875
100
AcDbLine
 10
96.49708699999999
 20
243.327617
 30
0.0
 11
96.49708699999999
 21
243.677617
 31
0.0
  0
LINE
  5
AAF
330
A
100
AcDbEntity
  8
Hawa4
  6
DASHED
 62
     4
 48
0.063487
100
AcDbLine
 10
98.15759900000001
 20
243.677617
 30
0.0
 11
98.15759900000001
 21
241.138135
 31
0.0
  0
LINE
  5
AB5
330
A
100
AcDbEntity
  8
Hawa4
  6
DASHED
 62
     4
 48
0.063487
100
AcDbLine
 10
98.15759900000001
 20
243.677617
 30
0.0
 11
98.15759900000001
 21
241.138135
 31
0.0
  0
LINE
  5
ABE
330
A
100
AcDbEntity
  8
Hawa4
  6
DASHED
 62
     4
 48
0.090156
100
AcDbLine
 10
91.197087
 20
243.327617
 30
0.0
 11
88.64708699999999
 21
240.777617
 31
0.0
  0
LINE
  5
AC3
330
A
100
AcDbEntity
  8
Hawa6
 62
     3
 48
0.025964
100
AcDbLine
 10
80.69708699999999
 20
225.572616
 30
0.0
 11
80.69708699999999
 21
224.534071
 31
0.0
  0
LINE
  5
AC4
330
A
100
AcDbEntity
  8
Hawa6
 62
     3
 48
0.025964
100
AcDbLine
 10
106.997087
 20
225.572616
 30
0.0
 11
106.997087
 21
224.534071
 31
0.0
  0
LINE
  5
AC5
330
A
100
AcDbEntity
  8
Hawa6
 62
     3
 48
0.073786
100
AcDbLine
 10
80.69708699999999
 20
224.534071
 30
0.0
 11
80.69708699999999
 21
221.582617
 31
0.0
  0
LINE
  5
AC6
330
A
100
AcDbEntity
  8
Hawa6
 62
     3
 48
0.073786
100
AcDbLine
 10
106.997087
 20
224.534071
 30
0.0
 11
106.997087
 21
221.582617
 31
0.0
  0
LINE
  5
AC7
330
A
100
AcDbEntity
  8
Hawa6
 62
     3
 48
0.003751
100
AcDbLine
 10
106.997087
 20
225.572616
 30
0.0
 11
106.847037
 21
225.572616
 31
0.0
  0
LINE
  5
AC8
330
A
100
AcDbEntity
  8
Hawa6
 62
     3
 48
0.003749
100
AcDbLine
 10
80.847037
 20
225.572616
 30
0.0
 11
80.69708699999999
 21
225.572616
 31
0.0
  0
LINE
  5
AC9
330
A
100
AcDbEntity
  8
Hawa6
 62
     3
 48
0.003751
100
AcDbLine
 10
106.997087
 20
221.582617
 30
0.0
 11
106.847037
 21
221.582617
 31
0.0
  0
LINE
  5
ACA
330
A
100
AcDbEntity
  8
Hawa6
 62
     3
 48
0.003749
100
AcDbLine
 10
80.847037
 20
221.582617
 30
0.0
 11
80.69708699999999
 21
221.582617
 31
0.0
  0
LINE
  5
ACB
330
A
100
AcDbEntity
  8
Hawa6
 62
     3
 48
0.025
100
AcDbLine
 10
80.847087
 20
216.077617
 30
0.0
 11
81.84708699999999
 21
216.077617
 31
0.0
  0
LINE
  5
ACC
330
A
100
AcDbEntity
  8
Hawa6
 62
     3
 48
0.025
100
AcDbLine
 10
105.847087
 20
216.077617
 30
0.0
 11
106.847087
 21
216.077617
 31
0.0
  0
LINE
  5
ACD
330
A
100
AcDbEntity
  8
Hawa6
 62
     3
100
AcDbLine
 10
105.847087
 20
216.077617
 30
0.0
 11
81.84708699999999
 21
216.077617
 31
0.0
  0
LINE
  5
ACE
330
A
100
AcDbEntity
  8
Hawa6
 62
     3
 48
0.375
100
AcDbLine
 10
81.84708699999999
 20
231.077617
 30
0.0
 11
81.84708699999999
 21
216.077617
 31
0.0
  0
LINE
  5
ACF
330
A
100
AcDbEntity
  8
Hawa6
 62
     3
 48
0.025
100
AcDbLine
 10
80.847087
 20
231.077617
 30
0.0
 11
81.84708699999999
 21
231.077617
 31
0.0
  0
LINE
  5
AD0
330
A
100
AcDbEntity
  8
Hawa6
 62
     3
 48
0.375
100
AcDbLine
 10
80.847087
 20
231.077617
 30
0.0
 11
80.847087
 21
216.077617
 31
0.0
  0
LINE
  5
AD1
330
A
100
AcDbEntity
  8
Hawa6
 62
     3
 48
0.375
100
AcDbLine
 10
106.847087
 20
231.077617
 30
0.0
 11
106.847087
 21
216.077617
 31
0.0
  0
LINE
  5
AD2
330
A
100
AcDbEntity
  8
Hawa6
 62
     3
 48
0.025
100
AcDbLine
 10
105.847087
 20
231.077617
 30
0.0
 11
106.847087
 21
231.077617
 31
0.0
  0
LINE
  5
AD3
330
A
100
AcDbEntity
  8
Hawa6
 62
     3
 48
0.375
100
AcDbLine
 10
105.847087
 20
231.077617
 30
0.0
 11
105.847087
 21
216.077617
 31
0.0
  0
LINE
  5
AD4
330
A
100
AcDbEntity
  8
Hawa6
 62
     3
100
AcDbLine
 10
105.847087
 20
231.077617
 30
0.0
 11
81.84708699999999
 21
231.077617
 31
0.0
  0
LINE
  5
AD5
330
A
100
AcDbEntity
  8
Hawa6
 62
     3
 48
0.23
100
AcDbLine
 10
103.847087
 20
206.877619
 30
0.0
 11
103.847087
 21
216.077638
 31
0.0
  0
LINE
  5
AD6
330
A
100
AcDbEntity
  8
Hawa6
 62
     3
 48
0.229117
100
AcDbLine
 10
103.847087
 20
231.112936
 30
0.0
 11
103.847087
 21
240.277617
 31
0.0
  0
LINE
  5
AD7
330
A
100
AcDbEntity
  8
Hawa6
 62
     3
 48
0.23
100
AcDbLine
 10
83.847087
 20
206.877619
 30
0.0
 11
83.847087
 21
216.077638
 31
0.0
  0
LINE
  5
AD8
330
A
100
AcDbEntity
  8
Hawa6
 62
     3
 48
0.229117
100
AcDbLine
 10
83.847087
 20
231.112936
 30
0.0
 11
83.847087
 21
240.277617
 31
0.0
  0
LINE
  5
AD9
330
A
100
AcDbEntity
  8
Hawa6
 62
     3
 48
0.235
100
AcDbLine
 10
103.647087
 20
206.677618
 30
0.0
 11
103.647087
 21
216.077636
 31
0.0
  0
LINE
  5
ADA
330
A
100
AcDbEntity
  8
Hawa6
 62
     3
 48
0.235
100
AcDbLine
 10
103.647087
 20
231.077598
 30
0.0
 11
103.647087
 21
240.477617
 31
0.0
  0
LINE
  5
ADB
330
A
100
AcDbEntity
  8
Hawa6
 62
     3
 48
0.235
100
AcDbLine
 10
84.047087
 20
231.077598
 30
0.0
 11
84.047087
 21
240.477617
 31
0.0
  0
LINE
  5
ADC
330
A
100
AcDbEntity
  8
Hawa6
 62
     3
 48
0.235
100
AcDbLine
 10
84.047087
 20
206.677618
 30
0.0
 11
84.047087
 21
216.077636
 31
0.0
  0
LINE
  5
ADD
330
A
100
AcDbEntity
  8
Hawa6
 62
     3
 48
0.235
100
AcDbLine
 10
100.347087
 20
206.677618
 30
0.0
 11
100.347087
 21
216.077621
 31
0.0
  0
LINE
  5
ADE
330
A
100
AcDbEntity
  8
Hawa6
 62
     3
 48
0.051721
100
AcDbLine
 10
100.347087
 20
238.408763
 30
0.0
 11
100.347087
 21
240.477617
 31
0.0
  0
LINE
  5
ADF
330
A
100
AcDbEntity
  8
Hawa6
 62
     3
 48
0.18286
100
AcDbLine
 10
100.347087
 20
231.094356
 30
0.0
 11
100.347087
 21
238.408763
 31
0.0
  0
LINE
  5
AE0
330
A
100
AcDbEntity
  8
Hawa6
 62
     3
 48
0.183279
100
AcDbLine
 10
87.347087
 20
231.077612
 30
0.0
 11
87.347087
 21
238.408763
 31
0.0
  0
LINE
  5
AE1
330
A
100
AcDbEntity
  8
Hawa6
 62
     3
 48
0.051721
100
AcDbLine
 10
87.347087
 20
238.408763
 30
0.0
 11
87.347087
 21
240.477617
 31
0.0
  0
LINE
  5
AE2
330
A
100
AcDbEntity
  8
Hawa6
 62
     3
 48
0.235
100
AcDbLine
 10
87.347087
 20
206.677618
 30
0.0
 11
87.347087
 21
216.077621
 31
0.0
  0
LINE
  5
AE3
330
A
100
AcDbEntity
  8
Hawa6
 62
     3
 48
0.098945
100
AcDbLine
 10
99.885882
 20
212.11984
 30
0.0
 11
99.885882
 21
216.077625
 31
0.0
  0
LINE
  5
AE4
330
A
100
AcDbEntity
  8
Hawa6
 62
     3
 48
0.063879
100
AcDbLine
 10
99.885882
 20
231.077589
 30
0.0
 11
99.885882
 21
233.632764
 31
0.0
  0
LINE
  5
AE5
330
A
100
AcDbEntity
  8
Hawa6
 62
     3
 48
0.035066
100
AcDbLine
 10
99.885882
 20
233.632764
 30
0.0
 11
99.885882
 21
235.035395
 31
0.0
  0
LINE
  5
AE6
330
A
100
AcDbEntity
  8
Hawa6
 62
     3
 48
0.098945
100
AcDbLine
 10
87.80829200000002
 20
212.11984
 30
0.0
 11
87.80829200000002
 21
216.077625
 31
0.0
  0
LINE
  5
AE7
330
A
100
AcDbEntity
  8
Hawa6
 62
     3
 48
0.063879
100
AcDbLine
 10
87.80829200000002
 20
231.077589
 30
0.0
 11
87.80829200000002
 21
233.632764
 31
0.0
  0
LINE
  5
AE8
330
A
100
AcDbEntity
  8
Hawa6
 62
     3
 48
0.035066
100
AcDbLine
 10
87.80829200000002
 20
233.632764
 30
0.0
 11
87.80829200000002
 21
235.035395
 31
0.0
  0
LINE
  5
AE9
330
A
100
AcDbEntity
  8
Hawa6
 62
     3
 48
0.087501
100
AcDbLine
 10
99.38766800000001
 20
212.577616
 30
0.0
 11
99.38766800000001
 21
216.077673
 31
0.0
  0
LINE
  5
AEA
330
A
100
AcDbEntity
  8
Hawa6
 62
     3
 48
0.053837
100
AcDbLine
 10
99.38766800000001
 20
231.077545
 30
0.0
 11
99.38766800000001
 21
233.231025
 31
0.0
  0
LINE
  5
AEB
330
A
100
AcDbEntity
  8
Hawa6
 62
     3
 48
0.033665
100
AcDbLine
 10
99.38766800000001
 20
233.231025
 30
0.0
 11
99.38766800000001
 21
234.577617
 31
0.0
  0
LINE
  5
AEC
330
A
100
AcDbEntity
  8
Hawa6
 62
     3
 48
0.087501
100
AcDbLine
 10
88.306506
 20
212.577616
 30
0.0
 11
88.306506
 21
216.077673
 31
0.0
  0
LINE
  5
AED
330
A
100
AcDbEntity
  8
Hawa6
 62
     3
 48
0.053837
100
AcDbLine
 10
88.306506
 20
231.077545
 30
0.0
 11
88.306506
 21
233.231025
 31
0.0
  0
LINE
  5
AEE
330
A
100
AcDbEntity
  8
Hawa6
 62
     3
 48
0.033665
100
AcDbLine
 10
88.306506
 20
233.231025
 30
0.0
 11
88.306506
 21
234.577617
 31
0.0
  0
ARC
  5
AEF
330
A
100
AcDbEntity
  8
Hawa6
 62
     3
100
AcDbCircle
 10
103.647087
 20
206.877619
 30
0.0
 40
0.2
100
AcDbArc
 50
269.999996999999
 51
0.0
  0
LWPOLYLINE
  5
AF0
330
A
100
AcDbEntity
  8
Hawa6
 62
     3
100
AcDbPolyline
 90
       16
 70
     0
 43
0.0
 10
103.647087
 20
240.477617
 10
103.673858
 20
240.476179
 10
103.699738
 20
240.470449
 10
103.724408
 20
240.460857
 10
103.741923
 20
240.451388
 10
103.758442
 20
240.440171
 10
103.787951
 20
240.413217
 10
103.812589
 20
240.380431
 10
103.83091
 20
240.343918
 10
103.842535
 20
240.305046
 10
103.847086
 20
240.265187
 10
103.847087
 20
240.249751
 10
103.847087
 20
240.160119
 10
103.847087
 20
239.803212
 10
103.847087
 20
232.802447
 10
103.847087
 20
231.07761
  0
LWPOLYLINE
  5
AF1
330
A
100
AcDbEntity
  8
Hawa6
 62
     3
100
AcDbPolyline
 90
       15
 70
     0
 43
0.0
 10
84.047087
 20
240.477617
 10
84.01692999999999
 20
240.473723
 10
84.002137
 20
240.470913
 10
83.98062600000001
 20
240.464647
 10
83.964522
 20
240.457495
 10
83.949177
 20
240.448528
 10
83.92096200000001
 20
240.426502
 10
83.89590700000002
 20
240.400261
 10
83.875048
 20
240.370694
 10
83.85935400000001
 20
240.338779
 10
83.85371199999999
 20
240.32196
 10
83.84983400000001
 20
240.304739
 10
83.84763900000001
 20
240.284908
 10
83.84713500000001
 20
240.244822
 10
83.84716
 20
240.227407
  0
LINE
  5
AF2
330
A
100
AcDbEntity
  8
Hawa6
 62
     3
 48
0.067123
100
AcDbLine
 10
83.847087
 20
237.57761
 30
0.0
 11
83.847087
 21
240.262533
 31
0.0
  0
LWPOLYLINE
  5
AF3
330
A
100
AcDbEntity
  8
Hawa6
 62
     3
100
AcDbPolyline
 90
       15
 70
     0
 43
0.0
 10
83.847087
 20
209.577623
 10
83.847087
 20
207.094194
 10
83.847087
 20
206.915586
 10
83.84709499999999
 20
206.885275
 10
83.84840999999999
 20
206.865785
 10
83.85170699999999
 20
206.846433
 10
83.86386300000003
 20
206.808725
 10
83.88279500000001
 20
206.773351
 10
83.90774
 20
206.741514
 10
83.93732599999999
 20
206.714895
 10
83.95372400000002
 20
206.703771
 10
83.971037
 20
206.694361
 10
83.995341
 20
206.684801
 10
84.02078299999999
 20
206.679067
 10
84.047087
 20
206.677618
  0
LINE
  5
AF4
330
A
100
AcDbEntity
  8
Hawa6
 62
     3
 48
0.0825
100
AcDbLine
 10
100.347087
 20
206.677618
 30
0.0
 11
103.647087
 21
206.677618
 31
0.0
  0
LINE
  5
AF5
330
A
100
AcDbEntity
  8
Hawa6
 62
     3
 48
0.0825
100
AcDbLine
 10
100.347087
 20
240.477617
 30
0.0
 11
103.647087
 21
240.477617
 31
0.0
  0
LINE
  5
AF6
330
A
100
AcDbEntity
  8
Hawa6
 62
     3
 48
0.0825
100
AcDbLine
 10
84.047087
 20
240.477617
 30
0.0
 11
87.347087
 21
240.477617
 31
0.0
  0
LINE
  5
AF7
330
A
100
AcDbEntity
  8
Hawa6
 62
     3
 48
0.0825
100
AcDbLine
 10
84.047087
 20
206.677618
 30
0.0
 11
87.347087
 21
206.677618
 31
0.0
  0
LINE
  5
AF8
330
A
100
AcDbEntity
  8
Hawa6
 62
     3
 48
0.136543
100
AcDbLine
 10
99.885882
 20
212.11984
 30
0.0
 11
100.347087
 21
206.677618
 31
0.0
  0
LINE
  5
AF9
330
A
100
AcDbEntity
  8
Hawa6
 62
     3
 48
0.136543
100
AcDbLine
 10
99.885882
 20
235.035395
 30
0.0
 11
100.347087
 21
240.477617
 31
0.0
  0
LINE
  5
AFA
330
A
100
AcDbEntity
  8
Hawa6
 62
     3
 48
0.136543
100
AcDbLine
 10
87.80829200000002
 20
212.11984
 30
0.0
 11
87.347087
 21
206.677618
 31
0.0
  0
LINE
  5
AFB
330
A
100
AcDbEntity
  8
Hawa6
 62
     3
 48
0.136543
100
AcDbLine
 10
87.80829200000002
 20
235.035395
 30
0.0
 11
87.347087
 21
240.477617
 31
0.0
  0
ARC
  5
AFC
330
A
100
AcDbEntity
  8
Hawa6
 62
     3
100
AcDbCircle
 10
99.38766800000001
 20
212.077616
 30
0.0
 40
0.5
100
AcDbArc
 50
4.843994000001143
 51
90.00000300000095
  0
ARC
  5
AFD
330
A
100
AcDbEntity
  8
Hawa6
 62
     3
100
AcDbCircle
 10
99.38766800000001
 20
235.077617
 30
0.0
 40
0.5
100
AcDbArc
 50
269.999996999999
 51
355.1560059999989
  0
ARC
  5
AFE
330
A
100
AcDbEntity
  8
Hawa6
 62
     3
100
AcDbCircle
 10
88.306506
 20
212.077616
 30
0.0
 40
0.5
100
AcDbArc
 50
89.99999599999926
 51
175.1560079999996
  0
ARC
  5
AFF
330
A
100
AcDbEntity
  8
Hawa6
 62
     3
100
AcDbCircle
 10
88.306506
 20
235.077617
 30
0.0
 40
0.5
100
AcDbArc
 50
184.8439920000004
 51
270.0000040000007
  0
LINE
  5
B00
330
A
100
AcDbEntity
  8
Hawa6
 62
     3
 48
0.013514
100
AcDbLine
 10
88.306506
 20
212.577616
 30
0.0
 11
88.84706899999999
 21
212.577616
 31
0.0
  0
LINE
  5
B01
330
A
100
AcDbEntity
  8
Hawa6
 62
     3
 48
0.013515
100
AcDbLine
 10
98.84706899999999
 20
212.577616
 30
0.0
 11
99.38766800000001
 21
212.577616
 31
0.0
  0
LINE
  5
B02
330
A
100
AcDbEntity
  8
Hawa6
 62
     3
 48
0.277029
100
AcDbLine
 10
88.306506
 20
234.577617
 30
0.0
 11
99.38766800000001
 21
234.577617
 31
0.0
  0
LINE
  5
B03
330
A
100
AcDbEntity
  8
Hawa6
  6
DASHSPACE
 62
     3
 48
0.003408
100
AcDbLine
 10
93.797087
 20
138.341284
 30
0.0
 11
93.797087
 21
138.477621
 31
0.0
  0
LINE
  5
B04
330
A
100
AcDbEntity
  8
Hawa6
  6
DASHSPACE
 62
     3
 48
0.056876
100
AcDbLine
 10
93.797087
 20
138.341284
 30
0.0
 11
93.797087
 21
136.066236
 31
0.0
  0
LINE
  5
B05
330
A
100
AcDbEntity
  8
Hawa6
  6
DASHSPACE
 62
     3
 48
0.004884
100
AcDbLine
 10
93.797087
 20
135.870878
 30
0.0
 11
93.797087
 21
136.066236
 31
0.0
  0
LINE
  5
B06
330
A
100
AcDbEntity
  8
Hawa6
  6
DASHSPACE
 62
     3
 48
0.207096
100
AcDbLine
 10
93.797087
 20
127.587042
 30
0.0
 11
93.797087
 21
135.870878
 31
0.0
  0
LINE
  5
B07
330
A
100
AcDbEntity
  8
Hawa6
  6
DASHSPACE
 62
     3
 48
0.010236
100
AcDbLine
 10
93.797087
 20
127.587042
 30
0.0
 11
93.797087
 21
127.177618
 31
0.0
  0
LINE
  5
B08
330
A
100
AcDbEntity
  8
Hawa6
  6
DASHSPACE
 62
     3
 48
0.010236
100
AcDbLine
 10
93.797087
 20
126.768194
 30
0.0
 11
93.797087
 21
127.177618
 31
0.0
  0
LINE
  5
B09
330
A
100
AcDbEntity
  8
Hawa6
  6
DASHSPACE
 62
     3
 48
0.212264
100
AcDbLine
 10
93.797087
 20
118.277616
 30
0.0
 11
93.797087
 21
126.768194
 31
0.0
  0
LINE
  5
B0A
330
A
100
AcDbEntity
  8
Hawa6
  6
DASHSPACE
 62
     3
 48
0.003408
100
AcDbLine
 10
98.64708700000001
 20
138.341284
 30
0.0
 11
98.64708700000001
 21
138.477621
 31
0.0
  0
LINE
  5
B0B
330
A
100
AcDbEntity
  8
Hawa6
  6
DASHSPACE
 62
     3
 48
0.056876
100
AcDbLine
 10
98.64708700000001
 20
138.341284
 30
0.0
 11
98.64708700000001
 21
136.066236
 31
0.0
  0
LINE
  5
B0C
330
A
100
AcDbEntity
  8
Hawa6
  6
DASHSPACE
 62
     3
 48
0.004884
100
AcDbLine
 10
98.64708700000001
 20
135.870878
 30
0.0
 11
98.64708700000001
 21
136.066236
 31
0.0
  0
LINE
  5
B0D
330
A
100
AcDbEntity
  8
Hawa6
  6
DASHSPACE
 62
     3
 48
0.207096
100
AcDbLine
 10
98.64708700000001
 20
127.587042
 30
0.0
 11
98.64708700000001
 21
135.870878
 31
0.0
  0
LINE
  5
B0E
330
A
100
AcDbEntity
  8
Hawa6
  6
DASHSPACE
 62
     3
 48
0.010236
100
AcDbLine
 10
98.64708700000001
 20
127.587042
 30
0.0
 11
98.64708700000001
 21
127.177618
 31
0.0
  0
LINE
  5
B0F
330
A
100
AcDbEntity
  8
Hawa6
  6
DASHSPACE
 62
     3
 48
0.010236
100
AcDbLine
 10
98.64708700000001
 20
126.768194
 30
0.0
 11
98.64708700000001
 21
127.177618
 31
0.0
  0
LINE
  5
B10
330
A
100
AcDbEntity
  8
Hawa6
  6
DASHSPACE
 62
     3
 48
0.212264
100
AcDbLine
 10
98.64708700000001
 20
118.277616
 30
0.0
 11
98.64708700000001
 21
126.768194
 31
0.0
  0
LINE
  5
B11
330
A
100
AcDbEntity
  8
Hawa6
  6
DASHSPACE
 62
     3
 48
0.12125
100
AcDbLine
 10
98.64708700000001
 20
135.870878
 30
0.0
 11
93.797087
 21
135.870878
 31
0.0
  0
LINE
  5
B12
330
A
100
AcDbEntity
  8
Hawa6
  6
DASHSPACE
 62
     3
 48
0.12125
100
AcDbLine
 10
98.64708700000001
 20
136.066236
 30
0.0
 11
93.797087
 21
136.066236
 31
0.0
  0
LINE
  5
B13
330
A
100
AcDbEntity
  8
Hawa6
  6
DASHSPACE
 62
     3
 48
0.12125
100
AcDbLine
 10
98.64708700000001
 20
138.341284
 30
0.0
 11
93.797087
 21
138.341284
 31
0.0
  0
LINE
  5
B14
330
A
100
AcDbEntity
  8
Hawa6
  6
DASHSPACE
 62
     3
 48
0.12125
100
AcDbLine
 10
93.797087
 20
118.277616
 30
0.0
 11
98.64708700000001
 21
118.277616
 31
0.0
  0
LINE
  5
B15
330
A
100
AcDbEntity
  8
Hawa6
  6
DASHSPACE
 62
     3
 48
0.12125
100
AcDbLine
 10
93.797087
 20
138.477621
 30
0.0
 11
98.64708700000001
 21
138.477621
 31
0.0
  0
LINE
  5
B16
330
A
100
AcDbEntity
  8
Hawa6
 62
     3
 48
0.0425
100
AcDbLine
 10
100.547087
 20
106.67761
 30
0.0
 11
98.847087
 21
106.67761
 31
0.0
  0
LINE
  5
B17
330
A
100
AcDbEntity
  8
Hawa6
 62
     3
100
AcDbLine
 10
100.547087
 20
106.67761
 30
0.0
 11
100.547087
 21
143.677618
 31
0.0
  0
LINE
  5
B18
330
A
100
AcDbEntity
  8
Hawa6
 62
     3
 48
0.0425
100
AcDbLine
 10
100.547087
 20
143.677618
 30
0.0
 11
98.847087
 21
143.677618
 31
0.0
  0
LINE
  5
B19
330
A
100
AcDbEntity
  8
Hawa6
 62
     3
100
AcDbLine
 10
98.847087
 20
143.677618
 30
0.0
 11
98.847087
 21
106.67761
 31
0.0
  0
LINE
  5
B1A
330
A
100
AcDbEntity
  8
Hawa6
 62
     3
 48
0.0425
100
AcDbLine
 10
100.547087
 20
197.677618
 30
0.0
 11
98.847087
 21
197.677618
 31
0.0
  0
LINE
  5
B1B
330
A
100
AcDbEntity
  8
Hawa6
 62
     3
100
AcDbLine
 10
100.547087
 20
143.677618
 30
0.0
 11
100.547087
 21
197.677618
 31
0.0
  0
LINE
  5
B1C
330
A
100
AcDbEntity
  8
Hawa6
 62
     3
100
AcDbLine
 10
98.847087
 20
143.677618
 30
0.0
 11
98.847087
 21
197.677618
 31
0.0
  0
LINE
  5
B1D
330
A
100
AcDbEntity
  8
Hawa6
 62
     3
 48
0.035238
100
AcDbLine
 10
100.547087
 20
197.677618
 30
0.0
 11
101.956626
 21
197.677618
 31
0.0
  0
LINE
  5
B1E
330
A
100
AcDbEntity
  8
Hawa6
 62
     3
100
AcDbLine
 10
101.956626
 20
143.677618
 30
0.0
 11
101.956626
 21
197.677618
 31
0.0
  0
LINE
  5
B1F
330
A
100
AcDbEntity
  8
Hawa6
 62
     3
 48
0.035238
100
AcDbLine
 10
101.956626
 20
143.677618
 30
0.0
 11
100.547087
 21
143.677618
 31
0.0
  0
LINE
  5
B20
330
A
100
AcDbEntity
  8
Hawa6
 62
     3
 48
0.0602
100
AcDbLine
 10
104.364628
 20
197.677618
 30
0.0
 11
101.956626
 21
197.677618
 31
0.0
  0
LINE
  5
B21
330
A
100
AcDbEntity
  8
Hawa6
 62
     3
100
AcDbLine
 10
104.364628
 20
143.677618
 30
0.0
 11
104.364628
 21
197.677618
 31
0.0
  0
LINE
  5
B22
330
A
100
AcDbEntity
  8
Hawa6
 62
     3
 48
0.0602
100
AcDbLine
 10
104.364628
 20
143.677618
 30
0.0
 11
101.956626
 21
143.677618
 31
0.0
  0
LINE
  5
B23
330
A
100
AcDbEntity
  8
Hawa6
 62
     3
 48
0.012061
100
AcDbLine
 10
104.364628
 20
197.677618
 30
0.0
 11
104.847087
 21
197.677618
 31
0.0
  0
LINE
  5
B24
330
A
100
AcDbEntity
  8
Hawa6
 62
     3
100
AcDbLine
 10
104.847087
 20
143.677618
 30
0.0
 11
104.847087
 21
197.677618
 31
0.0
  0
LINE
  5
B25
330
A
100
AcDbEntity
  8
Hawa6
 62
     3
 48
0.012061
100
AcDbLine
 10
104.847087
 20
143.677618
 30
0.0
 11
104.364628
 21
143.677618
 31
0.0
  0
LINE
  5
B26
330
A
100
AcDbEntity
  8
Hawa6
 62
     3
100
AcDbLine
 10
104.847087
 20
117.016676
 30
0.0
 11
104.847087
 21
143.677618
 31
0.0
  0
LINE
  5
B27
330
A
100
AcDbEntity
  8
Hawa6
 62
     3
100
AcDbLine
 10
104.364628
 20
114.280515
 30
0.0
 11
104.364628
 21
143.677618
 31
0.0
  0
LINE
  5
B28
330
A
100
AcDbEntity
  8
Hawa6
 62
     3
100
AcDbLine
 10
101.956626
 20
107.664594
 30
0.0
 11
101.956626
 21
143.677618
 31
0.0
  0
ARC
  5
B29
330
A
100
AcDbEntity
  8
Hawa6
 62
     3
100
AcDbCircle
 10
96.84708700000001
 20
117.016676
 30
0.0
 40
8.0
100
AcDbArc
 50
340.000001
 51
0.0
  0
LINE
  5
B2A
330
A
100
AcDbEntity
  8
Hawa6
 62
     3
 48
0.176013
100
AcDbLine
 10
104.364628
 20
114.280515
 30
0.0
 11
101.956626
 21
107.664594
 31
0.0
  0
ARC
  5
B2B
330
A
100
AcDbEntity
  8
Hawa6
 62
     3
100
AcDbCircle
 10
100.547087
 20
108.17761
 30
0.0
 40
1.5
100
AcDbArc
 50
269.9999970000001
 51
340.0000009999999
  0
LINE
  5
B2C
330
A
100
AcDbEntity
  8
Hawa6
 62
     3
100
AcDbLine
 10
88.847087
 20
143.677618
 30
0.0
 11
88.847087
 21
197.677618
 31
0.0
  0
LINE
  5
B2D
330
A
100
AcDbEntity
  8
Hawa6
 62
     3
 48
0.0425
100
AcDbLine
 10
87.147087
 20
143.677618
 30
0.0
 11
88.847087
 21
143.677618
 31
0.0
  0
LINE
  5
B2E
330
A
100
AcDbEntity
  8
Hawa6
 62
     3
100
AcDbLine
 10
87.147087
 20
143.677618
 30
0.0
 11
87.147087
 21
197.677618
 31
0.0
  0
LINE
  5
B2F
330
A
100
AcDbEntity
  8
Hawa6
 62
     3
 48
0.0425
100
AcDbLine
 10
87.147087
 20
197.677618
 30
0.0
 11
88.847087
 21
197.677618
 31
0.0
  0
LINE
  5
B30
330
A
100
AcDbEntity
  8
Hawa6
 62
     3
 48
0.035238
100
AcDbLine
 10
85.73754800000001
 20
143.677618
 30
0.0
 11
87.147087
 21
143.677618
 31
0.0
  0
LINE
  5
B31
330
A
100
AcDbEntity
  8
Hawa6
 62
     3
100
AcDbLine
 10
85.73754800000001
 20
143.677618
 30
0.0
 11
85.73754800000001
 21
197.677618
 31
0.0
  0
LINE
  5
B32
330
A
100
AcDbEntity
  8
Hawa6
 62
     3
 48
0.035238
100
AcDbLine
 10
85.73754800000001
 20
197.677618
 30
0.0
 11
87.147087
 21
197.677618
 31
0.0
  0
LINE
  5
B33
330
A
100
AcDbEntity
  8
Hawa6
 62
     3
 48
0.0602
100
AcDbLine
 10
83.32954600000002
 20
143.677618
 30
0.0
 11
85.73754800000001
 21
143.677618
 31
0.0
  0
LINE
  5
B34
330
A
100
AcDbEntity
  8
Hawa6
 62
     3
100
AcDbLine
 10
83.32954600000002
 20
143.677618
 30
0.0
 11
83.32954600000002
 21
197.677618
 31
0.0
  0
LINE
  5
B35
330
A
100
AcDbEntity
  8
Hawa6
 62
     3
 48
0.0602
100
AcDbLine
 10
83.32954600000002
 20
197.677618
 30
0.0
 11
85.73754800000001
 21
197.677618
 31
0.0
  0
LINE
  5
B36
330
A
100
AcDbEntity
  8
Hawa6
 62
     3
 48
0.012061
100
AcDbLine
 10
82.84708700000001
 20
143.677618
 30
0.0
 11
83.32954600000002
 21
143.677618
 31
0.0
  0
LINE
  5
B37
330
A
100
AcDbEntity
  8
Hawa6
 62
     3
100
AcDbLine
 10
82.84708700000001
 20
143.677618
 30
0.0
 11
82.84708700000001
 21
197.677618
 31
0.0
  0
LINE
  5
B38
330
A
100
AcDbEntity
  8
Hawa6
 62
     3
 48
0.012061
100
AcDbLine
 10
82.84708700000001
 20
197.677618
 30
0.0
 11
83.32954600000002
 21
197.677618
 31
0.0
  0
LINE
  5
B39
330
A
100
AcDbEntity
  8
Hawa6
 62
     3
100
AcDbLine
 10
88.847087
 20
106.67761
 30
0.0
 11
88.847087
 21
143.677618
 31
0.0
  0
LINE
  5
B3A
330
A
100
AcDbEntity
  8
Hawa6
 62
     3
100
AcDbLine
 10
87.147087
 20
106.67761
 30
0.0
 11
87.147087
 21
143.677618
 31
0.0
  0
LINE
  5
B3B
330
A
100
AcDbEntity
  8
Hawa6
 62
     3
 48
0.0425
100
AcDbLine
 10
87.147087
 20
106.67761
 30
0.0
 11
88.847087
 21
106.67761
 31
0.0
  0
LINE
  5
B3C
330
A
100
AcDbEntity
  8
Hawa6
 62
     3
100
AcDbLine
 10
83.32954600000002
 20
114.280515
 30
0.0
 11
83.32954600000002
 21
143.677618
 31
0.0
  0
LINE
  5
B3D
330
A
100
AcDbEntity
  8
Hawa6
 62
     3
100
AcDbLine
 10
82.84708700000001
 20
117.016676
 30
0.0
 11
82.84708700000001
 21
143.677618
 31
0.0
  0
LINE
  5
B3E
330
A
100
AcDbEntity
  8
Hawa6
 62
     3
100
AcDbLine
 10
85.73754800000001
 20
107.664594
 30
0.0
 11
85.73754800000001
 21
143.677618
 31
0.0
  0
ARC
  5
B3F
330
A
100
AcDbEntity
  8
Hawa6
 62
     3
100
AcDbCircle
 10
90.847087
 20
117.016676
 30
0.0
 40
8.0
100
AcDbArc
 50
180.0000049783131
 51
200.000001
  0
LINE
  5
B40
330
A
100
AcDbEntity
  8
Hawa6
 62
     3
 48
0.176013
100
AcDbLine
 10
83.32954600000002
 20
114.280515
 30
0.0
 11
85.73754800000001
 21
107.664594
 31
0.0
  0
ARC
  5
B41
330
A
100
AcDbEntity
  8
Hawa6
 62
     3
100
AcDbCircle
 10
87.147087
 20
108.17761
 30
0.0
 40
1.5
100
AcDbArc
 50
200.0000039999998
 51
269.9999970000001
  0
LINE
  5
B42
330
A
100
AcDbEntity
  8
Hawa6
  6
DASHSPACE
 62
     3
 48
0.045
100
AcDbLine
 10
93.847087
 20
159.177618
 30
0.0
 11
92.047088
 21
159.177618
 31
0.0
  0
LINE
  5
B43
330
A
100
AcDbEntity
  8
Hawa6
  6
DASHSPACE
 62
     3
 48
0.045134
100
AcDbLine
 10
95.652454
 20
159.177618
 30
0.0
 11
93.847087
 21
159.177618
 31
0.0
  0
ARC
  5
B44
330
A
100
AcDbEntity
  8
Hawa6
  6
DASHSPACE
 62
     3
100
AcDbCircle
 10
93.82738899999999
 20
153.917066
 30
0.0
 40
11.760742
100
AcDbArc
 50
81.09623599999997
 51
89.90403199999995
  0
ARC
  5
B45
330
A
100
AcDbEntity
  8
Hawa6
  6
DASHSPACE
 62
     3
100
AcDbCircle
 10
93.82759699999999
 20
170.934622
 30
0.0
 40
11.757193
100
AcDbArc
 50
270.094985
 51
278.873643
  0
ARC
  5
B46
330
A
100
AcDbEntity
  8
Hawa6
  6
DASHSPACE
 62
     3
100
AcDbCircle
 10
93.866578
 20
153.920606
 30
0.0
 40
11.757201
100
AcDbArc
 50
90.09498299999998
 51
98.873723
  0
ARC
  5
B47
330
A
100
AcDbEntity
  8
Hawa6
  6
DASHSPACE
 62
     3
100
AcDbCircle
 10
93.866761
 20
170.937757
 30
0.0
 40
11.760335
100
AcDbArc
 50
261.0996870000001
 51
269.904149
  0
CIRCLE
  5
B48
330
A
100
AcDbEntity
  8
Hawa6
  6
DASHSPACE
 62
     3
100
AcDbCircle
 10
93.847087
 20
162.427618
 30
0.0
 40
1.55
  0
LINE
  5
B49
330
A
100
AcDbEntity
  8
Hawa6
  6
DASHSPACE
 62
     3
 48
0.028247
100
AcDbLine
 10
92.403711
 20
162.9925669999999
 30
0.0
 11
92.403711
 21
161.862669
 31
0.0
  0
LINE
  5
B4A
330
A
100
AcDbEntity
  8
Hawa6
  6
DASHSPACE
 62
     3
 48
0.028247
100
AcDbLine
 10
95.290463
 20
162.9925669999999
 30
0.0
 11
95.290463
 21
161.862669
 31
0.0
  0
LINE
  5
B4B
330
A
100
AcDbEntity
  8
Hawa6
 62
     3
 48
0.4600010000000001
100
AcDbLine
 10
98.847087
 20
197.6775909999999
 30
0.0
 11
98.847087
 21
216.077617
 31
0.0
  0
LINE
  5
B4C
330
A
100
AcDbEntity
  8
Hawa6
 62
     3
100
AcDbLine
 10
88.847087
 20
195.67761
 30
0.0
 11
88.847087
 21
216.077617
 31
0.0
  0
LINE
  5
B54
330
A
100
AcDbEntity
  8
Hawa6
  6
DASHSPACE
 62
     3
 48
0.003408
100
AcDbLine
 10
88.947087
 20
138.341284
 30
0.0
 11
88.947087
 21
138.477621
 31
0.0
  0
LINE
  5
B55
330
A
100
AcDbEntity
  8
Hawa6
  6
DASHSPACE
 62
     3
 48
0.056876
100
AcDbLine
 10
88.947087
 20
138.341284
 30
0.0
 11
88.947087
 21
136.066236
 31
0.0
  0
LINE
  5
B56
330
A
100
AcDbEntity
  8
Hawa6
  6
DASHSPACE
 62
     3
 48
0.004884
100
AcDbLine
 10
88.947087
 20
135.870878
 30
0.0
 11
88.947087
 21
136.066236
 31
0.0
  0
LINE
  5
B57
330
A
100
AcDbEntity
  8
Hawa6
  6
DASHSPACE
 62
     3
 48
0.207096
100
AcDbLine
 10
88.947087
 20
127.587042
 30
0.0
 11
88.947087
 21
135.870878
 31
0.0
  0
LINE
  5
B58
330
A
100
AcDbEntity
  8
Hawa6
  6
DASHSPACE
 62
     3
 48
0.010236
100
AcDbLine
 10
88.947087
 20
127.587042
 30
0.0
 11
88.947087
 21
127.177618
 31
0.0
  0
LINE
  5
B59
330
A
100
AcDbEntity
  8
Hawa6
  6
DASHSPACE
 62
     3
 48
0.010236
100
AcDbLine
 10
88.947087
 20
126.768194
 30
0.0
 11
88.947087
 21
127.177618
 31
0.0
  0
LINE
  5
B5A
330
A
100
AcDbEntity
  8
Hawa6
  6
DASHSPACE
 62
     3
 48
0.212264
100
AcDbLine
 10
88.947087
 20
118.277616
 30
0.0
 11
88.947087
 21
126.768194
 31
0.0
  0
LINE
  5
B62
330
A
100
AcDbEntity
  8
Hawa6
  6
DASHSPACE
 62
     3
 48
0.12125
100
AcDbLine
 10
93.797087
 20
135.870878
 30
0.0
 11
88.947087
 21
135.870878
 31
0.0
  0
LINE
  5
B63
330
A
100
AcDbEntity
  8
Hawa6
  6
DASHSPACE
 62
     3
 48
0.12125
100
AcDbLine
 10
93.797087
 20
136.066236
 30
0.0
 11
88.947087
 21
136.066236
 31
0.0
  0
LINE
  5
B64
330
A
100
AcDbEntity
  8
Hawa6
  6
DASHSPACE
 62
     3
 48
0.12125
100
AcDbLine
 10
93.797087
 20
138.341284
 30
0.0
 11
88.947087
 21
138.341284
 31
0.0
  0
LINE
  5
B65
330
A
100
AcDbEntity
  8
Hawa6
  6
DASHSPACE
 62
     3
 48
0.12125
100
AcDbLine
 10
88.947087
 20
118.277616
 30
0.0
 11
93.797087
 21
118.277616
 31
0.0
  0
LINE
  5
B66
330
A
100
AcDbEntity
  8
Hawa6
  6
DASHSPACE
 62
     3
 48
0.12125
100
AcDbLine
 10
88.947087
 20
138.477621
 30
0.0
 11
93.797087
 21
138.477621
 31
0.0
  0
LINE
  5
B67
330
A
100
AcDbEntity
  8
Hawa5
 62
     1
100
AcDbLine
 10
53.847087
 20
243.677617
 30
0.0
 11
133.847087
 21
243.677617
 31
0.0
  0
LINE
  5
B68
330
A
100
AcDbEntity
  8
Hawa5
 62
     1
 48
0.2375
100
AcDbLine
 10
95.647087
 20
244.177617
 30
0.0
 11
95.647087
 21
253.677617
 31
0.0
  0
LINE
  5
B69
330
A
100
AcDbEntity
  8
Hawa5
 62
     1
 48
0.104298
100
AcDbLine
 10
95.647087
 20
244.177617
 30
0.0
 11
98.597087
 21
241.227617
 31
0.0
  0
LINE
  5
B6A
330
A
100
AcDbEntity
  8
Hawa5
 62
     1
 48
0.007
100
AcDbLine
 10
98.597087
 20
240.947617
 30
0.0
 11
98.597087
 21
241.227617
 31
0.0
  0
LINE
  5
B6B
330
A
100
AcDbEntity
  8
Hawa5
 62
     1
 48
0.052472
100
AcDbLine
 10
96.49818899999999
 20
240.947617
 30
0.0
 11
98.597087
 21
240.947617
 31
0.0
  0
LINE
  5
B6C
330
A
100
AcDbEntity
  8
Hawa5
 62
     1
 48
0.087795
100
AcDbLine
 10
95.297087
 20
244.247617
 30
0.0
 11
96.49818899999999
 21
240.947617
 31
0.0
  0
LINE
  5
B6D
330
A
100
AcDbEntity
  8
Hawa5
 62
     1
 48
0.0725
100
AcDbLine
 10
92.39708699999999
 20
244.247617
 30
0.0
 11
95.297087
 21
244.247617
 31
0.0
  0
LINE
  5
B6E
330
A
100
AcDbEntity
  8
Hawa5
 62
     1
 48
0.087795
100
AcDbLine
 10
92.39708699999999
 20
244.247617
 30
0.0
 11
91.195985
 21
240.947617
 31
0.0
  0
LINE
  5
B6F
330
A
100
AcDbEntity
  8
Hawa5
 62
     1
 48
0.052472
100
AcDbLine
 10
89.09708700000001
 20
240.947617
 30
0.0
 11
91.195985
 21
240.947617
 31
0.0
  0
LINE
  5
B70
330
A
100
AcDbEntity
  8
Hawa5
 62
     1
 48
0.007
100
AcDbLine
 10
89.09708700000001
 20
240.947617
 30
0.0
 11
89.09708700000001
 21
241.227617
 31
0.0
  0
LINE
  5
B71
330
A
100
AcDbEntity
  8
Hawa5
 62
     1
 48
0.104298
100
AcDbLine
 10
92.04708700000001
 20
244.177617
 30
0.0
 11
89.09708700000001
 21
241.227617
 31
0.0
  0
LINE
  5
B72
330
A
100
AcDbEntity
  8
Hawa5
 62
     1
 48
0.2375
100
AcDbLine
 10
92.04708700000001
 20
244.177617
 30
0.0
 11
92.04708700000001
 21
253.677617
 31
0.0
  0
LINE
  5
B73
330
A
100
AcDbEntity
  8
Hawa5
 62
     1
 48
0.06825
100
AcDbLine
 10
93.247087
 20
240.947617
 30
0.0
 11
93.247087
 21
243.677617
 31
0.0
  0
LINE
  5
B74
330
A
100
AcDbEntity
  8
Hawa5
 62
     1
 48
0.030028
100
AcDbLine
 10
91.195985
 20
240.947617
 30
0.0
 11
92.39708699999999
 21
240.947617
 31
0.0
  0
LINE
  5
B75
330
A
100
AcDbEntity
  8
Hawa5
 62
     1
 48
0.02125
100
AcDbLine
 10
92.39708699999999
 20
240.947617
 30
0.0
 11
93.247087
 21
240.947617
 31
0.0
  0
LINE
  5
B76
330
A
100
AcDbEntity
  8
Hawa5
 62
     1
 48
0.03
100
AcDbLine
 10
93.247087
 20
240.947617
 30
0.0
 11
94.44708699999999
 21
240.947617
 31
0.0
  0
LINE
  5
B77
330
A
100
AcDbEntity
  8
Hawa5
 62
     1
 48
0.02125
100
AcDbLine
 10
95.297087
 20
240.947617
 30
0.0
 11
94.44708699999999
 21
240.947617
 31
0.0
  0
LINE
  5
B78
330
A
100
AcDbEntity
  8
Hawa5
 62
     1
 48
0.030028
100
AcDbLine
 10
95.297087
 20
240.947617
 30
0.0
 11
96.49818899999999
 21
240.947617
 31
0.0
  0
LINE
  5
B79
330
A
100
AcDbEntity
  8
Hawa5
 62
     1
 48
0.06825
100
AcDbLine
 10
94.44708699999999
 20
240.947617
 30
0.0
 11
94.44708699999999
 21
243.677617
 31
0.0
  0
VIEWPORT
  5
52
102
{ACAD_XDICTIONARY
360
BA8
102
}
330
B
100
AcDbEntity
 67
     1
  8
HAWA1
 62
     0
100
AcDbViewport
 10
0.0
 20
0.0
 30
0.0
 40
1000.0
 41
1000.0
 68
     1
 69
     1
 12
0.0
 22
0.0
 13
0.0
 23
0.0
 14
1.0
 24
1.0
 15
1.0
 25
1.0
 16
0.0
 26
0.0
 36
1.0
 17
0.0
 27
0.0
 37
0.0
 42
50.0
 43
0.0
 44
0.0
 45
1000.0
 50
0.0
 51
0.0
 72
   100
 90
   557216
  1

281
     0
 71
     1
 74
     0
110
0.0
120
0.0
130
0.0
111
1.0
121
0.0
131
0.0
112
0.0
122
1.0
132
0.0
 79
     0
146
0.0
  0
ENDSEC
  0
SECTION
  2
OBJECTS
  0
DICTIONARY
  5
19
330
0
100
AcDbDictionary
281
     1
  3
ACAD_COLOR
350
B9B
  3
ACAD_GROUP
350
1A
  3
ACAD_LAYOUT
350
8DC
  3
ACAD_MATERIAL
350
B86
  3
ACAD_MLINESTYLE
350
1B
  3
ACAD_PLOTSETTINGS
350
B9E
  3
ACAD_PLOTSTYLENAME
350
B7F
  3
ACAD_TABLESTYLE
350
B9C
  3
ACAD_VISUALSTYLE
350
B8A
  3
AcDbVariableDictionary
350
BA2
  3
DWGPROPS
350
BA7
  0
DICTIONARY
  5
BA8
330
52
100
AcDbDictionary
280
     1
281
     1
  3
ACAD_XREC_ROUNDTRIP
360
BA9
  0
DICTIONARY
  5
B9B
102
{ACAD_REACTORS
330
19
102
}
330
19
100
AcDbDictionary
281
     1
  0
DICTIONARY
  5
1A
102
{ACAD_REACTORS
330
19
102
}
330
19
100
AcDbDictionary
281
     1
  0
DICTIONARY
  5
8DC
102
{ACAD_REACTORS
330
19
102
}
330
19
100
AcDbDictionary
281
     1
  3
Layout1
350
8DE
  3
Model
350
8DD
  0
DICTIONARY
  5
B86
102
{ACAD_REACTORS
330
19
102
}
330
19
100
AcDbDictionary
281
     1
  3
ByBlock
350
B88
  3
ByLayer
350
B87
  3
Global
350
B89
  0
DICTIONARY
  5
1B
102
{ACAD_REACTORS
330
19
102
}
330
19
100
AcDbDictionary
281
     1
  3
STANDARD
350
1C
  0
DICTIONARY
  5
B9E
102
{ACAD_REACTORS
330
19
102
}
330
19
100
AcDbDictionary
281
     1
  0
ACDBDICTIONARYWDFLT
  5
B7F
102
{ACAD_REACTORS
330
19
102
}
330
19
100
AcDbDictionary
281
     1
  3
Normal
350
B80
100
AcDbDictionaryWithDefault
340
B80
  0
DICTIONARY
  5
B9C
102
{ACAD_REACTORS
330
19
102
}
330
19
100
AcDbDictionary
281
     1
  3
Standard
350
B9D
  0
DICTIONARY
  5
B8A
102
{ACAD_REACTORS
330
19
102
}
330
19
100
AcDbDictionary
281
     1
  3
2dWireframe
350
B90
  3
3D Hidden
350
B92
  3
3dWireframe
350
B91
  3
Basic
350
B8F
  3
Brighten
350
B96
  3
ColorChange
350
B9A
  3
Conceptual
350
B93
  3
Dim
350
B95
  3
Facepattern
350
B99
  3
Flat
350
B8B
  3
FlatWithEdges
350
B8C
  3
Gouraud
350
B8D
  3
GouraudWithEdges
350
B8E
  3
Linepattern
350
B98
  3
Realistic
350
B94
  3
Thicken
350
B97
  0
DICTIONARY
  5
BA2
102
{ACAD_REACTORS
330
19
102
}
330
19
100
AcDbDictionary
281
     1
  3
CTABLESTYLE
350
BA3
  3
DIMASSOC
350
BA6
  3
INDEXCTL
350
BA5
  3
SORTENTS
350
BA4
  0
XRECORD
  5
BA7
102
{ACAD_REACTORS
330
19
102
}
330
19
100
AcDbXrecord
280
     1
  1
DWGPROPS COOKIE
  2

  3

  4

  6

  7

  8
stj
  9

300
=
301
=
302
=
303
=
304
=
305
=
306
=
307
=
308
=
309
=
 40
0.0002870601851852
 41
2447893.0
 42
2455231.368000104
  1

 90
        0
  0
XRECORD
  5
BA9
102
{ACAD_REACTORS
330
BA8
102
}
330
BA8
100
AcDbXrecord
280
     1
102
SHADEPLOT
 70
     0
  0
LAYOUT
  5
8DE
102
{ACAD_XDICTIONARY
360
BAC
102
}
102
{ACAD_REACTORS
330
8DC
102
}
330
8DC
100
AcDbPlotSettings
  1

  2
none_device
  4

  6

 40
0.0
 41
0.0
 42
0.0
 43
0.0
 44
0.0
 45
0.0
 46
0.0
 47
0.0
 48
0.0
 49
0.0
140
0.0
141
0.0
142
1.0
143
1.0
 70
   688
 72
     0
 73
     0
 74
     5
  7

 75
    16
147
1.0
148
0.0
149
0.0
100
AcDbLayout
  1
Layout1
 70
     1
 71
     1
 10
0.0
 20
0.0
 11
420.0
 21
297.0
 12
0.0
 22
0.0
 32
0.0
 14
0.0
 24
0.0
 34
0.0
 15
195.5
 25
253.664566
 35
2.0
146
0.0
 13
0.0
 23
0.0
 33
0.0
 16
1.0
 26
0.0
 36
0.0
 17
0.0
 27
1.0
 37
0.0
 76
     0
330
B
331
52
  0
LAYOUT
  5
8DD
102
{ACAD_XDICTIONARY
360
BAA
102
}
102
{ACAD_REACTORS
330
8DC
102
}
330
8DC
100
AcDbPlotSettings
  1

  2
none_device
  4

  6

 40
0.0
 41
0.0
 42
0.0
 43
0.0
 44
0.0
 45
0.0
 46
0.0
 47
0.0
 48
0.0
 49
0.0
140
0.0
141
0.0
142
1.0
143
1.0
 70
   688
 72
     0
 73
     0
 74
     5
  7

 75
    16
147
1.0
148
0.0
149
0.0
100
AcDbLayout
  1
Model
 70
     1
 71
     0
 10
0.0
 20
0.0
 11
0.0
 21
0.0
 12
0.0
 22
0.0
 32
0.0
 14
0.0
 24
0.0
 34
0.0
 15
0.0
 25
0.0
 35
0.0
146
0.0
 13
0.0
 23
0.0
 33
0.0
 16
1.0
 26
0.0
 36
0.0
 17
0.0
 27
1.0
 37
0.0
 76
     0
330
A
331
15
  0
MATERIAL
  5
B88
102
{ACAD_XDICTIONARY
360
BB0
102
}
102
{ACAD_REACTORS
330
B86
102
}
330
B86
100
AcDbMaterial
  1
ByBlock
  0
MATERIAL
  5
B87
102
{ACAD_XDICTIONARY
360
BAE
102
}
102
{ACAD_REACTORS
330
B86
102
}
330
B86
100
AcDbMaterial
  1
ByLayer
  0
MATERIAL
  5
B89
102
{ACAD_XDICTIONARY
360
BB2
102
}
102
{ACAD_REACTORS
330
B86
102
}
330
B86
100
AcDbMaterial
  1
Global
  0
MLINESTYLE
  5
1C
102
{ACAD_REACTORS
330
1B
102
}
330
1B
100
AcDbMlineStyle
  2
STANDARD
 70
     0
  3

 62
     0
 51
90.0
 52
90.0
 71
     2
 49
0.5
 62
   256
  6
BYLAYER
 49
-0.5
 62
   256
  6
BYLAYER
  0
ACDBPLACEHOLDER
  5
B80
102
{ACAD_REACTORS
330
B7F
102
}
330
B7F
  0
TABLESTYLE
  5
B9D
102
{ACAD_XDICTIONARY
360
BB4
102
}
102
{ACAD_REACTORS
330
B9C
102
}
330
B9C
100
AcDbTableStyle
  3
Standard
 70
     0
 71
     0
 40
1.5
 41
1.5
280
     0
281
     0
  7
STANDARD
140
4.5
170
     2
 62
     0
 63
     7
283
     0
274
    -2
284
     1
 64
     0
275
    -2
285
     1
 65
     0
276
    -2
286
     1
 66
     0
277
    -2
287
     1
 67
     0
278
    -2
288
     1
 68
     0
279
    -2
289
     1
 69
     0
  7
STANDARD
140
6.0
170
     5
 62
     0
 63
     7
283
     0
274
    -2
284
     1
 64
     0
275
    -2
285
     1
 65
     0
276
    -2
286
     1
 66
     0
277
    -2
287
     1
 67
     0
278
    -2
288
     1
 68
     0
279
    -2
289
     1
 69
     0
  7
STANDARD
140
4.5
170
     5
 62
     0
 63
     7
283
     0
274
    -2
284
     1
 64
     0
275
    -2
285
     1
 65
     0
276
    -2
286
     1
 66
     0
277
    -2
287
     1
 67
     0
278
    -2
288
     1
 68
     0
279
    -2
289
     1
 69
     0
  0
VISUALSTYLE
  5
B90
102
{ACAD_REACTORS
330
B8A
102
}
330
B8A
100
AcDbVisualStyle
  2
2dWireframe
 70
     4
 71
     0
 72
     2
 73
     0
 90
        0
 40
-0.6
 41
-30.0
 62
     5
 63
     7
 74
     1
 91
        4
 64
     7
 65
   257
 75
     1
175
     1
 42
1.0
 92
        0
 66
   257
 43
1.0
 76
     1
 77
     6
 78
     2
 67
     7
 79
     5
170
     0
171
     0
290
     0
174
     0
 93
        1
 44
0.0
173
     0
291
     0
 45
0.0
1001
ACAD
1000
AcDbSavedByObjectVersion
1070
     0
  0
VISUALSTYLE
  5
B92
102
{ACAD_REACTORS
330
B8A
102
}
330
B8A
100
AcDbVisualStyle
  2
3D Hidden
 70
     6
 71
     1
 72
     2
 73
     2
 90
        0
 40
-0.6
 41
-30.0
 62
     5
 63
     7
 74
     2
 91
        2
 64
     7
 65
   257
 75
     2
175
     1
 42
40.0
 92
        0
 66
   257
 43
1.0
 76
     1
 77
     6
 78
     2
 67
     7
 79
     3
170
     0
171
     0
290
     0
174
     0
 93
        1
 44
0.0
173
     0
291
     0
 45
0.0
1001
ACAD
1000
AcDbSavedByObjectVersion
1070
     0
  0
VISUALSTYLE
  5
B91
102
{ACAD_REACTORS
330
B8A
102
}
330
B8A
100
AcDbVisualStyle
  2
3dWireframe
 70
     5
 71
     0
 72
     2
 73
     0
 90
        0
 40
-0.6
 41
-30.0
 62
     5
 63
     7
 74
     1
 91
        4
 64
     7
 65
   257
 75
     1
175
     1
 42
1.0
 92
        0
 66
   257
 43
1.0
 76
     1
 77
     6
 78
     2
 67
     7
 79
     5
170
     0
171
     0
290
     0
174
     0
 93
        1
 44
0.0
173
     0
291
     0
 45
0.0
1001
ACAD
1000
AcDbSavedByObjectVersion
1070
     0
  0
VISUALSTYLE
  5
B8F
102
{ACAD_REACTORS
330
B8A
102
}
330
B8A
100
AcDbVisualStyle
  2
Basic
 70
     7
 71
     1
 72
     0
 73
     1
 90
        0
 40
-0.6
 41
-30.0
 62
     5
 63
     7
 74
     0
 91
        4
 64
     7
 65
   257
 75
     1
175
     1
 42
1.0
 92
        8
 66
     7
 43
1.0
 76
     1
 77
     6
 78
     2
 67
     7
 79
     5
170
     0
171
     0
290
     0
174
     0
 93
        1
 44
0.0
173
     0
291
     1
 45
0.0
1001
ACAD
1000
AcDbSavedByObjectVersion
1070
     0
  0
VISUALSTYLE
  5
B96
102
{ACAD_REACTORS
330
B8A
102
}
330
B8A
100
AcDbVisualStyle
  2
Brighten
 70
    12
 71
     2
 72
     2
 73
     0
 90
        0
 40
-0.6
 41
-30.0
 62
     5
 63
     7
 74
     1
 91
        4
 64
     7
 65
   257
 75
     1
175
     1
 42
1.0
 92
        8
 66
     7
 43
1.0
 76
     1
 77
     6
 78
     2
 67
     7
 79
     5
170
     0
171
     0
290
     0
174
     0
 93
        1
 44
50.0
173
     0
291
     1
 45
0.0
1001
ACAD
1000
AcDbSavedByObjectVersion
1070
     0
  0
VISUALSTYLE
  5
B9A
102
{ACAD_REACTORS
330
B8A
102
}
330
B8A
100
AcDbVisualStyle
  2
ColorChange
 70
    16
 71
     2
 72
     2
 73
     3
 90
        0
 40
-0.6
 41
-30.0
 62
     5
 63
     8
 74
     1
 91
        4
 64
     7
 65
   257
 75
     1
175
     1
 42
1.0
 92
        8
 66
     8
 43
1.0
 76
     1
 77
     6
 78
     2
 67
     7
 79
     5
170
     0
171
     0
290
     0
174
     0
 93
        1
 44
0.0
173
     0
291
     1
 45
0.0
1001
ACAD
1000
AcDbSavedByObjectVersion
1070
     0
  0
VISUALSTYLE
  5
B93
102
{ACAD_REACTORS
330
B8A
102
}
330
B8A
100
AcDbVisualStyle
  2
Conceptual
 70
     9
 71
     3
 72
     2
 73
     0
 90
        0
 40
-0.6
 41
-30.0
 62
     5
 63
     7
 74
     2
 91
        2
 64
     7
 65
   257
 75
     1
175
     1
 42
40.0
 92
        8
 66
     7
 43
1.0
 76
     1
 77
     6
 78
     2
 67
     7
 79
     3
170
     0
171
     0
290
     0
174
     0
 93
        1
 44
0.0
173
     0
291
     0
 45
0.0
1001
ACAD
1000
AcDbSavedByObjectVersion
1070
     0
  0
VISUALSTYLE
  5
B95
102
{ACAD_REACTORS
330
B8A
102
}
330
B8A
100
AcDbVisualStyle
  2
Dim
 70
    11
 71
     2
 72
     2
 73
     0
 90
        0
 40
-0.6
 41
-30.0
 62
     5
 63
     7
 74
     1
 91
        4
 64
     7
 65
   257
 75
     1
175
     1
 42
1.0
 92
        8
 66
     7
 43
1.0
 76
     1
 77
     6
 78
     2
 67
     7
 79
     5
170
     0
171
     0
290
     0
174
     0
 93
        1
 44
-50.0
173
     0
291
     1
 45
0.0
1001
ACAD
1000
AcDbSavedByObjectVersion
1070
     0
  0
VISUALSTYLE
  5
B99
102
{ACAD_REACTORS
330
B8A
102
}
330
B8A
100
AcDbVisualStyle
  2
Facepattern
 70
    15
 71
     2
 72
     2
 73
     0
 90
        0
 40
-0.6
 41
-30.0
 62
     5
 63
     7
 74
     1
 91
        4
 64
     7
 65
   257
 75
     1
175
     1
 42
1.0
 92
        8
 66
     7
 43
1.0
 76
     1
 77
     6
 78
     2
 67
     7
 79
     5
170
     0
171
     0
290
     0
174
     0
 93
        1
 44
0.0
173
     0
291
     1
 45
0.0
1001
ACAD
1000
AcDbSavedByObjectVersion
1070
     0
  0
VISUALSTYLE
  5
B8B
102
{ACAD_REACTORS
330
B8A
102
}
330
B8A
100
AcDbVisualStyle
  2
Flat
 70
     0
 71
     2
 72
     1
 73
     1
 90
        2
 40
-0.6
 41
30.0
 62
     5
 63
     7
 74
     0
 91
        4
 64
     7
 65
   257
 75
     1
175
     1
 42
1.0
 92
        8
 66
     7
 43
1.0
 76
     1
 77
     6
 78
     2
 67
     7
 79
     5
170
     0
171
     0
290
     0
174
     0
 93
       13
 44
0.0
173
     0
291
     1
 45
0.0
1001
ACAD
1000
AcDbSavedByObjectVersion
1070
     0
  0
VISUALSTYLE
  5
B8C
102
{ACAD_REACTORS
330
B8A
102
}
330
B8A
100
AcDbVisualStyle
  2
FlatWithEdges
 70
     1
 71
     2
 72
     1
 73
     1
 90
        2
 40
-0.6
 41
30.0
 62
     5
 63
     7
 74
     1
 91
        4
 64
     7
 65
   257
 75
     1
175
     1
 42
1.0
 92
        0
 66
   257
 43
1.0
 76
     1
 77
     6
 78
     2
 67
     7
 79
     5
170
     0
171
     0
290
     0
174
     0
 93
       13
 44
0.0
173
     0
291
     1
 45
0.0
1001
ACAD
1000
AcDbSavedByObjectVersion
1070
     0
  0
VISUALSTYLE
  5
B8D
102
{ACAD_REACTORS
330
B8A
102
}
330
B8A
100
AcDbVisualStyle
  2
Gouraud
 70
     2
 71
     2
 72
     2
 73
     1
 90
        2
 40
-0.6
 41
30.0
 62
     5
 63
     7
 74
     0
 91
        4
 64
     7
 65
   257
 75
     1
175
     1
 42
1.0
 92
        0
 66
     7
 43
1.0
 76
     1
 77
     6
 78
     2
 67
     7
 79
     5
170
     0
171
     0
290
     0
174
     0
 93
       13
 44
0.0
173
     0
291
     1
 45
0.0
1001
ACAD
1000
AcDbSavedByObjectVersion
1070
     0
  0
VISUALSTYLE
  5
B8E
102
{ACAD_REACTORS
330
B8A
102
}
330
B8A
100
AcDbVisualStyle
  2
GouraudWithEdges
 70
     3
 71
     2
 72
     2
 73
     1
 90
        2
 40
-0.6
 41
30.0
 62
     5
 63
     7
 74
     1
 91
        4
 64
     7
 65
   257
 75
     1
175
     1
 42
1.0
 92
        0
 66
   257
 43
1.0
 76
     1
 77
     6
 78
     2
 67
     7
 79
     5
170
     0
171
     0
290
     0
174
     0
 93
       13
 44
0.0
173
     0
291
     1
 45
0.0
1001
ACAD
1000
AcDbSavedByObjectVersion
1070
     0
  0
VISUALSTYLE
  5
B98
102
{ACAD_REACTORS
330
B8A
102
}
330
B8A
100
AcDbVisualStyle
  2
Linepattern
 70
    14
 71
     2
 72
     2
 73
     0
 90
        0
 40
-0.6
 41
-30.0
 62
     5
 63
     7
 74
     1
 91
        4
 64
     7
 65
   257
 75
     7
175
     7
 42
1.0
 92
        8
 66
     7
 43
1.0
 76
     1
 77
     6
 78
     2
 67
     7
 79
     5
170
     0
171
     0
290
     0
174
     0
 93
        1
 44
0.0
173
     0
291
     1
 45
0.0
1001
ACAD
1000
AcDbSavedByObjectVersion
1070
     0
  0
VISUALSTYLE
  5
B94
102
{ACAD_REACTORS
330
B8A
102
}
330
B8A
100
AcDbVisualStyle
  2
Realistic
 70
     8
 71
     2
 72
     2
 73
     0
 90
        0
 40
-0.6
 41
-30.0
 62
     5
 63
     7
 74
     1
 91
        0
 64
     7
 65
   257
 75
     1
175
     1
 42
1.0
 92
        8
 66
     8
 43
1.0
 76
     1
 77
     6
 78
     2
 67
     7
 79
     5
170
     0
171
     0
290
     0
174
     0
 93
       13
 44
0.0
173
     0
291
     0
 45
0.0
1001
ACAD
1000
AcDbSavedByObjectVersion
1070
     0
  0
VISUALSTYLE
  5
B97
102
{ACAD_REACTORS
330
B8A
102
}
330
B8A
100
AcDbVisualStyle
  2
Thicken
 70
    13
 71
     2
 72
     2
 73
     0
 90
        0
 40
-0.6
 41
-30.0
 62
     5
 63
     7
 74
     1
 91
        4
 64
     7
 65
   257
 75
     1
175
     1
 42
1.0
 92
       12
 66
     7
 43
1.0
 76
     1
 77
     6
 78
     2
 67
     7
 79
     5
170
     0
171
     0
290
     0
174
     0
 93
        1
 44
0.0
173
     0
291
     1
 45
0.0
1001
ACAD
1000
AcDbSavedByObjectVersion
1070
     0
  0
DICTIONARYVAR
  5
BA3
102
{ACAD_REACTORS
330
BA2
102
}
330
BA2
100
DictionaryVariables
280
     0
  1
STANDARD
  0
DICTIONARYVAR
  5
BA6
102
{ACAD_REACTORS
330
BA2
102
}
330
BA2
100
DictionaryVariables
280
     0
  1
1
  0
DICTIONARYVAR
  5
BA5
102
{ACAD_REACTORS
330
BA2
102
}
330
BA2
100
DictionaryVariables
280
     0
  1
0
  0
DICTIONARYVAR
  5
BA4
102
{ACAD_REACTORS
330
BA2
102
}
330
BA2
100
DictionaryVariables
280
     0
  1
127
  0
DICTIONARY
  5
BAC
330
8DE
100
AcDbDictionary
280
     1
281
     1
  3
ACAD_XREC_ROUNDTRIP
360
BAD
  0
DICTIONARY
  5
BAA
330
8DD
100
AcDbDictionary
280
     1
281
     1
  3
ACAD_XREC_ROUNDTRIP
360
BAB
  0
DICTIONARY
  5
BB0
330
B88
100
AcDbDictionary
280
     1
281
     1
  3
ACAD_XREC_ROUNDTRIP
360
BB1
  0
DICTIONARY
  5
BAE
330
B87
100
AcDbDictionary
280
     1
281
     1
  3
ACAD_XREC_ROUNDTRIP
360
BAF
  0
DICTIONARY
  5
BB2
330
B89
100
AcDbDictionary
280
     1
281
     1
  3
ACAD_XREC_ROUNDTRIP
360
BB3
  0
DICTIONARY
  5
BB4
330
B9D
100
AcDbDictionary
280
     1
281
     1
  3
ACAD_XREC_ROUNDTRIP
360
BB5
  0
XRECORD
  5
BAD
102
{ACAD_REACTORS
330
BAC
102
}
330
BAC
100
AcDbXrecord
280
     1
102
SHADEPLOT
 70
     0
102
SHADEPLOTRESLEVEL
 70
     2
102
SHADEPLOTCUSTOMDPI
 70
   300
  0
XRECORD
  5
BAB
102
{ACAD_REACTORS
330
BAA
102
}
330
BAA
100
AcDbXrecord
280
     1
102
SHADEPLOT
 70
     0
102
SHADEPLOTRESLEVEL
 70
     2
102
SHADEPLOTCUSTOMDPI
 70
   300
  0
XRECORD
  5
BB1
102
{ACAD_REACTORS
330
BB0
102
}
330
BB0
100
AcDbXrecord
280
     1
102
MATERIAL
148
0.0
149
0.0
149
0.0
 93
        0
 94
       63
282
     0
 72
     1
 77
     1
171
     1
175
     1
179
     1
273
     0
  0
XRECORD
  5
BAF
102
{ACAD_REACTORS
330
BAE
102
}
330
BAE
100
AcDbXrecord
280
     1
102
MATERIAL
148
0.0
149
0.0
149
0.0
 93
        0
 94
       63
282
     0
 72
     1
 77
     1
171
     1
175
     1
179
     1
273
     0
  0
XRECORD
  5
BB3
102
{ACAD_REACTORS
330
BB2
102
}
330
BB2
100
AcDbXrecord
280
     1
102
MATERIAL
148
0.0
149
0.0
149
0.0
 93
        0
 94
       63
282
     0
 72
     1
 77
     1
171
     1
175
     1
179
     1
273
     0
  0
XRECORD
  5
BB5
102
{ACAD_REACTORS
330
BB4
102
}
330
BB4
100
AcDbXrecord
280
     1
102
ACAD_ROUNDTRIP_PRE2007_TABLESTYLE
 90
      512
 91
        0
  1

 92
      512
 93
        0
  2

 94
      512
 95
        0
  3

  0
ENDSEC
  0
EOF
