999
DXF file: 3614-45_1.dxf
999
Pro/ENGINEER 2011040 by Parametric Technology Corporation
  0
SECTION
  2
HEADER
  9
$ACADVER
  1
AC1021
  9
$DWGCODEPAGE
  3
ANSI_1252
  9
$EXTMAX
 10
841.0
 20
594.0
 30
0.0
  9
$EXTMIN
 10
0.0
 20
0.0
 30
0.0
  9
$LIMMIN
 10
0.0
 20
0.0
  9
$LIMMAX
 10
841.0
 20
594.0
  9
$VIEWCTR
 10
420.5
 20
297.0
  9
$VIEWSIZE
 40
594.0
  9
$CLAYER
  8
0
  9
$LTSCALE
 40
46.255
  9
$CELTYPE
  6
BYLAYER
  9
$DIMSCALE
 40
1.0
  9
$DIMASZ
 40
3.5
  9
$DIMEXO
 40
5.25625
  9
$DIMDLI
 40
31.958
  9
$DIMEXE
 40
15.138
  9
$DIMCEN
 40
7.569
  9
$DIMLFAC
 40
1.0
  9
$DIMBLK
  1
_FILLED
  9
$DIMTXT
 40
3.5
  9
$DIMTOL
 70
1
  9
$DIMLIM
 70
0
  9
$DIMTFAC
 40
1.0
  9
$DIMTP
 40
0.05
  9
$DIMTM
 40
0.05
  9
$PDMODE
 70
3
  9
$PDSIZE
 40
0.3125
  9
$HANDSEED
  5
9C1
  9
$TILEMODE
 70
1
  9
$MEASUREMENT
 70
1
  9
$INSUNITS
 70
4
  0
ENDSEC
  0
SECTION
  2
CLASSES
  0
CLASS
  1
ACDBDICTIONARYWDFLT
  2
AcDbDictionaryWithDefault
  3
AutoCAD 2000
 90
0
 91
1
280
0
281
0
  0
CLASS
  1
ACDBPLACEHOLDER
  2
AcDbPlaceHolder
  3
AutoCAD 2000
 90
0
 91
1
280
0
281
0
  0
CLASS
  1
LAYOUT
  2
AcDbLayout
  3
AutoCAD 2000
 90
0
 91
0
280
0
281
0
  0
CLASS
  1
TABLESTYLE
  2
AcDbTableStyle
  3
ObjectDBX Classes
 90
2047
 91
1
280
0
281
0
  0
CLASS
  1
ACAD_TABLE
  2
AcDbTable
  3
ObjectDBX Classes
 90
1025
 91
12
280
0
281
1
  0
ENDSEC
  0
SECTION
  2
TABLES
  0
TABLE
  2
VPORT
  5
8
100
AcDbSymbolTable
 70
2
  0
VPORT
  5
1F4
100
AcDbSymbolTableRecord
100
AcDbViewportTableRecord
  2
*ACTIVE
 70
0
 10
0.0
 20
0.0
 11
1.0
 21
1.0
 12
420.5
 22
297.0
 13
0.0
 23
0.0
 14
1.0
 24
1.0
 15
0.0
 25
0.0
 16
0.0
 26
0.0
 36
1.0
 17
0.0
 27
0.0
 37
0.0
 40
594.0
 41
1.4158249158
 42
50.0
 43
0.0
 44
0.0
 50
0.0
 51
0.0
 71
0
 72
100
 73
1
 74
1
 75
0
 76
0
 77
0
 78
0
  0
ENDTAB
  0
TABLE
  2
LTYPE
  5
5
100
AcDbSymbolTable
 70
6
  0
LTYPE
  5
14
100
AcDbSymbolTableRecord
100
AcDbLinetypeTableRecord
  2
BYBLOCK
 70
0
  3

 72
65
 73
0
 40
0.0
  0
LTYPE
  5
15
100
AcDbSymbolTableRecord
100
AcDbLinetypeTableRecord
  2
BYLAYER
 70
0
  3

 72
65
 73
0
 40
0.0
  0
LTYPE
  5
16
100
AcDbSymbolTableRecord
100
AcDbLinetypeTableRecord
  2
CONTINUOUS
 70
64
  3
Solid line
 72
65
 73
0
 40
0.0
  0
LTYPE
  5
1F5
100
AcDbSymbolTableRecord
100
AcDbLinetypeTableRecord
  2
CENTER
 70
64
  3
____ _ ____ _ ____ _ ____ _ ____ _ ____ _ ____
 72
65
 73
4
 40
0.6
 49
0.375
 74
0
 49
-0.075
 74
0
 49
0.075
 74
0
 49
-0.075
 74
0
  0
LTYPE
  5
1F6
100
AcDbSymbolTableRecord
100
AcDbLinetypeTableRecord
  2
HIDDEN
 70
64
  3
- - - - - - - - - - - - - - - - - - - -
 72
65
 73
2
 40
0.2
 49
0.1
 74
0
 49
-0.1
 74
0
  0
LTYPE
  5
1F7
100
AcDbSymbolTableRecord
100
AcDbLinetypeTableRecord
  2
PHANTOM
 70
64
  3
_____ _ _ _____ _ _ _____ _ _ _____
 72
65
 73
6
 40
0.8
 49
0.45
 74
0
 49
-0.05
 74
0
 49
0.1
 74
0
 49
-0.05
 74
0
 49
0.1
 74
0
 49
-0.05
 74
0
  0
LTYPE
  5
1F8
100
AcDbSymbolTableRecord
100
AcDbLinetypeTableRecord
  2
DOT
 70
64
  3
. . . . . . . . . . . . . . . . . . . .
 72
65
 73
2
 40
0.2
 49
0.1
 74
0
 49
-0.1
 74
0
  0
LTYPE
  5
1F9
100
AcDbSymbolTableRecord
100
AcDbLinetypeTableRecord
  2
DASHED
 70
64
  3
- - - - - - - - - - - - - - - - - - - -
 72
65
 73
2
 40
0.2
 49
0.1
 74
0
 49
-0.1
 74
0
  0
ENDTAB
  0
TABLE
  2
LAYER
  5
2
100
AcDbSymbolTable
 70
36
  0
LAYER
  5
10
100
AcDbSymbolTableRecord
100
AcDbLayerTableRecord
  2
0
 70
0
 62
7
  6
CONTINUOUS
370
-3
390
F
  0
LAYER
  5
1FA
100
AcDbSymbolTableRecord
100
AcDbLayerTableRecord
  2
DEFAULT_1
 70
0
 62
7
  6
CENTER
370
-3
390
F
  0
LAYER
  5
1FB
100
AcDbSymbolTableRecord
100
AcDbLayerTableRecord
  2
DEFAULT_2
 70
0
 62
8
  6
HIDDEN
370
-3
390
F
  0
LAYER
  5
1FC
100
AcDbSymbolTableRecord
100
AcDbLayerTableRecord
  2
DEFAULT_3
 70
0
 62
7
  6
PHANTOM
370
-3
390
F
  0
LAYER
  5
1FD
100
AcDbSymbolTableRecord
100
AcDbLayerTableRecord
  2
BEZUGSACHSEN
 70
0
 62
7
  6
CONTINUOUS
370
-3
390
F
  0
LAYER
  5
1FE
100
AcDbSymbolTableRecord
100
AcDbLayerTableRecord
  2
BEZUGSEBENEN
 70
0
 62
7
  6
CONTINUOUS
370
-3
390
F
  0
LAYER
  5
1FF
100
AcDbSymbolTableRecord
100
AcDbLayerTableRecord
  2
BG_STARTBEZUEGE
 70
0
 62
7
  6
CONTINUOUS
370
-3
390
F
  0
LAYER
  5
200
100
AcDbSymbolTableRecord
100
AcDbLayerTableRecord
  2
BOHRUNGEN
 70
0
 62
7
  6
CONTINUOUS
370
-3
390
F
  0
LAYER
  5
201
100
AcDbSymbolTableRecord
100
AcDbLayerTableRecord
  2
GEWINDE
 70
0
 62
7
  6
CONTINUOUS
370
-3
390
F
  0
LAYER
  5
202
100
AcDbSymbolTableRecord
100
AcDbLayerTableRecord
  2
HILFEN
 70
0
 62
7
  6
CONTINUOUS
370
-3
390
F
  0
LAYER
  5
203
100
AcDbSymbolTableRecord
100
AcDbLayerTableRecord
  2
KURVEN
 70
0
 62
7
  6
CONTINUOUS
370
-3
390
F
  0
LAYER
  5
204
100
AcDbSymbolTableRecord
100
AcDbLayerTableRecord
  2
RUNDUNGEN
 70
0
 62
7
  6
CONTINUOUS
370
-3
390
F
  0
LAYER
  5
205
100
AcDbSymbolTableRecord
100
AcDbLayerTableRecord
  2
TEIL_STARTBEZUEGE
 70
0
 62
7
  6
CONTINUOUS
370
-3
390
F
  0
LAYER
  5
206
100
AcDbSymbolTableRecord
100
AcDbLayerTableRecord
  2
XSEC_DATUMS
 70
0
 62
7
  6
CONTINUOUS
370
-3
390
F
  0
ENDTAB
  0
TABLE
  2
STYLE
  5
3
100
AcDbSymbolTable
 70
1
  0
STYLE
  5
11
100
AcDbSymbolTableRecord
100
AcDbTextStyleTableRecord
  2
STANDARD
 70
0
 40
0.0
 41
0.7
 50
0.0
 71
0
 42
0.2
  3
txt
  4

  0
STYLE
  5
207
100
AcDbSymbolTableRecord
100
AcDbTextStyleTableRecord
  2
TEXTSTYLE_1
 70
0
 40
0.0
 41
0.8
 50
0.0
 71
0
 42
0.2
  3
gdt
  4

  0
STYLE
  5
208
100
AcDbSymbolTableRecord
100
AcDbTextStyleTableRecord
  2
TEXTSTYLE_2
 70
0
 40
0.0
 41
0.7666669444
 50
0.0
 71
0
 42
0.2
  3
txt
  4

  0
STYLE
  5
209
100
AcDbSymbolTableRecord
100
AcDbTextStyleTableRecord
  2
TEXTSTYLE_3
 70
0
 40
0.0
 41
0.65
 50
0.0
 71
0
 42
0.2
  3
txt
  4

  0
STYLE
  5
20A
100
AcDbSymbolTableRecord
100
AcDbTextStyleTableRecord
  2
TEXTSTYLE_4
 70
0
 40
0.0
 41
0.9
 50
0.0
 71
0
 42
0.2
  3
txt
  4

  0
STYLE
  5
20B
100
AcDbSymbolTableRecord
100
AcDbTextStyleTableRecord
  2
TEXTSTYLE_5
 70
0
 40
0.0
 41
0.89
 50
0.0
 71
0
 42
0.2
  3
txt
  4

  0
STYLE
  5
20C
100
AcDbSymbolTableRecord
100
AcDbTextStyleTableRecord
  2
TEXTSTYLE_6
 70
0
 40
0.0
 41
0.6
 50
0.0
 71
0
 42
0.2
  3
txt
  4

  0
ENDTAB
  0
TABLE
  2
VIEW
  5
6
100
AcDbSymbolTable
 70
0
  0
ENDTAB
  0
TABLE
  2
UCS
  5
7
100
AcDbSymbolTable
 70
0
  0
ENDTAB
  0
TABLE
  2
APPID
  5
9
100
AcDbSymbolTable
 70
1
  0
APPID
  5
20D
100
AcDbSymbolTableRecord
100
AcDbRegAppTableRecord
  2
ACAD
 70
0
  0
ENDTAB
  0
TABLE
  2
BLOCK_RECORD
  5
1
100
AcDbSymbolTable
 70
0
  0
BLOCK_RECORD
  5
20E
100
AcDbSymbolTableRecord
100
AcDbBlockTableRecord
  2
*Model_Space
  0
BLOCK_RECORD
  5
20F
100
AcDbSymbolTableRecord
100
AcDbBlockTableRecord
  2
*Paper_Space
  0
BLOCK_RECORD
  5
210
100
AcDbSymbolTableRecord
100
AcDbBlockTableRecord
  2
_FILLED
  0
BLOCK_RECORD
  5
211
100
AcDbSymbolTableRecord
100
AcDbBlockTableRecord
  2
*D0
  0
BLOCK_RECORD
  5
212
100
AcDbSymbolTableRecord
100
AcDbBlockTableRecord
  2
*D1
  0
BLOCK_RECORD
  5
213
100
AcDbSymbolTableRecord
100
AcDbBlockTableRecord
  2
*D2
  0
BLOCK_RECORD
  5
214
100
AcDbSymbolTableRecord
100
AcDbBlockTableRecord
  2
*D3
  0
BLOCK_RECORD
  5
215
100
AcDbSymbolTableRecord
100
AcDbBlockTableRecord
  2
*D4
  0
BLOCK_RECORD
  5
216
100
AcDbSymbolTableRecord
100
AcDbBlockTableRecord
  2
*D5
  0
BLOCK_RECORD
  5
217
100
AcDbSymbolTableRecord
100
AcDbBlockTableRecord
  2
*D6
  0
BLOCK_RECORD
  5
218
100
AcDbSymbolTableRecord
100
AcDbBlockTableRecord
  2
*D7
  0
BLOCK_RECORD
  5
219
100
AcDbSymbolTableRecord
100
AcDbBlockTableRecord
  2
*D8
  0
BLOCK_RECORD
  5
21A
100
AcDbSymbolTableRecord
100
AcDbBlockTableRecord
  2
*D9
  0
BLOCK_RECORD
  5
21B
100
AcDbSymbolTableRecord
100
AcDbBlockTableRecord
  2
*D10
  0
BLOCK_RECORD
  5
21C
100
AcDbSymbolTableRecord
100
AcDbBlockTableRecord
  2
HAILOKOPF_BL0
  0
BLOCK_RECORD
  5
21D
100
AcDbSymbolTableRecord
100
AcDbBlockTableRecord
  2
*T1
  0
BLOCK_RECORD
  5
21E
100
AcDbSymbolTableRecord
100
AcDbBlockTableRecord
  2
*T2
  0
BLOCK_RECORD
  5
21F
100
AcDbSymbolTableRecord
100
AcDbBlockTableRecord
  2
*T3
  0
BLOCK_RECORD
  5
220
100
AcDbSymbolTableRecord
100
AcDbBlockTableRecord
  2
*T4
  0
BLOCK_RECORD
  5
221
100
AcDbSymbolTableRecord
100
AcDbBlockTableRecord
  2
*T5
  0
BLOCK_RECORD
  5
222
100
AcDbSymbolTableRecord
100
AcDbBlockTableRecord
  2
*T6
  0
BLOCK_RECORD
  5
223
100
AcDbSymbolTableRecord
100
AcDbBlockTableRecord
  2
*T7
  0
BLOCK_RECORD
  5
224
100
AcDbSymbolTableRecord
100
AcDbBlockTableRecord
  2
*T8
  0
BLOCK_RECORD
  5
225
100
AcDbSymbolTableRecord
100
AcDbBlockTableRecord
  2
*T9
  0
BLOCK_RECORD
  5
226
100
AcDbSymbolTableRecord
100
AcDbBlockTableRecord
  2
*T10
  0
BLOCK_RECORD
  5
227
100
AcDbSymbolTableRecord
100
AcDbBlockTableRecord
  2
*T11
  0
BLOCK_RECORD
  5
228
100
AcDbSymbolTableRecord
100
AcDbBlockTableRecord
  2
*T12
  0
ENDTAB
  0
TABLE
  2
DIMSTYLE
  5
A
100
AcDbSymbolTable
 70
1
100
AcDbDimStyleTable
 71
0
  0
DIMSTYLE
105
229
100
AcDbSymbolTableRecord
100
AcDbDimStyleTableRecord
  2
STANDARD
 70
0
  3

  4

 40
1.0
 41
3.5
 42
0.0625
 43
0.38
 44
0.18
 45
0.0
 46
0.0
 47
0.05
 48
0.05
140
3.5
141
0.09
142
0.0
143
25.4
144
1.0
145
0.0
146
1.0
147
0.09
 71
1.0
 72
0.0
 73
0
 74
0
 75
0
 76
0
 77
1
 78
8
170
0
171
2
172
0
173
0
174
0
175
0
176
0
177
0
178
5
270
2
271
2
272
2
273
2
274
2
275
0
280
0
281
0
282
0
283
1
284
8
285
0
286
0
287
3
288
0
340
11
341
210
342
210
343
210
344
210
  0
DIMSTYLE
105
22A
100
AcDbSymbolTableRecord
100
AcDbDimStyleTableRecord
  2
DIMSTYLE_1
 70
0
  3

  4

 40
1.0
 41
3.5
 42
0.0625
 43
0.38
 44
0.18
 45
0.0
 46
0.0
 47
0.8
 48
0.8
140
3.5
141
0.09
142
0.0
143
25.4
144
1.0
145
0.0
146
1.0
147
0.09
 71
0.0
 72
0.0
 73
0
 74
0
 75
0
 76
0
 77
1
 78
8
170
0
171
2
172
0
173
0
174
0
175
0
176
0
177
0
178
5
270
2
271
2
272
2
273
2
274
2
275
0
280
0
281
0
282
0
283
1
284
8
285
0
286
0
287
3
288
0
340
11
341
210
342
210
343
210
344
210
  0
DIMSTYLE
105
22B
100
AcDbSymbolTableRecord
100
AcDbDimStyleTableRecord
  2
DIMSTYLE_2
 70
0
  3

  4

 40
1.0
 41
3.5
 42
0.0625
 43
0.38
 44
0.18
 45
0.0
 46
0.0
 47
0.2
 48
0.2
140
3.5
141
0.09
142
0.0
143
25.4
144
1.0
145
0.0
146
1.0
147
0.09
 71
0.0
 72
0.0
 73
0
 74
0
 75
0
 76
0
 77
1
 78
8
170
0
171
2
172
0
173
0
174
0
175
0
176
0
177
0
178
5
270
2
271
2
272
2
273
2
274
2
275
0
280
0
281
0
282
0
283
1
284
8
285
0
286
0
287
3
288
0
340
11
341
210
342
210
343
210
344
210
  0
DIMSTYLE
105
22C
100
AcDbSymbolTableRecord
100
AcDbDimStyleTableRecord
  2
DIMSTYLE_3
 70
0
  3

  4

 40
1.0
 41
3.5
 42
0.0625
 43
0.38
 44
0.18
 45
0.0
 46
0.0
 47
0.5
 48
0.5
140
3.5
141
0.09
142
0.0
143
25.4
144
1.0
145
0.0
146
1.0
147
0.09
 71
0.0
 72
0.0
 73
0
 74
0
 75
0
 76
0
 77
1
 78
8
170
0
171
2
172
0
173
0
174
0
175
0
176
0
177
0
178
5
270
2
271
2
272
2
273
2
274
2
275
0
280
0
281
0
282
0
283
1
284
8
285
0
286
0
287
3
288
0
340
11
341
210
342
210
343
210
344
210
  0
ENDTAB
  0
ENDSEC
  0
SECTION
  2
BLOCKS
  0
BLOCK
  5
20
100
AcDbEntity
  8
0
100
AcDbBlockBegin
  2
*Model_Space
 70
0
 10
0.0
 20
0.0
 30
0.0
  3
*Model_Space
  1

  0
ENDBLK
  5
21
100
AcDbEntity
  8
0
100
AcDbBlockEnd
  0
BLOCK
  5
1C
100
AcDbEntity
  8
0
100
AcDbBlockBegin
  2
*Paper_Space
 70
0
 10
0.0
 20
0.0
 30
0.0
  3
*Paper_Space
  1

  0
ENDBLK
  5
1D
100
AcDbEntity
  8
0
100
AcDbBlockEnd
  0
BLOCK
  5
22D
100
AcDbEntity
  8
0
100
AcDbBlockBegin
 62
2
  6
CONTINUOUS
  2
HAILOKOPF_BL0
 70
64
 10
742.41001
 20
39.0
  3
HAILOKOPF_BL0
  1

  0
LINE
  5
22E
100
AcDbEntity
  8
0
100
AcDbLine
 62
2
  6
CONTINUOUS
 10
835.01001
 20
5.0
 11
836.01001
 21
5.0
  0
LINE
  5
22F
100
AcDbEntity
  8
0
100
AcDbLine
 62
2
  6
CONTINUOUS
 10
836.01001
 20
5.0
 11
836.01001
 21
6.0
  0
LINE
  5
230
100
AcDbEntity
  8
0
100
AcDbLine
 62
2
  6
CONTINUOUS
 10
648.81001
 20
9.25
 11
836.01001
 21
9.25
  0
LINE
  5
231
100
AcDbEntity
  8
0
100
AcDbLine
 62
2
  6
CONTINUOUS
 10
648.81001
 20
13.5
 11
703.41001
 21
13.5
  0
LINE
  5
232
100
AcDbEntity
  8
0
100
AcDbLine
 62
2
  6
CONTINUOUS
 10
823.01001
 20
13.5
 11
836.01001
 21
13.5
  0
LINE
  5
233
100
AcDbEntity
  8
0
100
AcDbLine
 62
2
  6
CONTINUOUS
 10
737.5780626202
 20
15.261369
 11
738.3567567263
 21
15.261369
  0
LINE
  5
234
100
AcDbEntity
  8
0
100
AcDbLine
 62
2
  6
CONTINUOUS
 10
739.706295
 20
15.820241
 11
739.219169921
 21
15.820241
  0
LINE
  5
235
100
AcDbEntity
  8
0
100
AcDbLine
 62
2
  6
CONTINUOUS
 10
737.6455710203
 20
15.907462
 11
738.4238995583
 21
15.907462
  0
LINE
  5
236
100
AcDbEntity
  8
0
100
AcDbLine
 62
2
  6
CONTINUOUS
 10
741.8084438095
 20
16.503823
 11
742.4951685573
 21
16.503823
  0
LINE
  5
237
100
AcDbEntity
  8
0
100
AcDbLine
 62
2
  6
CONTINUOUS
 10
720.487571
 20
16.545145
 11
722.155944
 21
16.545145
  0
LINE
  5
238
100
AcDbEntity
  8
0
100
AcDbLine
 62
2
  6
CONTINUOUS
 10
715.447514
 20
16.675826
 11
716.307066
 21
16.675826
  0
LINE
  5
239
100
AcDbEntity
  8
0
100
AcDbLine
 62
2
  6
CONTINUOUS
 10
742.501218
 20
16.75262
 11
741.80177
 21
16.75262
  0
LINE
  5
23A
100
AcDbEntity
  8
0
100
AcDbLine
 62
2
  6
CONTINUOUS
 10
705.49925
 20
17.13556
 11
707.636932
 21
17.13556
  0
LINE
  5
23B
100
AcDbEntity
  8
0
100
AcDbLine
 62
2
  6
CONTINUOUS
 10
737.095373
 20
17.235684
 11
737.745032
 21
17.235684
  0
LINE
  5
23C
100
AcDbEntity
  8
0
100
AcDbLine
 62
2
  6
CONTINUOUS
 10
738.530237
 20
17.235684
 11
739.169735
 21
17.235684
  0
LINE
  5
23D
100
AcDbEntity
  8
0
100
AcDbLine
 62
2
  6
CONTINUOUS
 10
741.845745
 20
17.235684
 11
742.556059
 21
17.235684
  0
LINE
  5
23E
100
AcDbEntity
  8
0
100
AcDbLine
 62
2
  6
CONTINUOUS
 10
742.853984
 20
17.235684
 11
743.534934
 21
17.235684
  0
LINE
  5
23F
100
AcDbEntity
  8
0
100
AcDbLine
 62
2
  6
CONTINUOUS
 10
648.81001
 20
17.75
 11
703.41001
 21
17.75
  0
LINE
  5
240
100
AcDbEntity
  8
0
100
AcDbLine
 62
2
  6
CONTINUOUS
 10
648.81001
 20
22.0
 11
703.41001
 21
22.0
  0
LINE
  5
241
100
AcDbEntity
  8
0
100
AcDbLine
 62
2
  6
CONTINUOUS
 10
703.41001
 20
22.0
 11
836.01001
 21
22.0
  0
LINE
  5
242
100
AcDbEntity
  8
0
100
AcDbLine
 62
2
  6
CONTINUOUS
 10
740.020218
 20
15.696896
 11
740.616171
 21
15.690046
  0
LINE
  5
243
100
AcDbEntity
  8
0
100
AcDbLine
 62
2
  6
CONTINUOUS
 10
740.749746
 20
15.209441
 11
740.249012
 21
15.220248
  0
LINE
  5
244
100
AcDbEntity
  8
0
100
AcDbLine
 62
2
  6
CONTINUOUS
 10
648.81001
 20
26.25
 11
836.01001
 21
26.25
  0
LINE
  5
245
100
AcDbEntity
  8
0
100
AcDbLine
 62
2
  6
CONTINUOUS
 10
648.81001
 20
30.5
 11
747.61001
 21
30.5
  0
LINE
  5
246
100
AcDbEntity
  8
0
100
AcDbLine
 62
2
  6
CONTINUOUS
 10
648.81001
 20
34.75
 11
747.61001
 21
34.75
  0
LINE
  5
247
100
AcDbEntity
  8
0
100
AcDbLine
 62
2
  6
CONTINUOUS
 10
648.81001
 20
39.0
 11
747.61001
 21
39.0
  0
LINE
  5
248
100
AcDbEntity
  8
0
100
AcDbLine
 62
2
  6
CONTINUOUS
 10
648.81001
 20
43.25
 11
836.01001
 21
43.25
  0
LINE
  5
249
100
AcDbEntity
  8
0
100
AcDbLine
 62
2
  6
CONTINUOUS
 10
648.81001
 20
53.875
 11
703.41001
 21
53.875
  0
LINE
  5
24A
100
AcDbEntity
  8
0
100
AcDbLine
 62
2
  6
CONTINUOUS
 10
747.61001
 20
53.875
 11
836.01001
 21
53.875
  0
LINE
  5
24B
100
AcDbEntity
  8
0
100
AcDbLine
 62
2
  6
CONTINUOUS
 10
836.01001
 20
60.25
 11
648.81001
 21
60.25
  0
LINE
  5
24C
100
AcDbEntity
  8
0
100
AcDbLine
 62
2
  6
CONTINUOUS
 10
836.01001
 20
64.5
 11
648.81001
 21
64.5
  0
LINE
  5
24D
100
AcDbEntity
  8
0
100
AcDbLine
 62
2
  6
CONTINUOUS
 10
836.01001
 20
68.75
 11
648.81001
 21
68.75
  0
LINE
  5
24E
100
AcDbEntity
  8
0
100
AcDbLine
 62
2
  6
CONTINUOUS
 10
836.01001
 20
73.0
 11
648.81001
 21
73.0
  0
LINE
  5
24F
100
AcDbEntity
  8
0
100
AcDbLine
 62
2
  6
CONTINUOUS
 10
724.960202
 20
16.666338
 11
725.987057
 21
15.019614
  0
LINE
  5
250
100
AcDbEntity
  8
0
100
AcDbLine
 62
2
  6
CONTINUOUS
 10
648.81001
 20
5.0
 11
648.81001
 21
73.0
  0
LINE
  5
251
100
AcDbEntity
  8
0
100
AcDbLine
 62
2
  6
CONTINUOUS
 10
656.61001
 20
5.0
 11
656.61001
 21
43.25
  0
LINE
  5
252
100
AcDbEntity
  8
0
100
AcDbLine
 62
2
  6
CONTINUOUS
 10
656.61001
 20
60.25
 11
656.61001
 21
73.0
  0
LINE
  5
253
100
AcDbEntity
  8
0
100
AcDbLine
 62
2
  6
CONTINUOUS
 10
669.61001
 20
60.25
 11
669.61001
 21
73.0
  0
LINE
  5
254
100
AcDbEntity
  8
0
100
AcDbLine
 62
2
  6
CONTINUOUS
 10
680.01001
 20
5.0
 11
680.01001
 21
43.25
  0
LINE
  5
255
100
AcDbEntity
  8
0
100
AcDbLine
 62
2
  6
CONTINUOUS
 10
682.61001
 20
60.25
 11
682.61001
 21
73.0
  0
LINE
  5
256
100
AcDbEntity
  8
0
100
AcDbLine
 62
2
  6
CONTINUOUS
 10
718.302809
 20
19.027246
 11
719.065452
 21
15.172277
  0
LINE
  5
257
100
AcDbEntity
  8
0
100
AcDbLine
 62
2
  6
CONTINUOUS
 10
693.01001
 20
5.0
 11
693.01001
 21
43.25
  0
LINE
  5
258
100
AcDbEntity
  8
0
100
AcDbLine
 62
2
  6
CONTINUOUS
 10
695.61001
 20
60.25
 11
695.61001
 21
73.0
  0
LINE
  5
259
100
AcDbEntity
  8
0
100
AcDbLine
 62
2
  6
CONTINUOUS
 10
703.41001
 20
5.0
 11
703.41001
 21
73.0
  0
LINE
  5
25A
100
AcDbEntity
  8
0
100
AcDbLine
 62
2
  6
CONTINUOUS
 10
705.484807
 20
19.027696
 11
705.484807
 21
15.171204
  0
LINE
  5
25B
100
AcDbEntity
  8
0
100
AcDbLine
 62
2
  6
CONTINUOUS
 10
716.98878
 20
19.027246
 11
717.561815
 21
15.17408
  0
LINE
  5
25C
100
AcDbEntity
  8
0
100
AcDbLine
 62
2
  6
CONTINUOUS
 10
707.622488
 20
19.027696
 11
707.622488
 21
15.171204
  0
LINE
  5
25D
100
AcDbEntity
  8
0
100
AcDbLine
 62
2
  6
CONTINUOUS
 10
710.206742
 20
17.637506
 11
710.206742
 21
15.171106
  0
LINE
  5
25E
100
AcDbEntity
  8
0
100
AcDbLine
 62
2
  6
CONTINUOUS
 10
711.450092
 20
17.641092
 11
711.450092
 21
15.171204
  0
LINE
  5
25F
100
AcDbEntity
  8
0
100
AcDbLine
 62
2
  6
CONTINUOUS
 10
712.273388
 20
19.013253
 11
712.273388
 21
15.171204
  0
LINE
  5
260
100
AcDbEntity
  8
0
100
AcDbLine
 62
2
  6
CONTINUOUS
 10
713.81001
 20
26.25
 11
713.81001
 21
43.25
  0
LINE
  5
261
100
AcDbEntity
  8
0
100
AcDbLine
 62
2
  6
CONTINUOUS
 10
722.969105
 20
17.643103
 11
722.969105
 21
15.176146
  0
LINE
  5
262
100
AcDbEntity
  8
0
100
AcDbLine
 62
2
  6
CONTINUOUS
 10
724.584524
 20
19.020591
 11
724.584524
 21
15.169885
  0
LINE
  5
263
100
AcDbEntity
  8
0
100
AcDbLine
 62
2
  6
CONTINUOUS
 10
729.41001
 20
26.25
 11
729.41001
 21
60.25
  0
LINE
  5
264
100
AcDbEntity
  8
0
100
AcDbLine
 62
2
  6
CONTINUOUS
 10
747.61001
 20
5.0
 11
747.61001
 21
60.25
  0
LINE
  5
265
100
AcDbEntity
  8
0
100
AcDbLine
 62
2
  6
CONTINUOUS
 10
737.5780626202
 20
15.261369
 11
737.4936739239
 21
14.1733675752
  0
LINE
  5
266
100
AcDbEntity
  8
0
100
AcDbLine
 62
2
  6
CONTINUOUS
 10
737.6329085959
 20
15.907462
 11
737.745032
 21
17.235684
  0
LINE
  5
267
100
AcDbEntity
  8
0
100
AcDbLine
 62
2
  6
CONTINUOUS
 10
737.095373
 20
17.235684
 11
736.7970957242
 21
14.1733675752
  0
LINE
  5
268
100
AcDbEntity
  8
0
100
AcDbLine
 62
2
  6
CONTINUOUS
 10
719.065452
 20
15.172277
 11
719.631837
 21
19.026157
  0
LINE
  5
269
100
AcDbEntity
  8
0
100
AcDbLine
 62
2
  6
CONTINUOUS
 10
717.561815
 20
15.17408
 11
718.302809
 21
19.027246
  0
LINE
  5
26A
100
AcDbEntity
  8
0
100
AcDbLine
 62
2
  6
CONTINUOUS
 10
740.749746
 20
15.209441
 11
740.736388
 21
15.040231
  0
LINE
  5
26B
100
AcDbEntity
  8
0
100
AcDbLine
 62
2
  6
CONTINUOUS
 10
742.3075471843
 20
14.1733675752
 11
742.4951685573
 21
16.503823
  0
LINE
  5
26C
100
AcDbEntity
  8
0
100
AcDbLine
 62
2
  6
CONTINUOUS
 10
739.169735
 20
17.235684
 11
738.9030600784
 21
14.1733675752
  0
LINE
  5
26D
100
AcDbEntity
  8
0
100
AcDbLine
 62
2
  6
CONTINUOUS
 10
743.2672485466
 20
14.1733675752
 11
743.534934
 21
17.235684
  0
LINE
  5
26E
100
AcDbEntity
  8
0
100
AcDbLine
 62
2
  6
CONTINUOUS
 10
738.4103616883
 20
15.907462
 11
738.530237
 21
17.235684
  0
LINE
  5
26F
100
AcDbEntity
  8
0
100
AcDbLine
 62
2
  6
CONTINUOUS
 10
741.80177
 20
16.75262
 11
741.845745
 21
17.235684
  0
LINE
  5
270
100
AcDbEntity
  8
0
100
AcDbLine
 62
2
  6
CONTINUOUS
 10
742.853984
 20
17.235684
 11
742.5692428036
 21
14.1733675752
  0
LINE
  5
271
100
AcDbEntity
  8
0
100
AcDbLine
 62
2
  6
CONTINUOUS
 10
741.8084438095
 20
16.503823
 11
741.5832321486
 21
14.1733675752
  0
LINE
  5
272
100
AcDbEntity
  8
0
100
AcDbLine
 62
2
  6
CONTINUOUS
 10
738.248998683
 20
14.1733675752
 11
738.3567567263
 21
15.261369
  0
LINE
  5
273
100
AcDbEntity
  8
0
100
AcDbLine
 62
2
  6
CONTINUOUS
 10
741.408605
 20
15.720638
 11
741.310836
 21
14.745364
  0
LINE
  5
274
100
AcDbEntity
  8
0
100
AcDbLine
 62
2
  6
CONTINUOUS
 10
742.501218
 20
16.75262
 11
742.556059
 21
17.235684
  0
LINE
  5
275
100
AcDbEntity
  8
0
100
AcDbLine
 62
2
  6
CONTINUOUS
 10
791.81001
 20
5.0
 11
791.81001
 21
9.25
  0
LINE
  5
276
100
AcDbEntity
  8
0
100
AcDbLine
 62
2
  6
CONTINUOUS
 10
724.584524
 20
16.140388
 11
725.686514
 21
17.636842
  0
LINE
  5
277
100
AcDbEntity
  8
0
100
AcDbLine
 62
2
  6
CONTINUOUS
 10
799.61001
 20
53.875
 11
799.61001
 21
60.25
  0
LINE
  5
278
100
AcDbEntity
  8
0
100
AcDbLine
 62
2
  6
CONTINUOUS
 10
823.01001
 20
9.25
 11
823.01001
 21
22.0
  0
CIRCLE
  5
279
100
AcDbEntity
  8
0
100
AcDbCircle
 62
2
  6
CONTINUOUS
 10
741.076331
 20
15.619582
 40
5.0
  0
ARC
  5
27A
100
AcDbEntity
  8
0
100
AcDbCircle
 62
2
  6
CONTINUOUS
 10
740.011361
 20
14.926374
 40
0.770303
100
AcDbArc
 50
89.341457
 51
183.5532725825
  0
ARC
  5
27B
100
AcDbEntity
  8
0
100
AcDbCircle
 62
2
  6
CONTINUOUS
 10
740.238078
 20
14.71363
 40
0.503336
100
AcDbArc
 50
88.763592
 51
147.076944
  0
ARC
  5
27C
100
AcDbEntity
  8
0
100
AcDbCircle
 62
2
  6
CONTINUOUS
 10
740.161992
 20
15.382332
 40
0.664249
100
AcDbArc
 50
239.134205569
 51
303.545921
  0
ARC
  5
27D
100
AcDbEntity
  8
0
100
AcDbCircle
 62
2
  6
CONTINUOUS
 10
740.1229
 20
15.43421
 40
0.7291
100
AcDbArc
 50
303.853375
 51
327.291536
  0
ARC
  5
27E
100
AcDbEntity
  8
0
100
AcDbCircle
 62
2
  6
CONTINUOUS
 10
740.024386
 20
15.689664
 40
0.343849
100
AcDbArc
 50
109.00746
 51
157.681763
  0
ARC
  5
27F
100
AcDbEntity
  8
0
100
AcDbCircle
 62
2
  6
CONTINUOUS
 10
739.979017
 20
14.904851
 40
0.183013
100
AcDbArc
 50
153.259335
 51
210.4292400061
  0
ARC
  5
280
100
AcDbEntity
  8
0
100
AcDbCircle
 62
2
  6
CONTINUOUS
 10
740.18798
 20
15.165023
 40
0.893313
100
AcDbArc
 50
59.3601509389
 51
107.968566
  0
ARC
  5
281
100
AcDbEntity
  8
0
100
AcDbCircle
 62
2
  6
CONTINUOUS
 10
709.472183
 20
16.871246
 40
0.768595
100
AcDbArc
 50
17.114844
 51
161.847294
  0
ARC
  5
282
100
AcDbEntity
  8
0
100
AcDbCircle
 62
2
  6
CONTINUOUS
 10
711.192648
 20
16.471409
 40
2.532815
100
AcDbArc
 50
165.380186
 51
200.072436
  0
CIRCLE
  5
283
100
AcDbEntity
  8
0
100
AcDbCircle
 62
2
  6
CONTINUOUS
 10
711.450092
 20
18.796596
 40
0.1
  0
ARC
  5
284
100
AcDbEntity
  8
0
100
AcDbCircle
 62
2
  6
CONTINUOUS
 10
713.916127
 20
16.869915
 40
0.739741
100
AcDbArc
 50
28.177322
 51
151.822678
  0
ARC
  5
285
100
AcDbEntity
  8
0
100
AcDbCircle
 62
2
  6
CONTINUOUS
 10
715.134012
 20
16.381487
 40
2.049035
100
AcDbArc
 50
155.867794
 51
206.706864
  0
ARC
  5
286
100
AcDbEntity
  8
0
100
AcDbCircle
 62
2
  6
CONTINUOUS
 10
712.932363
 20
16.358179
 40
1.848611
100
AcDbArc
 50
330.95189
 51
27.760619
  0
ARC
  5
287
100
AcDbEntity
  8
0
100
AcDbCircle
 62
2
  6
CONTINUOUS
 10
721.321757
 20
16.706018
 40
0.849557
100
AcDbArc
 50
349.084482
 51
190.915518
  0
ARC
  5
288
100
AcDbEntity
  8
0
100
AcDbCircle
 62
2
  6
CONTINUOUS
 10
721.349461
 20
16.038644
 40
0.840019
100
AcDbArc
 50
190.868225
 51
349.131775
  0
ARC
  5
289
100
AcDbEntity
  8
0
100
AcDbCircle
 62
2
  6
CONTINUOUS
 10
722.666922
 20
16.33275
 40
2.189676
100
AcDbArc
 50
174.433668
 51
191.925992
  0
ARC
  5
28A
100
AcDbEntity
  8
0
100
AcDbCircle
 62
2
  6
CONTINUOUS
 10
723.998146
 20
16.512344
 40
1.125712
100
AcDbArc
 50
92.661682
 51
156.880301
  0
ARC
  5
28B
100
AcDbEntity
  8
0
100
AcDbCircle
 62
2
  6
CONTINUOUS
 10
709.470851
 20
15.96697
 40
0.751656
100
AcDbArc
 50
209.037694
 51
348.244651
  0
ARC
  5
28C
100
AcDbEntity
  8
0
100
AcDbCircle
 62
2
  6
CONTINUOUS
 10
713.926007
 20
16.093482
 40
0.887676
100
AcDbArc
 50
225.476971
 51
314.523029
  0
ARC
  5
28D
100
AcDbEntity
  8
0
100
AcDbCircle
 62
2
  6
CONTINUOUS
 10
739.8633728265
 20
14.8148136456
 40
0.6241056
100
AcDbArc
 50
174.1308043301
 51
250.7552218748
  0
ARC
  5
28E
100
AcDbEntity
  8
0
100
AcDbCircle
 62
2
  6
CONTINUOUS
 10
740.0105163817
 20
15.6679558023
 40
1.4849046092
100
AcDbArc
 50
256.2535451256
 51
300.8520810695
  0
ARC
  5
28F
100
AcDbEntity
  8
0
100
AcDbCircle
 62
2
  6
CONTINUOUS
 10
740.1616534381
 20
15.6904062776
 40
0.9513843783
100
AcDbArc
 50
121.9682742071
 51
172.2491849272
  0
ARC
  5
290
100
AcDbEntity
  8
0
100
AcDbCircle
 62
2
  6
CONTINUOUS
 10
740.2873822027
 20
15.2360245027
 40
1.4097965707
100
AcDbArc
 50
47.7174798964
 51
116.5177439448
  0
ARC
  5
291
100
AcDbEntity
  8
0
100
AcDbCircle
 62
2
  6
CONTINUOUS
 10
740.7518663289
 20
15.8234083109
 40
0.6647310877
100
AcDbArc
 50
351.1061500156
 51
43.2704232271
  0
ARC
  5
292
100
AcDbEntity
  8
0
100
AcDbCircle
 62
2
  6
CONTINUOUS
 10
740.5755464652
 20
15.8193230803
 40
0.1355098385
100
AcDbArc
 50
287.4450083671
 51
59.3601509388
  0
ARC
  5
293
100
AcDbEntity
  8
0
100
AcDbCircle
 62
2
  6
CONTINUOUS
 10
742.6102355002
 20
14.6206969581
 40
1.3053662063
100
AcDbArc
 50
174.519699977
 51
200.0405418028
  0
ARC
  5
294
100
AcDbEntity
  8
0
100
AcDbCircle
 62
2
  6
CONTINUOUS
 10
741.3575215504
 20
14.3694985492
 40
0.5859897522
100
AcDbArc
 50
177.6844816381
 51
199.5543172992
  0
LINE
  5
295
100
AcDbEntity
  8
0
100
AcDbLine
 62
2
  6
CONTINUOUS
 10
736.7970957242
 20
14.1733675752
 11
737.4936739239
 21
14.1733675752
  0
LINE
  5
296
100
AcDbEntity
  8
0
100
AcDbLine
 62
2
  6
CONTINUOUS
 10
738.248998683
 20
14.1733675752
 11
738.9030600784
 21
14.1733675752
  0
LINE
  5
297
100
AcDbEntity
  8
0
100
AcDbLine
 62
2
  6
CONTINUOUS
 10
740.8053289837
 20
14.1733675752
 11
741.3839087266
 21
14.1733675752
  0
LINE
  5
298
100
AcDbEntity
  8
0
100
AcDbLine
 62
2
  6
CONTINUOUS
 10
741.5832321486
 20
14.1733675752
 11
742.3075471843
 21
14.1733675752
  0
LINE
  5
299
100
AcDbEntity
  8
0
100
AcDbLine
 62
2
  6
CONTINUOUS
 10
742.5692428036
 20
14.1733675752
 11
743.2672485466
 21
14.1733675752
  0
LINE
  5
29A
100
AcDbEntity
  8
0
100
AcDbLine
 62
2
  6
CONTINUOUS
 10
743.8310052575
 20
11.4637173433
 11
745.2321956567
 21
12.8649077425
  0
LINE
  5
29B
100
AcDbEntity
  8
0
100
AcDbLine
 62
2
  6
CONTINUOUS
 10
743.3991572427
 20
11.2086460238
 11
745.4872669762
 21
13.2967557573
  0
LINE
  5
29C
100
AcDbEntity
  8
0
100
AcDbLine
 62
2
  6
CONTINUOUS
 10
743.0533024342
 20
11.0395679106
 11
745.6563450894
 21
13.6426105658
  0
LINE
  5
29D
100
AcDbEntity
  8
0
100
AcDbLine
 62
2
  6
CONTINUOUS
 10
742.758190638
 20
10.9212328097
 11
745.7746801903
 21
13.937722362
  0
LINE
  5
29E
100
AcDbEntity
  8
0
100
AcDbLine
 62
2
  6
CONTINUOUS
 10
742.5064749294
 20
10.8462937963
 11
745.8496192037
 21
14.1894380706
  0
LINE
  5
29F
100
AcDbEntity
  8
0
100
AcDbLine
 62
2
  6
CONTINUOUS
 10
742.2547592207
 20
10.771354783
 11
745.924558217
 21
14.4411537793
  0
LINE
  5
2A0
100
AcDbEntity
  8
0
100
AcDbLine
 62
2
  6
CONTINUOUS
 10
742.0226885303
 20
10.7160607879
 11
745.9798522121
 21
14.6732244697
  0
LINE
  5
2A1
100
AcDbEntity
  8
0
100
AcDbLine
 62
2
  6
CONTINUOUS
 10
741.8207388313
 20
10.6908877841
 11
746.0050252159
 21
14.8751741687
  0
LINE
  5
2A2
100
AcDbEntity
  8
0
100
AcDbLine
 62
2
  6
CONTINUOUS
 10
741.6001731265
 20
10.6470987746
 11
746.0301982196
 21
15.0771238678
  0
LINE
  5
2A3
100
AcDbEntity
  8
0
100
AcDbLine
 62
2
  6
CONTINUOUS
 10
741.4068134782
 20
10.6305158217
 11
746.0553712233
 21
15.2790735668
  0
LINE
  5
2A4
100
AcDbEntity
  8
0
100
AcDbLine
 62
2
  6
CONTINUOUS
 10
741.2212021674
 20
10.6216812062
 11
744.864591223
 21
14.2650702617
  0
LINE
  5
2A5
100
AcDbEntity
  8
0
100
AcDbLine
 62
2
  6
CONTINUOUS
 10
741.0424411197
 20
10.6196968537
 11
744.6672349223
 21
14.1957716565
  0
LINE
  5
2A6
100
AcDbEntity
  8
0
100
AcDbLine
 62
2
  6
CONTINUOUS
 10
745.4299212573
 20
14.9582882553
 11
746.0626722096
 21
15.6399279436
  0
LINE
  5
2A7
100
AcDbEntity
  8
0
100
AcDbLine
 62
2
  6
CONTINUOUS
 10
740.8698162263
 20
10.6238486556
 11
744.4740409155
 21
14.1792614282
  0
LINE
  5
2A8
100
AcDbEntity
  8
0
100
AcDbLine
 62
2
  6
CONTINUOUS
 10
745.4897863946
 20
15.1947879725
 11
746.055651068
 21
15.8096834973
  0
LINE
  5
2A9
100
AcDbEntity
  8
0
100
AcDbLine
 62
2
  6
CONTINUOUS
 10
740.7027487758
 20
10.6335579004
 11
744.3197577196
 21
14.2016928532
  0
LINE
  5
2AA
100
AcDbEntity
  8
0
100
AcDbLine
 62
2
  6
CONTINUOUS
 10
745.5107152539
 20
15.3925500959
 11
746.0486299263
 21
15.979439051
  0
LINE
  5
2AB
100
AcDbEntity
  8
0
100
AcDbLine
 62
2
  6
CONTINUOUS
 10
740.5407623111
 20
10.6483481311
 11
744.1887176635
 21
14.2473806339
  0
LINE
  5
2AC
100
AcDbEntity
  8
0
100
AcDbLine
 62
2
  6
CONTINUOUS
 10
745.5083488009
 20
15.567105076
 11
746.0416087847
 21
16.1491946046
  0
LINE
  5
2AD
100
AcDbEntity
  8
0
100
AcDbLine
 62
2
  6
CONTINUOUS
 10
740.388220168
 20
10.6725826832
 11
744.07455317
 21
14.3099524101
  0
LINE
  5
2AE
100
AcDbEntity
  8
0
100
AcDbLine
 62
2
  6
CONTINUOUS
 10
745.4890594509
 20
15.7247840216
 11
746.0233303168
 21
16.307692832
  0
LINE
  5
2AF
100
AcDbEntity
  8
0
100
AcDbLine
 62
2
  6
CONTINUOUS
 10
740.2420848307
 20
10.7032240412
 11
743.9740170849
 21
14.3861590245
  0
LINE
  5
2B0
100
AcDbEntity
  8
0
100
AcDbLine
 62
2
  6
CONTINUOUS
 10
744.4592730733
 20
14.8714419958
 11
744.8916550103
 21
15.3038239328
  0
LINE
  5
2B1
100
AcDbEntity
  8
0
100
AcDbLine
 62
2
  6
CONTINUOUS
 10
745.4560997228
 20
15.8688234118
 11
745.9926889588
 21
16.4538281693
  0
LINE
  5
2B2
100
AcDbEntity
  8
0
100
AcDbLine
 62
2
  6
CONTINUOUS
 10
740.0959494934
 20
10.7338653992
 11
743.885296039
 21
14.4741863291
  0
LINE
  5
2B3
100
AcDbEntity
  8
0
100
AcDbLine
 62
2
  6
CONTINUOUS
 10
744.3427602218
 20
14.9317058396
 11
744.8999590952
 21
15.488904713
  0
LINE
  5
2B4
100
AcDbEntity
  8
0
100
AcDbLine
 62
2
  6
CONTINUOUS
 10
745.4112899989
 20
16.0010206744
 11
745.9620476008
 21
16.5999635066
  0
LINE
  5
2B5
100
AcDbEntity
  8
0
100
AcDbLine
 62
2
  6
CONTINUOUS
 10
739.9498141561
 20
10.7645067572
 11
743.8073827082
 21
14.5730267615
  0
LINE
  5
2B6
100
AcDbEntity
  8
0
100
AcDbLine
 62
2
  6
CONTINUOUS
 10
744.261533968
 20
15.0272562811
 11
744.8729765824
 21
15.6386988955
  0
LINE
  5
2B7
100
AcDbEntity
  8
0
100
AcDbLine
 62
2
  6
CONTINUOUS
 10
745.3556441273
 20
16.1223754
 11
745.9314062428
 21
16.7460988439
  0
LINE
  5
2B8
100
AcDbEntity
  8
0
100
AcDbLine
 62
2
  6
CONTINUOUS
 10
739.8036788188
 20
10.7951481152
 11
743.1818982788
 21
14.1733675752
  0
LINE
  5
2B9
100
AcDbEntity
  8
0
100
AcDbLine
 62
2
  6
CONTINUOUS
 10
743.2754238747
 20
14.2668931711
 11
743.7400765669
 21
14.6817235573
  0
LINE
  5
2BA
100
AcDbEntity
  8
0
100
AcDbLine
 62
2
  6
CONTINUOUS
 10
744.2060969072
 20
15.1485959156
 11
744.8202048765
 21
15.762703885
  0
LINE
  5
2BB
100
AcDbEntity
  8
0
100
AcDbLine
 62
2
  6
CONTINUOUS
 10
745.2896350441
 20
16.2333516601
 11
745.9007648848
 21
16.8922341812
  0
LINE
  5
2BC
100
AcDbEntity
  8
0
100
AcDbLine
 62
2
  6
CONTINUOUS
 10
739.6575434815
 20
10.8257894733
 11
743.0051215835
 21
14.1733675752
  0
LINE
  5
2BD
100
AcDbEntity
  8
0
100
AcDbLine
 62
2
  6
CONTINUOUS
 10
743.2923565396
 20
14.4606025313
 11
743.6828549846
 21
14.800959768
  0
LINE
  5
2BE
100
AcDbEntity
  8
0
100
AcDbLine
 62
2
  6
CONTINUOUS
 10
744.1760844234
 20
15.2953601272
 11
744.7420085937
 21
15.8612842975
  0
LINE
  5
2BF
100
AcDbEntity
  8
0
100
AcDbLine
 62
2
  6
CONTINUOUS
 10
745.2132994262
 20
16.3339820841
 11
745.8701235267
 21
17.0383695185
  0
LINE
  5
2C0
100
AcDbEntity
  8
0
100
AcDbLine
 62
2
  6
CONTINUOUS
 10
739.5293593936
 20
10.8743820807
 11
742.8283448882
 21
14.1733675752
  0
LINE
  5
2C1
100
AcDbEntity
  8
0
100
AcDbLine
 62
2
  6
CONTINUOUS
 10
743.3092892045
 20
14.6543118915
 11
743.6362971169
 21
14.9308398858
  0
LINE
  5
2C2
100
AcDbEntity
  8
0
100
AcDbLine
 62
2
  6
CONTINUOUS
 10
745.1262240302
 20
16.4238914202
 11
745.8215309193
 21
17.1665536064
  0
LINE
  5
2C3
100
AcDbEntity
  8
0
100
AcDbLine
 62
2
  6
CONTINUOUS
 10
739.4022003221
 20
10.9239997044
 11
742.6515681929
 21
14.1733675752
  0
LINE
  5
2C4
100
AcDbEntity
  8
0
100
AcDbLine
 62
2
  6
CONTINUOUS
 10
743.3262218695
 20
14.8480212518
 11
743.6012845477
 21
15.072312567
  0
LINE
  5
2C5
100
AcDbEntity
  8
0
100
AcDbLine
 62
2
  6
CONTINUOUS
 10
745.0275091142
 20
16.5021490324
 11
745.7719132956
 21
17.2937126779
  0
LINE
  5
2C6
100
AcDbEntity
  8
0
100
AcDbLine
 62
2
  6
CONTINUOUS
 10
739.2750412505
 20
10.9736173281
 11
742.5789254136
 21
14.2775014912
  0
LINE
  5
2C7
100
AcDbEntity
  8
0
100
AcDbLine
 62
2
  6
CONTINUOUS
 10
743.3431545344
 20
15.041730612
 11
743.5794494179
 21
15.2271678846
  0
LINE
  5
2C8
100
AcDbEntity
  8
0
100
AcDbLine
 62
2
  6
CONTINUOUS
 10
744.9154889489
 20
16.5670913801
 11
745.7222956719
 21
17.4208717495
  0
LINE
  5
2C9
100
AcDbEntity
  8
0
100
AcDbLine
 62
2
  6
CONTINUOUS
 10
739.1478821789
 20
11.0232349518
 11
742.2980148023
 21
14.1733675752
  0
LINE
  5
2CA
100
AcDbEntity
  8
0
100
AcDbLine
 62
2
  6
CONTINUOUS
 10
742.3083818166
 20
14.1837345895
 11
742.5970475538
 21
14.4724003267
  0
LINE
  5
2CB
100
AcDbEntity
  8
0
100
AcDbLine
 62
2
  6
CONTINUOUS
 10
743.3600871993
 20
15.2354399722
 11
743.5737684318
 21
15.3986605049
  0
LINE
  5
2CC
100
AcDbEntity
  8
0
100
AcDbLine
 62
2
  6
CONTINUOUS
 10
744.7871869242
 20
16.6157539189
 11
745.6726780482
 21
17.5480308211
  0
LINE
  5
2CD
100
AcDbEntity
  8
0
100
AcDbLine
 62
2
  6
CONTINUOUS
 10
739.0207231073
 20
11.0728525755
 11
742.121238107
 21
14.1733675752
  0
LINE
  5
2CE
100
AcDbEntity
  8
0
100
AcDbLine
 62
2
  6
CONTINUOUS
 10
742.323859957
 20
14.3759894252
 11
742.615169694
 21
14.6672991622
  0
LINE
  5
2CF
100
AcDbEntity
  8
0
100
AcDbLine
 62
2
  6
CONTINUOUS
 10
743.3770198643
 20
15.4291493324
 11
743.5901019401
 21
15.5929633456
  0
LINE
  5
2D0
100
AcDbEntity
  8
0
100
AcDbLine
 62
2
  6
CONTINUOUS
 10
744.636654684
 20
16.6422099216
 11
745.6230604245
 21
17.6751898927
  0
LINE
  5
2D1
100
AcDbEntity
  8
0
100
AcDbLine
 62
2
  6
CONTINUOUS
 10
738.8935640357
 20
11.1224701992
 11
741.9444614117
 21
14.1733675752
  0
LINE
  5
2D2
100
AcDbEntity
  8
0
100
AcDbLine
 62
2
  6
CONTINUOUS
 10
742.3393380974
 20
14.5682442609
 11
742.6332918342
 21
14.8621979977
  0
LINE
  5
2D3
100
AcDbEntity
  8
0
100
AcDbLine
 62
2
  6
CONTINUOUS
 10
743.3939525292
 20
15.5738884047
 11
743.6415316784
 21
15.821467554
  0
LINE
  5
2D4
100
AcDbEntity
  8
0
100
AcDbLine
 62
2
  6
CONTINUOUS
 10
744.4512017177
 20
16.6339505575
 11
745.5734428008
 21
17.8023489643
  0
LINE
  5
2D5
100
AcDbEntity
  8
0
100
AcDbLine
 62
2
  6
CONTINUOUS
 10
738.7810894957
 20
11.1867723545
 11
741.7676847164
 21
14.1733675752
  0
LINE
  5
2D6
100
AcDbEntity
  8
0
100
AcDbLine
 62
2
  6
CONTINUOUS
 10
742.3548162378
 20
14.7604990966
 11
742.6514139745
 21
15.0570968332
  0
LINE
  5
2D7
100
AcDbEntity
  8
0
100
AcDbLine
 62
2
  6
CONTINUOUS
 10
743.4061840354
 20
15.7627868879
 11
743.7976038398
 21
16.1633418719
  0
LINE
  5
2D8
100
AcDbEntity
  8
0
100
AcDbLine
 62
2
  6
CONTINUOUS
 10
738.6703181786
 20
11.2527777327
 11
741.5909080211
 21
14.1733675752
  0
LINE
  5
2D9
100
AcDbEntity
  8
0
100
AcDbLine
 62
2
  6
CONTINUOUS
 10
742.3702943782
 20
14.9527539322
 11
742.6695361147
 21
15.2519956687
  0
LINE
  5
2DA
100
AcDbEntity
  8
0
100
AcDbLine
 62
2
  6
CONTINUOUS
 10
743.427817859
 20
15.9613071252
 11
745.4431352673
 21
18.0255948214
  0
LINE
  5
2DB
100
AcDbEntity
  8
0
100
AcDbLine
 62
2
  6
CONTINUOUS
 10
738.5595468614
 20
11.3187831108
 11
741.6013219669
 21
14.3605582163
  0
LINE
  5
2DC
100
AcDbEntity
  8
0
100
AcDbLine
 62
2
  6
CONTINUOUS
 10
742.3857725186
 20
15.1450087679
 11
742.6876582549
 21
15.4468945042
  0
LINE
  5
2DD
100
AcDbEntity
  8
0
100
AcDbLine
 62
2
  6
CONTINUOUS
 10
743.444750524
 20
16.1550164854
 11
745.3771298892
 21
18.1363661386
  0
LINE
  5
2DE
100
AcDbEntity
  8
0
100
AcDbLine
 62
2
  6
CONTINUOUS
 10
738.4487755443
 20
11.384788489
 11
741.2373546305
 21
14.1733675752
  0
LINE
  5
2DF
100
AcDbEntity
  8
0
100
AcDbLine
 62
2
  6
CONTINUOUS
 10
741.3516065439
 20
14.2876194886
 11
741.6202329234
 21
14.556245868
  0
LINE
  5
2E0
100
AcDbEntity
  8
0
100
AcDbLine
 62
2
  6
CONTINUOUS
 10
742.4012506589
 20
15.3372636036
 11
742.7057803951
 21
15.6417933398
  0
LINE
  5
2E1
100
AcDbEntity
  8
0
100
AcDbLine
 62
2
  6
CONTINUOUS
 10
743.4616831889
 20
16.3487258456
 11
745.311124511
 21
18.2471374557
  0
LINE
  5
2E2
100
AcDbEntity
  8
0
100
AcDbLine
 62
2
  6
CONTINUOUS
 10
738.3380042271
 20
11.4507938671
 11
741.0605779352
 21
14.1733675752
  0
LINE
  5
2E3
100
AcDbEntity
  8
0
100
AcDbLine
 62
2
  6
CONTINUOUS
 10
741.3216762072
 20
14.4344658471
 11
741.6391438798
 21
14.7519335198
  0
LINE
  5
2E4
100
AcDbEntity
  8
0
100
AcDbLine
 62
2
  6
CONTINUOUS
 10
742.4167287993
 20
15.5295184393
 11
742.7239025353
 21
15.8366921753
  0
LINE
  5
2E5
100
AcDbEntity
  8
0
100
AcDbLine
 62
2
  6
CONTINUOUS
 10
743.4786158538
 20
16.5424352058
 11
745.2451191329
 21
18.3579087729
  0
LINE
  5
2E6
100
AcDbEntity
  8
0
100
AcDbLine
 62
2
  6
CONTINUOUS
 10
738.22723291
 20
11.5167992453
 11
740.8838012399
 21
14.1733675752
  0
LINE
  5
2E7
100
AcDbEntity
  8
0
100
AcDbLine
 62
2
  6
CONTINUOUS
 10
741.3076636459
 20
14.5972299812
 11
741.6580548363
 21
14.9476211716
  0
LINE
  5
2E8
100
AcDbEntity
  8
0
100
AcDbLine
 62
2
  6
CONTINUOUS
 10
742.4322069397
 20
15.721773275
 11
742.7420246755
 21
16.0315910108
  0
LINE
  5
2E9
100
AcDbEntity
  8
0
100
AcDbLine
 62
2
  6
CONTINUOUS
 10
743.4955485187
 20
16.7361445661
 11
745.1791137547
 21
18.46868009
  0
LINE
  5
2EA
100
AcDbEntity
  8
0
100
AcDbLine
 62
2
  6
CONTINUOUS
 10
738.123868648
 20
11.5902116786
 11
740.7849171478
 21
14.2512601784
  0
LINE
  5
2EB
100
AcDbEntity
  8
0
100
AcDbLine
 62
2
  6
CONTINUOUS
 10
741.3143807362
 20
14.7807237668
 11
741.6769657927
 21
15.1433088233
  0
LINE
  5
2EC
100
AcDbEntity
  8
0
100
AcDbLine
 62
2
  6
CONTINUOUS
 10
742.4476850801
 20
15.9140281107
 11
742.7601468157
 21
16.2264898463
  0
LINE
  5
2ED
100
AcDbEntity
  8
0
100
AcDbLine
 62
2
  6
CONTINUOUS
 10
743.5124811837
 20
16.9788242142
 11
745.1057013214
 21
18.572044352
  0
LINE
  5
2EE
100
AcDbEntity
  8
0
100
AcDbLine
 62
2
  6
CONTINUOUS
 10
738.0281562331
 20
11.6712759589
 11
740.720859971
 21
14.3639796969
  0
LINE
  5
2EF
100
AcDbEntity
  8
0
100
AcDbLine
 62
2
  6
CONTINUOUS
 10
741.3340766704
 20
14.9771963962
 11
741.6958767492
 21
15.3389964751
  0
LINE
  5
2F0
100
AcDbEntity
  8
0
100
AcDbLine
 62
2
  6
CONTINUOUS
 10
742.4631632205
 20
16.1062829464
 11
742.7782689559
 21
16.4213886818
  0
LINE
  5
2F1
100
AcDbEntity
  8
0
100
AcDbLine
 62
2
  6
CONTINUOUS
 10
743.5294138486
 20
17.1725335745
 11
745.0246370411
 21
18.6677567669
  0
LINE
  5
2F2
100
AcDbEntity
  8
0
100
AcDbLine
 62
2
  6
CONTINUOUS
 10
737.9324438181
 20
11.7523402393
 11
740.4210263538
 21
14.2409227749
  0
LINE
  5
2F3
100
AcDbEntity
  8
0
100
AcDbLine
 62
2
  6
CONTINUOUS
 10
741.3537726045
 20
15.1736690257
 11
741.7147877057
 21
15.5346841268
  0
LINE
  5
2F4
100
AcDbEntity
  8
0
100
AcDbLine
 62
2
  6
CONTINUOUS
 10
742.4786413609
 20
16.2985377821
 11
742.7963910961
 21
16.6162875173
  0
LINE
  5
2F5
100
AcDbEntity
  8
0
100
AcDbLine
 62
2
  6
CONTINUOUS
 10
743.4157875788
 20
17.235684
 11
744.9435727607
 21
18.7634691819
  0
LINE
  5
2F6
100
AcDbEntity
  8
0
100
AcDbLine
 62
2
  6
CONTINUOUS
 10
737.8367314032
 20
11.8334045196
 11
740.1982996038
 21
14.1949727203
  0
LINE
  5
2F7
100
AcDbEntity
  8
0
100
AcDbLine
 62
2
  6
CONTINUOUS
 10
741.3734685387
 20
15.3701416552
 11
741.7336986621
 21
15.7303717786
  0
LINE
  5
2F8
100
AcDbEntity
  8
0
100
AcDbLine
 62
2
  6
CONTINUOUS
 10
742.4941195013
 20
16.4907926177
 11
742.8145132363
 21
16.8111863528
  0
LINE
  5
2F9
100
AcDbEntity
  8
0
100
AcDbLine
 62
2
  6
CONTINUOUS
 10
743.2390108835
 20
17.235684
 11
744.8625084804
 21
18.8591815968
  0
LINE
  5
2FA
100
AcDbEntity
  8
0
100
AcDbLine
 62
2
  6
CONTINUOUS
 10
737.7410189882
 20
11.9144688
 11
740.0096016631
 21
14.1830514748
  0
LINE
  5
2FB
100
AcDbEntity
  8
0
100
AcDbLine
 62
2
  6
CONTINUOUS
 10
741.3931644729
 20
15.5666142847
 11
741.7526096186
 21
15.9260594303
  0
LINE
  5
2FC
100
AcDbEntity
  8
0
100
AcDbLine
 62
2
  6
CONTINUOUS
 10
742.3303731882
 20
16.503823
 11
742.8326353765
 21
17.0060851883
  0
LINE
  5
2FD
100
AcDbEntity
  8
0
100
AcDbLine
 62
2
  6
CONTINUOUS
 10
743.0622341882
 20
17.235684
 11
744.7814442
 21
18.9548940118
  0
LINE
  5
2FE
100
AcDbEntity
  8
0
100
AcDbLine
 62
2
  6
CONTINUOUS
 10
737.6453065733
 20
11.9955330803
 11
739.8423750372
 21
14.1926015443
  0
LINE
  5
2FF
100
AcDbEntity
  8
0
100
AcDbLine
 62
2
  6
CONTINUOUS
 10
741.413953504
 20
15.764180011
 11
741.771520575
 21
16.1217470821
  0
LINE
  5
300
100
AcDbEntity
  8
0
100
AcDbLine
 62
2
  6
CONTINUOUS
 10
742.1535964929
 20
16.503823
 11
742.4023934929
 21
16.75262
  0
LINE
  5
301
100
AcDbEntity
  8
0
100
AcDbLine
 62
2
  6
CONTINUOUS
 10
742.5138741039
 20
16.864100611
 11
742.8507575167
 21
17.2009840238
  0
LINE
  5
302
100
AcDbEntity
  8
0
100
AcDbLine
 62
2
  6
CONTINUOUS
 10
742.8854574929
 20
17.235684
 11
744.7003799197
 21
19.0506064267
  0
LINE
  5
303
100
AcDbEntity
  8
0
100
AcDbLine
 62
2
  6
CONTINUOUS
 10
737.5495941583
 20
12.0765973607
 11
739.6908619925
 21
14.2178651948
  0
LINE
  5
304
100
AcDbEntity
  8
0
100
AcDbLine
 62
2
  6
CONTINUOUS
 10
741.4072846308
 20
15.9342878332
 11
741.7904315315
 21
16.3174347339
  0
LINE
  5
305
100
AcDbEntity
  8
0
100
AcDbLine
 62
2
  6
CONTINUOUS
 10
741.9768197977
 20
16.503823
 11
742.2256167977
 21
16.75262
  0
LINE
  5
306
100
AcDbEntity
  8
0
100
AcDbLine
 62
2
  6
CONTINUOUS
 10
742.536513268
 20
17.0635164703
 11
744.6193156393
 21
19.1463188417
  0
LINE
  5
307
100
AcDbEntity
  8
0
100
AcDbLine
 62
2
  6
CONTINUOUS
 10
737.4671835471
 20
12.1709634447
 11
739.5636234046
 21
14.2674033022
  0
LINE
  5
308
100
AcDbEntity
  8
0
100
AcDbLine
 62
2
  6
CONTINUOUS
 10
741.3683227654
 20
16.0721026631
 11
742.0488401024
 21
16.75262
  0
LINE
  5
309
100
AcDbEntity
  8
0
100
AcDbLine
 62
2
  6
CONTINUOUS
 10
742.5319041024
 20
17.235684
 11
744.5249495553
 21
19.2287294529
  0
LINE
  5
30A
100
AcDbEntity
  8
0
100
AcDbLine
 62
2
  6
CONTINUOUS
 10
737.3861192667
 20
12.2666758597
 11
739.4589311406
 21
14.3394877335
  0
LINE
  5
30B
100
AcDbEntity
  8
0
100
AcDbLine
 62
2
  6
CONTINUOUS
 10
741.307592502
 20
16.1881490949
 11
741.8720634071
 21
16.75262
  0
LINE
  5
30C
100
AcDbEntity
  8
0
100
AcDbLine
 62
2
  6
CONTINUOUS
 10
742.3551274071
 20
17.235684
 11
744.4292371403
 21
19.3097937333
  0
LINE
  5
30D
100
AcDbEntity
  8
0
100
AcDbLine
 62
2
  6
CONTINUOUS
 10
737.3050549864
 20
12.3623882746
 11
739.3723049236
 21
14.4296382119
  0
LINE
  5
30E
100
AcDbEntity
  8
0
100
AcDbLine
 62
2
  6
CONTINUOUS
 10
741.2273749425
 20
16.2847082307
 11
741.8124343587
 21
16.8697676469
  0
LINE
  5
30F
100
AcDbEntity
  8
0
100
AcDbLine
 62
2
  6
CONTINUOUS
 10
742.1783507118
 20
17.235684
 11
744.3335247254
 21
19.3908580136
  0
LINE
  5
310
100
AcDbEntity
  8
0
100
AcDbLine
 62
2
  6
CONTINUOUS
 10
737.223990706
 20
12.4581006896
 11
739.3039731347
 21
14.5380831182
  0
LINE
  5
311
100
AcDbEntity
  8
0
100
AcDbLine
 62
2
  6
CONTINUOUS
 10
740.457685894
 20
15.6917958776
 11
740.6693770228
 21
15.9034870063
  0
LINE
  5
312
100
AcDbEntity
  8
0
100
AcDbLine
 62
2
  6
CONTINUOUS
 10
741.1312537713
 20
16.3653637549
 11
741.83013864
 21
17.0642486236
  0
LINE
  5
313
100
AcDbEntity
  8
0
100
AcDbLine
 62
2
  6
CONTINUOUS
 10
742.0015740165
 20
17.235684
 11
744.2378123104
 21
19.471922294
  0
LINE
  5
314
100
AcDbEntity
  8
0
100
AcDbLine
 62
2
  6
CONTINUOUS
 10
737.1429264257
 20
12.5538131045
 11
738.7624808963
 21
14.1733675752
  0
LINE
  5
315
100
AcDbEntity
  8
0
100
AcDbLine
 62
2
  6
CONTINUOUS
 10
738.9164698602
 20
14.327356539
 11
739.2568458687
 21
14.6677325475
  0
LINE
  5
316
100
AcDbEntity
  8
0
100
AcDbLine
 62
2
  6
CONTINUOUS
 10
740.2828397233
 20
15.6937264022
 11
740.5593621114
 21
15.9702487902
  0
LINE
  5
317
100
AcDbEntity
  8
0
100
AcDbLine
 62
2
  6
CONTINUOUS
 10
741.0259742593
 20
16.4368609382
 11
744.1420998955
 21
19.5529865743
  0
LINE
  5
318
100
AcDbEntity
  8
0
100
AcDbLine
 62
2
  6
CONTINUOUS
 10
737.0618621454
 20
12.6495255195
 11
738.585704201
 21
14.1733675752
  0
LINE
  5
319
100
AcDbEntity
  8
0
100
AcDbLine
 62
2
  6
CONTINUOUS
 10
738.9333325056
 20
14.5209958797
 11
739.2393872037
 21
14.8270505779
  0
LINE
  5
31A
100
AcDbEntity
  8
0
100
AcDbLine
 62
2
  6
CONTINUOUS
 10
740.1079935526
 20
15.6956569267
 11
740.4333427391
 21
16.0210061132
  0
LINE
  5
31B
100
AcDbEntity
  8
0
100
AcDbLine
 62
2
  6
CONTINUOUS
 10
740.9091404045
 20
16.4968037786
 11
744.0463874805
 21
19.6340508547
  0
LINE
  5
31C
100
AcDbEntity
  8
0
100
AcDbLine
 62
2
  6
CONTINUOUS
 10
736.9856815418
 20
12.7501216112
 11
738.4089275057
 21
14.1733675752
  0
LINE
  5
31D
100
AcDbEntity
  8
0
100
AcDbLine
 62
2
  6
CONTINUOUS
 10
738.950195151
 20
14.7146352204
 11
739.2456170131
 21
15.0100570825
  0
LINE
  5
31E
100
AcDbEntity
  8
0
100
AcDbLine
 62
2
  6
CONTINUOUS
 10
739.9276779175
 20
15.6921179869
 11
740.2801786248
 21
16.0446186942
  0
LINE
  5
31F
100
AcDbEntity
  8
0
100
AcDbLine
 62
2
  6
CONTINUOUS
 10
740.789088554
 20
16.5535286234
 11
743.9457913888
 21
19.7102314582
  0
LINE
  5
320
100
AcDbEntity
  8
0
100
AcDbLine
 62
2
  6
CONTINUOUS
 10
736.9196761636
 20
12.8608929283
 11
738.2508507677
 21
14.1920675324
  0
LINE
  5
321
100
AcDbEntity
  8
0
100
AcDbLine
 62
2
  6
CONTINUOUS
 10
738.9670577964
 20
14.9082745611
 11
739.3154756003
 21
15.256692365
  0
LINE
  5
322
100
AcDbEntity
  8
0
100
AcDbLine
 62
2
  6
CONTINUOUS
 10
739.681042635
 20
15.6222593997
 11
740.1074810871
 21
16.0486978518
  0
LINE
  5
323
100
AcDbEntity
  8
0
100
AcDbLine
 62
2
  6
CONTINUOUS
 10
740.6556539148
 20
16.5968706795
 11
743.8350200717
 21
19.7762368364
  0
LINE
  5
324
100
AcDbEntity
  8
0
100
AcDbLine
 62
2
  6
CONTINUOUS
 10
736.8536707855
 20
12.9716642455
 11
738.2702838097
 21
14.3882772697
  0
LINE
  5
325
100
AcDbEntity
  8
0
100
AcDbLine
 62
2
  6
CONTINUOUS
 10
738.9839204418
 20
15.1019139018
 11
739.7022346991
 21
15.8202281591
  0
LINE
  5
326
100
AcDbEntity
  8
0
100
AcDbLine
 62
2
  6
CONTINUOUS
 10
739.7120579899
 20
15.83005145
 11
739.8803672368
 21
15.9983606968
  0
LINE
  5
327
100
AcDbEntity
  8
0
100
AcDbLine
 62
2
  6
CONTINUOUS
 10
740.5067933419
 20
16.6247868019
 11
743.7242487545
 21
19.8422422145
  0
LINE
  5
328
100
AcDbEntity
  8
0
100
AcDbLine
 62
2
  6
CONTINUOUS
 10
736.7876654073
 20
13.0824355626
 11
738.2897168517
 21
14.584487007
  0
LINE
  5
329
100
AcDbEntity
  8
0
100
AcDbLine
 62
2
  6
CONTINUOUS
 10
739.0007830872
 20
15.2955532425
 11
739.5249026773
 21
15.8196728326
  0
LINE
  5
32A
100
AcDbEntity
  8
0
100
AcDbLine
 62
2
  6
CONTINUOUS
 10
740.3496740629
 20
16.6444442182
 11
743.6134774374
 21
19.9082475927
  0
LINE
  5
32B
100
AcDbEntity
  8
0
100
AcDbLine
 62
2
  6
CONTINUOUS
 10
736.7216600291
 20
13.1932068798
 11
738.3091498937
 21
14.7806967443
  0
LINE
  5
32C
100
AcDbEntity
  8
0
100
AcDbLine
 62
2
  6
CONTINUOUS
 10
739.0176457326
 20
15.4891925832
 11
739.3475706555
 21
15.8191175061
  0
LINE
  5
32D
100
AcDbEntity
  8
0
100
AcDbLine
 62
2
  6
CONTINUOUS
 10
740.1693222011
 20
16.6408690517
 11
743.5027061202
 21
19.9742529709
  0
LINE
  5
32E
100
AcDbEntity
  8
0
100
AcDbLine
 62
2
  6
CONTINUOUS
 10
736.655654651
 20
13.3039781969
 11
738.3285829357
 21
14.9769064816
  0
LINE
  5
32F
100
AcDbEntity
  8
0
100
AcDbLine
 62
2
  6
CONTINUOUS
 10
739.034508378
 20
15.6828319239
 11
739.2287642442
 21
15.8770877901
  0
LINE
  5
330
100
AcDbEntity
  8
0
100
AcDbLine
 62
2
  6
CONTINUOUS
 10
739.9586309205
 20
16.6069544664
 11
743.3919348031
 21
20.040258349
  0
LINE
  5
331
100
AcDbEntity
  8
0
100
AcDbLine
 62
2
  6
CONTINUOUS
 10
736.5896492728
 20
13.414749514
 11
737.348267334
 21
14.1733675752
  0
LINE
  5
332
100
AcDbEntity
  8
0
100
AcDbLine
 62
2
  6
CONTINUOUS
 10
737.5059004254
 20
14.3310006666
 11
738.3480159776
 21
15.1731162188
  0
LINE
  5
333
100
AcDbEntity
  8
0
100
AcDbLine
 62
2
  6
CONTINUOUS
 10
739.0513710234
 20
15.8764712646
 11
739.3333770689
 21
16.1584773101
  0
LINE
  5
334
100
AcDbEntity
  8
0
100
AcDbLine
 62
2
  6
CONTINUOUS
 10
739.6793149019
 20
16.5044151431
 11
743.281163486
 21
20.1062637272
  0
LINE
  5
335
100
AcDbEntity
  8
0
100
AcDbLine
 62
2
  6
CONTINUOUS
 10
736.5387224283
 20
13.5405993648
 11
737.1714906387
 21
14.1733675752
  0
LINE
  5
336
100
AcDbEntity
  8
0
100
AcDbLine
 62
2
  6
CONTINUOUS
 10
737.5207646797
 20
14.5226416162
 11
738.2594920635
 21
15.261369
  0
LINE
  5
337
100
AcDbEntity
  8
0
100
AcDbLine
 62
2
  6
CONTINUOUS
 10
739.0682336688
 20
16.0701106053
 11
743.1553136352
 21
20.1571905717
  0
LINE
  5
338
100
AcDbEntity
  8
0
100
AcDbLine
 62
2
  6
CONTINUOUS
 10
736.4891048046
 20
13.6677584364
 11
736.9947139434
 21
14.1733675752
  0
LINE
  5
339
100
AcDbEntity
  8
0
100
AcDbLine
 62
2
  6
CONTINUOUS
 10
737.5356289341
 20
14.7142825659
 11
738.0827153682
 21
15.261369
  0
LINE
  5
33A
100
AcDbEntity
  8
0
100
AcDbLine
 62
2
  6
CONTINUOUS
 10
739.0850963142
 20
16.263749946
 11
743.0281545636
 21
20.2068081954
  0
LINE
  5
33B
100
AcDbEntity
  8
0
100
AcDbLine
 62
2
  6
CONTINUOUS
 10
736.4394871809
 20
13.794917508
 11
736.8179372481
 21
14.1733675752
  0
LINE
  5
33C
100
AcDbEntity
  8
0
100
AcDbLine
 62
2
  6
CONTINUOUS
 10
737.5504931884
 20
14.9059235155
 11
737.9059386729
 21
15.261369
  0
LINE
  5
33D
100
AcDbEntity
  8
0
100
AcDbLine
 62
2
  6
CONTINUOUS
 10
739.1019589596
 20
16.4573892867
 11
742.900995492
 21
20.2564258191
  0
LINE
  5
33E
100
AcDbEntity
  8
0
100
AcDbLine
 62
2
  6
CONTINUOUS
 10
736.3898695572
 20
13.9220765796
 11
736.8139232421
 21
14.3461302645
  0
LINE
  5
33F
100
AcDbEntity
  8
0
100
AcDbLine
 62
2
  6
CONTINUOUS
 10
737.5653574428
 20
15.0975644652
 11
737.7291619776
 21
15.261369
  0
LINE
  5
340
100
AcDbEntity
  8
0
100
AcDbLine
 62
2
  6
CONTINUOUS
 10
738.3752549776
 20
15.907462
 11
738.4138444867
 21
15.9460515091
  0
LINE
  5
341
100
AcDbEntity
  8
0
100
AcDbLine
 62
2
  6
CONTINUOUS
 10
739.118821605
 20
16.6510286274
 11
742.7738364204
 21
20.3060434428
  0
LINE
  5
342
100
AcDbEntity
  8
0
100
AcDbLine
 62
2
  6
CONTINUOUS
 10
736.3402519335
 20
14.0492356512
 11
736.8329998427
 21
14.5419835604
  0
LINE
  5
343
100
AcDbEntity
  8
0
100
AcDbLine
 62
2
  6
CONTINUOUS
 10
738.1984782823
 20
15.907462
 11
738.4313818058
 21
16.1403655235
  0
LINE
  5
344
100
AcDbEntity
  8
0
100
AcDbLine
 62
2
  6
CONTINUOUS
 10
739.1356842504
 20
16.8446679681
 11
742.6466773488
 21
20.3556610665
  0
LINE
  5
345
100
AcDbEntity
  8
0
100
AcDbLine
 62
2
  6
CONTINUOUS
 10
736.2906343098
 20
14.1763947228
 11
736.8520764434
 21
14.7378368564
  0
LINE
  5
346
100
AcDbEntity
  8
0
100
AcDbLine
 62
2
  6
CONTINUOUS
 10
738.021701587
 20
15.907462
 11
738.4489191249
 21
16.3346795379
  0
LINE
  5
347
100
AcDbEntity
  8
0
100
AcDbLine
 62
2
  6
CONTINUOUS
 10
739.1525468959
 20
17.0383073088
 11
742.5195182772
 21
20.4052786902
  0
LINE
  5
348
100
AcDbEntity
  8
0
100
AcDbLine
 62
2
  6
CONTINUOUS
 10
736.2575296969
 20
14.3200668052
 11
736.8711530441
 21
14.9336901524
  0
LINE
  5
349
100
AcDbEntity
  8
0
100
AcDbLine
 62
2
  6
CONTINUOUS
 10
737.8449248917
 20
15.907462
 11
738.466456444
 21
16.5289935523
  0
LINE
  5
34A
100
AcDbEntity
  8
0
100
AcDbLine
 62
2
  6
CONTINUOUS
 10
739.1694095413
 20
17.2319466495
 11
742.3758461948
 21
20.4383833031
  0
LINE
  5
34B
100
AcDbEntity
  8
0
100
AcDbLine
 62
2
  6
CONTINUOUS
 10
736.2268883389
 20
14.4662021425
 11
736.8902296448
 21
15.1295434483
  0
LINE
  5
34C
100
AcDbEntity
  8
0
100
AcDbLine
 62
2
  6
CONTINUOUS
 10
737.6681481964
 20
15.907462
 11
738.4839937631
 21
16.7233075667
  0
LINE
  5
34D
100
AcDbEntity
  8
0
100
AcDbLine
 62
2
  6
CONTINUOUS
 10
738.9963701964
 20
17.235684
 11
742.2297108575
 21
20.4690246611
  0
LINE
  5
34E
100
AcDbEntity
  8
0
100
AcDbLine
 62
2
  6
CONTINUOUS
 10
736.1962469809
 20
14.6123374797
 11
736.9093062454
 21
15.3253967443
  0
LINE
  5
34F
100
AcDbEntity
  8
0
100
AcDbLine
 62
2
  6
CONTINUOUS
 10
737.6580525647
 20
16.0741430636
 11
738.5015310822
 21
16.917621581
  0
LINE
  5
350
100
AcDbEntity
  8
0
100
AcDbLine
 62
2
  6
CONTINUOUS
 10
738.8195935011
 20
17.235684
 11
742.0835755203
 21
20.4996660191
  0
LINE
  5
351
100
AcDbEntity
  8
0
100
AcDbLine
 62
2
  6
CONTINUOUS
 10
736.1656056229
 20
14.758472817
 11
736.9283828461
 21
15.5212500403
  0
LINE
  5
352
100
AcDbEntity
  8
0
100
AcDbLine
 62
2
  6
CONTINUOUS
 10
737.6723615988
 20
16.265228793
 11
738.5190684013
 21
17.1119355954
  0
LINE
  5
353
100
AcDbEntity
  8
0
100
AcDbLine
 62
2
  6
CONTINUOUS
 10
738.6428168058
 20
17.235684
 11
741.937440183
 21
20.5303073771
  0
LINE
  5
354
100
AcDbEntity
  8
0
100
AcDbLine
 62
2
  6
CONTINUOUS
 10
736.1349642649
 20
14.9046081543
 11
736.9474594468
 21
15.7171033363
  0
LINE
  5
355
100
AcDbEntity
  8
0
100
AcDbLine
 62
2
  6
CONTINUOUS
 10
737.6866706329
 20
16.4563145223
 11
741.7913048457
 21
20.5609487351
  0
LINE
  5
356
100
AcDbEntity
  8
0
100
AcDbLine
 62
2
  6
CONTINUOUS
 10
736.1123438616
 20
15.0587644463
 11
736.9665360475
 21
15.9129566322
  0
LINE
  5
357
100
AcDbEntity
  8
0
100
AcDbLine
 62
2
  6
CONTINUOUS
 10
737.7009796669
 20
16.6474002517
 11
741.6371485537
 21
20.5835691384
  0
LINE
  5
358
100
AcDbEntity
  8
0
100
AcDbLine
 62
2
  6
CONTINUOUS
 10
736.1053227199
 20
15.22852
 11
736.9856126481
 21
16.1088099282
  0
LINE
  5
359
100
AcDbEntity
  8
0
100
AcDbLine
 62
2
  6
CONTINUOUS
 10
737.715288701
 20
16.838485981
 11
741.467393
 21
20.5905902801
  0
LINE
  5
35A
100
AcDbEntity
  8
0
100
AcDbLine
 62
2
  6
CONTINUOUS
 10
736.0983015783
 20
15.3982755536
 11
737.0046892488
 21
16.3046632242
  0
LINE
  5
35B
100
AcDbEntity
  8
0
100
AcDbLine
 62
2
  6
CONTINUOUS
 10
737.7295977351
 20
17.0295717104
 11
741.2976374464
 21
20.5976114217
  0
LINE
  5
35C
100
AcDbEntity
  8
0
100
AcDbLine
 62
2
  6
CONTINUOUS
 10
736.0912804366
 20
15.5680311073
 11
737.0237658495
 21
16.5005165201
  0
LINE
  5
35D
100
AcDbEntity
  8
0
100
AcDbLine
 62
2
  6
CONTINUOUS
 10
737.7439067691
 20
17.2206574398
 11
741.1278818927
 21
20.6046325634
  0
LINE
  5
35E
100
AcDbEntity
  8
0
100
AcDbLine
 62
2
  6
CONTINUOUS
 10
736.084259295
 20
15.737786661
 11
737.0428424502
 21
16.6963698161
  0
LINE
  5
35F
100
AcDbEntity
  8
0
100
AcDbLine
 62
2
  6
CONTINUOUS
 10
737.582156634
 20
17.235684
 11
740.958126339
 21
20.611653705
  0
LINE
  5
360
100
AcDbEntity
  8
0
100
AcDbLine
 62
2
  6
CONTINUOUS
 10
736.0926634035
 20
15.9229674647
 11
737.0619190508
 21
16.8922231121
  0
LINE
  5
361
100
AcDbEntity
  8
0
100
AcDbLine
 62
2
  6
CONTINUOUS
 10
737.4053799388
 20
17.235684
 11
740.7729455353
 21
20.6032495965
  0
LINE
  5
362
100
AcDbEntity
  8
0
100
AcDbLine
 62
2
  6
CONTINUOUS
 10
736.1178364072
 20
16.1249171637
 11
737.0809956515
 21
17.0880764081
  0
LINE
  5
363
100
AcDbEntity
  8
0
100
AcDbLine
 62
2
  6
CONTINUOUS
 10
737.2286032435
 20
17.235684
 11
740.5709958363
 21
20.5780765928
  0
LINE
  5
364
100
AcDbEntity
  8
0
100
AcDbLine
 62
2
  6
CONTINUOUS
 10
736.1430094109
 20
16.3268668628
 11
740.3690461372
 21
20.5529035891
  0
LINE
  5
365
100
AcDbEntity
  8
0
100
AcDbLine
 62
2
  6
CONTINUOUS
 10
736.1681824147
 20
16.5288165618
 11
740.1670964382
 21
20.5277305853
  0
LINE
  5
366
100
AcDbEntity
  8
0
100
AcDbLine
 62
2
  6
CONTINUOUS
 10
736.2143282803
 20
16.7517391227
 11
739.9441738773
 21
20.4815847197
  0
LINE
  5
367
100
AcDbEntity
  8
0
100
AcDbLine
 62
2
  6
CONTINUOUS
 10
736.2892672936
 20
17.0034548313
 11
739.6924581687
 21
20.4066457064
  0
LINE
  5
368
100
AcDbEntity
  8
0
100
AcDbLine
 62
2
  6
CONTINUOUS
 10
736.3642063069
 20
17.2551705399
 11
739.4407424601
 21
20.3317066931
  0
LINE
  5
369
100
AcDbEntity
  8
0
100
AcDbLine
 62
2
  6
CONTINUOUS
 10
736.4652364905
 20
17.5329774189
 11
739.1629355811
 21
20.2306765095
  0
LINE
  5
36A
100
AcDbEntity
  8
0
100
AcDbLine
 62
2
  6
CONTINUOUS
 10
736.6343146037
 20
17.8788322273
 11
738.8170807727
 21
20.0615983963
  0
LINE
  5
36B
100
AcDbEntity
  8
0
100
AcDbLine
 62
2
  6
CONTINUOUS
 10
736.8393464277
 20
18.2606407466
 11
738.4352722534
 21
19.8565665723
  0
LINE
  5
36C
100
AcDbEntity
  8
0
100
AcDbLine
 62
2
  6
CONTINUOUS
 10
740.441786444
 20
14.792012951
 11
740.7403630386
 21
15.0905895456
  0
LINE
  5
36D
100
AcDbEntity
  8
0
100
AcDbLine
 62
2
  6
CONTINUOUS
 10
740.2034976998
 20
14.7305009022
 11
740.6834188911
 21
15.2104220935
  0
LINE
  5
36E
100
AcDbEntity
  8
0
100
AcDbLine
 62
2
  6
CONTINUOUS
 10
740.031352709
 20
14.7351326066
 11
740.5092189169
 21
15.2129988146
  0
LINE
  5
36F
100
AcDbEntity
  8
0
100
AcDbLine
 62
2
  6
CONTINUOUS
 10
739.9019930476
 20
14.7825496405
 11
740.3350189427
 21
15.2155755356
  0
LINE
  5
370
100
AcDbEntity
  8
0
100
AcDbLine
 62
2
  6
CONTINUOUS
 10
739.8028671918
 20
14.86020048
 11
740.1438414586
 21
15.2011747469
  0
LINE
  5
371
100
AcDbEntity
  8
0
100
AcDbLine
 62
2
  6
CONTINUOUS
 10
744.1388006965
 20
16.5125017764
 11
745.5091406455
 21
17.9148235043
  0
ELLIPSE
  5
372
100
AcDbEntity
  8
0
100
AcDbEllipse
 62
2
  6
CONTINUOUS
 10
744.5478852887
 20
15.4166964968
 30
0.0
 11
0.0782717009
 21
1.226256647
 31
0.0
 40
0.785675585
 41
0.0
 42
0.5180535605
  0
LINE
  5
373
100
AcDbEntity
  8
0
100
AcDbLine
 62
2
  6
CONTINUOUS
 10
745.3293183027
 20
14.7297973415
 11
746.0742317938
 21
15.4747108326
  0
ELLIPSE
  5
374
100
AcDbEntity
  8
0
100
AcDbEllipse
 62
2
  6
CONTINUOUS
 10
744.5427539943
 20
15.4115860655
 30
0.0
 11
-0.0964045502
 21
-1.2306643365
 31
0.0
 40
0.7837675446
 41
0.0
 42
6.2831853072
  0
ELLIPSE
  5
375
100
AcDbEntity
  8
0
100
AcDbEllipse
 62
2
  6
CONTINUOUS
 10
744.5372636479
 20
15.4009784052
 30
0.0
 11
-0.0386164743
 21
-0.5355937088
 31
0.0
 40
0.6772853291
 41
0.0
 42
6.2831853072
  0
LINE
  5
376
100
AcDbEntity
  8
0
100
AcDbLine
 62
2
  6
CONTINUOUS
 10
744.1863502791
 20
15.5177580172
 11
744.6018922181
 21
15.9332999562
  0
TEXT
  5
377
100
AcDbEntity
  8
0
100
AcDbText
 62
5
  6
CONTINUOUS
 10
650.31001
 20
61.05
  7
TEXTSTYLE_2
 40
1.8
  1
Pos.
 41
0.7666669444
 72
0
100
AcDbText
  0
TEXT
  5
378
100
AcDbEntity
  8
0
100
AcDbText
 62
5
  6
CONTINUOUS
 10
658.11001
 20
61.05
  7
TEXTSTYLE_2
 40
1.8
  1
Teilenr.
 41
0.7666670139
 72
0
100
AcDbText
  0
TEXT
  5
379
100
AcDbEntity
  8
0
100
AcDbText
 62
5
  6
CONTINUOUS
 10
670.11001
 20
61.05
  7
TEXTSTYLE_3
 40
1.8
  1
Klassif.Nr.
 41
0.65
 72
0
100
AcDbText
  0
TEXT
  5
37A
100
AcDbEntity
  8
0
100
AcDbText
 62
5
  6
CONTINUOUS
 10
685.11001
 20
61.05
  7
TEXTSTYLE_4
 40
1.8
  1
Menge
 41
0.9
 72
0
100
AcDbText
  0
TEXT
  5
37B
100
AcDbEntity
  8
0
100
AcDbText
 62
5
  6
CONTINUOUS
 10
697.61001
 20
61.05
  7
TEXTSTYLE_4
 40
1.8
  1
ME
 41
0.9
 72
0
100
AcDbText
  0
TEXT
  5
37C
100
AcDbEntity
  8
0
100
AcDbText
 62
5
  6
CONTINUOUS
 10
704.41001
 20
61.05
  7
TEXTSTYLE_2
 40
1.8
  1
Benennung / Bemerkung
 41
0.7666670139
 72
0
100
AcDbText
  0
TEXT
  5
37D
100
AcDbEntity
  8
0
100
AcDbText
 62
5
  6
CONTINUOUS
 10
649.81001
 20
55.8
  7
TEXTSTYLE_2
 40
1.8
  1
Verwendungsbereich
 41
0.7666670139
 72
0
100
AcDbText
  0
TEXT
  5
37E
100
AcDbEntity
  8
0
100
AcDbText
 62
5
  6
CONTINUOUS
 10
704.41001
 20
55.8
  7
TEXTSTYLE_2
 40
1.8
  1
Zul.Abweichung
 41
0.7666669841
 72
0
100
AcDbText
  0
TEXT
  5
37F
100
AcDbEntity
  8
0
100
AcDbText
 62
5
  6
CONTINUOUS
 10
730.41001
 20
55.8
  7
TEXTSTYLE_2
 40
1.8
  1
Oberfläche
 41
0.766667
 72
0
100
AcDbText
  0
TEXT
  5
380
100
AcDbEntity
  8
0
100
AcDbText
 62
5
  6
CONTINUOUS
 10
748.61001
 20
55.8
  7
TEXTSTYLE_2
 40
1.8
  1
Maßstab
 41
0.7666669841
 72
0
100
AcDbText
  0
TEXT
  5
381
100
AcDbEntity
  8
0
100
AcDbText
 62
5
  6
CONTINUOUS
 10
800.61001
 20
55.8
  7
TEXTSTYLE_2
 40
1.8
  1
Gewicht
 41
0.7666669841
 72
0
100
AcDbText
  0
TEXT
  5
382
100
AcDbEntity
  8
0
100
AcDbText
 62
5
  6
CONTINUOUS
 10
649.81001
 20
50.3
  7
TEXTSTYLE_2
 40
1.8
  1
Artikel-Nr.
 41
0.7666670139
 72
0
100
AcDbText
  0
TEXT
  5
383
100
AcDbEntity
  8
0
100
AcDbText
 62
5
  6
CONTINUOUS
 10
748.61001
 20
50.3
  7
TEXTSTYLE_2
 40
1.8
  1
Werkstoff
 41
0.7666669841
 72
0
100
AcDbText
  0
TEXT
  5
384
100
AcDbEntity
  8
0
100
AcDbText
 62
5
  6
CONTINUOUS
 10
716.91001
 20
39.8
  7
TEXTSTYLE_2
 40
1.8
  1
Datum
 41
0.766667
 72
0
100
AcDbText
  0
TEXT
  5
385
100
AcDbEntity
  8
0
100
AcDbText
 62
5
  6
CONTINUOUS
 10
732.51001
 20
39.8
  7
TEXTSTYLE_2
 40
1.8
  1
Name
 41
0.7666669444
 72
0
100
AcDbText
  0
TEXT
  5
386
100
AcDbEntity
  8
0
100
AcDbText
 62
5
  6
CONTINUOUS
 10
748.61001
 20
39.8
  7
TEXTSTYLE_2
 40
1.8
  1
Benennung
 41
0.7666669841
 72
0
100
AcDbText
  0
TEXT
  5
387
100
AcDbEntity
  8
0
100
AcDbText
 62
5
  6
CONTINUOUS
 10
704.41001
 20
35.55
  7
TEXTSTYLE_2
 40
1.8
  1
Bearb.
 41
0.766667037
 72
0
100
AcDbText
  0
TEXT
  5
388
100
AcDbEntity
  8
0
100
AcDbText
 62
5
  6
CONTINUOUS
 10
704.41001
 20
31.3
  7
TEXTSTYLE_2
 40
1.8
  1
Gepr.
 41
0.766667
 72
0
100
AcDbText
  0
TEXT
  5
389
100
AcDbEntity
  8
0
100
AcDbText
 62
5
  6
CONTINUOUS
 10
704.41001
 20
27.05
  7
TEXTSTYLE_2
 40
1.8
  1
Norm
 41
0.7666669444
 72
0
100
AcDbText
  0
TEXT
  5
38A
100
AcDbEntity
  8
0
100
AcDbText
 62
5
  6
CONTINUOUS
 10
704.41001
 20
22.8
  7
TEXTSTYLE_5
 40
1.8
  1
Schutzrechte  nach  DIN 34
 41
0.89
 72
0
100
AcDbText
  0
TEXT
  5
38B
100
AcDbEntity
  8
0
100
AcDbText
 62
5
  6
CONTINUOUS
 10
748.61001
 20
22.8
  7
TEXTSTYLE_5
 40
1.8
  1
Diese Zeichnung darf nur am Bildschirm geändert werden
 41
0.89
 72
0
100
AcDbText
  0
TEXT
  5
38C
100
AcDbEntity
  8
0
100
AcDbText
 62
5
  6
CONTINUOUS
 10
748.61001
 20
18.55
  7
TEXTSTYLE_2
 40
1.8
  1
Zeichnungsnummer:
 41
0.7666669841
 72
0
100
AcDbText
  0
TEXT
  5
38D
100
AcDbEntity
  8
0
100
AcDbText
 62
5
  6
CONTINUOUS
 10
824.01001
 20
18.55
  7
TEXTSTYLE_2
 40
1.8
  1
Blatt
 41
0.766667
 72
0
100
AcDbText
  0
TEXT
  5
38E
100
AcDbEntity
  8
0
100
AcDbText
 62
5
  6
CONTINUOUS
 10
705.56593
 20
11.764139
  7
TEXTSTYLE_6
 40
1.8
  1
Rudolf Loh GmbH & Co. KG
 41
0.6
 72
0
100
AcDbText
  0
TEXT
  5
38F
100
AcDbEntity
  8
0
100
AcDbText
 62
5
  6
CONTINUOUS
 10
831.01001
 20
10.05
  7
TEXTSTYLE_2
 40
1.8
  1
Bl.
 41
0.766667037
 72
0
100
AcDbText
  0
TEXT
  5
390
100
AcDbEntity
  8
0
100
AcDbText
 62
5
  6
CONTINUOUS
 10
649.81001
 20
5.8
  7
TEXTSTYLE_2
 40
1.8
  1
Zust.
 41
0.766667
 72
0
100
AcDbText
  0
TEXT
  5
391
100
AcDbEntity
  8
0
100
AcDbText
 62
5
  6
CONTINUOUS
 10
657.61001
 20
5.8
  7
TEXTSTYLE_2
 40
1.8
  1
Änderung
 41
0.7666670139
 72
0
100
AcDbText
  0
TEXT
  5
392
100
AcDbEntity
  8
0
100
AcDbText
 62
5
  6
CONTINUOUS
 10
681.01001
 20
5.8
  7
TEXTSTYLE_2
 40
1.8
  1
Datum
 41
0.766667
 72
0
100
AcDbText
  0
TEXT
  5
393
100
AcDbEntity
  8
0
100
AcDbText
 62
5
  6
CONTINUOUS
 10
694.01001
 20
5.8
  7
TEXTSTYLE_2
 40
1.8
  1
Name
 41
0.7666669444
 72
0
100
AcDbText
  0
TEXT
  5
394
100
AcDbEntity
  8
0
100
AcDbText
 62
5
  6
CONTINUOUS
 10
704.41001
 20
5.8
  7
TEXTSTYLE_2
 40
1.8
  1
Urspr.
 41
0.766667037
 72
0
100
AcDbText
  0
TEXT
  5
395
100
AcDbEntity
  8
0
100
AcDbText
 62
5
  6
CONTINUOUS
 10
748.61001
 20
5.8
  7
TEXTSTYLE_2
 40
1.8
  1
Ers.f.:
 41
0.7666669841
 72
0
100
AcDbText
  0
TEXT
  5
396
100
AcDbEntity
  8
0
100
AcDbText
 62
5
  6
CONTINUOUS
 10
792.81001
 20
5.8
  7
TEXTSTYLE_2
 40
1.8
  1
Ers.d.:
 41
0.7666669841
 72
0
100
AcDbText
  0
ENDBLK
  5
397
100
AcDbEntity
  8
0
  6
BYBLOCK
 62
0
100
AcDbBlockEnd
  0
BLOCK
  5
398
100
AcDbEntity
  8
0
100
AcDbBlockBegin
  2
_FILLED
 70
64
 10
0.0
 20
0.0
  3
_FILLED
  1

  0
SOLID
  5
399
100
AcDbEntity
  8
0
  6
BYBLOCK
 62
0
100
AcDbTrace
 10
0.0
 20
0.0
 11
-1.0
 21
0.125
 12
-1.0
 22
-0.125
 13
-1.0
 23
-0.125
  0
ENDBLK
  5
39A
100
AcDbEntity
  8
0
  6
BYBLOCK
 62
0
100
AcDbBlockEnd
  0
BLOCK
  5
39B
100
AcDbEntity
  8
0
100
AcDbBlockBegin
 62
2
  6
CONTINUOUS
  2
*D0
 70
65
 10
0.0
 20
0.0
  3
*D0
  1

  0
MTEXT
  5
39C
100
AcDbEntity
  8
0
100
AcDbMText
 62
5
  6
CONTINUOUS
  7
STANDARD
 71
2
 72
1
 10
810.8859114331
 20
324.3327868501
 30
0.0
 11
0.0
 21
1.0
 31
0.0
 44
0.9
  1
450
 40
3.5
 41
8.0
  0
LINE
  5
39D
100
AcDbEntity
  8
0
100
AcDbLine
 62
2
  6
CONTINUOUS
 10
705.4578787987
 20
551.4939806606
 11
816.7609114331
 21
551.4939806606
  0
LINE
  5
39E
100
AcDbEntity
  8
0
100
AcDbLine
 62
2
  6
CONTINUOUS
 10
705.4578787987
 20
101.4939806606
 11
816.7609114331
 21
101.4939806606
  0
LINE
  5
39F
100
AcDbEntity
  8
0
100
AcDbLine
 62
2
  6
CONTINUOUS
 10
815.2609114331
 20
551.4939806606
 11
815.2609114331
 21
326.4939806606
  0
LINE
  5
3A0
100
AcDbEntity
  8
0
100
AcDbLine
 62
2
  6
CONTINUOUS
 10
815.2609114331
 20
101.4939806606
 11
815.2609114331
 21
326.4939806606
  0
INSERT
  5
3A1
100
AcDbEntity
  8
0
100
AcDbBlockReference
 62
2
  6
CONTINUOUS
  2
_FILLED
 10
815.2609114331
 20
551.4939806606
 41
3.5
 42
3.5
 43
3.5
 50
90.0
  0
INSERT
  5
3A2
100
AcDbEntity
  8
0
100
AcDbBlockReference
 62
2
  6
CONTINUOUS
  2
_FILLED
 10
815.2609114331
 20
101.4939806606
 41
3.5
 42
3.5
 43
3.5
 50
270.0
  0
ENDBLK
  5
3A3
100
AcDbEntity
  8
0
  6
BYBLOCK
 62
0
100
AcDbBlockEnd
  0
BLOCK
  5
3A4
100
AcDbEntity
  8
0
100
AcDbBlockBegin
 62
2
  6
CONTINUOUS
  2
*D1
 70
65
 10
0.0
 20
0.0
  3
*D1
  1

  0
MTEXT
  5
3A5
100
AcDbEntity
  8
0
100
AcDbMText
 62
5
  6
CONTINUOUS
  7
STANDARD
 71
1
 72
1
 10
734.0901545524
 20
561.2011278227
 30
0.0
 11
0.0
 21
1.0
 31
0.0
 44
0.9
  1
16
 40
3.5
 41
4.75
  0
LINE
  5
3A6
100
AcDbEntity
  8
0
100
AcDbLine
 62
2
  6
CONTINUOUS
 10
705.4578787987
 20
551.4939806606
 11
739.9651545524
 21
551.4939806606
  0
LINE
  5
3A7
100
AcDbEntity
  8
0
100
AcDbLine
 62
2
  6
CONTINUOUS
 10
705.4578787987
 20
535.4939806606
 11
739.9651545524
 21
535.4939806606
  0
LINE
  5
3A8
100
AcDbEntity
  8
0
100
AcDbLine
 62
2
  6
CONTINUOUS
 10
738.4651545524
 20
551.4939806606
 11
738.4651545524
 21
565.9511278227
  0
LINE
  5
3A9
100
AcDbEntity
  8
0
100
AcDbLine
 62
2
  6
CONTINUOUS
 10
738.4651545524
 20
565.9511278227
 11
738.4651545524
 21
543.4939806606
  0
LINE
  5
3AA
100
AcDbEntity
  8
0
100
AcDbLine
 62
2
  6
CONTINUOUS
 10
738.4651545524
 20
535.4939806606
 11
738.4651545524
 21
529.4939806606
  0
LINE
  5
3AB
100
AcDbEntity
  8
0
100
AcDbLine
 62
2
  6
CONTINUOUS
 10
738.4651545524
 20
529.4939806606
 11
738.4651545524
 21
543.4939806606
  0
INSERT
  5
3AC
100
AcDbEntity
  8
0
100
AcDbBlockReference
 62
2
  6
CONTINUOUS
  2
_FILLED
 10
738.4651545524
 20
551.4939806606
 41
3.5
 42
3.5
 43
3.5
 50
270.0
  0
INSERT
  5
3AD
100
AcDbEntity
  8
0
100
AcDbBlockReference
 62
2
  6
CONTINUOUS
  2
_FILLED
 10
738.4651545524
 20
535.4939806606
 41
3.5
 42
3.5
 43
3.5
 50
90.0
  0
ENDBLK
  5
3AE
100
AcDbEntity
  8
0
  6
BYBLOCK
 62
0
100
AcDbBlockEnd
  0
BLOCK
  5
3AF
100
AcDbEntity
  8
0
100
AcDbBlockBegin
 62
2
  6
CONTINUOUS
  2
*D2
 70
65
 10
0.0
 20
0.0
  3
*D2
  1

  0
MTEXT
  5
3B0
100
AcDbEntity
  8
0
100
AcDbMText
 62
5
  6
CONTINUOUS
  7
STANDARD
 71
2
 72
1
 10
254.7849621013
 20
93.8499851113
 30
0.0
 11
1.0
 21
0.0
 31
0.0
 44
0.9
  1
311.6
 40
3.5
 41
11.25
  0
LINE
  5
3B1
100
AcDbEntity
  8
0
100
AcDbLine
 62
2
  6
CONTINUOUS
 10
98.3578787987
 20
117.4939806606
 11
98.3578787987
 21
87.9749851113
  0
LINE
  5
3B2
100
AcDbEntity
  8
0
100
AcDbLine
 62
2
  6
CONTINUOUS
 10
409.9578787987
 20
137.4939806606
 11
409.9578787987
 21
87.9749851113
  0
LINE
  5
3B3
100
AcDbEntity
  8
0
100
AcDbLine
 62
2
  6
CONTINUOUS
 10
98.3578787987
 20
89.4749851113
 11
254.1578787987
 21
89.4749851113
  0
LINE
  5
3B4
100
AcDbEntity
  8
0
100
AcDbLine
 62
2
  6
CONTINUOUS
 10
409.9578787987
 20
89.4749851113
 11
254.1578787987
 21
89.4749851113
  0
INSERT
  5
3B5
100
AcDbEntity
  8
0
100
AcDbBlockReference
 62
2
  6
CONTINUOUS
  2
_FILLED
 10
98.3578787987
 20
89.4749851113
 41
3.5
 42
3.5
 43
3.5
 50
180.0
  0
INSERT
  5
3B6
100
AcDbEntity
  8
0
100
AcDbBlockReference
 62
2
  6
CONTINUOUS
  2
_FILLED
 10
409.9578787987
 20
89.4749851113
 41
3.5
 42
3.5
 43
3.5
  0
ENDBLK
  5
3B7
100
AcDbEntity
  8
0
  6
BYBLOCK
 62
0
100
AcDbBlockEnd
  0
BLOCK
  5
3B8
100
AcDbEntity
  8
0
100
AcDbBlockBegin
 62
2
  6
CONTINUOUS
  2
*D3
 70
65
 10
0.0
 20
0.0
  3
*D3
  1

  0
MTEXT
  5
3B9
100
AcDbEntity
  8
0
100
AcDbMText
 62
5
  6
CONTINUOUS
  7
STANDARD
 71
2
 72
1
 10
271.1966026706
 20
77.6389560899
 30
0.0
 11
1.0
 21
0.0
 31
0.0
 44
0.9
  1
334.1
 40
3.5
 41
11.75
  0
LINE
  5
3BA
100
AcDbEntity
  8
0
100
AcDbLine
 62
2
  6
CONTINUOUS
 10
432.4578787987
 20
121.9814806606
 11
432.4578787987
 21
71.7639560899
  0
LINE
  5
3BB
100
AcDbEntity
  8
0
100
AcDbLine
 62
2
  6
CONTINUOUS
 10
98.3578787987
 20
117.4939806606
 11
98.3578787987
 21
71.7639560899
  0
LINE
  5
3BC
100
AcDbEntity
  8
0
100
AcDbLine
 62
2
  6
CONTINUOUS
 10
432.4578787987
 20
73.2639560899
 11
265.4078787987
 21
73.2639560899
  0
LINE
  5
3BD
100
AcDbEntity
  8
0
100
AcDbLine
 62
2
  6
CONTINUOUS
 10
98.3578787987
 20
73.2639560899
 11
265.4078787987
 21
73.2639560899
  0
INSERT
  5
3BE
100
AcDbEntity
  8
0
100
AcDbBlockReference
 62
2
  6
CONTINUOUS
  2
_FILLED
 10
432.4578787987
 20
73.2639560899
 41
3.5
 42
3.5
 43
3.5
  0
INSERT
  5
3BF
100
AcDbEntity
  8
0
100
AcDbBlockReference
 62
2
  6
CONTINUOUS
  2
_FILLED
 10
98.3578787987
 20
73.2639560899
 41
3.5
 42
3.5
 43
3.5
 50
180.0
  0
ENDBLK
  5
3C0
100
AcDbEntity
  8
0
  6
BYBLOCK
 62
0
100
AcDbBlockEnd
  0
BLOCK
  5
3C1
100
AcDbEntity
  8
0
100
AcDbBlockBegin
 62
2
  6
CONTINUOUS
  2
*D4
 70
65
 10
0.0
 20
0.0
  3
*D4
  1

  0
MTEXT
  5
3C2
100
AcDbEntity
  8
0
100
AcDbMText
 62
5
  6
CONTINUOUS
  7
STANDARD
 71
2
 72
1
 10
310.2662454787
 20
64.4299694799
 30
0.0
 11
1.0
 21
0.0
 31
0.0
 44
0.9
  1
374.1
 40
3.5
 41
12.0
  0
LINE
  5
3C3
100
AcDbEntity
  8
0
100
AcDbLine
 62
2
  6
CONTINUOUS
 10
472.4578787987
 20
121.9814806606
 11
472.4578787987
 21
58.5549694799
  0
LINE
  5
3C4
100
AcDbEntity
  8
0
100
AcDbLine
 62
2
  6
CONTINUOUS
 10
98.3578787987
 20
117.4939806606
 11
98.3578787987
 21
58.5549694799
  0
LINE
  5
3C5
100
AcDbEntity
  8
0
100
AcDbLine
 62
2
  6
CONTINUOUS
 10
472.4578787987
 20
60.0549694799
 11
285.4078787987
 21
60.0549694799
  0
LINE
  5
3C6
100
AcDbEntity
  8
0
100
AcDbLine
 62
2
  6
CONTINUOUS
 10
98.3578787987
 20
60.0549694799
 11
285.4078787987
 21
60.0549694799
  0
INSERT
  5
3C7
100
AcDbEntity
  8
0
100
AcDbBlockReference
 62
2
  6
CONTINUOUS
  2
_FILLED
 10
472.4578787987
 20
60.0549694799
 41
3.5
 42
3.5
 43
3.5
  0
INSERT
  5
3C8
100
AcDbEntity
  8
0
100
AcDbBlockReference
 62
2
  6
CONTINUOUS
  2
_FILLED
 10
98.3578787987
 20
60.0549694799
 41
3.5
 42
3.5
 43
3.5
 50
180.0
  0
ENDBLK
  5
3C9
100
AcDbEntity
  8
0
  6
BYBLOCK
 62
0
100
AcDbBlockEnd
  0
BLOCK
  5
3CA
100
AcDbEntity
  8
0
100
AcDbBlockBegin
 62
2
  6
CONTINUOUS
  2
*D5
 70
65
 10
0.0
 20
0.0
  3
*D5
  1

  0
MTEXT
  5
3CB
100
AcDbEntity
  8
0
100
AcDbMText
 62
5
  6
CONTINUOUS
  7
STANDARD
 71
2
 72
1
 10
322.8701604816
 20
49.4197574231
 30
0.0
 11
1.0
 21
0.0
 31
0.0
 44
0.9
  1
396.6
 40
3.5
 41
12.75
  0
LINE
  5
3CC
100
AcDbEntity
  8
0
100
AcDbLine
 62
2
  6
CONTINUOUS
 10
494.9578787987
 20
124.2314806606
 11
494.9578787987
 21
43.5447574231
  0
LINE
  5
3CD
100
AcDbEntity
  8
0
100
AcDbLine
 62
2
  6
CONTINUOUS
 10
98.3578787987
 20
117.4939806606
 11
98.3578787987
 21
43.5447574231
  0
LINE
  5
3CE
100
AcDbEntity
  8
0
100
AcDbLine
 62
2
  6
CONTINUOUS
 10
494.9578787987
 20
45.0447574231
 11
296.6578787987
 21
45.0447574231
  0
LINE
  5
3CF
100
AcDbEntity
  8
0
100
AcDbLine
 62
2
  6
CONTINUOUS
 10
98.3578787987
 20
45.0447574231
 11
296.6578787987
 21
45.0447574231
  0
INSERT
  5
3D0
100
AcDbEntity
  8
0
100
AcDbBlockReference
 62
2
  6
CONTINUOUS
  2
_FILLED
 10
494.9578787987
 20
45.0447574231
 41
3.5
 42
3.5
 43
3.5
  0
INSERT
  5
3D1
100
AcDbEntity
  8
0
100
AcDbBlockReference
 62
2
  6
CONTINUOUS
  2
_FILLED
 10
98.3578787987
 20
45.0447574231
 41
3.5
 42
3.5
 43
3.5
 50
180.0
  0
ENDBLK
  5
3D2
100
AcDbEntity
  8
0
  6
BYBLOCK
 62
0
100
AcDbBlockEnd
  0
BLOCK
  5
3D3
100
AcDbEntity
  8
0
100
AcDbBlockBegin
 62
2
  6
CONTINUOUS
  2
*D6
 70
65
 10
0.0
 20
0.0
  3
*D6
  1

  0
MTEXT
  5
3D4
100
AcDbEntity
  8
0
100
AcDbMText
 62
5
  6
CONTINUOUS
  7
STANDARD
 71
2
 72
1
 10
785.9453875203
 20
325.3327008796
 30
0.0
 11
0.0
 21
1.0
 31
0.0
 44
0.9
  1
418
 40
3.5
 41
7.5
  0
LINE
  5
3D5
100
AcDbEntity
  8
0
100
AcDbLine
 62
2
  6
CONTINUOUS
 10
620.1148648667
 20
535.4939806606
 11
791.8203875203
 21
535.4939806606
  0
LINE
  5
3D6
100
AcDbEntity
  8
0
100
AcDbLine
 62
2
  6
CONTINUOUS
 10
629.0031704776
 20
117.4939806606
 11
791.8203875203
 21
117.4939806606
  0
LINE
  5
3D7
100
AcDbEntity
  8
0
100
AcDbLine
 62
2
  6
CONTINUOUS
 10
790.3203875203
 20
535.4939806606
 11
790.3203875203
 21
326.4939806606
  0
LINE
  5
3D8
100
AcDbEntity
  8
0
100
AcDbLine
 62
2
  6
CONTINUOUS
 10
790.3203875203
 20
117.4939806606
 11
790.3203875203
 21
326.4939806606
  0
INSERT
  5
3D9
100
AcDbEntity
  8
0
100
AcDbBlockReference
 62
2
  6
CONTINUOUS
  2
_FILLED
 10
790.3203875203
 20
535.4939806606
 41
3.5
 42
3.5
 43
3.5
 50
90.0
  0
INSERT
  5
3DA
100
AcDbEntity
  8
0
100
AcDbBlockReference
 62
2
  6
CONTINUOUS
  2
_FILLED
 10
790.3203875203
 20
117.4939806606
 41
3.5
 42
3.5
 43
3.5
 50
270.0
  0
ENDBLK
  5
3DB
100
AcDbEntity
  8
0
  6
BYBLOCK
 62
0
100
AcDbBlockEnd
  0
BLOCK
  5
3DC
100
AcDbEntity
  8
0
100
AcDbBlockBegin
 62
2
  6
CONTINUOUS
  2
*D7
 70
65
 10
0.0
 20
0.0
  3
*D7
  1

  0
MTEXT
  5
3DD
100
AcDbEntity
  8
0
100
AcDbMText
 62
5
  6
CONTINUOUS
  7
STANDARD
 71
2
 72
1
 10
764.8418672864
 20
325.3269605148
 30
0.0
 11
0.0
 21
1.0
 31
0.0
 44
0.9
  1
388
 40
3.5
 41
8.0
  0
LINE
  5
3DE
100
AcDbEntity
  8
0
100
AcDbLine
 62
2
  6
CONTINUOUS
 10
505.4703787987
 20
132.4939806606
 11
770.7168672864
 21
132.4939806606
  0
LINE
  5
3DF
100
AcDbEntity
  8
0
100
AcDbLine
 62
2
  6
CONTINUOUS
 10
505.4703787987
 20
520.4939806606
 11
770.7168672864
 21
520.4939806606
  0
LINE
  5
3E0
100
AcDbEntity
  8
0
100
AcDbLine
 62
2
  6
CONTINUOUS
 10
769.2168672864
 20
132.4939806606
 11
769.2168672864
 21
326.4939806606
  0
LINE
  5
3E1
100
AcDbEntity
  8
0
100
AcDbLine
 62
2
  6
CONTINUOUS
 10
769.2168672864
 20
520.4939806606
 11
769.2168672864
 21
326.4939806606
  0
INSERT
  5
3E2
100
AcDbEntity
  8
0
100
AcDbBlockReference
 62
2
  6
CONTINUOUS
  2
_FILLED
 10
769.2168672864
 20
132.4939806606
 41
3.5
 42
3.5
 43
3.5
 50
270.0
  0
INSERT
  5
3E3
100
AcDbEntity
  8
0
100
AcDbBlockReference
 62
2
  6
CONTINUOUS
  2
_FILLED
 10
769.2168672864
 20
520.4939806606
 41
3.5
 42
3.5
 43
3.5
 50
90.0
  0
ENDBLK
  5
3E4
100
AcDbEntity
  8
0
  6
BYBLOCK
 62
0
100
AcDbBlockEnd
  0
BLOCK
  5
3E5
100
AcDbEntity
  8
0
100
AcDbBlockBegin
 62
2
  6
CONTINUOUS
  2
*D8
 70
65
 10
0.0
 20
0.0
  3
*D8
  1

  0
MTEXT
  5
3E6
100
AcDbEntity
  8
0
100
AcDbMText
 62
5
  6
CONTINUOUS
  7
STANDARD
 71
2
 72
1
 10
741.819845213
 20
327.3325289388
 30
0.0
 11
0.0
 21
1.0
 31
0.0
 44
0.9
  1
200
 40
3.5
 41
8.25
  0
LINE
  5
3E7
100
AcDbEntity
  8
0
100
AcDbLine
 62
2
  6
CONTINUOUS
 10
596.9703787987
 20
426.4939806606
 11
747.694845213
 21
426.4939806606
  0
LINE
  5
3E8
100
AcDbEntity
  8
0
100
AcDbLine
 62
2
  6
CONTINUOUS
 10
596.9703787987
 20
226.4939806606
 11
747.694845213
 21
226.4939806606
  0
LINE
  5
3E9
100
AcDbEntity
  8
0
100
AcDbLine
 62
2
  6
CONTINUOUS
 10
746.194845213
 20
426.4939806606
 11
746.194845213
 21
326.4939806606
  0
LINE
  5
3EA
100
AcDbEntity
  8
0
100
AcDbLine
 62
2
  6
CONTINUOUS
 10
746.194845213
 20
226.4939806606
 11
746.194845213
 21
326.4939806606
  0
INSERT
  5
3EB
100
AcDbEntity
  8
0
100
AcDbBlockReference
 62
2
  6
CONTINUOUS
  2
_FILLED
 10
746.194845213
 20
426.4939806606
 41
3.5
 42
3.5
 43
3.5
 50
90.0
  0
INSERT
  5
3EC
100
AcDbEntity
  8
0
100
AcDbBlockReference
 62
2
  6
CONTINUOUS
  2
_FILLED
 10
746.194845213
 20
226.4939806606
 41
3.5
 42
3.5
 43
3.5
 50
270.0
  0
ENDBLK
  5
3ED
100
AcDbEntity
  8
0
  6
BYBLOCK
 62
0
100
AcDbBlockEnd
  0
BLOCK
  5
3EE
100
AcDbEntity
  8
0
100
AcDbBlockBegin
 62
2
  6
CONTINUOUS
  2
*D9
 70
65
 10
0.0
 20
0.0
  3
*D9
  1

  0
MTEXT
  5
3EF
100
AcDbEntity
  8
0
100
AcDbMText
 62
5
  6
CONTINUOUS
  7
STANDARD
 71
2
 72
1
 10
324.6504920556
 20
33.9106981172
 30
0.0
 11
1.0
 21
0.0
 31
0.0
 44
0.9
  1
488.1
 40
3.5
 41
12.25
  0
LINE
  5
3F0
100
AcDbEntity
  8
0
100
AcDbLine
 62
2
  6
CONTINUOUS
 10
98.3578787987
 20
117.4939806606
 11
98.3578787987
 21
28.0356981172
  0
LINE
  5
3F1
100
AcDbEntity
  8
0
100
AcDbLine
 62
2
  6
CONTINUOUS
 10
586.4578787987
 20
434.6822054002
 11
586.4578787987
 21
28.0356981172
  0
LINE
  5
3F2
100
AcDbEntity
  8
0
100
AcDbLine
 62
2
  6
CONTINUOUS
 10
98.3578787987
 20
29.5356981172
 11
342.4078787987
 21
29.5356981172
  0
LINE
  5
3F3
100
AcDbEntity
  8
0
100
AcDbLine
 62
2
  6
CONTINUOUS
 10
586.4578787987
 20
29.5356981172
 11
342.4078787987
 21
29.5356981172
  0
INSERT
  5
3F4
100
AcDbEntity
  8
0
100
AcDbBlockReference
 62
2
  6
CONTINUOUS
  2
_FILLED
 10
98.3578787987
 20
29.5356981172
 41
3.5
 42
3.5
 43
3.5
 50
180.0
  0
INSERT
  5
3F5
100
AcDbEntity
  8
0
100
AcDbBlockReference
 62
2
  6
CONTINUOUS
  2
_FILLED
 10
586.4578787987
 20
29.5356981172
 41
3.5
 42
3.5
 43
3.5
  0
ENDBLK
  5
3F6
100
AcDbEntity
  8
0
  6
BYBLOCK
 62
0
100
AcDbBlockEnd
  0
BLOCK
  5
3F7
100
AcDbEntity
  8
0
100
AcDbBlockBegin
 62
2
  6
CONTINUOUS
  2
*D10
 70
65
 10
0.0
 20
0.0
  3
*D10
  1

  0
MTEXT
  5
3F8
100
AcDbEntity
  8
0
100
AcDbMText
 62
5
  6
CONTINUOUS
  7
STANDARD
 71
2
 72
1
 10
753.9806031437
 20
324.9241123749
 30
0.0
 11
0.0
 21
1.0
 31
0.0
 44
0.9
  1
375
 40
3.5
 41
7.75
  0
LINE
  5
3F9
100
AcDbEntity
  8
0
100
AcDbLine
 62
2
  6
CONTINUOUS
 10
584.4578787987
 20
513.9939806606
 11
759.8556031437
 21
513.9939806606
  0
LINE
  5
3FA
100
AcDbEntity
  8
0
100
AcDbLine
 62
2
  6
CONTINUOUS
 10
584.4578787987
 20
138.9939806606
 11
759.8556031437
 21
138.9939806606
  0
LINE
  5
3FB
100
AcDbEntity
  8
0
100
AcDbLine
 62
2
  6
CONTINUOUS
 10
758.3556031437
 20
513.9939806606
 11
758.3556031437
 21
326.4939806606
  0
LINE
  5
3FC
100
AcDbEntity
  8
0
100
AcDbLine
 62
2
  6
CONTINUOUS
 10
758.3556031437
 20
138.9939806606
 11
758.3556031437
 21
326.4939806606
  0
INSERT
  5
3FD
100
AcDbEntity
  8
0
100
AcDbBlockReference
 62
2
  6
CONTINUOUS
  2
_FILLED
 10
758.3556031437
 20
513.9939806606
 41
3.5
 42
3.5
 43
3.5
 50
90.0
  0
INSERT
  5
3FE
100
AcDbEntity
  8
0
100
AcDbBlockReference
 62
2
  6
CONTINUOUS
  2
_FILLED
 10
758.3556031437
 20
138.9939806606
 41
3.5
 42
3.5
 43
3.5
 50
270.0
  0
ENDBLK
  5
3FF
100
AcDbEntity
  8
0
  6
BYBLOCK
 62
0
100
AcDbBlockEnd
  0
BLOCK
  5
400
100
AcDbEntity
  8
0
100
AcDbBlockBegin
  2
*T1
 70
1
 10
0.0
 20
0.0
  3
*T1
  1

  0
LINE
  5
401
100
AcDbEntity
  8
0
100
AcDbLine
 62
2
  6
CONTINUOUS
 10
33.8
 20
0.0
 11
0.0
 21
0.0
  0
LINE
  5
402
100
AcDbEntity
  8
0
100
AcDbLine
 62
2
  6
CONTINUOUS
 10
33.8
 20
0.0
 11
33.8
 21
-12.75
  0
LINE
  5
403
100
AcDbEntity
  8
0
100
AcDbLine
 62
2
  6
CONTINUOUS
 10
33.8
 20
-12.75
 11
0.0
 21
-12.75
  0
LINE
  5
404
100
AcDbEntity
  8
0
100
AcDbLine
 62
2
  6
CONTINUOUS
 10
0.0
 20
0.0
 11
0.0
 21
-12.75
  0
MTEXT
  5
405
100
AcDbEntity
  8
0
100
AcDbMText
 62
5
  6
CONTINUOUS
  7
STANDARD
 71
1
 72
1
 10
16.3
 20
-1.125
 30
0.0
 11
1.0
 21
0.0
 31
0.0
 44
0.9
  1
Moos
 40
2.0
 41
6.0
  0
MTEXT
  5
406
100
AcDbEntity
  8
0
100
AcDbMText
 62
5
  6
CONTINUOUS
  7
STANDARD
 71
1
 72
1
 10
0.7
 20
-1.125
 30
0.0
 11
1.0
 21
0.0
 31
0.0
 44
0.9
  1
05.02.01
 40
2.0
 41
11.1428571429
  0
ENDBLK
  5
407
100
AcDbEntity
  8
0
100
AcDbBlockEnd
  0
BLOCK
  5
408
100
AcDbEntity
  8
0
100
AcDbBlockBegin
  2
*T2
 70
1
 10
0.0
 20
0.0
  3
*T2
  1

  0
LINE
  5
409
100
AcDbEntity
  8
0
100
AcDbLine
 62
2
  6
CONTINUOUS
 10
88.4
 20
0.0
 11
0.0
 21
0.0
  0
LINE
  5
40A
100
AcDbEntity
  8
0
100
AcDbLine
 62
2
  6
CONTINUOUS
 10
88.4
 20
0.0
 11
88.4
 21
27.625
  0
LINE
  5
40B
100
AcDbEntity
  8
0
100
AcDbLine
 62
2
  6
CONTINUOUS
 10
88.4
 20
27.625
 11
0.0
 21
27.625
  0
LINE
  5
40C
100
AcDbEntity
  8
0
100
AcDbLine
 62
2
  6
CONTINUOUS
 10
0.0
 20
0.0
 11
0.0
 21
27.625
  0
ENDBLK
  5
40D
100
AcDbEntity
  8
0
100
AcDbBlockEnd
  0
BLOCK
  5
40E
100
AcDbEntity
  8
0
100
AcDbBlockBegin
  2
*T3
 70
1
 10
0.0
 20
0.0
  3
*T3
  1

  0
LINE
  5
40F
100
AcDbEntity
  8
0
100
AcDbLine
 62
2
  6
CONTINUOUS
 10
88.4
 20
0.0
 11
0.0
 21
0.0
  0
LINE
  5
410
100
AcDbEntity
  8
0
100
AcDbLine
 62
2
  6
CONTINUOUS
 10
88.4
 20
0.0
 11
88.4
 21
6.375
  0
LINE
  5
411
100
AcDbEntity
  8
0
100
AcDbLine
 62
2
  6
CONTINUOUS
 10
88.4
 20
6.375
 11
0.0
 21
6.375
  0
LINE
  5
412
100
AcDbEntity
  8
0
100
AcDbLine
 62
2
  6
CONTINUOUS
 10
0.0
 20
0.0
 11
0.0
 21
6.375
  0
MTEXT
  5
413
100
AcDbEntity
  8
0
100
AcDbMText
 62
5
  6
CONTINUOUS
  7
STANDARD
 71
1
 72
1
 10
63.805
 20
3.75
 30
0.0
 11
1.0
 21
0.0
 31
0.0
 44
0.9
  1
0.000 kg
 40
1.8
 41
10.6714285714
  0
MTEXT
  5
414
100
AcDbEntity
  8
0
100
AcDbMText
 62
5
  6
CONTINUOUS
  7
STANDARD
 71
1
 72
1
 10
11.905
 20
3.75
 30
0.0
 11
1.0
 21
0.0
 31
0.0
 44
0.9
  1
1:1
 40
1.8
 41
2.7
  0
ENDBLK
  5
415
100
AcDbEntity
  8
0
100
AcDbBlockEnd
  0
BLOCK
  5
416
100
AcDbEntity
  8
0
100
AcDbBlockBegin
  2
*T4
 70
1
 10
0.0
 20
0.0
  3
*T4
  1

  0
LINE
  5
417
100
AcDbEntity
  8
0
100
AcDbLine
 62
2
  6
CONTINUOUS
 10
44.2
 20
0.0
 11
0.0
 21
0.0
  0
LINE
  5
418
100
AcDbEntity
  8
0
100
AcDbLine
 62
2
  6
CONTINUOUS
 10
44.2
 20
0.0
 11
44.2
 21
17.0
  0
LINE
  5
419
100
AcDbEntity
  8
0
100
AcDbLine
 62
2
  6
CONTINUOUS
 10
44.2
 20
17.0
 11
0.0
 21
17.0
  0
LINE
  5
41A
100
AcDbEntity
  8
0
100
AcDbLine
 62
2
  6
CONTINUOUS
 10
0.0
 20
0.0
 11
0.0
 21
17.0
  0
ENDBLK
  5
41B
100
AcDbEntity
  8
0
100
AcDbBlockEnd
  0
BLOCK
  5
41C
100
AcDbEntity
  8
0
100
AcDbBlockBegin
  2
*T5
 70
1
 10
0.0
 20
0.0
  3
*T5
  1

  0
LINE
  5
41D
100
AcDbEntity
  8
0
100
AcDbLine
 62
2
  6
CONTINUOUS
 10
0.0
 20
0.0
 11
54.6
 21
0.0
  0
LINE
  5
41E
100
AcDbEntity
  8
0
100
AcDbLine
 62
2
  6
CONTINUOUS
 10
0.0
 20
0.0
 11
0.0
 21
34.0
  0
LINE
  5
41F
100
AcDbEntity
  8
0
100
AcDbLine
 62
2
  6
CONTINUOUS
 10
0.0
 20
4.25
 11
54.6
 21
4.25
  0
LINE
  5
420
100
AcDbEntity
  8
0
100
AcDbLine
 62
2
  6
CONTINUOUS
 10
0.0
 20
8.5
 11
54.6
 21
8.5
  0
LINE
  5
421
100
AcDbEntity
  8
0
100
AcDbLine
 62
2
  6
CONTINUOUS
 10
0.0
 20
12.75
 11
54.6
 21
12.75
  0
LINE
  5
422
100
AcDbEntity
  8
0
100
AcDbLine
 62
2
  6
CONTINUOUS
 10
0.0
 20
17.0
 11
54.6
 21
17.0
  0
LINE
  5
423
100
AcDbEntity
  8
0
100
AcDbLine
 62
2
  6
CONTINUOUS
 10
0.0
 20
21.25
 11
54.6
 21
21.25
  0
LINE
  5
424
100
AcDbEntity
  8
0
100
AcDbLine
 62
2
  6
CONTINUOUS
 10
0.0
 20
25.5
 11
54.6
 21
25.5
  0
LINE
  5
425
100
AcDbEntity
  8
0
100
AcDbLine
 62
2
  6
CONTINUOUS
 10
0.0
 20
29.75
 11
54.6
 21
29.75
  0
LINE
  5
426
100
AcDbEntity
  8
0
100
AcDbLine
 62
2
  6
CONTINUOUS
 10
0.0
 20
34.0
 11
54.6
 21
34.0
  0
LINE
  5
427
100
AcDbEntity
  8
0
100
AcDbLine
 62
2
  6
CONTINUOUS
 10
7.8
 20
0.0
 11
7.8
 21
34.0
  0
LINE
  5
428
100
AcDbEntity
  8
0
100
AcDbLine
 62
2
  6
CONTINUOUS
 10
31.2
 20
0.0
 11
31.2
 21
34.0
  0
LINE
  5
429
100
AcDbEntity
  8
0
100
AcDbLine
 62
2
  6
CONTINUOUS
 10
44.2
 20
0.0
 11
44.2
 21
34.0
  0
LINE
  5
42A
100
AcDbEntity
  8
0
100
AcDbLine
 62
2
  6
CONTINUOUS
 10
54.6
 20
0.0
 11
54.6
 21
34.0
  0
ENDBLK
  5
42B
100
AcDbEntity
  8
0
100
AcDbBlockEnd
  0
BLOCK
  5
42C
100
AcDbEntity
  8
0
100
AcDbBlockBegin
  2
*T6
 70
1
 10
0.0
 20
0.0
  3
*T6
  1

  0
LINE
  5
42D
100
AcDbEntity
  8
0
100
AcDbLine
 62
2
  6
CONTINUOUS
 10
54.6
 20
0.0
 11
0.0
 21
0.0
  0
LINE
  5
42E
100
AcDbEntity
  8
0
100
AcDbLine
 62
2
  6
CONTINUOUS
 10
54.6
 20
0.0
 11
54.6
 21
10.625
  0
LINE
  5
42F
100
AcDbEntity
  8
0
100
AcDbLine
 62
2
  6
CONTINUOUS
 10
54.6
 20
10.625
 11
0.0
 21
10.625
  0
LINE
  5
430
100
AcDbEntity
  8
0
100
AcDbLine
 62
2
  6
CONTINUOUS
 10
0.0
 20
0.0
 11
0.0
 21
10.625
  0
MTEXT
  5
431
100
AcDbEntity
  8
0
100
AcDbMText
 62
5
  6
CONTINUOUS
  7
STANDARD
 71
1
 72
1
 10
0.875
 20
3.75
 30
0.0
 11
1.0
 21
0.0
 31
0.0
 44
0.9
  1
3614-45
 40
2.5
 41
12.6785714286
  0
ENDBLK
  5
432
100
AcDbEntity
  8
0
100
AcDbBlockEnd
  0
BLOCK
  5
433
100
AcDbEntity
  8
0
100
AcDbBlockBegin
  2
*T7
 70
1
 10
0.0
 20
0.0
  3
*T7
  1

  0
LINE
  5
434
100
AcDbEntity
  8
0
100
AcDbLine
 62
2
  6
CONTINUOUS
 10
75.4
 20
0.0
 11
0.0
 21
0.0
  0
LINE
  5
435
100
AcDbEntity
  8
0
100
AcDbLine
 62
2
  6
CONTINUOUS
 10
75.4
 20
0.0
 11
75.4
 21
12.75
  0
LINE
  5
436
100
AcDbEntity
  8
0
100
AcDbLine
 62
2
  6
CONTINUOUS
 10
75.4
 20
12.75
 11
0.0
 21
12.75
  0
LINE
  5
437
100
AcDbEntity
  8
0
100
AcDbLine
 62
2
  6
CONTINUOUS
 10
0.0
 20
0.0
 11
0.0
 21
12.75
  0
MTEXT
  5
438
100
AcDbEntity
  8
0
100
AcDbMText
 62
5
  6
CONTINUOUS
  7
STANDARD
 71
1
 72
1
 10
1.225
 20
5.25
 30
0.0
 11
1.0
 21
0.0
 31
0.0
 44
0.9
  1
3614-45
 40
3.5
 41
17.75
  0
ENDBLK
  5
439
100
AcDbEntity
  8
0
100
AcDbBlockEnd
  0
BLOCK
  5
43A
100
AcDbEntity
  8
0
100
AcDbBlockBegin
  2
*T8
 70
1
 10
0.0
 20
0.0
  3
*T8
  1

  0
LINE
  5
43B
100
AcDbEntity
  8
0
100
AcDbLine
 62
2
  6
CONTINUOUS
 10
13.0
 20
0.0
 11
0.0
 21
0.0
  0
LINE
  5
43C
100
AcDbEntity
  8
0
100
AcDbLine
 62
2
  6
CONTINUOUS
 10
13.0
 20
0.0
 11
13.0
 21
12.75
  0
LINE
  5
43D
100
AcDbEntity
  8
0
100
AcDbLine
 62
2
  6
CONTINUOUS
 10
13.0
 20
12.75
 11
0.0
 21
12.75
  0
LINE
  5
43E
100
AcDbEntity
  8
0
100
AcDbLine
 62
2
  6
CONTINUOUS
 10
0.0
 20
0.0
 11
0.0
 21
12.75
  0
MTEXT
  5
43F
100
AcDbEntity
  8
0
100
AcDbMText
 62
5
  6
CONTINUOUS
  7
STANDARD
 71
1
 72
1
 10
0.875
 20
3.375
 30
0.0
 11
1.0
 21
0.0
 31
0.0
 44
0.9
  1
8
 40
2.5
 41
1.9642857143
  0
MTEXT
  5
440
100
AcDbEntity
  8
0
100
AcDbMText
 62
5
  6
CONTINUOUS
  7
STANDARD
 71
1
 72
1
 10
0.875
 20
7.75
 30
0.0
 11
1.0
 21
0.0
 31
0.0
 44
0.9
  1
1
 40
2.5
 41
1.4285714286
  0
ENDBLK
  5
441
100
AcDbEntity
  8
0
100
AcDbBlockEnd
  0
BLOCK
  5
442
100
AcDbEntity
  8
0
100
AcDbBlockBegin
  2
*T9
 70
1
 10
0.0
 20
0.0
  3
*T9
  1

  0
LINE
  5
443
100
AcDbEntity
  8
0
100
AcDbLine
 62
2
  6
CONTINUOUS
 10
0.0
 20
0.0
 11
187.2
 21
0.0
  0
LINE
  5
444
100
AcDbEntity
  8
0
100
AcDbLine
 62
2
  6
CONTINUOUS
 10
0.0
 20
0.0
 11
0.0
 21
8.5
  0
LINE
  5
445
100
AcDbEntity
  8
0
100
AcDbLine
 62
2
  6
CONTINUOUS
 10
0.0
 20
4.25
 11
187.2
 21
4.25
  0
LINE
  5
446
100
AcDbEntity
  8
0
100
AcDbLine
 62
2
  6
CONTINUOUS
 10
0.0
 20
8.5
 11
187.2
 21
8.5
  0
LINE
  5
447
100
AcDbEntity
  8
0
100
AcDbLine
 62
2
  6
CONTINUOUS
 10
7.8
 20
0.0
 11
7.8
 21
8.5
  0
LINE
  5
448
100
AcDbEntity
  8
0
100
AcDbLine
 62
2
  6
CONTINUOUS
 10
20.8
 20
0.0
 11
20.8
 21
8.5
  0
LINE
  5
449
100
AcDbEntity
  8
0
100
AcDbLine
 62
2
  6
CONTINUOUS
 10
33.8
 20
0.0
 11
33.8
 21
8.5
  0
LINE
  5
44A
100
AcDbEntity
  8
0
100
AcDbLine
 62
2
  6
CONTINUOUS
 10
46.8
 20
0.0
 11
46.8
 21
8.5
  0
LINE
  5
44B
100
AcDbEntity
  8
0
100
AcDbLine
 62
2
  6
CONTINUOUS
 10
54.6
 20
0.0
 11
54.6
 21
8.5
  0
LINE
  5
44C
100
AcDbEntity
  8
0
100
AcDbLine
 62
2
  6
CONTINUOUS
 10
187.2
 20
0.0
 11
187.2
 21
8.5
  0
ENDBLK
  5
44D
100
AcDbEntity
  8
0
100
AcDbBlockEnd
  0
BLOCK
  5
44E
100
AcDbEntity
  8
0
100
AcDbBlockBegin
  2
*T10
 70
1
 10
0.0
 20
0.0
  3
*T10
  1

  0
LINE
  5
44F
100
AcDbEntity
  8
0
100
AcDbLine
 62
2
  6
CONTINUOUS
 10
0.0
 20
0.0
 11
132.6
 21
0.0
  0
LINE
  5
450
100
AcDbEntity
  8
0
100
AcDbLine
 62
2
  6
CONTINUOUS
 10
0.0
 20
0.0
 11
0.0
 21
4.25
  0
LINE
  5
451
100
AcDbEntity
  8
0
100
AcDbLine
 62
2
  6
CONTINUOUS
 10
0.0
 20
4.25
 11
132.6
 21
4.25
  0
LINE
  5
452
100
AcDbEntity
  8
0
100
AcDbLine
 62
2
  6
CONTINUOUS
 10
132.6
 20
0.0
 11
132.6
 21
4.25
  0
ENDBLK
  5
453
100
AcDbEntity
  8
0
100
AcDbBlockEnd
  0
BLOCK
  5
454
100
AcDbEntity
  8
0
100
AcDbBlockBegin
  2
*T11
 70
1
 10
0.0
 20
0.0
  3
*T11
  1

  0
LINE
  5
455
100
AcDbEntity
  8
0
100
AcDbLine
 62
2
  6
CONTINUOUS
 10
54.6
 20
0.0
 11
0.0
 21
0.0
  0
LINE
  5
456
100
AcDbEntity
  8
0
100
AcDbLine
 62
2
  6
CONTINUOUS
 10
54.6
 20
0.0
 11
54.6
 21
6.4
  0
LINE
  5
457
100
AcDbEntity
  8
0
100
AcDbLine
 62
2
  6
CONTINUOUS
 10
54.6
 20
6.4
 11
0.0
 21
6.4
  0
LINE
  5
458
100
AcDbEntity
  8
0
100
AcDbLine
 62
2
  6
CONTINUOUS
 10
0.0
 20
0.0
 11
0.0
 21
6.4
  0
MTEXT
  5
459
100
AcDbEntity
  8
0
100
AcDbMText
 62
5
  6
CONTINUOUS
  7
STANDARD
 71
2
 72
1
 10
40.35
 20
4.45
 30
0.0
 11
1.0
 21
0.0
 31
0.0
 44
0.9
  1
Einbautechnik
 40
2.5
 41
21.7261904762
  0
ENDBLK
  5
45A
100
AcDbEntity
  8
0
100
AcDbBlockEnd
  0
BLOCK
  5
45B
100
AcDbEntity
  8
0
100
AcDbBlockBegin
  2
*T12
 70
1
 10
0.0
 20
0.0
  3
*T12
  1

  0
LINE
  5
45C
100
AcDbEntity
  8
0
100
AcDbLine
 62
2
  6
CONTINUOUS
 10
0.0
 20
0.0
 11
88.4
 21
0.0
  0
LINE
  5
45D
100
AcDbEntity
  8
0
100
AcDbLine
 62
2
  6
CONTINUOUS
 10
0.0
 20
0.0
 11
0.0
 21
-27.6
  0
LINE
  5
45E
100
AcDbEntity
  8
0
100
AcDbLine
 62
2
  6
CONTINUOUS
 10
0.0
 20
-10.6
 11
88.4
 21
-10.6
  0
LINE
  5
45F
100
AcDbEntity
  8
0
100
AcDbLine
 62
2
  6
CONTINUOUS
 10
0.0
 20
-27.6
 11
88.4
 21
-27.6
  0
LINE
  5
460
100
AcDbEntity
  8
0
100
AcDbLine
 62
2
  6
CONTINUOUS
 10
88.4
 20
0.0
 11
88.4
 21
-27.6
  0
MTEXT
  5
461
100
AcDbEntity
  8
0
100
AcDbMText
 62
5
  6
CONTINUOUS
  7
STANDARD
 71
1
 72
1
 10
0.0625
 20
-20.365625
 30
0.0
 11
1.0
 21
0.0
 31
0.0
 44
0.9
  1
     \H3.5;EURO-CARGO 45
 40
0.15625
 41
36.0305059524
  0
ENDBLK
  5
462
100
AcDbEntity
  8
0
100
AcDbBlockEnd
  0
ENDSEC
  0
SECTION
  2
ENTITIES
  0
LINE
  5
463
100
AcDbEntity
  8
0
100
AcDbLine
 62
2
  6
CONTINUOUS
 10
-0.0
 20
0.0
 11
841.0
 21
0.0
  0
LINE
  5
464
100
AcDbEntity
  8
0
100
AcDbLine
 62
2
  6
CONTINUOUS
 10
841.0
 20
0.0
 11
841.0
 21
594.0
  0
LINE
  5
465
100
AcDbEntity
  8
0
100
AcDbLine
 62
2
  6
CONTINUOUS
 10
841.0
 20
594.0
 11
-0.0
 21
594.0
  0
LINE
  5
466
100
AcDbEntity
  8
0
100
AcDbLine
 62
2
  6
CONTINUOUS
 10
-0.0
 20
594.0
 11
-0.0
 21
0.0
  0
LINE
  5
467
100
AcDbEntity
  8
0
100
AcDbLine
 62
2
  6
CONTINUOUS
 10
271.0
 20
0.0
 11
271.0
 21
10.0
  0
LINE
  5
468
100
AcDbEntity
  8
0
100
AcDbLine
 62
2
  6
CONTINUOUS
 10
461.0
 20
0.0
 11
461.0
 21
10.0
  0
LINE
  5
469
100
AcDbEntity
  8
0
100
AcDbLine
 62
2
  6
CONTINUOUS
 10
651.0
 20
0.0
 11
651.0
 21
5.0
  0
LINE
  5
46A
100
AcDbEntity
  8
0
100
AcDbLine
 62
2
  6
CONTINUOUS
 10
271.0
 20
584.0
 11
271.0
 21
594.0
  0
LINE
  5
46B
100
AcDbEntity
  8
0
100
AcDbLine
 62
2
  6
CONTINUOUS
 10
461.0
 20
584.0
 11
461.0
 21
594.0
  0
LINE
  5
46C
100
AcDbEntity
  8
0
100
AcDbLine
 62
2
  6
CONTINUOUS
 10
651.0
 20
584.0
 11
651.0
 21
594.0
  0
LINE
  5
46D
100
AcDbEntity
  8
0
100
AcDbLine
 62
2
  6
CONTINUOUS
 10
-0.0
 20
297.0
 11
10.0
 21
297.0
  0
LINE
  5
46E
100
AcDbEntity
  8
0
100
AcDbLine
 62
2
  6
CONTINUOUS
 10
831.0
 20
297.0
 11
841.0
 21
297.0
  0
LINE
  5
46F
100
AcDbEntity
  8
0
100
AcDbLine
 62
2
  6
CONTINUOUS
 10
-0.0
 20
148.5
 11
20.0
 21
148.5
  0
LINE
  5
470
100
AcDbEntity
  8
0
100
AcDbLine
 62
7
  6
CONTINUOUS
 10
20.0
 20
5.0
 11
836.01001
 21
5.0
  0
LINE
  5
471
100
AcDbEntity
  8
0
100
AcDbLine
 62
7
  6
CONTINUOUS
 10
836.01001
 20
5.0
 11
836.01001
 21
589.0
  0
LINE
  5
472
100
AcDbEntity
  8
0
100
AcDbLine
 62
7
  6
CONTINUOUS
 10
836.01001
 20
589.0
 11
20.0
 21
589.0
  0
LINE
  5
473
100
AcDbEntity
  8
0
100
AcDbLine
 62
7
  6
CONTINUOUS
 10
20.0
 20
589.0
 11
20.0
 21
5.0
  0
LINE
  5
474
100
AcDbEntity
  8
0
100
AcDbLine
 62
7
  6
CONTINUOUS
 10
747.6099798797
 20
53.8750692222
 11
748.7160849115
 21
53.8750692222
  0
LINE
  5
475
100
AcDbEntity
  8
0
100
AcDbLine
 62
7
  6
CONTINUOUS
 10
747.6099798797
 20
53.8750692222
 11
747.6099798797
 21
53.2061051067
  0
INSERT
  5
476
100
AcDbEntity
  8
0
100
AcDbBlockReference
 62
2
  6
CONTINUOUS
  2
HAILOKOPF_BL0
 10
742.41001
 20
39.0
  0
ELLIPSE
  5
477
100
AcDbEntity
  8
0
100
AcDbEllipse
 62
7
  6
CONTINUOUS
 10
524.4578787987
 20
145.8939806606
 30
0.0
 11
0.0
 21
3.0
 31
0.0
 40
1.0
 41
-2.9741445744
 42
-2.617993878
  0
LINE
  5
478
100
AcDbEntity
  8
0
100
AcDbLine
 62
7
  6
CONTINUOUS
 10
543.4578787987
 20
133.1939806606
 11
541.9578787987
 21
133.1939806606
  0
LINE
  5
479
100
AcDbEntity
  8
0
100
AcDbLine
 62
7
  6
CONTINUOUS
 10
541.9578787987
 20
133.1939806606
 11
541.9578787987
 21
138.6939806606
  0
LINE
  5
47A
100
AcDbEntity
  8
0
100
AcDbLine
 62
7
  6
CONTINUOUS
 10
541.9578787987
 20
138.6939806606
 11
520.9578787987
 21
138.6939806606
  0
LINE
  5
47B
100
AcDbEntity
  8
0
100
AcDbLine
 62
7
  6
CONTINUOUS
 10
520.9578787987
 20
138.6939806606
 11
520.9578787987
 21
133.1939806606
  0
LINE
  5
47C
100
AcDbEntity
  8
0
100
AcDbLine
 62
7
  6
CONTINUOUS
 10
520.9578787987
 20
133.1939806606
 11
519.4578787987
 21
133.1939806606
  0
LINE
  5
47D
100
AcDbEntity
  8
0
100
AcDbLine
 62
7
  6
CONTINUOUS
 10
519.4578787987
 20
133.1939806606
 11
519.4578787987
 21
140.1939806606
  0
LINE
  5
47E
100
AcDbEntity
  8
0
100
AcDbLine
 62
7
  6
CONTINUOUS
 10
519.4578787987
 20
140.1939806606
 11
543.4578787987
 21
140.1939806606
  0
LINE
  5
47F
100
AcDbEntity
  8
0
100
AcDbLine
 62
7
  6
CONTINUOUS
 10
543.4578787987
 20
140.1939806606
 11
543.4578787987
 21
133.1939806606
  0
LINE
  5
480
100
AcDbEntity
  8
0
100
AcDbLine
 62
7
  6
CONTINUOUS
 10
527.4578787987
 20
144.161929853
 11
525.9578787987
 21
143.2959044492
  0
LINE
  5
481
100
AcDbEntity
  8
0
100
AcDbLine
 62
7
  6
CONTINUOUS
 10
535.4578787987
 20
144.161929853
 11
527.4578787987
 21
144.161929853
  0
LINE
  5
482
100
AcDbEntity
  8
0
100
AcDbLine
 62
7
  6
CONTINUOUS
 10
536.7078787987
 20
143.4402420165
 11
536.5828787987
 21
143.5124108002
  0
LINE
  5
483
100
AcDbEntity
  8
0
100
AcDbLine
 62
7
  6
CONTINUOUS
 10
536.5828787987
 20
143.5124108002
 11
535.9887476445
 21
143.855432582
  0
LINE
  5
484
100
AcDbEntity
  8
0
100
AcDbLine
 62
7
  6
CONTINUOUS
 10
535.9887476445
 20
143.855432582
 11
535.4578787987
 21
144.161929853
  0
LINE
  5
485
100
AcDbEntity
  8
0
100
AcDbLine
 62
7
  6
CONTINUOUS
 10
537.9578787987
 20
141.4218447056
 11
537.9578787987
 21
142.4298790454
  0
ARC
  5
486
100
AcDbEntity
  8
0
100
AcDbCircle
 62
7
  6
CONTINUOUS
 10
534.9578787987
 20
145.8939806606
 40
4.5
100
AcDbArc
 50
276.3793702084
 51
300.0
  0
LINE
  5
487
100
AcDbEntity
  8
0
100
AcDbLine
 62
7
  6
CONTINUOUS
 10
537.9578787987
 20
142.4298790454
 11
537.9578787987
 21
144.161929853
  0
ARC
  5
488
100
AcDbEntity
  8
0
100
AcDbCircle
 62
7
  6
CONTINUOUS
 10
534.9578787987
 20
145.8939806606
 40
3.0
100
AcDbArc
 50
279.5940682269
 51
300.0
  0
LINE
  5
489
100
AcDbEntity
  8
0
100
AcDbLine
 62
7
  6
CONTINUOUS
 10
537.2078787987
 20
141.9968663435
 11
537.9578787987
 21
142.4298790454
  0
LINE
  5
48A
100
AcDbEntity
  8
0
100
AcDbLine
 62
7
  6
CONTINUOUS
 10
537.9578787987
 20
144.161929853
 11
536.4578787987
 21
143.2959044492
  0
ARC
  5
48B
100
AcDbEntity
  8
0
100
AcDbCircle
 62
7
  6
CONTINUOUS
 10
534.9578787987
 20
145.8939806606
 40
3.0
100
AcDbArc
 50
270.0
 51
279.5940682269
  0
LINE
  5
48C
100
AcDbEntity
  8
0
100
AcDbLine
 62
7
  6
CONTINUOUS
 10
534.9578787987
 20
142.8939806606
 11
524.9578787987
 21
142.8939806606
  0
LINE
  5
48D
100
AcDbEntity
  8
0
100
AcDbLine
 62
7
  6
CONTINUOUS
 10
524.9578787987
 20
142.8939806606
 11
524.9578787987
 21
141.3939806606
  0
LINE
  5
48E
100
AcDbEntity
  8
0
100
AcDbLine
 62
7
  6
CONTINUOUS
 10
527.4578787987
 20
142.8939806606
 11
527.4578787987
 21
144.161929853
  0
LINE
  5
48F
100
AcDbEntity
  8
0
100
AcDbLine
 62
7
  6
CONTINUOUS
 10
535.4578787987
 20
142.935940769
 11
535.4578787987
 21
144.161929853
  0
ELLIPSE
  5
490
100
AcDbEntity
  8
0
100
AcDbEllipse
 62
7
  6
CONTINUOUS
 10
538.4578787987
 20
145.8939806606
 30
0.0
 11
4.5
 21
-0.0
 31
0.0
 40
1.0
 41
-1.8233972603
 42
-1.6821373411
  0
ELLIPSE
  5
491
100
AcDbEntity
  8
0
100
AcDbEllipse
 62
7
  6
CONTINUOUS
 10
538.4578787987
 20
145.8939806606
 30
0.0
 11
0.0
 21
4.5
 31
0.0
 40
1.0
 41
-3.5314092142
 42
-3.3941935871
  0
LINE
  5
492
100
AcDbEntity
  8
0
100
AcDbLine
 62
7
  6
CONTINUOUS
 10
535.4578787987
 20
141.4218447056
 11
535.4578787987
 21
142.935940769
  0
ELLIPSE
  5
493
100
AcDbEntity
  8
0
100
AcDbEllipse
 62
7
  6
CONTINUOUS
 10
524.4578787987
 20
507.0939806606
 30
0.0
 11
0.0
 21
3.0
 31
0.0
 40
1.0
 41
-0.5235987756
 42
-0.1674480792
  0
LINE
  5
494
100
AcDbEntity
  8
0
100
AcDbLine
 62
7
  6
CONTINUOUS
 10
543.4578787987
 20
519.7939806606
 11
541.9578787987
 21
519.7939806606
  0
LINE
  5
495
100
AcDbEntity
  8
0
100
AcDbLine
 62
7
  6
CONTINUOUS
 10
543.4578787987
 20
512.7939806606
 11
543.4578787987
 21
519.7939806606
  0
LINE
  5
496
100
AcDbEntity
  8
0
100
AcDbLine
 62
7
  6
CONTINUOUS
 10
519.4578787987
 20
512.7939806606
 11
543.4578787987
 21
512.7939806606
  0
LINE
  5
497
100
AcDbEntity
  8
0
100
AcDbLine
 62
7
  6
CONTINUOUS
 10
519.4578787987
 20
519.7939806606
 11
519.4578787987
 21
512.7939806606
  0
LINE
  5
498
100
AcDbEntity
  8
0
100
AcDbLine
 62
7
  6
CONTINUOUS
 10
520.9578787987
 20
519.7939806606
 11
519.4578787987
 21
519.7939806606
  0
LINE
  5
499
100
AcDbEntity
  8
0
100
AcDbLine
 62
7
  6
CONTINUOUS
 10
520.9578787987
 20
514.2939806606
 11
520.9578787987
 21
519.7939806606
  0
LINE
  5
49A
100
AcDbEntity
  8
0
100
AcDbLine
 62
7
  6
CONTINUOUS
 10
541.9578787987
 20
514.2939806606
 11
520.9578787987
 21
514.2939806606
  0
LINE
  5
49B
100
AcDbEntity
  8
0
100
AcDbLine
 62
7
  6
CONTINUOUS
 10
541.9578787987
 20
519.7939806606
 11
541.9578787987
 21
514.2939806606
  0
LINE
  5
49C
100
AcDbEntity
  8
0
100
AcDbLine
 62
7
  6
CONTINUOUS
 10
535.4578787987
 20
508.8260314681
 11
527.4578787987
 21
508.8260314681
  0
LINE
  5
49D
100
AcDbEntity
  8
0
100
AcDbLine
 62
7
  6
CONTINUOUS
 10
527.4578787987
 20
508.8260314681
 11
525.9578787987
 21
509.6920568719
  0
LINE
  5
49E
100
AcDbEntity
  8
0
100
AcDbLine
 62
7
  6
CONTINUOUS
 10
536.7078787987
 20
509.5477193046
 11
536.5828787987
 21
509.475550521
  0
LINE
  5
49F
100
AcDbEntity
  8
0
100
AcDbLine
 62
7
  6
CONTINUOUS
 10
536.5828787987
 20
509.475550521
 11
535.9887476445
 21
509.1325287391
  0
LINE
  5
4A0
100
AcDbEntity
  8
0
100
AcDbLine
 62
7
  6
CONTINUOUS
 10
535.9887476445
 20
509.1325287391
 11
535.4578787987
 21
508.8260314681
  0
LINE
  5
4A1
100
AcDbEntity
  8
0
100
AcDbLine
 62
7
  6
CONTINUOUS
 10
537.9578787987
 20
511.5661166156
 11
537.9578787987
 21
510.5580822757
  0
ARC
  5
4A2
100
AcDbEntity
  8
0
100
AcDbCircle
 62
7
  6
CONTINUOUS
 10
534.9578787987
 20
507.0939806606
 40
3.0
100
AcDbArc
 50
60.0
 51
80.4059317731
  0
LINE
  5
4A3
100
AcDbEntity
  8
0
100
AcDbLine
 62
7
  6
CONTINUOUS
 10
537.9578787987
 20
510.5580822757
 11
537.9578787987
 21
508.8260314681
  0
ARC
  5
4A4
100
AcDbEntity
  8
0
100
AcDbCircle
 62
7
  6
CONTINUOUS
 10
534.9578787987
 20
507.0939806606
 40
4.5
100
AcDbArc
 50
60.0
 51
83.6206297916
  0
LINE
  5
4A5
100
AcDbEntity
  8
0
100
AcDbLine
 62
7
  6
CONTINUOUS
 10
537.2078787987
 20
510.9910949776
 11
537.9578787987
 21
510.5580822757
  0
LINE
  5
4A6
100
AcDbEntity
  8
0
100
AcDbLine
 62
7
  6
CONTINUOUS
 10
537.9578787987
 20
508.8260314681
 11
536.4578787987
 21
509.6920568719
  0
LINE
  5
4A7
100
AcDbEntity
  8
0
100
AcDbLine
 62
7
  6
CONTINUOUS
 10
524.9578787987
 20
510.0939806606
 11
524.9578787987
 21
511.5939806606
  0
LINE
  5
4A8
100
AcDbEntity
  8
0
100
AcDbLine
 62
7
  6
CONTINUOUS
 10
534.9578787987
 20
510.0939806606
 11
524.9578787987
 21
510.0939806606
  0
ARC
  5
4A9
100
AcDbEntity
  8
0
100
AcDbCircle
 62
7
  6
CONTINUOUS
 10
534.9578787987
 20
507.0939806606
 40
3.0
100
AcDbArc
 50
80.4059317731
 51
90.0
  0
LINE
  5
4AA
100
AcDbEntity
  8
0
100
AcDbLine
 62
7
  6
CONTINUOUS
 10
535.4578787987
 20
510.0520205521
 11
535.4578787987
 21
508.8260314681
  0
ELLIPSE
  5
4AB
100
AcDbEntity
  8
0
100
AcDbEllipse
 62
7
  6
CONTINUOUS
 10
538.4578787987
 20
507.0939806606
 30
0.0
 11
4.5
 21
-0.0
 31
0.0
 40
1.0
 41
1.6821373411
 42
1.8233972603
  0
ELLIPSE
  5
4AC
100
AcDbEntity
  8
0
100
AcDbEllipse
 62
7
  6
CONTINUOUS
 10
538.4578787987
 20
507.0939806606
 30
0.0
 11
4.5
 21
-0.0
 31
0.0
 40
1.0
 41
1.8233972603
 42
1.9606128875
  0
LINE
  5
4AD
100
AcDbEntity
  8
0
100
AcDbLine
 62
7
  6
CONTINUOUS
 10
527.4578787987
 20
510.0939806606
 11
527.4578787987
 21
508.8260314681
  0
LINE
  5
4AE
100
AcDbEntity
  8
0
100
AcDbLine
 62
7
  6
CONTINUOUS
 10
535.4578787987
 20
511.5661166156
 11
535.4578787987
 21
510.0520205521
  0
LINE
  5
4AF
100
AcDbEntity
  8
0
100
AcDbLine
 62
7
  6
CONTINUOUS
 10
544.4578787987
 20
118.7260314681
 11
531.4578787987
 21
118.7260314681
  0
LINE
  5
4B0
100
AcDbEntity
  8
0
100
AcDbLine
 62
7
  6
CONTINUOUS
 10
544.4578787987
 20
119.9939806606
 11
534.4578787987
 21
119.9939806606
  0
LINE
  5
4B1
100
AcDbEntity
  8
0
100
AcDbLine
 62
7
  6
CONTINUOUS
 10
531.4578787987
 20
119.5920568719
 11
531.4578787987
 21
118.7260314681
  0
LINE
  5
4B2
100
AcDbEntity
  8
0
100
AcDbLine
 62
7
  6
CONTINUOUS
 10
531.4578787987
 20
119.9939806606
 11
531.4578787987
 21
119.5920568719
  0
LINE
  5
4B3
100
AcDbEntity
  8
0
100
AcDbLine
 62
7
  6
CONTINUOUS
 10
558.1578787987
 20
132.6939806606
 11
558.1578787987
 21
122.6939806606
  0
LINE
  5
4B4
100
AcDbEntity
  8
0
100
AcDbLine
 62
7
  6
CONTINUOUS
 10
558.1578787987
 20
122.6939806606
 11
551.1578787987
 21
122.6939806606
  0
LINE
  5
4B5
100
AcDbEntity
  8
0
100
AcDbLine
 62
7
  6
CONTINUOUS
 10
551.1578787987
 20
122.6939806606
 11
504.7578787987
 21
122.6939806606
  0
LINE
  5
4B6
100
AcDbEntity
  8
0
100
AcDbLine
 62
7
  6
CONTINUOUS
 10
504.7578787987
 20
122.6939806606
 11
504.7578787987
 21
125.4939806606
  0
LINE
  5
4B7
100
AcDbEntity
  8
0
100
AcDbLine
 62
7
  6
CONTINUOUS
 10
506.2578787987
 20
125.4939806606
 11
506.2578787987
 21
124.1939806606
  0
LINE
  5
4B8
100
AcDbEntity
  8
0
100
AcDbLine
 62
7
  6
CONTINUOUS
 10
506.2578787987
 20
124.1939806606
 11
556.6578787987
 21
124.1939806606
  0
LINE
  5
4B9
100
AcDbEntity
  8
0
100
AcDbLine
 62
7
  6
CONTINUOUS
 10
556.6578787987
 20
124.1939806606
 11
556.6578787987
 21
132.6939806606
  0
LINE
  5
4BA
100
AcDbEntity
  8
0
100
AcDbLine
 62
7
  6
CONTINUOUS
 10
556.6578787987
 20
132.6939806606
 11
558.1578787987
 21
132.6939806606
  0
LINE
  5
4BB
100
AcDbEntity
  8
0
100
AcDbLine
 62
7
  6
CONTINUOUS
 10
544.4578787987
 20
121.4939806606
 11
544.4578787987
 21
119.9939806606
  0
LINE
  5
4BC
100
AcDbEntity
  8
0
100
AcDbLine
 62
7
  6
CONTINUOUS
 10
544.4578787987
 20
119.9939806606
 11
544.4578787987
 21
119.5920568719
  0
LINE
  5
4BD
100
AcDbEntity
  8
0
100
AcDbLine
 62
7
  6
CONTINUOUS
 10
544.4578787987
 20
119.5920568719
 11
544.4578787987
 21
118.7260314681
  0
ARC
  5
4BE
100
AcDbEntity
  8
0
100
AcDbCircle
 62
7
  6
CONTINUOUS
 10
524.4578787987
 20
116.9939806606
 40
4.5
100
AcDbArc
 50
90.0
 51
120.0
  0
LINE
  5
4BF
100
AcDbEntity
  8
0
100
AcDbLine
 62
7
  6
CONTINUOUS
 10
520.7078787987
 20
120.0250695738
 11
522.2078787987
 21
120.8910949776
  0
LINE
  5
4C0
100
AcDbEntity
  8
0
100
AcDbLine
 62
7
  6
CONTINUOUS
 10
521.4578787987
 20
118.7260314681
 11
520.7078787987
 21
120.0250695738
  0
LINE
  5
4C1
100
AcDbEntity
  8
0
100
AcDbLine
 62
7
  6
CONTINUOUS
 10
522.9578787987
 20
119.5920568719
 11
521.4578787987
 21
118.7260314681
  0
ARC
  5
4C2
100
AcDbEntity
  8
0
100
AcDbCircle
 62
7
  6
CONTINUOUS
 10
524.4578787987
 20
116.9939806606
 40
3.0
100
AcDbArc
 50
90.0
 51
120.0
  0
LINE
  5
4C3
100
AcDbEntity
  8
0
100
AcDbLine
 62
7
  6
CONTINUOUS
 10
534.4578787987
 20
119.9939806606
 11
524.4578787987
 21
119.9939806606
  0
LINE
  5
4C4
100
AcDbEntity
  8
0
100
AcDbLine
 62
7
  6
CONTINUOUS
 10
534.4578787987
 20
121.4939806606
 11
534.4578787987
 21
119.9939806606
  0
LINE
  5
4C5
100
AcDbEntity
  8
0
100
AcDbLine
 62
9
  6
CONTINUOUS
 10
544.4578787987
 20
119.5920568719
 11
534.4578787987
 21
119.5920568719
  0
LINE
  5
4C6
100
AcDbEntity
  8
0
100
AcDbLine
 62
9
  6
CONTINUOUS
 10
534.4578787987
 20
119.5920568719
 11
531.4578787987
 21
119.5920568719
  0
LINE
  5
4C7
100
AcDbEntity
  8
0
100
AcDbLine
 62
7
  6
CONTINUOUS
 10
544.4578787987
 20
534.261929853
 11
531.4578787987
 21
534.261929853
  0
LINE
  5
4C8
100
AcDbEntity
  8
0
100
AcDbLine
 62
7
  6
CONTINUOUS
 10
544.4578787987
 20
532.9939806606
 11
534.4578787987
 21
532.9939806606
  0
LINE
  5
4C9
100
AcDbEntity
  8
0
100
AcDbLine
 62
7
  6
CONTINUOUS
 10
531.4578787987
 20
532.9939806606
 11
531.4578787987
 21
533.3959044492
  0
LINE
  5
4CA
100
AcDbEntity
  8
0
100
AcDbLine
 62
7
  6
CONTINUOUS
 10
531.4578787987
 20
533.3959044492
 11
531.4578787987
 21
534.261929853
  0
LINE
  5
4CB
100
AcDbEntity
  8
0
100
AcDbLine
 62
7
  6
CONTINUOUS
 10
558.1578787987
 20
520.2939806606
 11
558.1578787987
 21
530.2939806606
  0
LINE
  5
4CC
100
AcDbEntity
  8
0
100
AcDbLine
 62
7
  6
CONTINUOUS
 10
556.6578787987
 20
520.2939806606
 11
558.1578787987
 21
520.2939806606
  0
LINE
  5
4CD
100
AcDbEntity
  8
0
100
AcDbLine
 62
7
  6
CONTINUOUS
 10
556.6578787987
 20
528.7939806606
 11
556.6578787987
 21
520.2939806606
  0
LINE
  5
4CE
100
AcDbEntity
  8
0
100
AcDbLine
 62
7
  6
CONTINUOUS
 10
506.2578787987
 20
528.7939806606
 11
556.6578787987
 21
528.7939806606
  0
LINE
  5
4CF
100
AcDbEntity
  8
0
100
AcDbLine
 62
7
  6
CONTINUOUS
 10
506.2578787987
 20
527.4939806606
 11
506.2578787987
 21
528.7939806606
  0
LINE
  5
4D0
100
AcDbEntity
  8
0
100
AcDbLine
 62
7
  6
CONTINUOUS
 10
504.7578787987
 20
530.2939806606
 11
504.7578787987
 21
527.4939806606
  0
LINE
  5
4D1
100
AcDbEntity
  8
0
100
AcDbLine
 62
7
  6
CONTINUOUS
 10
558.1578787987
 20
530.2939806606
 11
551.1578787987
 21
530.2939806606
  0
LINE
  5
4D2
100
AcDbEntity
  8
0
100
AcDbLine
 62
7
  6
CONTINUOUS
 10
551.1578787987
 20
530.2939806606
 11
504.7578787987
 21
530.2939806606
  0
LINE
  5
4D3
100
AcDbEntity
  8
0
100
AcDbLine
 62
7
  6
CONTINUOUS
 10
544.4578787987
 20
533.3959044492
 11
544.4578787987
 21
534.261929853
  0
LINE
  5
4D4
100
AcDbEntity
  8
0
100
AcDbLine
 62
7
  6
CONTINUOUS
 10
544.4578787987
 20
532.9939806606
 11
544.4578787987
 21
533.3959044492
  0
LINE
  5
4D5
100
AcDbEntity
  8
0
100
AcDbLine
 62
7
  6
CONTINUOUS
 10
544.4578787987
 20
531.4939806606
 11
544.4578787987
 21
532.9939806606
  0
LINE
  5
4D6
100
AcDbEntity
  8
0
100
AcDbLine
 62
7
  6
CONTINUOUS
 10
534.4578787987
 20
531.4939806606
 11
534.4578787987
 21
532.9939806606
  0
LINE
  5
4D7
100
AcDbEntity
  8
0
100
AcDbLine
 62
7
  6
CONTINUOUS
 10
534.4578787987
 20
532.9939806606
 11
524.4578787987
 21
532.9939806606
  0
ARC
  5
4D8
100
AcDbEntity
  8
0
100
AcDbCircle
 62
7
  6
CONTINUOUS
 10
524.4578787987
 20
535.9939806606
 40
3.0
100
AcDbArc
 50
240.0
 51
270.0
  0
LINE
  5
4D9
100
AcDbEntity
  8
0
100
AcDbLine
 62
7
  6
CONTINUOUS
 10
522.9578787987
 20
533.3959044492
 11
521.4578787987
 21
534.261929853
  0
LINE
  5
4DA
100
AcDbEntity
  8
0
100
AcDbLine
 62
7
  6
CONTINUOUS
 10
521.4578787987
 20
534.261929853
 11
520.7078787987
 21
532.9628917473
  0
LINE
  5
4DB
100
AcDbEntity
  8
0
100
AcDbLine
 62
7
  6
CONTINUOUS
 10
520.7078787987
 20
532.9628917473
 11
522.2078787987
 21
532.0968663435
  0
ARC
  5
4DC
100
AcDbEntity
  8
0
100
AcDbCircle
 62
7
  6
CONTINUOUS
 10
524.4578787987
 20
535.9939806606
 40
4.5
100
AcDbArc
 50
240.0
 51
270.0
  0
LINE
  5
4DD
100
AcDbEntity
  8
0
100
AcDbLine
 62
9
  6
CONTINUOUS
 10
544.4578787987
 20
533.3959044492
 11
534.4578787987
 21
533.3959044492
  0
LINE
  5
4DE
100
AcDbEntity
  8
0
100
AcDbLine
 62
9
  6
CONTINUOUS
 10
534.4578787987
 20
533.3959044492
 11
531.4578787987
 21
533.3959044492
  0
LINE
  5
4DF
100
AcDbEntity
  8
0
100
AcDbLine
 62
7
  6
CONTINUOUS
 10
620.4578787987
 20
525.7933263627
 11
620.4578787987
 21
529.4939806606
  0
LINE
  5
4E0
100
AcDbEntity
  8
0
100
AcDbLine
 62
7
  6
CONTINUOUS
 10
620.4578787987
 20
525.7939806606
 11
621.6578787987
 21
525.7939806606
  0
ARC
  5
4E1
100
AcDbEntity
  8
0
100
AcDbCircle
 62
7
  6
CONTINUOUS
 10
622.4578787987
 20
533.4939806606
 40
2.0
100
AcDbArc
 50
155.7411560075
 51
180.0
  0
LINE
  5
4E2
100
AcDbEntity
  8
0
100
AcDbLine
 62
7
  6
CONTINUOUS
 10
620.4578787987
 20
533.4939806606
 11
620.4578787987
 21
530.4939806606
  0
LINE
  5
4E3
100
AcDbEntity
  8
0
100
AcDbLine
 62
7
  6
CONTINUOUS
 10
471.4578787987
 20
534.2939806606
 11
471.4578787987
 21
535.4939806606
  0
ARC
  5
4E4
100
AcDbEntity
  8
0
100
AcDbCircle
 62
7
  6
CONTINUOUS
 10
553.9578787987
 20
533.4939806606
 40
2.0
100
AcDbArc
 50
90.0
 51
180.0
  0
ARC
  5
4E5
100
AcDbEntity
  8
0
100
AcDbCircle
 62
7
  6
CONTINUOUS
 10
501.9578787987
 20
533.4939806606
 40
2.0
100
AcDbArc
 50
0.0
 51
90.0
  0
LINE
  5
4E6
100
AcDbEntity
  8
0
100
AcDbLine
 62
7
  6
CONTINUOUS
 10
503.9578787987
 20
533.4939806606
 11
503.9578787987
 21
532.2939806606
  0
ARC
  5
4E7
100
AcDbEntity
  8
0
100
AcDbCircle
 62
7
  6
CONTINUOUS
 10
504.7578787987
 20
532.2939806606
 40
0.8
100
AcDbArc
 50
180.0
 51
270.0
  0
LINE
  5
4E8
100
AcDbEntity
  8
0
100
AcDbLine
 62
7
  6
CONTINUOUS
 10
504.7578787987
 20
531.4939806606
 11
551.1578787987
 21
531.4939806606
  0
LINE
  5
4E9
100
AcDbEntity
  8
0
100
AcDbLine
 62
7
  6
CONTINUOUS
 10
631.4578787987
 20
534.2939806606
 11
631.4578787987
 21
535.4939806606
  0
ARC
  5
4EA
100
AcDbEntity
  8
0
100
AcDbCircle
 62
7
  6
CONTINUOUS
 10
551.1578787987
 20
532.2939806606
 40
0.8
100
AcDbArc
 50
270.0
 51
360.0
  0
LINE
  5
4EB
100
AcDbEntity
  8
0
100
AcDbLine
 62
7
  6
CONTINUOUS
 10
551.9578787987
 20
532.2939806606
 11
551.9578787987
 21
533.4939806606
  0
LINE
  5
4EC
100
AcDbEntity
  8
0
100
AcDbLine
 62
9
  6
CONTINUOUS
 10
553.9578787987
 20
534.2939806606
 11
553.9578787987
 21
535.4939806606
  0
LINE
  5
4ED
100
AcDbEntity
  8
0
100
AcDbLine
 62
9
  6
CONTINUOUS
 10
502.7578787987
 20
533.4939806606
 11
503.9578787987
 21
533.4939806606
  0
LINE
  5
4EE
100
AcDbEntity
  8
0
100
AcDbLine
 62
9
  6
CONTINUOUS
 10
621.6578787987
 20
533.4939806606
 11
620.4578787987
 21
533.4939806606
  0
LINE
  5
4EF
100
AcDbEntity
  8
0
100
AcDbLine
 62
9
  6
CONTINUOUS
 10
553.1578787987
 20
533.4939806606
 11
551.9578787987
 21
533.4939806606
  0
LINE
  5
4F0
100
AcDbEntity
  8
0
100
AcDbLine
 62
9
  6
CONTINUOUS
 10
551.1578787987
 20
530.2939806606
 11
551.1578787987
 21
531.4939806606
  0
LINE
  5
4F1
100
AcDbEntity
  8
0
100
AcDbLine
 62
9
  6
CONTINUOUS
 10
502.7578787987
 20
532.2939806606
 11
503.9578787987
 21
532.2939806606
  0
LINE
  5
4F2
100
AcDbEntity
  8
0
100
AcDbLine
 62
9
  6
CONTINUOUS
 10
501.9578787987
 20
534.2939806606
 11
501.9578787987
 21
535.4939806606
  0
LINE
  5
4F3
100
AcDbEntity
  8
0
100
AcDbLine
 62
9
  6
CONTINUOUS
 10
553.1578787987
 20
532.2939806606
 11
551.9578787987
 21
532.2939806606
  0
LINE
  5
4F4
100
AcDbEntity
  8
0
100
AcDbLine
 62
9
  6
CONTINUOUS
 10
504.7578787987
 20
530.2939806606
 11
504.7578787987
 21
531.4939806606
  0
LINE
  5
4F5
100
AcDbEntity
  8
0
100
AcDbLine
 62
7
  6
CONTINUOUS
 10
621.6578787987
 20
127.1939806606
 11
620.4578787987
 21
127.1939806606
  0
LINE
  5
4F6
100
AcDbEntity
  8
0
100
AcDbLine
 62
7
  6
CONTINUOUS
 10
471.4578787987
 20
118.6939806606
 11
471.4578787987
 21
117.4939806606
  0
ARC
  5
4F7
100
AcDbEntity
  8
0
100
AcDbCircle
 62
7
  6
CONTINUOUS
 10
622.4578787987
 20
119.4939806606
 40
2.0
100
AcDbArc
 50
180.0
 51
204.2588439925
  0
ARC
  5
4F8
100
AcDbEntity
  8
0
100
AcDbCircle
 62
7
  6
CONTINUOUS
 10
501.9578787987
 20
119.4939806606
 40
2.0
100
AcDbArc
 50
270.0
 51
360.0
  0
ARC
  5
4F9
100
AcDbEntity
  8
0
100
AcDbCircle
 62
7
  6
CONTINUOUS
 10
553.9578787987
 20
119.4939806606
 40
2.0
100
AcDbArc
 50
180.0
 51
270.0
  0
LINE
  5
4FA
100
AcDbEntity
  8
0
100
AcDbLine
 62
7
  6
CONTINUOUS
 10
503.9578787987
 20
119.4939806606
 11
503.9578787987
 21
120.6939806606
  0
ARC
  5
4FB
100
AcDbEntity
  8
0
100
AcDbCircle
 62
7
  6
CONTINUOUS
 10
504.7578787987
 20
120.6939806606
 40
0.8
100
AcDbArc
 50
90.0
 51
180.0
  0
LINE
  5
4FC
100
AcDbEntity
  8
0
100
AcDbLine
 62
7
  6
CONTINUOUS
 10
504.7578787987
 20
121.4939806606
 11
551.1578787987
 21
121.4939806606
  0
LINE
  5
4FD
100
AcDbEntity
  8
0
100
AcDbLine
 62
7
  6
CONTINUOUS
 10
631.4578787987
 20
118.6939806606
 11
631.4578787987
 21
117.4939806606
  0
LINE
  5
4FE
100
AcDbEntity
  8
0
100
AcDbLine
 62
7
  6
CONTINUOUS
 10
620.4578787987
 20
123.4939806606
 11
620.4578787987
 21
127.1946349584
  0
LINE
  5
4FF
100
AcDbEntity
  8
0
100
AcDbLine
 62
7
  6
CONTINUOUS
 10
620.4578787987
 20
119.4939806606
 11
620.4578787987
 21
122.4939806606
  0
ARC
  5
500
100
AcDbEntity
  8
0
100
AcDbCircle
 62
7
  6
CONTINUOUS
 10
551.1578787987
 20
120.6939806606
 40
0.8
100
AcDbArc
 50
0.0
 51
90.0
  0
LINE
  5
501
100
AcDbEntity
  8
0
100
AcDbLine
 62
7
  6
CONTINUOUS
 10
551.9578787987
 20
120.6939806606
 11
551.9578787987
 21
119.4939806606
  0
LINE
  5
502
100
AcDbEntity
  8
0
100
AcDbLine
 62
9
  6
CONTINUOUS
 10
501.9578787987
 20
118.6939806606
 11
501.9578787987
 21
117.4939806606
  0
LINE
  5
503
100
AcDbEntity
  8
0
100
AcDbLine
 62
9
  6
CONTINUOUS
 10
502.7578787987
 20
119.4939806606
 11
503.9578787987
 21
119.4939806606
  0
LINE
  5
504
100
AcDbEntity
  8
0
100
AcDbLine
 62
9
  6
CONTINUOUS
 10
504.7578787987
 20
122.6939806606
 11
504.7578787987
 21
121.4939806606
  0
LINE
  5
505
100
AcDbEntity
  8
0
100
AcDbLine
 62
9
  6
CONTINUOUS
 10
553.1578787987
 20
120.6939806606
 11
551.9578787987
 21
120.6939806606
  0
LINE
  5
506
100
AcDbEntity
  8
0
100
AcDbLine
 62
9
  6
CONTINUOUS
 10
621.6578787987
 20
119.4939806606
 11
620.4578787987
 21
119.4939806606
  0
LINE
  5
507
100
AcDbEntity
  8
0
100
AcDbLine
 62
9
  6
CONTINUOUS
 10
553.1578787987
 20
119.4939806606
 11
551.9578787987
 21
119.4939806606
  0
LINE
  5
508
100
AcDbEntity
  8
0
100
AcDbLine
 62
9
  6
CONTINUOUS
 10
553.9578787987
 20
118.6939806606
 11
553.9578787987
 21
117.4939806606
  0
LINE
  5
509
100
AcDbEntity
  8
0
100
AcDbLine
 62
9
  6
CONTINUOUS
 10
551.1578787987
 20
122.6939806606
 11
551.1578787987
 21
121.4939806606
  0
LINE
  5
50A
100
AcDbEntity
  8
0
100
AcDbLine
 62
9
  6
CONTINUOUS
 10
502.7578787987
 20
120.6939806606
 11
503.9578787987
 21
120.6939806606
  0
LINE
  5
50B
100
AcDbEntity
  8
0
100
AcDbLine
 62
7
  6
CONTINUOUS
 10
573.2578787987
 20
126.3939806606
 11
573.2578787987
 21
129.3939806606
  0
LINE
  5
50C
100
AcDbEntity
  8
0
100
AcDbLine
 62
7
  6
CONTINUOUS
 10
574.4578787987
 20
126.3939806606
 11
573.2578787987
 21
126.3939806606
  0
LINE
  5
50D
100
AcDbEntity
  8
0
100
AcDbLine
 62
7
  6
CONTINUOUS
 10
571.4578787987
 20
140.1939806606
 11
543.4578787987
 21
140.1939806606
  0
LINE
  5
50E
100
AcDbEntity
  8
0
100
AcDbLine
 62
7
  6
CONTINUOUS
 10
543.4578787987
 20
140.1939806606
 11
519.4578787987
 21
140.1939806606
  0
LINE
  5
50F
100
AcDbEntity
  8
0
100
AcDbLine
 62
7
  6
CONTINUOUS
 10
519.4578787987
 20
140.1939806606
 11
512.4578787987
 21
140.1939806606
  0
LINE
  5
510
100
AcDbEntity
  8
0
100
AcDbLine
 62
7
  6
CONTINUOUS
 10
574.4578787987
 20
126.3939806606
 11
573.2578787987
 21
126.3939806606
  0
LINE
  5
511
100
AcDbEntity
  8
0
100
AcDbLine
 62
7
  6
CONTINUOUS
 10
573.2578787987
 20
138.3939806606
 11
573.2578787987
 21
129.3939806606
  0
ARC
  5
512
100
AcDbEntity
  8
0
100
AcDbCircle
 62
7
  6
CONTINUOUS
 10
571.4578787987
 20
138.3939806606
 40
1.8
100
AcDbArc
 50
0.0
 51
90.0
  0
LINE
  5
513
100
AcDbEntity
  8
0
100
AcDbLine
 62
9
  6
CONTINUOUS
 10
574.4578787987
 20
129.3939806606
 11
573.2578787987
 21
129.3939806606
  0
LINE
  5
514
100
AcDbEntity
  8
0
100
AcDbLine
 62
9
  6
CONTINUOUS
 10
571.4578787987
 20
141.3939806606
 11
571.4578787987
 21
140.1939806606
  0
LINE
  5
515
100
AcDbEntity
  8
0
100
AcDbLine
 62
9
  6
CONTINUOUS
 10
574.4578787987
 20
138.3939806606
 11
573.2578787987
 21
138.3939806606
  0
LINE
  5
516
100
AcDbEntity
  8
0
100
AcDbLine
 62
7
  6
CONTINUOUS
 10
573.2578787987
 20
526.5939806606
 11
573.2578787987
 21
523.5939806606
  0
LINE
  5
517
100
AcDbEntity
  8
0
100
AcDbLine
 62
7
  6
CONTINUOUS
 10
573.2578787987
 20
526.5939806606
 11
574.4578787987
 21
526.5939806606
  0
LINE
  5
518
100
AcDbEntity
  8
0
100
AcDbLine
 62
7
  6
CONTINUOUS
 10
571.4578787987
 20
512.7939806606
 11
543.4578787987
 21
512.7939806606
  0
LINE
  5
519
100
AcDbEntity
  8
0
100
AcDbLine
 62
7
  6
CONTINUOUS
 10
543.4578787987
 20
512.7939806606
 11
519.4578787987
 21
512.7939806606
  0
LINE
  5
51A
100
AcDbEntity
  8
0
100
AcDbLine
 62
7
  6
CONTINUOUS
 10
519.4578787987
 20
512.7939806606
 11
512.4578787987
 21
512.7939806606
  0
LINE
  5
51B
100
AcDbEntity
  8
0
100
AcDbLine
 62
7
  6
CONTINUOUS
 10
574.4578787987
 20
526.5939806606
 11
573.2578787987
 21
526.5939806606
  0
LINE
  5
51C
100
AcDbEntity
  8
0
100
AcDbLine
 62
7
  6
CONTINUOUS
 10
573.2578787987
 20
514.5939806606
 11
573.2578787987
 21
523.5939806606
  0
ARC
  5
51D
100
AcDbEntity
  8
0
100
AcDbCircle
 62
7
  6
CONTINUOUS
 10
571.4578787987
 20
514.5939806606
 40
1.8
100
AcDbArc
 50
270.0
 51
360.0
  0
LINE
  5
51E
100
AcDbEntity
  8
0
100
AcDbLine
 62
9
  6
CONTINUOUS
 10
574.4578787987
 20
523.5939806606
 11
573.2578787987
 21
523.5939806606
  0
LINE
  5
51F
100
AcDbEntity
  8
0
100
AcDbLine
 62
9
  6
CONTINUOUS
 10
571.4578787987
 20
511.5939806606
 11
571.4578787987
 21
512.7939806606
  0
LINE
  5
520
100
AcDbEntity
  8
0
100
AcDbLine
 62
9
  6
CONTINUOUS
 10
574.4578787987
 20
514.5939806606
 11
573.2578787987
 21
514.5939806606
  0
ARC
  5
521
100
AcDbEntity
  8
0
100
AcDbCircle
 62
7
  6
CONTINUOUS
 10
576.4578787987
 20
125.9939806606
 40
1.0
100
AcDbArc
 50
180.0
 51
270.0
  0
LINE
  5
522
100
AcDbEntity
  8
0
100
AcDbLine
 62
7
  6
CONTINUOUS
 10
607.4578787987
 20
124.9939806606
 11
576.4578787987
 21
124.9939806606
  0
LINE
  5
523
100
AcDbEntity
  8
0
100
AcDbLine
 62
7
  6
CONTINUOUS
 10
575.4578787987
 20
128.0244003278
 11
575.4578787987
 21
125.9939806606
  0
ARC
  5
524
100
AcDbEntity
  8
0
100
AcDbCircle
 62
7
  6
CONTINUOUS
 10
607.4578787987
 20
125.9939806606
 40
1.0
100
AcDbArc
 50
315.0
 51
360.0
  0
ARC
  5
525
100
AcDbEntity
  8
0
100
AcDbCircle
 62
7
  6
CONTINUOUS
 10
607.4578787987
 20
125.9939806606
 40
1.0
100
AcDbArc
 50
270.0
 51
315.0
  0
ARC
  5
526
100
AcDbEntity
  8
0
100
AcDbCircle
 62
7
  6
CONTINUOUS
 10
576.4578787987
 20
526.9939806606
 40
1.0
100
AcDbArc
 50
90.0
 51
180.0
  0
LINE
  5
527
100
AcDbEntity
  8
0
100
AcDbLine
 62
7
  6
CONTINUOUS
 10
607.4578787987
 20
527.9939806606
 11
576.4578787987
 21
527.9939806606
  0
LINE
  5
528
100
AcDbEntity
  8
0
100
AcDbLine
 62
7
  6
CONTINUOUS
 10
575.4578787987
 20
524.9635609934
 11
575.4578787987
 21
526.9939806606
  0
ARC
  5
529
100
AcDbEntity
  8
0
100
AcDbCircle
 62
7
  6
CONTINUOUS
 10
607.4578787987
 20
526.9939806606
 40
1.0
100
AcDbArc
 50
0.0
 51
45.0
  0
ARC
  5
52A
100
AcDbEntity
  8
0
100
AcDbCircle
 62
7
  6
CONTINUOUS
 10
607.4578787987
 20
526.9939806606
 40
1.0
100
AcDbArc
 50
45.0
 51
90.0
  0
LINE
  5
52B
100
AcDbEntity
  8
0
100
AcDbLine
 62
7
  6
CONTINUOUS
 10
579.4578787987
 20
526.9939806606
 11
575.4578787987
 21
526.9939806606
  0
LINE
  5
52C
100
AcDbEntity
  8
0
100
AcDbLine
 62
7
  6
CONTINUOUS
 10
579.4578787987
 20
125.9939806606
 11
575.4578787987
 21
125.9939806606
  0
LINE
  5
52D
100
AcDbEntity
  8
0
100
AcDbLine
 62
9
  6
CONTINUOUS
 10
574.4578787987
 20
526.9939806606
 11
575.4578787987
 21
526.9939806606
  0
LINE
  5
52E
100
AcDbEntity
  8
0
100
AcDbLine
 62
9
  6
CONTINUOUS
 10
574.4578787987
 20
125.9939806606
 11
575.4578787987
 21
125.9939806606
  0
LINE
  5
52F
100
AcDbEntity
  8
0
100
AcDbLine
 62
9
  6
CONTINUOUS
 10
576.4578787987
 20
528.9939806606
 11
576.4578787987
 21
527.9939806606
  0
LINE
  5
530
100
AcDbEntity
  8
0
100
AcDbLine
 62
9
  6
CONTINUOUS
 10
576.4578787987
 20
123.9939806606
 11
576.4578787987
 21
124.9939806606
  0
LINE
  5
531
100
AcDbEntity
  8
0
100
AcDbLine
 62
7
  6
CONTINUOUS
 10
655.2928152893
 20
528.4939806606
 11
656.1588406931
 21
528.4939806606
  0
LINE
  5
532
100
AcDbEntity
  8
0
100
AcDbLine
 62
7
  6
CONTINUOUS
 10
618.4578787987
 20
529.4939806606
 11
618.4578787987
 21
530.4939806606
  0
LINE
  5
533
100
AcDbEntity
  8
0
100
AcDbLine
 62
7
  6
CONTINUOUS
 10
628.4578787987
 20
123.4939806606
 11
646.4578787987
 21
123.4939806606
  0
LINE
  5
534
100
AcDbEntity
  8
0
100
AcDbLine
 62
7
  6
CONTINUOUS
 10
646.4578787987
 20
529.4939806606
 11
628.4578787987
 21
529.4939806606
  0
LINE
  5
535
100
AcDbEntity
  8
0
100
AcDbLine
 62
7
  6
CONTINUOUS
 10
647.3239042025
 20
528.4939806606
 11
646.9578787987
 21
528.4939806606
  0
LINE
  5
536
100
AcDbEntity
  8
0
100
AcDbLine
 62
7
  6
CONTINUOUS
 10
646.9578787987
 20
528.4939806606
 11
646.4578787987
 21
528.4939806606
  0
LINE
  5
537
100
AcDbEntity
  8
0
100
AcDbLine
 62
7
  6
CONTINUOUS
 10
647.3239042025
 20
124.4939806606
 11
646.9578787987
 21
124.4939806606
  0
LINE
  5
538
100
AcDbEntity
  8
0
100
AcDbLine
 62
7
  6
CONTINUOUS
 10
646.9578787987
 20
124.4939806606
 11
646.4578787987
 21
124.4939806606
  0
LINE
  5
539
100
AcDbEntity
  8
0
100
AcDbLine
 62
7
  6
CONTINUOUS
 10
647.4578787987
 20
528.4939806606
 11
647.7928152893
 21
528.4939806606
  0
LINE
  5
53A
100
AcDbEntity
  8
0
100
AcDbLine
 62
7
  6
CONTINUOUS
 10
647.4578787987
 20
124.4939806606
 11
647.7928152893
 21
124.4939806606
  0
LINE
  5
53B
100
AcDbEntity
  8
0
100
AcDbLine
 62
7
  6
CONTINUOUS
 10
647.4578787987
 20
124.4939806606
 11
647.4578787987
 21
528.4939806606
  0
ARC
  5
53C
100
AcDbEntity
  8
0
100
AcDbCircle
 62
7
  6
CONTINUOUS
 10
628.4578787987
 20
523.4939806606
 40
5.0
100
AcDbArc
 50
90.0
 51
180.0
  0
ARC
  5
53D
100
AcDbEntity
  8
0
100
AcDbCircle
 62
7
  6
CONTINUOUS
 10
628.4578787987
 20
129.4939806606
 40
5.0
100
AcDbArc
 50
180.0
 51
270.0
  0
LINE
  5
53E
100
AcDbEntity
  8
0
100
AcDbLine
 62
7
  6
CONTINUOUS
 10
655.2928152893
 20
124.4939806606
 11
656.1588406931
 21
124.4939806606
  0
LINE
  5
53F
100
AcDbEntity
  8
0
100
AcDbLine
 62
7
  6
CONTINUOUS
 10
655.2928152893
 20
528.4939806606
 11
656.1588406931
 21
528.4939806606
  0
LINE
  5
540
100
AcDbEntity
  8
0
100
AcDbLine
 62
7
  6
CONTINUOUS
 10
618.4578787987
 20
123.4939806606
 11
628.4578787987
 21
123.4939806606
  0
LINE
  5
541
100
AcDbEntity
  8
0
100
AcDbLine
 62
7
  6
CONTINUOUS
 10
618.4578787987
 20
123.4939806606
 11
618.4578787987
 21
122.4939806606
  0
LINE
  5
542
100
AcDbEntity
  8
0
100
AcDbLine
 62
7
  6
CONTINUOUS
 10
628.4578787987
 20
529.4939806606
 11
618.4578787987
 21
529.4939806606
  0
LINE
  5
543
100
AcDbEntity
  8
0
100
AcDbLine
 62
7
  6
CONTINUOUS
 10
647.7928152893
 20
124.4939806606
 11
648.4578787987
 21
124.4939806606
  0
LINE
  5
544
100
AcDbEntity
  8
0
100
AcDbLine
 62
7
  6
CONTINUOUS
 10
648.4578787987
 20
124.4939806606
 11
655.2928152893
 21
124.4939806606
  0
LINE
  5
545
100
AcDbEntity
  8
0
100
AcDbLine
 62
7
  6
CONTINUOUS
 10
647.7928152893
 20
528.4939806606
 11
648.4578787987
 21
528.4939806606
  0
LINE
  5
546
100
AcDbEntity
  8
0
100
AcDbLine
 62
7
  6
CONTINUOUS
 10
648.4578787987
 20
528.4939806606
 11
655.2928152893
 21
528.4939806606
  0
LINE
  5
547
100
AcDbEntity
  8
0
100
AcDbLine
 62
7
  6
CONTINUOUS
 10
618.4578787987
 20
529.4939806606
 11
618.4578787987
 21
530.4939806606
  0
ARC
  5
548
100
AcDbEntity
  8
0
100
AcDbCircle
 62
7
  6
CONTINUOUS
 10
646.4578787987
 20
124.4939806606
 40
1.0
100
AcDbArc
 50
270.0
 51
360.0
  0
ARC
  5
549
100
AcDbEntity
  8
0
100
AcDbCircle
 62
7
  6
CONTINUOUS
 10
646.4578787987
 20
528.4939806606
 40
1.0
100
AcDbArc
 50
0.0
 51
30.0
  0
ARC
  5
54A
100
AcDbEntity
  8
0
100
AcDbCircle
 62
7
  6
CONTINUOUS
 10
646.4578787987
 20
528.4939806606
 40
1.0
100
AcDbArc
 50
30.0
 51
90.0
  0
LINE
  5
54B
100
AcDbEntity
  8
0
100
AcDbLine
 62
7
  6
CONTINUOUS
 10
623.4578787987
 20
129.4939806606
 11
623.4578787987
 21
136.9769059739
  0
LINE
  5
54C
100
AcDbEntity
  8
0
100
AcDbLine
 62
7
  6
CONTINUOUS
 10
623.4578787987
 20
516.0110553472
 11
623.4578787987
 21
523.4939806606
  0
LINE
  5
54D
100
AcDbEntity
  8
0
100
AcDbLine
 62
7
  6
CONTINUOUS
 10
646.4578787987
 20
528.4939806606
 11
628.4578787987
 21
528.4939806606
  0
LINE
  5
54E
100
AcDbEntity
  8
0
100
AcDbLine
 62
7
  6
CONTINUOUS
 10
646.4578787987
 20
124.4939806606
 11
628.4578787987
 21
124.4939806606
  0
LINE
  5
54F
100
AcDbEntity
  8
0
100
AcDbLine
 62
7
  6
CONTINUOUS
 10
647.4578787987
 20
528.4939806606
 11
647.4578787987
 21
124.4939806606
  0
LINE
  5
550
100
AcDbEntity
  8
0
100
AcDbLine
 62
7
  6
CONTINUOUS
 10
656.7928152893
 20
127.4939806606
 11
656.7928152893
 21
525.4939806606
  0
SPLINE
  5
551
100
AcDbEntity
  8
0
100
AcDbSpline
 62
7
  6
CONTINUOUS
 70
0
 71
3
 72
9
 73
5
 74
0
 42
0.0000001
 43
0.0000001
 44
0.0000000001
 40
0.0
 40
0.0
 40
0.0
 40
0.0
 40
0.2606580139
 40
1.0
 40
1.0
 40
1.0
 40
1.0
 10
656.7928152893
 20
525.4939806606
 30
0.0
 10
656.7928152893
 20
525.6407843529
 30
0.0
 10
656.7719880865
 20
526.2034663662
 30
0.0
 10
656.671961883
 20
526.765747492
 30
0.0
 10
656.5400197077
 20
527.1606913596
 30
0.0
  0
SPLINE
  5
552
100
AcDbEntity
  8
0
100
AcDbSpline
 62
7
  6
CONTINUOUS
 70
0
 71
3
 72
9
 73
5
 74
0
 42
0.0000001
 43
0.0000001
 44
0.0000000001
 40
0.0
 40
0.0
 40
0.0
 40
0.0
 40
0.3041457827
 40
1.0
 40
1.0
 40
1.0
 40
1.0
 10
656.5400197077
 20
527.1606913596
 30
0.0
 10
656.4881180145
 20
527.3160492307
 30
0.0
 10
656.2911935517
 20
527.8084618725
 30
0.0
 10
655.9336818908
 20
528.2978618735
 30
0.0
 10
655.5854507723
 20
528.4363365018
 30
0.0
  0
SPLINE
  5
553
100
AcDbEntity
  8
0
100
AcDbSpline
 62
7
  6
CONTINUOUS
 70
0
 71
3
 72
8
 73
4
 74
0
 42
0.0000001
 43
0.0000001
 44
0.0000000001
 40
0.0
 40
0.0
 40
0.0
 40
0.0
 40
1.0
 40
1.0
 40
1.0
 40
1.0
 10
655.5854507723
 20
528.4363365018
 30
0.0
 10
655.4930673333
 20
528.4730729153
 30
0.0
 10
655.3922349246
 20
528.4939806606
 30
0.0
 10
655.2928152893
 20
528.4939806606
 30
0.0
  0
LINE
  5
554
100
AcDbEntity
  8
0
100
AcDbLine
 62
9
  6
CONTINUOUS
 10
628.4578787987
 20
123.4939806606
 11
628.4578787987
 21
122.4939806606
  0
LINE
  5
555
100
AcDbEntity
  8
0
100
AcDbLine
 62
9
  6
CONTINUOUS
 10
646.4578787987
 20
530.4939806606
 11
646.4578787987
 21
529.4939806606
  0
LINE
  5
556
100
AcDbEntity
  8
0
100
AcDbLine
 62
9
  6
CONTINUOUS
 10
647.7928152893
 20
124.4939806606
 11
647.7928152893
 21
528.4939806606
  0
LINE
  5
557
100
AcDbEntity
  8
0
100
AcDbLine
 62
9
  6
CONTINUOUS
 10
656.7928152893
 20
525.4939806606
 11
657.6588406931
 21
525.4939806606
  0
LINE
  5
558
100
AcDbEntity
  8
0
100
AcDbLine
 62
9
  6
CONTINUOUS
 10
628.4578787987
 20
529.4939806606
 11
628.4578787987
 21
530.4939806606
  0
LINE
  5
559
100
AcDbEntity
  8
0
100
AcDbLine
 62
9
  6
CONTINUOUS
 10
646.4578787987
 20
124.4939806606
 11
646.4578787987
 21
528.4939806606
  0
LINE
  5
55A
100
AcDbEntity
  8
0
100
AcDbLine
 62
9
  6
CONTINUOUS
 10
656.7928152893
 20
127.4939806606
 11
657.6588406931
 21
127.4939806606
  0
LINE
  5
55B
100
AcDbEntity
  8
0
100
AcDbLine
 62
9
  6
CONTINUOUS
 10
646.4578787987
 20
122.4939806606
 11
646.4578787987
 21
123.4939806606
  0
SPLINE
  5
55C
100
AcDbEntity
  8
0
100
AcDbSpline
 62
7
  6
CONTINUOUS
 70
0
 71
3
 72
10
 73
6
 74
0
 42
0.0000001
 43
0.0000001
 44
0.0000000001
 40
0.0
 40
0.0
 40
0.0
 40
0.0
 40
0.4129451558
 40
0.6837571604
 40
1.0
 40
1.0
 40
1.0
 40
1.0
 10
655.2928152893
 20
124.4939806606
 30
0.0
 10
655.5564359088
 20
124.4939806606
 30
0.0
 10
655.9792086858
 20
124.7574329855
 30
0.0
 10
656.3281079677
 20
125.2872051128
 30
0.0
 10
656.4760491593
 20
125.6357862622
 30
0.0
 10
656.5400197077
 20
125.8272699615
 30
0.0
  0
SPLINE
  5
55D
100
AcDbEntity
  8
0
100
AcDbSpline
 62
7
  6
CONTINUOUS
 70
0
 71
3
 72
9
 73
5
 74
0
 42
0.0000001
 43
0.0000001
 44
0.0000000001
 40
0.0
 40
0.0
 40
0.0
 40
0.0
 40
0.236210234
 40
1.0
 40
1.0
 40
1.0
 40
1.0
 10
656.5400197077
 20
125.8272699615
 30
0.0
 10
656.5821801518
 20
125.9534692516
 30
0.0
 10
656.7342292428
 20
126.4964172592
 30
0.0
 10
656.7928152893
 20
127.0637434895
 30
0.0
 10
656.7928152893
 20
127.4939806606
 30
0.0
  0
LINE
  5
55E
100
AcDbEntity
  8
0
100
AcDbLine
 62
7
  6
CONTINUOUS
 10
639.3583750797
 20
507.4939806606
 11
639.3583750797
 21
509.6840055363
  0
LINE
  5
55F
100
AcDbEntity
  8
0
100
AcDbLine
 62
7
  6
CONTINUOUS
 10
639.3583750797
 20
145.4939806606
 11
639.3583750797
 21
143.3039557848
  0
LINE
  5
560
100
AcDbEntity
  8
0
100
AcDbLine
 62
7
  6
CONTINUOUS
 10
120.3583750797
 20
187.7360373588
 11
120.3583750797
 21
189.4939806606
  0
LINE
  5
561
100
AcDbEntity
  8
0
100
AcDbLine
 62
7
  6
CONTINUOUS
 10
120.3583750797
 20
189.4939806606
 11
120.3583750797
 21
246.5439806606
  0
LINE
  5
562
100
AcDbEntity
  8
0
100
AcDbLine
 62
7
  6
CONTINUOUS
 10
120.3583750797
 20
246.5439806606
 11
120.3583750797
 21
406.4439806606
  0
LINE
  5
563
100
AcDbEntity
  8
0
100
AcDbLine
 62
7
  6
CONTINUOUS
 10
120.3583750797
 20
406.4439806606
 11
120.3583750797
 21
463.4939806606
  0
LINE
  5
564
100
AcDbEntity
  8
0
100
AcDbLine
 62
7
  6
CONTINUOUS
 10
120.3583750797
 20
463.4939806606
 11
120.3583750797
 21
465.2519239624
  0
LINE
  5
565
100
AcDbEntity
  8
0
100
AcDbLine
 62
7
  6
CONTINUOUS
 10
120.3583750797
 20
179.738778759
 11
120.3583750797
 21
181.4824375794
  0
LINE
  5
566
100
AcDbEntity
  8
0
100
AcDbLine
 62
7
  6
CONTINUOUS
 10
120.3583750797
 20
181.4824375794
 11
120.3583750797
 21
182.7495739207
  0
LINE
  5
567
100
AcDbEntity
  8
0
100
AcDbLine
 62
7
  6
CONTINUOUS
 10
120.3583750797
 20
182.7495739207
 11
120.3583750797
 21
187.7360373588
  0
LINE
  5
568
100
AcDbEntity
  8
0
100
AcDbLine
 62
7
  6
CONTINUOUS
 10
120.3583750797
 20
181.4824375683
 11
120.3583750797
 21
180.5296630347
  0
LINE
  5
569
100
AcDbEntity
  8
0
100
AcDbLine
 62
7
  6
CONTINUOUS
 10
120.3583750797
 20
180.5296630347
 11
120.3583750797
 21
179.738778759
  0
LINE
  5
56A
100
AcDbEntity
  8
0
100
AcDbLine
 62
7
  6
CONTINUOUS
 10
120.3583750797
 20
473.2491825622
 11
120.3583750797
 21
471.5055237417
  0
LINE
  5
56B
100
AcDbEntity
  8
0
100
AcDbLine
 62
7
  6
CONTINUOUS
 10
120.3583750797
 20
465.2519239624
 11
120.3583750797
 21
470.238387414
  0
LINE
  5
56C
100
AcDbEntity
  8
0
100
AcDbLine
 62
7
  6
CONTINUOUS
 10
120.3583750797
 20
470.238387414
 11
120.3583750797
 21
471.5055237528
  0
LINE
  5
56D
100
AcDbEntity
  8
0
100
AcDbLine
 62
7
  6
CONTINUOUS
 10
120.3583750797
 20
471.5055237528
 11
120.3583750797
 21
473.2491825622
  0
LINE
  5
56E
100
AcDbEntity
  8
0
100
AcDbLine
 62
7
  6
CONTINUOUS
 10
529.8452866056
 20
154.3261041591
 11
574.4578787987
 21
153.1578823189
  0
LINE
  5
56F
100
AcDbEntity
  8
0
100
AcDbLine
 62
7
  6
CONTINUOUS
 10
529.3583750797
 20
174.3877557043
 11
529.3583750797
 21
156.7538193114
  0
LINE
  5
570
100
AcDbEntity
  8
0
100
AcDbLine
 62
7
  6
CONTINUOUS
 10
529.3583750797
 20
156.7538193114
 11
529.3583750797
 21
155.312482896
  0
LINE
  5
571
100
AcDbEntity
  8
0
100
AcDbLine
 62
7
  6
CONTINUOUS
 10
529.3583750797
 20
155.312482896
 11
529.3583750797
 21
154.8581843151
  0
LINE
  5
572
100
AcDbEntity
  8
0
100
AcDbLine
 62
7
  6
CONTINUOUS
 10
529.3583750797
 20
478.6001969968
 11
529.3583750797
 21
496.2341420097
  0
LINE
  5
573
100
AcDbEntity
  8
0
100
AcDbLine
 62
7
  6
CONTINUOUS
 10
529.3583750797
 20
496.2341420097
 11
529.3583750797
 21
497.6754784251
  0
LINE
  5
574
100
AcDbEntity
  8
0
100
AcDbLine
 62
7
  6
CONTINUOUS
 10
529.3583750797
 20
497.6754784251
 11
529.3583750797
 21
498.1297803765
  0
LINE
  5
575
100
AcDbEntity
  8
0
100
AcDbLine
 62
7
  6
CONTINUOUS
 10
449.3583750797
 20
157.9530429598
 11
449.3583750797
 21
158.4065540604
  0
LINE
  5
576
100
AcDbEntity
  8
0
100
AcDbLine
 62
7
  6
CONTINUOUS
 10
449.3583750797
 20
158.4065540604
 11
449.3583750797
 21
158.4464781199
  0
LINE
  5
577
100
AcDbEntity
  8
0
100
AcDbLine
 62
7
  6
CONTINUOUS
 10
449.3583750797
 20
158.4464781199
 11
449.3583750797
 21
159.8475903931
  0
LINE
  5
578
100
AcDbEntity
  8
0
100
AcDbLine
 62
7
  6
CONTINUOUS
 10
449.3583750797
 20
159.8475903931
 11
449.3583750797
 21
177.4826666378
  0
LINE
  5
579
100
AcDbEntity
  8
0
100
AcDbLine
 62
7
  6
CONTINUOUS
 10
449.3583750797
 20
495.0349217315
 11
449.3583750797
 21
494.5814072607
  0
LINE
  5
57A
100
AcDbEntity
  8
0
100
AcDbLine
 62
7
  6
CONTINUOUS
 10
449.3583750797
 20
494.5814072607
 11
449.3583750797
 21
494.5414829825
  0
LINE
  5
57B
100
AcDbEntity
  8
0
100
AcDbLine
 62
7
  6
CONTINUOUS
 10
449.3583750797
 20
494.5414829825
 11
449.3583750797
 21
493.140370928
  0
LINE
  5
57C
100
AcDbEntity
  8
0
100
AcDbLine
 62
7
  6
CONTINUOUS
 10
449.3583750797
 20
493.140370928
 11
449.3583750797
 21
475.505286161
  0
LINE
  5
57D
100
AcDbEntity
  8
0
100
AcDbLine
 62
7
  6
CONTINUOUS
 10
379.3583750797
 20
160.7860557138
 11
379.3583750797
 21
161.2395634983
  0
LINE
  5
57E
100
AcDbEntity
  8
0
100
AcDbLine
 62
7
  6
CONTINUOUS
 10
379.3583750797
 20
161.2395634983
 11
379.3583750797
 21
161.2794928485
  0
LINE
  5
57F
100
AcDbEntity
  8
0
100
AcDbLine
 62
7
  6
CONTINUOUS
 10
379.3583750797
 20
161.2794928485
 11
379.3583750797
 21
162.6806043869
  0
LINE
  5
580
100
AcDbEntity
  8
0
100
AcDbLine
 62
7
  6
CONTINUOUS
 10
379.3583750797
 20
162.6806043869
 11
379.3583750797
 21
180.3162585041
  0
LINE
  5
581
100
AcDbEntity
  8
0
100
AcDbLine
 62
7
  6
CONTINUOUS
 10
379.3583750797
 20
492.2019089767
 11
379.3583750797
 21
491.7483978229
  0
LINE
  5
582
100
AcDbEntity
  8
0
100
AcDbLine
 62
7
  6
CONTINUOUS
 10
379.3583750797
 20
491.7483978229
 11
379.3583750797
 21
491.7084684726
  0
LINE
  5
583
100
AcDbEntity
  8
0
100
AcDbLine
 62
7
  6
CONTINUOUS
 10
379.3583750797
 20
491.7084684726
 11
379.3583750797
 21
490.3073569343
  0
LINE
  5
584
100
AcDbEntity
  8
0
100
AcDbLine
 62
7
  6
CONTINUOUS
 10
379.3583750797
 20
490.3073569343
 11
379.3583750797
 21
472.6716942909
  0
LINE
  5
585
100
AcDbEntity
  8
0
100
AcDbLine
 62
7
  6
CONTINUOUS
 10
449.8452866056
 20
157.4209778846
 11
528.8714635539
 21
155.3516046131
  0
LINE
  5
586
100
AcDbEntity
  8
0
100
AcDbLine
 62
7
  6
CONTINUOUS
 10
379.8452866056
 20
160.2539923944
 11
448.8714635539
 21
158.4464783387
  0
LINE
  5
587
100
AcDbEntity
  8
0
100
AcDbLine
 62
7
  6
CONTINUOUS
 10
132.0442517
 20
167.7428908592
 11
378.8714635539
 21
161.2794928485
  0
LINE
  5
588
100
AcDbEntity
  8
0
100
AcDbLine
 62
7
  6
CONTINUOUS
 10
120.3583750797
 20
187.7360373588
 11
120.3583750797
 21
189.4939806606
  0
LINE
  5
589
100
AcDbEntity
  8
0
100
AcDbLine
 62
7
  6
CONTINUOUS
 10
120.3583750797
 20
189.4939806606
 11
120.3583750797
 21
246.5439806606
  0
LINE
  5
58A
100
AcDbEntity
  8
0
100
AcDbLine
 62
7
  6
CONTINUOUS
 10
120.3583750797
 20
246.5439806606
 11
120.3583750797
 21
406.4439806606
  0
LINE
  5
58B
100
AcDbEntity
  8
0
100
AcDbLine
 62
7
  6
CONTINUOUS
 10
120.3583750797
 20
406.4439806606
 11
120.3583750797
 21
463.4939806606
  0
LINE
  5
58C
100
AcDbEntity
  8
0
100
AcDbLine
 62
7
  6
CONTINUOUS
 10
120.3583750797
 20
463.4939806606
 11
120.3583750797
 21
465.2519239624
  0
ARC
  5
58D
100
AcDbEntity
  8
0
100
AcDbCircle
 62
7
  6
CONTINUOUS
 10
559.8583750797
 20
503.9476061466
 40
0.5
100
AcDbArc
 50
91.5
 51
121.0
  0
ARC
  5
58E
100
AcDbEntity
  8
0
100
AcDbCircle
 62
7
  6
CONTINUOUS
 10
559.8583750797
 20
503.9476061466
 40
0.5
100
AcDbArc
 50
121.0
 51
131.3043774867
  0
ARC
  5
58F
100
AcDbEntity
  8
0
100
AcDbCircle
 62
7
  6
CONTINUOUS
 10
559.8583750797
 20
503.9476061466
 40
0.5
100
AcDbArc
 50
131.3043774867
 51
150.5
  0
ARC
  5
590
100
AcDbEntity
  8
0
100
AcDbCircle
 62
7
  6
CONTINUOUS
 10
559.8583750797
 20
503.9476061466
 40
0.5
100
AcDbArc
 50
150.5
 51
165.25
  0
LINE
  5
591
100
AcDbEntity
  8
0
100
AcDbLine
 62
7
  6
CONTINUOUS
 10
117.3583750797
 20
470.9939806606
 11
117.3583750797
 21
470.6255791747
  0
LINE
  5
592
100
AcDbEntity
  8
0
100
AcDbLine
 62
7
  6
CONTINUOUS
 10
117.3583750797
 20
470.6255791747
 11
117.3583750797
 21
469.5584448746
  0
LINE
  5
593
100
AcDbEntity
  8
0
100
AcDbLine
 62
7
  6
CONTINUOUS
 10
117.3583750797
 20
469.5584448746
 11
117.3583750797
 21
469.4818361209
  0
LINE
  5
594
100
AcDbEntity
  8
0
100
AcDbLine
 62
7
  6
CONTINUOUS
 10
117.3583750797
 20
469.4818361209
 11
117.3583750797
 21
467.8974541508
  0
LINE
  5
595
100
AcDbEntity
  8
0
100
AcDbLine
 62
7
  6
CONTINUOUS
 10
117.3583750797
 20
467.8974541508
 11
117.3583750797
 21
467.5818510445
  0
LINE
  5
596
100
AcDbEntity
  8
0
100
AcDbLine
 62
7
  6
CONTINUOUS
 10
117.3583750797
 20
467.5818510445
 11
117.3583750797
 21
463.4939806606
  0
LINE
  5
597
100
AcDbEntity
  8
0
100
AcDbLine
 62
7
  6
CONTINUOUS
 10
117.3583750797
 20
181.9939806606
 11
117.3583750797
 21
182.3623821464
  0
LINE
  5
598
100
AcDbEntity
  8
0
100
AcDbLine
 62
7
  6
CONTINUOUS
 10
117.3583750797
 20
182.3623821464
 11
117.3583750797
 21
183.4295164465
  0
LINE
  5
599
100
AcDbEntity
  8
0
100
AcDbLine
 62
7
  6
CONTINUOUS
 10
117.3583750797
 20
183.4295164465
 11
117.3583750797
 21
183.5061252002
  0
LINE
  5
59A
100
AcDbEntity
  8
0
100
AcDbLine
 62
7
  6
CONTINUOUS
 10
117.3583750797
 20
183.5061252002
 11
117.3583750797
 21
185.0905071703
  0
LINE
  5
59B
100
AcDbEntity
  8
0
100
AcDbLine
 62
7
  6
CONTINUOUS
 10
117.3583750797
 20
185.0905071703
 11
117.3583750797
 21
185.4061102766
  0
LINE
  5
59C
100
AcDbEntity
  8
0
100
AcDbLine
 62
7
  6
CONTINUOUS
 10
117.3583750797
 20
185.4061102766
 11
117.3583750797
 21
189.4939806606
  0
LINE
  5
59D
100
AcDbEntity
  8
0
100
AcDbLine
 62
7
  6
CONTINUOUS
 10
117.8583750797
 20
181.4939806606
 11
119.8583750797
 21
181.4939806606
  0
ARC
  5
59E
100
AcDbEntity
  8
0
100
AcDbCircle
 62
7
  6
CONTINUOUS
 10
559.8583750797
 20
503.9476061466
 40
0.5
100
AcDbArc
 50
150.8658424514
 51
180.0
  0
ARC
  5
59F
100
AcDbEntity
  8
0
100
AcDbCircle
 62
7
  6
CONTINUOUS
 10
559.8583750797
 20
503.9476061466
 40
0.5
100
AcDbArc
 50
131.3043774867
 51
150.8658424514
  0
ARC
  5
5A0
100
AcDbEntity
  8
0
100
AcDbCircle
 62
7
  6
CONTINUOUS
 10
559.8583750797
 20
503.9476061466
 40
0.5
100
AcDbArc
 50
121.0
 51
131.3043774867
  0
ARC
  5
5A1
100
AcDbEntity
  8
0
100
AcDbCircle
 62
7
  6
CONTINUOUS
 10
559.8583750797
 20
503.9476061466
 40
0.5
100
AcDbArc
 50
106.25
 51
121.0
  0
ARC
  5
5A2
100
AcDbEntity
  8
0
100
AcDbCircle
 62
7
  6
CONTINUOUS
 10
559.8583750797
 20
503.9476061466
 40
0.5
100
AcDbArc
 50
91.5
 51
106.25
  0
LINE
  5
5A3
100
AcDbEntity
  8
0
100
AcDbLine
 62
7
  6
CONTINUOUS
 10
117.3583750797
 20
189.4939806606
 11
117.3583750797
 21
190.203006696
  0
LINE
  5
5A4
100
AcDbEntity
  8
0
100
AcDbLine
 62
7
  6
CONTINUOUS
 10
117.3583750797
 20
190.203006696
 11
117.3583750797
 21
243.9939806606
  0
LINE
  5
5A5
100
AcDbEntity
  8
0
100
AcDbLine
 62
7
  6
CONTINUOUS
 10
117.3583750797
 20
243.9939806606
 11
117.3583750797
 21
244.1939806606
  0
LINE
  5
5A6
100
AcDbEntity
  8
0
100
AcDbLine
 62
7
  6
CONTINUOUS
 10
117.3583750797
 20
244.1939806606
 11
117.3583750797
 21
244.4939806606
  0
LINE
  5
5A7
100
AcDbEntity
  8
0
100
AcDbLine
 62
7
  6
CONTINUOUS
 10
117.3583750797
 20
244.4939806606
 11
117.3583750797
 21
408.4939806606
  0
LINE
  5
5A8
100
AcDbEntity
  8
0
100
AcDbLine
 62
7
  6
CONTINUOUS
 10
117.3583750797
 20
408.4939806606
 11
117.3583750797
 21
408.7939806606
  0
LINE
  5
5A9
100
AcDbEntity
  8
0
100
AcDbLine
 62
7
  6
CONTINUOUS
 10
117.3583750797
 20
408.7939806606
 11
117.3583750797
 21
408.9939806606
  0
LINE
  5
5AA
100
AcDbEntity
  8
0
100
AcDbLine
 62
7
  6
CONTINUOUS
 10
117.3583750797
 20
408.9939806606
 11
117.3583750797
 21
462.7849546251
  0
LINE
  5
5AB
100
AcDbEntity
  8
0
100
AcDbLine
 62
7
  6
CONTINUOUS
 10
117.3583750797
 20
462.7849546251
 11
117.3583750797
 21
463.4939806606
  0
LINE
  5
5AC
100
AcDbEntity
  8
0
100
AcDbLine
 62
7
  6
CONTINUOUS
 10
559.8452866056
 20
504.4474348091
 11
574.4578787987
 21
504.8300790022
  0
ARC
  5
5AD
100
AcDbEntity
  8
0
100
AcDbCircle
 62
7
  6
CONTINUOUS
 10
119.8583750797
 20
180.9939806606
 40
0.5
100
AcDbArc
 50
0.0
 51
90.0
  0
ARC
  5
5AE
100
AcDbEntity
  8
0
100
AcDbCircle
 62
7
  6
CONTINUOUS
 10
637.3583750797
 20
509.6840055363
 40
2.0
100
AcDbArc
 50
0.0
 51
84.2894068625
  0
LINE
  5
5AF
100
AcDbEntity
  8
0
100
AcDbLine
 62
7
  6
CONTINUOUS
 10
639.3583750797
 20
507.4939806606
 11
639.3583750797
 21
509.6840055363
  0
LINE
  5
5B0
100
AcDbEntity
  8
0
100
AcDbLine
 62
7
  6
CONTINUOUS
 10
448.8714635539
 20
494.5414829825
 11
379.8452866056
 21
492.7339689267
  0
LINE
  5
5B1
100
AcDbEntity
  8
0
100
AcDbLine
 62
7
  6
CONTINUOUS
 10
528.8714635539
 20
497.636356708
 11
449.8452866056
 21
495.5669834365
  0
LINE
  5
5B2
100
AcDbEntity
  8
0
100
AcDbLine
 62
7
  6
CONTINUOUS
 10
574.4578787987
 20
499.8300790022
 11
529.8452866056
 21
498.661857162
  0
ARC
  5
5B3
100
AcDbEntity
  8
0
100
AcDbCircle
 62
7
  6
CONTINUOUS
 10
117.8583750797
 20
470.9939806606
 40
0.5
100
AcDbArc
 50
90.0
 51
179.9999999822
  0
LINE
  5
5B4
100
AcDbEntity
  8
0
100
AcDbLine
 62
7
  6
CONTINUOUS
 10
117.3583750797
 20
463.4939806606
 11
117.3583750797
 21
467.5818510445
  0
LINE
  5
5B5
100
AcDbEntity
  8
0
100
AcDbLine
 62
7
  6
CONTINUOUS
 10
117.3583750797
 20
467.5818510445
 11
117.3583750797
 21
467.9023700119
  0
LINE
  5
5B6
100
AcDbEntity
  8
0
100
AcDbLine
 62
7
  6
CONTINUOUS
 10
117.3583750797
 20
467.9023700119
 11
117.3583750797
 21
469.5616081001
  0
LINE
  5
5B7
100
AcDbEntity
  8
0
100
AcDbLine
 62
7
  6
CONTINUOUS
 10
117.3583750797
 20
469.5616081001
 11
117.3583750797
 21
470.6269045292
  0
LINE
  5
5B8
100
AcDbEntity
  8
0
100
AcDbLine
 62
7
  6
CONTINUOUS
 10
117.3583750797
 20
470.6269045292
 11
117.3583750797
 21
470.9939806606
  0
ARC
  5
5B9
100
AcDbEntity
  8
0
100
AcDbCircle
 62
7
  6
CONTINUOUS
 10
559.8583750797
 20
149.0403551745
 40
0.5
100
AcDbArc
 50
180.0
 51
209.5
  0
ARC
  5
5BA
100
AcDbEntity
  8
0
100
AcDbCircle
 62
7
  6
CONTINUOUS
 10
559.8583750797
 20
149.0403551745
 40
0.5
100
AcDbArc
 50
209.5
 51
228.6956225134
  0
ARC
  5
5BB
100
AcDbEntity
  8
0
100
AcDbCircle
 62
7
  6
CONTINUOUS
 10
559.8583750797
 20
149.0403551745
 40
0.5
100
AcDbArc
 50
239.0
 51
253.75
  0
LINE
  5
5BC
100
AcDbEntity
  8
0
100
AcDbLine
 62
7
  6
CONTINUOUS
 10
637.5573825178
 20
141.3138814044
 11
609.4578787987
 21
138.5039310325
  0
LINE
  5
5BD
100
AcDbEntity
  8
0
100
AcDbLine
 62
7
  6
CONTINUOUS
 10
639.3583750797
 20
507.4939806606
 11
639.3583750797
 21
145.4939806606
  0
LINE
  5
5BE
100
AcDbEntity
  8
0
100
AcDbLine
 62
7
  6
CONTINUOUS
 10
529.3590237802
 20
478.6687106629
 11
529.3586273032
 21
478.1226780945
  0
LINE
  5
5BF
100
AcDbEntity
  8
0
100
AcDbLine
 62
7
  6
CONTINUOUS
 10
529.3586273032
 20
478.1226780945
 11
529.3587524017
 21
477.6432162035
  0
LINE
  5
5C0
100
AcDbEntity
  8
0
100
AcDbLine
 62
7
  6
CONTINUOUS
 10
529.358752366
 20
175.3447452171
 11
529.3586271758
 21
174.8653751074
  0
LINE
  5
5C1
100
AcDbEntity
  8
0
100
AcDbLine
 62
7
  6
CONTINUOUS
 10
529.3586271758
 20
174.8653751074
 11
529.3590235733
 21
174.3192506583
  0
ARC
  5
5C2
100
AcDbEntity
  8
0
100
AcDbCircle
 62
7
  6
CONTINUOUS
 10
529.8583750797
 20
154.8259328216
 40
0.5
100
AcDbArc
 50
177.7745755679
 51
178.6024073385
  0
ARC
  5
5C3
100
AcDbEntity
  8
0
100
AcDbCircle
 62
7
  6
CONTINUOUS
 10
529.8583750797
 20
154.8259328216
 40
0.5
100
AcDbArc
 50
177.0815491908
 51
268.5
  0
ARC
  5
5C4
100
AcDbEntity
  8
0
100
AcDbCircle
 62
7
  6
CONTINUOUS
 10
529.8583750797
 20
154.8259328216
 40
0.5
100
AcDbArc
 50
209.4999981179
 51
268.5
  0
ARC
  5
5C5
100
AcDbEntity
  8
0
100
AcDbCircle
 62
7
  6
CONTINUOUS
 10
529.8583750797
 20
154.8259328216
 40
0.5
100
AcDbArc
 50
177.0819930025
 51
209.4999981179
  0
ARC
  5
5C6
100
AcDbEntity
  8
0
100
AcDbCircle
 62
7
  6
CONTINUOUS
 10
449.8583750797
 20
157.9208065471
 40
0.5
100
AcDbArc
 50
177.7745750678
 51
178.6024073931
  0
ARC
  5
5C7
100
AcDbEntity
  8
0
100
AcDbCircle
 62
7
  6
CONTINUOUS
 10
449.8583750797
 20
157.9211129411
 40
0.5
100
AcDbArc
 50
177.1180467267
 51
239.0121892553
  0
ARC
  5
5C8
100
AcDbEntity
  8
0
100
AcDbCircle
 62
7
  6
CONTINUOUS
 10
449.8583750797
 20
157.9211129411
 40
0.5
100
AcDbArc
 50
239.0121892553
 51
268.5009179215
  0
LINE
  5
5C9
100
AcDbEntity
  8
0
100
AcDbLine
 62
7
  6
CONTINUOUS
 10
449.3587365848
 20
474.5477371198
 11
449.3585837803
 21
399.7516248025
  0
LINE
  5
5CA
100
AcDbEntity
  8
0
100
AcDbLine
 62
7
  6
CONTINUOUS
 10
449.3585837803
 20
399.7516248025
 11
449.3585837718
 21
253.2363365184
  0
LINE
  5
5CB
100
AcDbEntity
  8
0
100
AcDbLine
 62
7
  6
CONTINUOUS
 10
449.3585837718
 20
253.2363365184
 11
449.3587365498
 21
178.4402242986
  0
LINE
  5
5CC
100
AcDbEntity
  8
0
100
AcDbLine
 62
7
  6
CONTINUOUS
 10
449.3590106083
 20
475.5738369376
 11
449.3586187575
 21
475.0274831444
  0
LINE
  5
5CD
100
AcDbEntity
  8
0
100
AcDbLine
 62
7
  6
CONTINUOUS
 10
449.3586187575
 20
475.0274831444
 11
449.3587365848
 21
474.5477371198
  0
LINE
  5
5CE
100
AcDbEntity
  8
0
100
AcDbLine
 62
7
  6
CONTINUOUS
 10
449.3590106083
 20
475.5738369376
 11
449.3583761286
 21
475.5738369372
  0
LINE
  5
5CF
100
AcDbEntity
  8
0
100
AcDbLine
 62
7
  6
CONTINUOUS
 10
449.3590104034
 20
177.4141243835
 11
449.358376128
 21
177.4141243839
  0
LINE
  5
5D0
100
AcDbEntity
  8
0
100
AcDbLine
 62
7
  6
CONTINUOUS
 10
449.3587365498
 20
178.4402242986
 11
449.3586186322
 21
177.9605702629
  0
LINE
  5
5D1
100
AcDbEntity
  8
0
100
AcDbLine
 62
7
  6
CONTINUOUS
 10
449.3586186322
 20
177.9605702629
 11
449.3590104034
 21
177.4141243835
  0
ARC
  5
5D2
100
AcDbEntity
  8
0
100
AcDbCircle
 62
7
  6
CONTINUOUS
 10
379.8583750797
 20
160.7538210569
 40
0.5
100
AcDbArc
 50
177.7745755678
 51
178.6024073385
  0
ARC
  5
5D3
100
AcDbEntity
  8
0
100
AcDbCircle
 62
7
  6
CONTINUOUS
 10
379.8583750797
 20
160.7541274815
 40
0.5
100
AcDbArc
 50
177.1182040981
 51
239.0121904213
  0
ARC
  5
5D4
100
AcDbEntity
  8
0
100
AcDbCircle
 62
7
  6
CONTINUOUS
 10
379.8583750797
 20
160.7541274815
 40
0.5
100
AcDbArc
 50
239.0121904213
 51
268.5009180128
  0
LINE
  5
5D5
100
AcDbEntity
  8
0
100
AcDbLine
 62
7
  6
CONTINUOUS
 10
379.3590091644
 20
472.7402467245
 11
379.3586185428
 21
472.1944805891
  0
LINE
  5
5D6
100
AcDbEntity
  8
0
100
AcDbLine
 62
7
  6
CONTINUOUS
 10
379.3586185428
 20
472.1944805891
 11
379.3587365851
 21
471.7153278427
  0
LINE
  5
5D7
100
AcDbEntity
  8
0
100
AcDbLine
 62
7
  6
CONTINUOUS
 10
379.3590091644
 20
472.7402467245
 11
379.3583761231
 21
472.7402467241
  0
LINE
  5
5D8
100
AcDbEntity
  8
0
100
AcDbLine
 62
7
  6
CONTINUOUS
 10
379.3590089598
 20
180.2477145966
 11
379.3583761224
 21
180.247714597
  0
LINE
  5
5D9
100
AcDbEntity
  8
0
100
AcDbLine
 62
7
  6
CONTINUOUS
 10
379.3587365501
 20
181.2726335757
 11
379.3586184177
 21
180.7935725545
  0
LINE
  5
5DA
100
AcDbEntity
  8
0
100
AcDbLine
 62
7
  6
CONTINUOUS
 10
379.3586184177
 20
180.7935725545
 11
379.3590089598
 21
180.2477145966
  0
ARC
  5
5DB
100
AcDbEntity
  8
0
100
AcDbCircle
 62
7
  6
CONTINUOUS
 10
559.8583750797
 20
149.0403551745
 40
0.5
100
AcDbArc
 50
238.8101233197
 51
268.5
  0
ARC
  5
5DC
100
AcDbEntity
  8
0
100
AcDbCircle
 62
7
  6
CONTINUOUS
 10
559.8583750797
 20
149.0403551745
 40
0.5
100
AcDbArc
 50
228.6956225134
 51
238.8101233197
  0
ARC
  5
5DD
100
AcDbEntity
  8
0
100
AcDbCircle
 62
7
  6
CONTINUOUS
 10
559.8583750797
 20
149.0403551745
 40
0.5
100
AcDbArc
 50
209.1341575486
 51
228.6956225134
  0
ARC
  5
5DE
100
AcDbEntity
  8
0
100
AcDbCircle
 62
7
  6
CONTINUOUS
 10
559.8583750797
 20
149.0403551745
 40
0.5
100
AcDbArc
 50
194.75
 51
209.1341575486
  0
ARC
  5
5DF
100
AcDbEntity
  8
0
100
AcDbCircle
 62
7
  6
CONTINUOUS
 10
559.8583750797
 20
149.0403551745
 40
0.5
100
AcDbArc
 50
180.0
 51
194.75
  0
LINE
  5
5E0
100
AcDbEntity
  8
0
100
AcDbLine
 62
7
  6
CONTINUOUS
 10
574.4578787987
 20
148.1578823189
 11
559.8452866056
 21
148.540526512
  0
LINE
  5
5E1
100
AcDbEntity
  8
0
100
AcDbLine
 62
7
  6
CONTINUOUS
 10
574.4578787987
 20
148.1578823189
 11
559.8452866056
 21
148.540526512
  0
LINE
  5
5E2
100
AcDbEntity
  8
0
100
AcDbLine
 62
7
  6
CONTINUOUS
 10
559.3583750797
 20
153.0661983036
 11
559.3583750797
 21
149.2878250832
  0
LINE
  5
5E3
100
AcDbEntity
  8
0
100
AcDbLine
 62
7
  6
CONTINUOUS
 10
559.3583750797
 20
149.2878250832
 11
559.3583750797
 21
149.0403551745
  0
LINE
  5
5E4
100
AcDbEntity
  8
0
100
AcDbLine
 62
7
  6
CONTINUOUS
 10
379.3583750797
 20
180.2477145972
 11
379.3583750797
 21
181.2726335757
  0
LINE
  5
5E5
100
AcDbEntity
  8
0
100
AcDbLine
 62
7
  6
CONTINUOUS
 10
379.3583750797
 20
181.2726335757
 11
379.3583750797
 21
251.8119968937
  0
LINE
  5
5E6
100
AcDbEntity
  8
0
100
AcDbLine
 62
7
  6
CONTINUOUS
 10
379.3583750797
 20
251.8119968937
 11
379.3583750797
 21
401.1759644274
  0
LINE
  5
5E7
100
AcDbEntity
  8
0
100
AcDbLine
 62
7
  6
CONTINUOUS
 10
379.3583750797
 20
401.1759644274
 11
379.3583750797
 21
471.7153278427
  0
LINE
  5
5E8
100
AcDbEntity
  8
0
100
AcDbLine
 62
7
  6
CONTINUOUS
 10
379.3583750797
 20
471.7153278427
 11
379.3583750797
 21
472.7402467239
  0
LINE
  5
5E9
100
AcDbEntity
  8
0
100
AcDbLine
 62
7
  6
CONTINUOUS
 10
449.3583750797
 20
177.4141243841
 11
449.3583750797
 21
178.4402242986
  0
LINE
  5
5EA
100
AcDbEntity
  8
0
100
AcDbLine
 62
7
  6
CONTINUOUS
 10
449.3583750797
 20
178.4402242986
 11
449.3583750797
 21
253.236332272
  0
LINE
  5
5EB
100
AcDbEntity
  8
0
100
AcDbLine
 62
7
  6
CONTINUOUS
 10
449.3583750797
 20
253.236332272
 11
449.3583750797
 21
399.7516290491
  0
LINE
  5
5EC
100
AcDbEntity
  8
0
100
AcDbLine
 62
7
  6
CONTINUOUS
 10
449.3583750797
 20
399.7516290491
 11
449.3583750797
 21
474.5477371198
  0
LINE
  5
5ED
100
AcDbEntity
  8
0
100
AcDbLine
 62
7
  6
CONTINUOUS
 10
449.3583750797
 20
474.5477371198
 11
449.3583750797
 21
475.573836937
  0
LINE
  5
5EE
100
AcDbEntity
  8
0
100
AcDbLine
 62
7
  6
CONTINUOUS
 10
529.3583761641
 20
174.3192506575
 11
529.3590235733
 21
174.3192506583
  0
LINE
  5
5EF
100
AcDbEntity
  8
0
100
AcDbLine
 62
7
  6
CONTINUOUS
 10
529.3583761647
 20
478.6687106636
 11
529.3590237802
 21
478.6687106629
  0
LINE
  5
5F0
100
AcDbEntity
  8
0
100
AcDbLine
 62
7
  6
CONTINUOUS
 10
529.3583750797
 20
478.6687106625
 11
529.3583750797
 21
477.6432162035
  0
LINE
  5
5F1
100
AcDbEntity
  8
0
100
AcDbLine
 62
7
  6
CONTINUOUS
 10
529.3583750797
 20
477.6432162035
 11
529.3583750797
 21
398.1238171882
  0
LINE
  5
5F2
100
AcDbEntity
  8
0
100
AcDbLine
 62
7
  6
CONTINUOUS
 10
529.3583750797
 20
398.1238171882
 11
529.3583750797
 21
254.8641441329
  0
LINE
  5
5F3
100
AcDbEntity
  8
0
100
AcDbLine
 62
7
  6
CONTINUOUS
 10
529.3583750797
 20
254.8641441329
 11
529.3583750797
 21
175.3447452171
  0
LINE
  5
5F4
100
AcDbEntity
  8
0
100
AcDbLine
 62
7
  6
CONTINUOUS
 10
529.3583750797
 20
175.3447452171
 11
529.3583750797
 21
174.3192506586
  0
ARC
  5
5F5
100
AcDbEntity
  8
0
100
AcDbCircle
 62
7
  6
CONTINUOUS
 10
637.3583750797
 20
143.3039557848
 40
2.0
100
AcDbArc
 50
275.7105931375
 51
360.0
  0
LINE
  5
5F6
100
AcDbEntity
  8
0
100
AcDbLine
 62
7
  6
CONTINUOUS
 10
639.3583750797
 20
145.4939806606
 11
639.3583750797
 21
143.3039557848
  0
LINE
  5
5F7
100
AcDbEntity
  8
0
100
AcDbLine
 62
7
  6
CONTINUOUS
 10
448.8714719082
 20
158.4464781199
 11
448.8714696063
 21
158.4464783174
  0
LINE
  5
5F8
100
AcDbEntity
  8
0
100
AcDbLine
 62
7
  6
CONTINUOUS
 10
379.8452866056
 20
160.2539923944
 11
448.8714635539
 21
158.4464783387
  0
LINE
  5
5F9
100
AcDbEntity
  8
0
100
AcDbLine
 62
7
  6
CONTINUOUS
 10
528.8714719745
 20
155.3516043926
 11
528.8714695623
 21
155.351604593
  0
LINE
  5
5FA
100
AcDbEntity
  8
0
100
AcDbLine
 62
7
  6
CONTINUOUS
 10
449.8452866056
 20
157.4209778846
 11
528.8714635539
 21
155.3516046131
  0
LINE
  5
5FB
100
AcDbEntity
  8
0
100
AcDbLine
 62
7
  6
CONTINUOUS
 10
529.8452866056
 20
154.3261041591
 11
574.4578787987
 21
153.1578823189
  0
LINE
  5
5FC
100
AcDbEntity
  8
0
100
AcDbLine
 62
7
  6
CONTINUOUS
 10
117.3583750797
 20
189.4939806606
 11
117.3583750797
 21
190.203006696
  0
LINE
  5
5FD
100
AcDbEntity
  8
0
100
AcDbLine
 62
7
  6
CONTINUOUS
 10
117.3583750797
 20
190.203006696
 11
117.3583750797
 21
243.9939806606
  0
LINE
  5
5FE
100
AcDbEntity
  8
0
100
AcDbLine
 62
7
  6
CONTINUOUS
 10
117.3583750797
 20
243.9939806606
 11
117.3583750797
 21
244.1939806606
  0
LINE
  5
5FF
100
AcDbEntity
  8
0
100
AcDbLine
 62
7
  6
CONTINUOUS
 10
117.3583750797
 20
244.1939806606
 11
117.3583750797
 21
244.4939806606
  0
LINE
  5
600
100
AcDbEntity
  8
0
100
AcDbLine
 62
7
  6
CONTINUOUS
 10
117.3583750797
 20
244.4939806606
 11
117.3583750797
 21
408.4939806606
  0
LINE
  5
601
100
AcDbEntity
  8
0
100
AcDbLine
 62
7
  6
CONTINUOUS
 10
117.3583750797
 20
408.4939806606
 11
117.3583750797
 21
408.7939806606
  0
LINE
  5
602
100
AcDbEntity
  8
0
100
AcDbLine
 62
7
  6
CONTINUOUS
 10
117.3583750797
 20
408.7939806606
 11
117.3583750797
 21
408.9939806606
  0
LINE
  5
603
100
AcDbEntity
  8
0
100
AcDbLine
 62
7
  6
CONTINUOUS
 10
117.3583750797
 20
408.9939806606
 11
117.3583750797
 21
462.7849546251
  0
LINE
  5
604
100
AcDbEntity
  8
0
100
AcDbLine
 62
7
  6
CONTINUOUS
 10
117.3583750797
 20
462.7849546251
 11
117.3583750797
 21
463.4939806606
  0
ARC
  5
605
100
AcDbEntity
  8
0
100
AcDbCircle
 62
7
  6
CONTINUOUS
 10
117.8583750797
 20
181.9939806606
 40
0.5
100
AcDbArc
 50
180.0000000178
 51
270.0
  0
ARC
  5
606
100
AcDbEntity
  8
0
100
AcDbCircle
 62
7
  6
CONTINUOUS
 10
559.8583750797
 20
149.0403551745
 40
0.5
100
AcDbArc
 50
180.0
 51
209.1590184141
  0
ARC
  5
607
100
AcDbEntity
  8
0
100
AcDbCircle
 62
7
  6
CONTINUOUS
 10
559.8583750797
 20
149.0403551745
 40
0.5
100
AcDbArc
 50
228.6447685484
 51
238.6388284933
  0
LINE
  5
608
100
AcDbEntity
  8
0
100
AcDbLine
 62
7
  6
CONTINUOUS
 10
117.3583750797
 20
189.4939806606
 11
117.3583750797
 21
185.4061102766
  0
LINE
  5
609
100
AcDbEntity
  8
0
100
AcDbLine
 62
7
  6
CONTINUOUS
 10
117.3583750797
 20
185.4061102766
 11
117.3583750797
 21
185.0855913092
  0
LINE
  5
60A
100
AcDbEntity
  8
0
100
AcDbLine
 62
7
  6
CONTINUOUS
 10
117.3583750797
 20
185.0855913092
 11
117.3583750797
 21
183.426353221
  0
LINE
  5
60B
100
AcDbEntity
  8
0
100
AcDbLine
 62
7
  6
CONTINUOUS
 10
117.3583750797
 20
183.426353221
 11
117.3583750797
 21
182.3610567919
  0
LINE
  5
60C
100
AcDbEntity
  8
0
100
AcDbLine
 62
7
  6
CONTINUOUS
 10
117.3583750797
 20
182.3610567919
 11
117.3583750797
 21
181.9939806606
  0
ARC
  5
60D
100
AcDbEntity
  8
0
100
AcDbCircle
 62
7
  6
CONTINUOUS
 10
559.8583750797
 20
149.0403551745
 40
0.5
100
AcDbArc
 50
238.8101233197
 51
268.5
  0
ARC
  5
60E
100
AcDbEntity
  8
0
100
AcDbCircle
 62
7
  6
CONTINUOUS
 10
559.8583750797
 20
149.0403551745
 40
0.5
100
AcDbArc
 50
228.6956225134
 51
238.8101233197
  0
ARC
  5
60F
100
AcDbEntity
  8
0
100
AcDbCircle
 62
7
  6
CONTINUOUS
 10
559.8583750797
 20
149.0403551745
 40
0.5
100
AcDbArc
 50
209.1341575486
 51
228.6956225134
  0
ARC
  5
610
100
AcDbEntity
  8
0
100
AcDbCircle
 62
7
  6
CONTINUOUS
 10
559.8583750797
 20
149.0403551745
 40
0.5
100
AcDbArc
 50
194.75
 51
209.1341575486
  0
ARC
  5
611
100
AcDbEntity
  8
0
100
AcDbCircle
 62
7
  6
CONTINUOUS
 10
559.8583750797
 20
149.0403551745
 40
0.5
100
AcDbArc
 50
180.0
 51
194.75
  0
ARC
  5
612
100
AcDbEntity
  8
0
100
AcDbCircle
 62
7
  6
CONTINUOUS
 10
558.8583750797
 20
499.9217630176
 40
0.5
100
AcDbArc
 50
316.5609245236
 51
338.0968984711
  0
ARC
  5
613
100
AcDbEntity
  8
0
100
AcDbCircle
 62
7
  6
CONTINUOUS
 10
558.8583756772
 20
499.9217630332
 40
0.4999997013
100
AcDbArc
 50
316.5608788357
 51
338.0968703348
  0
ARC
  5
614
100
AcDbEntity
  8
0
100
AcDbCircle
 62
7
  6
CONTINUOUS
 10
558.8583750797
 20
499.9217630176
 40
0.5
100
AcDbArc
 50
301.0000102859
 51
316.5609248561
  0
ARC
  5
615
100
AcDbEntity
  8
0
100
AcDbCircle
 62
7
  6
CONTINUOUS
 10
558.8583750797
 20
499.9217630176
 40
0.5
100
AcDbArc
 50
316.5609248561
 51
338.2594212741
  0
ARC
  5
616
100
AcDbEntity
  8
0
100
AcDbCircle
 62
7
  6
CONTINUOUS
 10
558.8583756772
 20
499.9217630332
 40
0.4999997013
100
AcDbArc
 50
300.9999497874
 51
316.5608791718
  0
ARC
  5
617
100
AcDbEntity
  8
0
100
AcDbCircle
 62
7
  6
CONTINUOUS
 10
558.8583756772
 20
499.9217630332
 40
0.4999997013
100
AcDbArc
 50
316.5608791718
 51
338.259393341
  0
ARC
  5
618
100
AcDbEntity
  8
0
100
AcDbCircle
 62
7
  6
CONTINUOUS
 10
558.8583756772
 20
499.9217630332
 40
0.4999997013
100
AcDbArc
 50
338.259393341
 51
359.9999982072
  0
ARC
  5
619
100
AcDbEntity
  8
0
100
AcDbCircle
 62
7
  6
CONTINUOUS
 10
558.8583750797
 20
153.0661983036
 40
0.5
100
AcDbArc
 50
43.4390670131
 51
58.9999897141
  0
ARC
  5
61A
100
AcDbEntity
  8
0
100
AcDbCircle
 62
7
  6
CONTINUOUS
 10
558.8583750797
 20
153.0661983036
 40
0.5
100
AcDbArc
 50
21.7405787259
 51
43.4390670131
  0
ARC
  5
61B
100
AcDbEntity
  8
0
100
AcDbCircle
 62
7
  6
CONTINUOUS
 10
558.8583750797
 20
153.0661983036
 40
0.5
100
AcDbArc
 50
0.0
 51
21.7405787259
  0
ARC
  5
61C
100
AcDbEntity
  8
0
100
AcDbCircle
 62
7
  6
CONTINUOUS
 10
558.8583756772
 20
153.0661982879
 40
0.4999997013
100
AcDbArc
 50
21.740606659
 51
43.4391127011
  0
ARC
  5
61D
100
AcDbEntity
  8
0
100
AcDbCircle
 62
7
  6
CONTINUOUS
 10
558.8583756772
 20
153.0661982879
 40
0.4999997013
100
AcDbArc
 50
0.0000017928
 51
21.740606659
  0
ARC
  5
61E
100
AcDbEntity
  8
0
100
AcDbCircle
 62
7
  6
CONTINUOUS
 10
558.8583750797
 20
153.0661983036
 40
0.5
100
AcDbArc
 50
21.7405787259
 51
43.4390670131
  0
ARC
  5
61F
100
AcDbEntity
  8
0
100
AcDbCircle
 62
7
  6
CONTINUOUS
 10
558.8583756772
 20
153.0661982879
 40
0.4999997013
100
AcDbArc
 50
21.740606659
 51
43.4391057127
  0
ARC
  5
620
100
AcDbEntity
  8
0
100
AcDbCircle
 62
7
  6
CONTINUOUS
 10
378.8583750797
 20
492.2080959924
 40
0.4999950958
100
AcDbArc
 50
271.5006036021
 51
0.0230492604
  0
ARC
  5
621
100
AcDbEntity
  8
0
100
AcDbCircle
 62
7
  6
CONTINUOUS
 10
378.8583750797
 20
492.2082971351
 40
0.5
100
AcDbArc
 50
271.5
 51
300.9979921298
  0
ARC
  5
622
100
AcDbEntity
  8
0
100
AcDbCircle
 62
7
  6
CONTINUOUS
 10
378.8583750797
 20
492.2082971351
 40
0.5
100
AcDbArc
 50
300.9979921298
 51
314.5025521923
  0
ARC
  5
623
100
AcDbEntity
  8
0
100
AcDbCircle
 62
7
  6
CONTINUOUS
 10
378.8583750797
 20
492.2082971351
 40
0.5
100
AcDbArc
 50
314.5025521923
 51
330.4976210269
  0
ARC
  5
624
100
AcDbEntity
  8
0
100
AcDbCircle
 62
7
  6
CONTINUOUS
 10
378.8583750797
 20
492.2082971351
 40
0.5
100
AcDbArc
 50
330.4976210269
 51
360.0
  0
ARC
  5
625
100
AcDbEntity
  8
0
100
AcDbCircle
 62
7
  6
CONTINUOUS
 10
378.8583750797
 20
160.7798653288
 40
0.4999950958
100
AcDbArc
 50
58.989958033
 51
88.4993963979
  0
ARC
  5
626
100
AcDbEntity
  8
0
100
AcDbCircle
 62
7
  6
CONTINUOUS
 10
378.8583750797
 20
160.7798653288
 40
0.4999950958
100
AcDbArc
 50
45.4818897102
 51
58.989958033
  0
ARC
  5
627
100
AcDbEntity
  8
0
100
AcDbCircle
 62
7
  6
CONTINUOUS
 10
378.8583750797
 20
160.7798653288
 40
0.4999950958
100
AcDbArc
 50
29.4821070002
 51
45.4818897102
  0
ARC
  5
628
100
AcDbEntity
  8
0
100
AcDbCircle
 62
7
  6
CONTINUOUS
 10
378.8583750797
 20
160.7798653288
 40
0.4999950958
100
AcDbArc
 50
359.9769507396
 51
29.4821070002
  0
ARC
  5
629
100
AcDbEntity
  8
0
100
AcDbCircle
 62
7
  6
CONTINUOUS
 10
378.8583750797
 20
160.779664186
 40
0.5
100
AcDbArc
 50
0.0
 51
88.5
  0
ARC
  5
62A
100
AcDbEntity
  8
0
100
AcDbCircle
 62
7
  6
CONTINUOUS
 10
448.8583750797
 20
495.0411104857
 40
0.4999950954
100
AcDbArc
 50
271.5006036515
 51
0.0230511466
  0
ARC
  5
62B
100
AcDbEntity
  8
0
100
AcDbCircle
 62
7
  6
CONTINUOUS
 10
448.8583750797
 20
495.0413116449
 40
0.5
100
AcDbArc
 50
271.5
 51
300.9979919533
  0
ARC
  5
62C
100
AcDbEntity
  8
0
100
AcDbCircle
 62
7
  6
CONTINUOUS
 10
448.8583750797
 20
495.0413116449
 40
0.5
100
AcDbArc
 50
300.9979919533
 51
314.5025585532
  0
ARC
  5
62D
100
AcDbEntity
  8
0
100
AcDbCircle
 62
7
  6
CONTINUOUS
 10
448.8583750797
 20
495.0413116449
 40
0.5
100
AcDbArc
 50
314.5025585532
 51
330.4976208197
  0
ARC
  5
62E
100
AcDbEntity
  8
0
100
AcDbCircle
 62
7
  6
CONTINUOUS
 10
448.8583750797
 20
495.0413116449
 40
0.5
100
AcDbArc
 50
330.4976208197
 51
360.0
  0
ARC
  5
62F
100
AcDbEntity
  8
0
100
AcDbCircle
 62
7
  6
CONTINUOUS
 10
448.8583750797
 20
157.9468508354
 40
0.4999950954
100
AcDbArc
 50
58.9899572222
 51
88.4993963485
  0
ARC
  5
630
100
AcDbEntity
  8
0
100
AcDbCircle
 62
7
  6
CONTINUOUS
 10
448.8583750797
 20
157.9468508354
 40
0.4999950954
100
AcDbArc
 50
45.4818820508
 51
58.9899572222
  0
ARC
  5
631
100
AcDbEntity
  8
0
100
AcDbCircle
 62
7
  6
CONTINUOUS
 10
448.8583750797
 20
157.9468508354
 40
0.4999950954
100
AcDbArc
 50
29.4821055471
 51
45.4818820508
  0
ARC
  5
632
100
AcDbEntity
  8
0
100
AcDbCircle
 62
7
  6
CONTINUOUS
 10
448.8583750797
 20
157.9468508354
 40
0.4999950954
100
AcDbArc
 50
359.9769488534
 51
29.4821055471
  0
ARC
  5
633
100
AcDbEntity
  8
0
100
AcDbCircle
 62
7
  6
CONTINUOUS
 10
448.8583750797
 20
157.9466496762
 40
0.5
100
AcDbArc
 50
0.0
 51
88.5
  0
ARC
  5
634
100
AcDbEntity
  8
0
100
AcDbCircle
 62
7
  6
CONTINUOUS
 10
528.8583750797
 20
498.1359842277
 40
0.4999950958
100
AcDbArc
 50
271.5006036021
 51
0.0230492604
  0
ARC
  5
635
100
AcDbEntity
  8
0
100
AcDbCircle
 62
7
  6
CONTINUOUS
 10
528.8583750797
 20
498.1361853705
 40
0.5
100
AcDbArc
 50
271.5
 51
300.9979921298
  0
ARC
  5
636
100
AcDbEntity
  8
0
100
AcDbCircle
 62
7
  6
CONTINUOUS
 10
528.8583750797
 20
498.1361853705
 40
0.5
100
AcDbArc
 50
300.9979921298
 51
314.5025521981
  0
ARC
  5
637
100
AcDbEntity
  8
0
100
AcDbCircle
 62
7
  6
CONTINUOUS
 10
528.8583750797
 20
498.1361853705
 40
0.5
100
AcDbArc
 50
314.5025521981
 51
330.4976210269
  0
ARC
  5
638
100
AcDbEntity
  8
0
100
AcDbCircle
 62
7
  6
CONTINUOUS
 10
528.8583750797
 20
498.1361853705
 40
0.5
100
AcDbArc
 50
330.4976210269
 51
360.0
  0
ARC
  5
639
100
AcDbEntity
  8
0
100
AcDbCircle
 62
7
  6
CONTINUOUS
 10
528.8583750797
 20
154.8519770934
 40
0.4999950958
100
AcDbArc
 50
58.989958033
 51
88.4993963979
  0
ARC
  5
63A
100
AcDbEntity
  8
0
100
AcDbCircle
 62
7
  6
CONTINUOUS
 10
528.8583750797
 20
154.8519770934
 40
0.4999950958
100
AcDbArc
 50
45.4818897636
 51
58.989958033
  0
ARC
  5
63B
100
AcDbEntity
  8
0
100
AcDbCircle
 62
7
  6
CONTINUOUS
 10
528.8583750797
 20
154.8519770934
 40
0.4999950958
100
AcDbArc
 50
29.4821070002
 51
45.4818897636
  0
ARC
  5
63C
100
AcDbEntity
  8
0
100
AcDbCircle
 62
7
  6
CONTINUOUS
 10
528.8583750797
 20
154.8519770934
 40
0.4999950958
100
AcDbArc
 50
359.9769507396
 51
29.4821070002
  0
ARC
  5
63D
100
AcDbEntity
  8
0
100
AcDbCircle
 62
7
  6
CONTINUOUS
 10
528.8583750797
 20
154.8517759506
 40
0.5
100
AcDbArc
 50
0.0
 51
88.5
  0
ARC
  5
63E
100
AcDbEntity
  8
0
100
AcDbCircle
 62
7
  6
CONTINUOUS
 10
132.3583750797
 20
179.7389059052
 40
12.0
100
AcDbArc
 50
180.0006070787
 51
268.5000158902
  0
ARC
  5
63F
100
AcDbEntity
  8
0
100
AcDbCircle
 62
7
  6
CONTINUOUS
 10
132.3583750797
 20
179.738778759
 40
12.0
100
AcDbArc
 50
180.0
 51
197.6999142268
  0
ARC
  5
640
100
AcDbEntity
  8
0
100
AcDbCircle
 62
7
  6
CONTINUOUS
 10
132.3583750797
 20
179.738778759
 40
12.0
100
AcDbArc
 50
197.6999142268
 51
204.9031175744
  0
ARC
  5
641
100
AcDbEntity
  8
0
100
AcDbCircle
 62
7
  6
CONTINUOUS
 10
132.3583750797
 20
179.738778759
 40
12.0
100
AcDbArc
 50
204.9031175744
 51
215.3998750054
  0
ARC
  5
642
100
AcDbEntity
  8
0
100
AcDbCircle
 62
7
  6
CONTINUOUS
 10
132.3583750797
 20
179.738778759
 40
12.0
100
AcDbArc
 50
215.3998750054
 51
224.4579034214
  0
ARC
  5
643
100
AcDbEntity
  8
0
100
AcDbCircle
 62
7
  6
CONTINUOUS
 10
132.3583750797
 20
179.738778759
 40
12.0
100
AcDbArc
 50
224.4579034214
 51
233.0998807439
  0
ARC
  5
644
100
AcDbEntity
  8
0
100
AcDbCircle
 62
7
  6
CONTINUOUS
 10
132.3583750797
 20
179.738778759
 40
12.0
100
AcDbArc
 50
233.0998807439
 51
243.9995108879
  0
ARC
  5
645
100
AcDbEntity
  8
0
100
AcDbCircle
 62
7
  6
CONTINUOUS
 10
132.3583750797
 20
179.738778759
 40
12.0
100
AcDbArc
 50
243.9995108879
 51
250.7999255933
  0
ARC
  5
646
100
AcDbEntity
  8
0
100
AcDbCircle
 62
7
  6
CONTINUOUS
 10
132.3583750797
 20
179.738778759
 40
12.0
100
AcDbArc
 50
250.7999255933
 51
268.5
  0
ARC
  5
647
100
AcDbEntity
  8
0
100
AcDbCircle
 62
7
  6
CONTINUOUS
 10
132.3583750797
 20
473.2490554159
 40
12.0
100
AcDbArc
 50
162.2995047191
 51
179.9993929213
  0
ARC
  5
648
100
AcDbEntity
  8
0
100
AcDbCircle
 62
7
  6
CONTINUOUS
 10
132.3583750797
 20
473.2490554159
 40
12.0
100
AcDbArc
 50
155.0963443162
 51
162.2995047191
  0
ARC
  5
649
100
AcDbEntity
  8
0
100
AcDbCircle
 62
7
  6
CONTINUOUS
 10
132.3583750797
 20
473.2490554159
 40
12.0
100
AcDbArc
 50
144.5996261934
 51
155.0963443162
  0
ARC
  5
64A
100
AcDbEntity
  8
0
100
AcDbCircle
 62
7
  6
CONTINUOUS
 10
132.3583750797
 20
473.2490554159
 40
12.0
100
AcDbArc
 50
135.5416755206
 51
144.5996261934
  0
ARC
  5
64B
100
AcDbEntity
  8
0
100
AcDbCircle
 62
7
  6
CONTINUOUS
 10
132.3583750797
 20
473.2490554159
 40
12.0
100
AcDbArc
 50
126.8997509808
 51
135.5416755206
  0
ARC
  5
64C
100
AcDbEntity
  8
0
100
AcDbCircle
 62
7
  6
CONTINUOUS
 10
132.3583750797
 20
473.2490554159
 40
12.0
100
AcDbArc
 50
116.0002321706
 51
126.8997509808
  0
ARC
  5
64D
100
AcDbEntity
  8
0
100
AcDbCircle
 62
7
  6
CONTINUOUS
 10
132.3583750797
 20
473.2490554159
 40
12.0
100
AcDbArc
 50
109.1998724046
 51
116.0002321706
  0
ARC
  5
64E
100
AcDbEntity
  8
0
100
AcDbCircle
 62
7
  6
CONTINUOUS
 10
132.3583750797
 20
473.2490554159
 40
12.0
100
AcDbArc
 50
91.4999841098
 51
109.1998724046
  0
ARC
  5
64F
100
AcDbEntity
  8
0
100
AcDbCircle
 62
7
  6
CONTINUOUS
 10
132.3583750797
 20
473.2491825622
 40
12.0
100
AcDbArc
 50
91.5
 51
180.0
  0
ARC
  5
650
100
AcDbEntity
  8
0
100
AcDbCircle
 62
7
  6
CONTINUOUS
 10
559.8583750797
 20
503.9476061466
 40
0.5
100
AcDbArc
 50
150.8409815859
 51
180.0
  0
ARC
  5
651
100
AcDbEntity
  8
0
100
AcDbCircle
 62
7
  6
CONTINUOUS
 10
559.8583750797
 20
503.9476061466
 40
0.5
100
AcDbArc
 50
131.3552314517
 51
150.8409815859
  0
ARC
  5
652
100
AcDbEntity
  8
0
100
AcDbCircle
 62
7
  6
CONTINUOUS
 10
559.8583750797
 20
503.9476061466
 40
0.5
100
AcDbArc
 50
121.3611715067
 51
131.3552314517
  0
ARC
  5
653
100
AcDbEntity
  8
0
100
AcDbCircle
 62
7
  6
CONTINUOUS
 10
559.8583750797
 20
503.9476061466
 40
0.5
100
AcDbArc
 50
106.4337932003
 51
121.3611715067
  0
ARC
  5
654
100
AcDbEntity
  8
0
100
AcDbCircle
 62
7
  6
CONTINUOUS
 10
449.8583750797
 20
157.9211129411
 40
0.5
100
AcDbArc
 50
177.1184905024
 51
239.0121892553
  0
ARC
  5
655
100
AcDbEntity
  8
0
100
AcDbCircle
 62
7
  6
CONTINUOUS
 10
449.8583750797
 20
157.9211129411
 40
0.5
100
AcDbArc
 50
239.0121892553
 51
268.5009179215
  0
ARC
  5
656
100
AcDbEntity
  8
0
100
AcDbCircle
 62
7
  6
CONTINUOUS
 10
379.8583750797
 20
160.7541274815
 40
0.5
100
AcDbArc
 50
177.1186477787
 51
239.0121904213
  0
ARC
  5
657
100
AcDbEntity
  8
0
100
AcDbCircle
 62
7
  6
CONTINUOUS
 10
379.8583750797
 20
160.7541274815
 40
0.5
100
AcDbArc
 50
239.0121904213
 51
268.5009180128
  0
ARC
  5
658
100
AcDbEntity
  8
0
100
AcDbCircle
 62
7
  6
CONTINUOUS
 10
379.8583750797
 20
492.2338338397
 40
0.5
100
AcDbArc
 50
150.4764094873
 51
182.8817959894
  0
ARC
  5
659
100
AcDbEntity
  8
0
100
AcDbCircle
 62
7
  6
CONTINUOUS
 10
379.8583750797
 20
492.2338338397
 40
0.5
100
AcDbArc
 50
120.9878095787
 51
150.4764094873
  0
ARC
  5
65A
100
AcDbEntity
  8
0
100
AcDbCircle
 62
7
  6
CONTINUOUS
 10
379.8583750797
 20
492.2338338397
 40
0.5
100
AcDbArc
 50
91.4990819872
 51
120.9878095787
  0
ARC
  5
65B
100
AcDbEntity
  8
0
100
AcDbCircle
 62
7
  6
CONTINUOUS
 10
449.8583750797
 20
495.06684838
 40
0.5
100
AcDbArc
 50
150.4764117896
 51
182.8819533581
  0
ARC
  5
65C
100
AcDbEntity
  8
0
100
AcDbCircle
 62
7
  6
CONTINUOUS
 10
449.8583750797
 20
495.06684838
 40
0.5
100
AcDbArc
 50
120.9878107447
 51
150.4764117896
  0
ARC
  5
65D
100
AcDbEntity
  8
0
100
AcDbCircle
 62
7
  6
CONTINUOUS
 10
449.8583750797
 20
495.06684838
 40
0.5
100
AcDbArc
 50
91.4990820785
 51
120.9878107447
  0
ARC
  5
65E
100
AcDbEntity
  8
0
100
AcDbCircle
 62
7
  6
CONTINUOUS
 10
559.8583750797
 20
503.9476061466
 40
0.5
100
AcDbArc
 50
91.5
 51
121.1898766803
  0
ARC
  5
65F
100
AcDbEntity
  8
0
100
AcDbCircle
 62
7
  6
CONTINUOUS
 10
559.8583750797
 20
503.9476061466
 40
0.5
100
AcDbArc
 50
121.1898766803
 51
131.3043774867
  0
ARC
  5
660
100
AcDbEntity
  8
0
100
AcDbCircle
 62
7
  6
CONTINUOUS
 10
559.8583750797
 20
503.9476061466
 40
0.5
100
AcDbArc
 50
131.3043774867
 51
150.8658424514
  0
ARC
  5
661
100
AcDbEntity
  8
0
100
AcDbCircle
 62
7
  6
CONTINUOUS
 10
559.8583750797
 20
503.9476061466
 40
0.5
100
AcDbArc
 50
150.8658424514
 51
165.25
  0
ARC
  5
662
100
AcDbEntity
  8
0
100
AcDbCircle
 62
7
  6
CONTINUOUS
 10
559.8583750797
 20
503.9476061466
 40
0.5
100
AcDbArc
 50
165.25
 51
180.0
  0
ARC
  5
663
100
AcDbEntity
  8
0
100
AcDbCircle
 62
7
  6
CONTINUOUS
 10
559.8583750797
 20
503.9476061466
 40
0.5
100
AcDbArc
 50
150.8409815859
 51
180.0
  0
ARC
  5
664
100
AcDbEntity
  8
0
100
AcDbCircle
 62
7
  6
CONTINUOUS
 10
559.8583750797
 20
503.9476061466
 40
0.5
100
AcDbArc
 50
131.3552314517
 51
150.8409815859
  0
ARC
  5
665
100
AcDbEntity
  8
0
100
AcDbCircle
 62
7
  6
CONTINUOUS
 10
559.8583750797
 20
503.9476061466
 40
0.5
100
AcDbArc
 50
121.3611715067
 51
131.3552314517
  0
ARC
  5
666
100
AcDbEntity
  8
0
100
AcDbCircle
 62
7
  6
CONTINUOUS
 10
559.8583750797
 20
503.9476061466
 40
0.5
100
AcDbArc
 50
106.4337932003
 51
121.3611715067
  0
ARC
  5
667
100
AcDbEntity
  8
0
100
AcDbCircle
 62
7
  6
CONTINUOUS
 10
559.8583750797
 20
149.0403551745
 40
0.5
100
AcDbArc
 50
180.0
 51
209.1590184141
  0
ARC
  5
668
100
AcDbEntity
  8
0
100
AcDbCircle
 62
7
  6
CONTINUOUS
 10
559.8583750797
 20
149.0403551745
 40
0.5
100
AcDbArc
 50
228.6447685484
 51
238.6388284933
  0
LINE
  5
669
100
AcDbEntity
  8
0
100
AcDbLine
 62
7
  6
CONTINUOUS
 10
529.8452866056
 20
498.661857162
 11
574.4578787987
 21
499.8300790022
  0
LINE
  5
66A
100
AcDbEntity
  8
0
100
AcDbLine
 62
7
  6
CONTINUOUS
 10
449.8452866056
 20
495.5669834365
 11
528.8714635539
 21
497.636356708
  0
LINE
  5
66B
100
AcDbEntity
  8
0
100
AcDbLine
 62
7
  6
CONTINUOUS
 10
379.8452866056
 20
492.7339689267
 11
448.8714635539
 21
494.5414829825
  0
LINE
  5
66C
100
AcDbEntity
  8
0
100
AcDbLine
 62
7
  6
CONTINUOUS
 10
132.0442517
 20
485.2450704619
 11
378.8714635539
 21
491.7084684726
  0
LINE
  5
66D
100
AcDbEntity
  8
0
100
AcDbLine
 62
7
  6
CONTINUOUS
 10
559.3583750797
 20
499.9217630176
 11
559.3583750797
 21
503.7001362379
  0
LINE
  5
66E
100
AcDbEntity
  8
0
100
AcDbLine
 62
7
  6
CONTINUOUS
 10
559.3583750797
 20
503.7001362379
 11
559.3583750797
 21
503.9476061466
  0
LINE
  5
66F
100
AcDbEntity
  8
0
100
AcDbLine
 62
7
  6
CONTINUOUS
 10
574.4578787987
 20
504.8300790022
 11
559.8452866056
 21
504.4474348091
  0
LINE
  5
670
100
AcDbEntity
  8
0
100
AcDbLine
 62
7
  6
CONTINUOUS
 10
117.8583750797
 20
471.4939806606
 11
119.8583750797
 21
471.4939806606
  0
ARC
  5
671
100
AcDbEntity
  8
0
100
AcDbCircle
 62
7
  6
CONTINUOUS
 10
379.8583750797
 20
492.2338338397
 40
0.5
100
AcDbArc
 50
120.9878095787
 51
182.8813521337
  0
ARC
  5
672
100
AcDbEntity
  8
0
100
AcDbCircle
 62
7
  6
CONTINUOUS
 10
379.8583750797
 20
492.2338338397
 40
0.5
100
AcDbArc
 50
91.4990819872
 51
120.9878095787
  0
ARC
  5
673
100
AcDbEntity
  8
0
100
AcDbCircle
 62
7
  6
CONTINUOUS
 10
379.8583750797
 20
492.2341402642
 40
0.5
100
AcDbArc
 50
181.3975926614
 51
182.2254244322
  0
ARC
  5
674
100
AcDbEntity
  8
0
100
AcDbCircle
 62
7
  6
CONTINUOUS
 10
449.8583750797
 20
495.06684838
 40
0.5
100
AcDbArc
 50
120.9878107447
 51
182.8815094128
  0
ARC
  5
675
100
AcDbEntity
  8
0
100
AcDbCircle
 62
7
  6
CONTINUOUS
 10
449.8583750797
 20
495.06684838
 40
0.5
100
AcDbArc
 50
91.4990820785
 51
120.9878107447
  0
ARC
  5
676
100
AcDbEntity
  8
0
100
AcDbCircle
 62
7
  6
CONTINUOUS
 10
449.8583750797
 20
495.067154774
 40
0.5
100
AcDbArc
 50
181.3975926069
 51
182.2254249322
  0
ARC
  5
677
100
AcDbEntity
  8
0
100
AcDbCircle
 62
7
  6
CONTINUOUS
 10
119.8583750797
 20
471.9939806606
 40
0.5
100
AcDbArc
 50
270.0
 51
360.0
  0
ARC
  5
678
100
AcDbEntity
  8
0
100
AcDbCircle
 62
7
  6
CONTINUOUS
 10
529.8583750797
 20
498.1620284996
 40
0.5
100
AcDbArc
 50
91.5
 51
182.9180069153
  0
ARC
  5
679
100
AcDbEntity
  8
0
100
AcDbCircle
 62
7
  6
CONTINUOUS
 10
529.8583750797
 20
498.1620284996
 40
0.5
100
AcDbArc
 50
91.5
 51
150.5000018821
  0
ARC
  5
67A
100
AcDbEntity
  8
0
100
AcDbCircle
 62
7
  6
CONTINUOUS
 10
529.8583750797
 20
498.1620284996
 40
0.5
100
AcDbArc
 50
150.5000018821
 51
182.9184508914
  0
ARC
  5
67B
100
AcDbEntity
  8
0
100
AcDbCircle
 62
7
  6
CONTINUOUS
 10
529.8583750797
 20
498.1620284996
 40
0.5
100
AcDbArc
 50
181.3975926615
 51
182.2254244321
  0
LINE
  5
67C
100
AcDbEntity
  8
0
100
AcDbLine
 62
7
  6
CONTINUOUS
 10
528.8714694185
 20
497.6363567294
 11
528.8714718284
 21
497.6363569247
  0
LINE
  5
67D
100
AcDbEntity
  8
0
100
AcDbLine
 62
7
  6
CONTINUOUS
 10
448.8714694619
 20
494.541483005
 11
448.8714717636
 21
494.5414831974
  0
LINE
  5
67E
100
AcDbEntity
  8
0
100
AcDbLine
 62
7
  6
CONTINUOUS
 10
637.5573825178
 20
511.6740799168
 11
609.4578787987
 21
514.4840302887
  0
LINE
  5
67F
100
AcDbEntity
  8
0
100
AcDbLine
 62
9
  6
CONTINUOUS
 10
559.8645487177
 20
153.2757741047
 11
559.8583750797
 21
153.040012382
  0
LINE
  5
680
100
AcDbEntity
  8
0
100
AcDbLine
 62
9
  6
CONTINUOUS
 10
117.8583750797
 20
463.4939806606
 11
119.8583750797
 21
463.4939806606
  0
LINE
  5
681
100
AcDbEntity
  8
0
100
AcDbLine
 62
9
  6
CONTINUOUS
 10
117.8583750797
 20
189.4939806606
 11
119.8583750797
 21
189.4939806606
  0
LINE
  5
682
100
AcDbEntity
  8
0
100
AcDbLine
 62
9
  6
CONTINUOUS
 10
379.3583761231
 20
472.7402467241
 11
379.8458503292
 21
472.7402467239
  0
ARC
  5
683
100
AcDbEntity
  8
0
100
AcDbCircle
 62
9
  6
CONTINUOUS
 10
622.2080354215
 20
255.977378746
 40
4.1173608901
100
AcDbArc
 50
270.0151244526
 51
309.2075875243
  0
SPLINE
  5
684
100
AcDbEntity
  8
0
100
AcDbSpline
 62
9
  6
CONTINUOUS
 70
0
 71
3
 72
8
 73
4
 74
0
 42
0.0000001
 43
0.0000001
 44
0.0000000001
 40
0.0
 40
0.0
 40
0.0
 40
0.0
 40
1.0
 40
1.0
 40
1.0
 40
1.0
 10
624.8107506701
 20
252.7869972587
 30
0.0
 10
625.4492760617
 20
253.3078213392
 30
0.0
 10
625.9443579479
 20
254.0586547613
 30
0.0
 10
626.1715853318
 20
254.850702812
 30
0.0
  0
ARC
  5
685
100
AcDbEntity
  8
0
100
AcDbCircle
 62
9
  6
CONTINUOUS
 10
622.176507313
 20
255.9954408858
 40
4.1558481245
100
AcDbArc
 50
344.0110277617
 51
359.9798672847
  0
SPLINE
  5
686
100
AcDbEntity
  8
0
100
AcDbSpline
 62
9
  6
CONTINUOUS
 70
0
 71
3
 72
9
 73
5
 74
0
 42
0.0000001
 43
0.0000001
 44
0.0000000001
 40
0.0
 40
0.0
 40
0.0
 40
0.0
 40
0.2970708804
 40
1.0
 40
1.0
 40
1.0
 40
1.0
 10
622.1593676417
 20
250.9939806606
 30
0.0
 10
622.1593686754
 20
251.0799146155
 30
0.0
 10
622.1642855026
 20
251.3688851775
 30
0.0
 10
622.1745902173
 20
251.6596238626
 30
0.0
 10
622.2091238426
 20
251.8600068302
 30
0.0
  0
LINE
  5
687
100
AcDbEntity
  8
0
100
AcDbLine
 62
9
  6
CONTINUOUS
 10
132.0442517
 20
465.2519239624
 11
378.8714635539
 21
471.7153219731
  0
LINE
  5
688
100
AcDbEntity
  8
0
100
AcDbLine
 62
9
  6
CONTINUOUS
 10
609.4578787987
 20
251.8600060643
 11
622.2091238426
 21
251.8600068302
  0
LINE
  5
689
100
AcDbEntity
  8
0
100
AcDbLine
 62
9
  6
CONTINUOUS
 10
379.3583761224
 20
180.247714597
 11
379.8458503292
 21
180.2477145972
  0
SPLINE
  5
68A
100
AcDbEntity
  8
0
100
AcDbSpline
 62
9
  6
CONTINUOUS
 70
0
 71
3
 72
9
 73
5
 74
0
 42
0.0000001
 43
0.0000001
 44
0.0000000001
 40
0.0
 40
0.0
 40
0.0
 40
0.0
 40
0.2981095538
 40
1.0
 40
1.0
 40
1.0
 40
1.0
 10
622.2587929815
 20
252.7260415597
 30
0.0
 10
622.2587924098
 20
252.6398064907
 30
0.0
 10
622.2539331442
 20
252.3508316944
 30
0.0
 10
622.2435565443
 20
252.0601053792
 30
0.0
 10
622.2091557368
 20
251.8600028589
 30
0.0
  0
LINE
  5
68B
100
AcDbEntity
  8
0
100
AcDbLine
 62
9
  6
CONTINUOUS
 10
637.5573825178
 20
145.4939806606
 11
609.4578787987
 21
145.4939806606
  0
LINE
  5
68C
100
AcDbEntity
  8
0
100
AcDbLine
 62
9
  6
CONTINUOUS
 10
449.3583761286
 20
475.5738369372
 11
449.8452866056
 21
475.573836937
  0
LINE
  5
68D
100
AcDbEntity
  8
0
100
AcDbLine
 62
9
  6
CONTINUOUS
 10
637.5573825178
 20
145.4939806606
 11
637.5573896545
 21
144.2022733405
  0
LINE
  5
68E
100
AcDbEntity
  8
0
100
AcDbLine
 62
9
  6
CONTINUOUS
 10
637.5573896545
 20
144.2022733405
 11
637.5574028407
 21
142.1129837485
  0
LINE
  5
68F
100
AcDbEntity
  8
0
100
AcDbLine
 62
9
  6
CONTINUOUS
 10
637.5574028407
 20
142.1129837485
 11
637.5573825178
 21
141.3138814044
  0
SPLINE
  5
690
100
AcDbEntity
  8
0
100
AcDbSpline
 62
9
  6
CONTINUOUS
 70
0
 71
3
 72
11
 73
7
 74
0
 42
0.0000001
 43
0.0000001
 44
0.0000000001
 40
0.0
 40
0.0
 40
0.0
 40
0.0
 40
0.2492531886
 40
0.4989903488
 40
0.7492418268
 40
1.0
 40
1.0
 40
1.0
 40
1.0
 10
622.1593676417
 20
401.9939806606
 30
0.0
 10
622.806745475
 20
401.9939920491
 30
0.0
 10
624.1170014877
 20
401.7343088544
 30
0.0
 10
625.7735808596
 20
400.6224581473
 30
0.0
 10
626.8843224783
 20
398.9607945463
 30
0.0
 10
627.1448774442
 20
397.6452672236
 30
0.0
 10
627.1444792123
 20
396.9939806606
 30
0.0
  0
LINE
  5
691
100
AcDbEntity
  8
0
100
AcDbLine
 62
9
  6
CONTINUOUS
 10
449.358376128
 20
177.4141243839
 11
449.8452866056
 21
177.4141243841
  0
LINE
  5
692
100
AcDbEntity
  8
0
100
AcDbLine
 62
9
  6
CONTINUOUS
 10
609.4578787987
 20
401.9939806606
 11
622.1593676417
 21
401.9939806606
  0
LINE
  5
693
100
AcDbEntity
  8
0
100
AcDbLine
 62
9
  6
CONTINUOUS
 10
448.8708998303
 20
474.5477312564
 11
448.8708998303
 21
399.761548024
  0
LINE
  5
694
100
AcDbEntity
  8
0
100
AcDbLine
 62
9
  6
CONTINUOUS
 10
448.8708998303
 20
399.761548024
 11
448.8708998303
 21
253.2264132971
  0
LINE
  5
695
100
AcDbEntity
  8
0
100
AcDbLine
 62
9
  6
CONTINUOUS
 10
448.8708998303
 20
253.2264132971
 11
448.8708998303
 21
178.4402300647
  0
LINE
  5
696
100
AcDbEntity
  8
0
100
AcDbLine
 62
9
  6
CONTINUOUS
 10
609.4578787987
 20
250.9939806606
 11
622.1593676417
 21
250.9939806606
  0
SPLINE
  5
697
100
AcDbEntity
  8
0
100
AcDbSpline
 62
9
  6
CONTINUOUS
 70
0
 71
3
 72
11
 73
7
 74
0
 42
0.0000001
 43
0.0000001
 44
0.0000000001
 40
0.0
 40
0.0
 40
0.0
 40
0.0
 40
0.2492531886
 40
0.4989903488
 40
0.7492418268
 40
1.0
 40
1.0
 40
1.0
 40
1.0
 10
622.1593676417
 20
250.9939806606
 30
0.0
 10
622.806745475
 20
250.993969272
 30
0.0
 10
624.1170014877
 20
251.2536524667
 30
0.0
 10
625.7735808596
 20
252.3655031738
 30
0.0
 10
626.8843224783
 20
254.0271667748
 30
0.0
 10
627.1448774442
 20
255.3426940975
 30
0.0
 10
627.1444792123
 20
255.9939806606
 30
0.0
  0
LINE
  5
698
100
AcDbEntity
  8
0
100
AcDbLine
 62
9
  6
CONTINUOUS
 10
119.8583750797
 20
181.4939806606
 11
119.8583750797
 21
181.8866699716
  0
LINE
  5
699
100
AcDbEntity
  8
0
100
AcDbLine
 62
9
  6
CONTINUOUS
 10
119.8583750797
 20
181.8866699716
 11
119.8583750797
 21
182.2061253245
  0
LINE
  5
69A
100
AcDbEntity
  8
0
100
AcDbLine
 62
9
  6
CONTINUOUS
 10
119.8583750797
 20
182.2061253245
 11
119.8583750797
 21
183.0250208291
  0
LINE
  5
69B
100
AcDbEntity
  8
0
100
AcDbLine
 62
9
  6
CONTINUOUS
 10
119.8583750797
 20
183.0250208291
 11
119.8583750797
 21
183.2061252967
  0
LINE
  5
69C
100
AcDbEntity
  8
0
100
AcDbLine
 62
9
  6
CONTINUOUS
 10
119.8583750797
 20
183.2061252967
 11
119.8583750797
 21
185.7061102766
  0
LINE
  5
69D
100
AcDbEntity
  8
0
100
AcDbLine
 62
9
  6
CONTINUOUS
 10
119.8583750797
 20
185.7061102766
 11
119.8583750797
 21
187.0327289808
  0
LINE
  5
69E
100
AcDbEntity
  8
0
100
AcDbLine
 62
9
  6
CONTINUOUS
 10
119.8583750797
 20
187.0327289808
 11
119.8583750797
 21
187.7360373588
  0
LINE
  5
69F
100
AcDbEntity
  8
0
100
AcDbLine
 62
9
  6
CONTINUOUS
 10
119.8583750797
 20
187.7360373588
 11
119.8583750797
 21
189.4939806606
  0
LINE
  5
6A0
100
AcDbEntity
  8
0
100
AcDbLine
 62
9
  6
CONTINUOUS
 10
639.3583750797
 20
145.4939806606
 11
637.557382524
 21
145.4939806153
  0
LINE
  5
6A1
100
AcDbEntity
  8
0
100
AcDbLine
 62
9
  6
CONTINUOUS
 10
117.8583750797
 20
181.4939806606
 11
117.8583750797
 21
183.0239885499
  0
LINE
  5
6A2
100
AcDbEntity
  8
0
100
AcDbLine
 62
9
  6
CONTINUOUS
 10
117.8583750797
 20
183.0239885499
 11
117.8583750797
 21
183.2061252967
  0
LINE
  5
6A3
100
AcDbEntity
  8
0
100
AcDbLine
 62
9
  6
CONTINUOUS
 10
117.8583750797
 20
183.2061252967
 11
117.8583750797
 21
183.5061252002
  0
LINE
  5
6A4
100
AcDbEntity
  8
0
100
AcDbLine
 62
9
  6
CONTINUOUS
 10
117.8583750797
 20
183.5061252002
 11
117.8583750797
 21
184.7953808872
  0
LINE
  5
6A5
100
AcDbEntity
  8
0
100
AcDbLine
 62
9
  6
CONTINUOUS
 10
117.8583750797
 20
184.7953808872
 11
117.8583750797
 21
185.7061102766
  0
LINE
  5
6A6
100
AcDbEntity
  8
0
100
AcDbLine
 62
9
  6
CONTINUOUS
 10
117.8583750797
 20
185.7061102766
 11
117.8583750797
 21
187.028204827
  0
LINE
  5
6A7
100
AcDbEntity
  8
0
100
AcDbLine
 62
9
  6
CONTINUOUS
 10
117.8583750797
 20
187.028204827
 11
117.8583750797
 21
189.4939806606
  0
LINE
  5
6A8
100
AcDbEntity
  8
0
100
AcDbLine
 62
9
  6
CONTINUOUS
 10
379.8458503292
 20
180.2477145972
 11
448.8708998303
 21
178.4402300647
  0
LINE
  5
6A9
100
AcDbEntity
  8
0
100
AcDbLine
 62
9
  6
CONTINUOUS
 10
379.8452866056
 20
160.2539923944
 11
379.8428066455
 21
160.767084042
  0
LINE
  5
6AA
100
AcDbEntity
  8
0
100
AcDbLine
 62
9
  6
CONTINUOUS
 10
379.8428066455
 20
160.767084042
 11
379.8411509591
 21
162.2321023654
  0
LINE
  5
6AB
100
AcDbEntity
  8
0
100
AcDbLine
 62
9
  6
CONTINUOUS
 10
379.8411509591
 20
162.2321023654
 11
379.8458503292
 21
180.2477145972
  0
LINE
  5
6AC
100
AcDbEntity
  8
0
100
AcDbLine
 62
9
  6
CONTINUOUS
 10
379.8458503292
 20
472.7402467239
 11
448.8708998303
 21
474.5477312564
  0
LINE
  5
6AD
100
AcDbEntity
  8
0
100
AcDbLine
 62
9
  6
CONTINUOUS
 10
529.8452866056
 20
478.6687106625
 11
574.4578787987
 21
479.8369325027
  0
LINE
  5
6AE
100
AcDbEntity
  8
0
100
AcDbLine
 62
9
  6
CONTINUOUS
 10
528.8714635539
 20
477.6432102085
 11
528.8714635539
 21
398.1337246926
  0
LINE
  5
6AF
100
AcDbEntity
  8
0
100
AcDbLine
 62
9
  6
CONTINUOUS
 10
528.8714635539
 20
398.1337246926
 11
528.8714635539
 21
254.8542366285
  0
LINE
  5
6B0
100
AcDbEntity
  8
0
100
AcDbLine
 62
9
  6
CONTINUOUS
 10
528.8714635539
 20
254.8542366285
 11
528.8714635539
 21
175.3447511126
  0
LINE
  5
6B1
100
AcDbEntity
  8
0
100
AcDbLine
 62
9
  6
CONTINUOUS
 10
449.8452866056
 20
157.4209778846
 11
449.8426798379
 21
157.9340986259
  0
LINE
  5
6B2
100
AcDbEntity
  8
0
100
AcDbLine
 62
9
  6
CONTINUOUS
 10
449.8426798379
 20
157.9340986259
 11
449.8409066788
 21
159.3990947121
  0
LINE
  5
6B3
100
AcDbEntity
  8
0
100
AcDbLine
 62
9
  6
CONTINUOUS
 10
449.8409066788
 20
159.3990947121
 11
449.8452866056
 21
177.4141243841
  0
LINE
  5
6B4
100
AcDbEntity
  8
0
100
AcDbLine
 62
9
  6
CONTINUOUS
 10
559.3583750797
 20
503.9476061466
 11
559.4578787987
 21
503.9476061466
  0
LINE
  5
6B5
100
AcDbEntity
  8
0
100
AcDbLine
 62
9
  6
CONTINUOUS
 10
559.4578787987
 20
503.9476061466
 11
559.6056565248
 21
503.9476061466
  0
LINE
  5
6B6
100
AcDbEntity
  8
0
100
AcDbLine
 62
9
  6
CONTINUOUS
 10
559.6056565248
 20
503.9476061466
 11
559.8583750797
 21
503.9476061466
  0
LINE
  5
6B7
100
AcDbEntity
  8
0
100
AcDbLine
 62
9
  6
CONTINUOUS
 10
529.8452866056
 20
174.3192506586
 11
574.4578787987
 21
173.1510288184
  0
LINE
  5
6B8
100
AcDbEntity
  8
0
100
AcDbLine
 62
9
  6
CONTINUOUS
 10
120.3583750797
 20
465.2519239624
 11
122.5768223994
 21
465.2519246973
  0
LINE
  5
6B9
100
AcDbEntity
  8
0
100
AcDbLine
 62
9
  6
CONTINUOUS
 10
122.5768223994
 20
465.2519246973
 11
132.0442516999
 21
465.2519239264
  0
LINE
  5
6BA
100
AcDbEntity
  8
0
100
AcDbLine
 62
9
  6
CONTINUOUS
 10
449.8452866056
 20
177.4141243841
 11
528.8714635539
 21
175.3447511126
  0
LINE
  5
6BB
100
AcDbEntity
  8
0
100
AcDbLine
 62
9
  6
CONTINUOUS
 10
449.8452866056
 20
475.573836937
 11
528.8714635539
 21
477.6432102085
  0
LINE
  5
6BC
100
AcDbEntity
  8
0
100
AcDbLine
 62
9
  6
CONTINUOUS
 10
120.3583750797
 20
463.4939806606
 11
119.8583750797
 21
463.4939806606
  0
LINE
  5
6BD
100
AcDbEntity
  8
0
100
AcDbLine
 62
9
  6
CONTINUOUS
 10
120.3583750797
 20
189.4939806606
 11
119.8583750797
 21
189.4939806606
  0
LINE
  5
6BE
100
AcDbEntity
  8
0
100
AcDbLine
 62
9
  6
CONTINUOUS
 10
117.3583750797
 20
463.4939806606
 11
117.4578787987
 21
463.4939806606
  0
LINE
  5
6BF
100
AcDbEntity
  8
0
100
AcDbLine
 62
9
  6
CONTINUOUS
 10
117.4578787987
 20
463.4939806606
 11
117.8583750797
 21
463.4939806606
  0
LINE
  5
6C0
100
AcDbEntity
  8
0
100
AcDbLine
 62
9
  6
CONTINUOUS
 10
117.8583750797
 20
463.4939806606
 11
117.8583750797
 21
189.4939806606
  0
LINE
  5
6C1
100
AcDbEntity
  8
0
100
AcDbLine
 62
9
  6
CONTINUOUS
 10
378.8714635539
 20
471.7153219731
 11
378.8714635539
 21
401.1858719319
  0
LINE
  5
6C2
100
AcDbEntity
  8
0
100
AcDbLine
 62
9
  6
CONTINUOUS
 10
378.8714635539
 20
401.1858719319
 11
378.8714635539
 21
251.8020893892
  0
LINE
  5
6C3
100
AcDbEntity
  8
0
100
AcDbLine
 62
9
  6
CONTINUOUS
 10
559.8583750797
 20
153.040012382
 11
559.4574971574
 21
153.061008481
  0
LINE
  5
6C4
100
AcDbEntity
  8
0
100
AcDbLine
 62
9
  6
CONTINUOUS
 10
559.4574971574
 20
153.061008481
 11
559.3848212214
 21
153.0648140372
  0
LINE
  5
6C5
100
AcDbEntity
  8
0
100
AcDbLine
 62
9
  6
CONTINUOUS
 10
559.3848212214
 20
153.0648140372
 11
559.3583750694
 21
153.0661983057
  0
LINE
  5
6C6
100
AcDbEntity
  8
0
100
AcDbLine
 62
9
  6
CONTINUOUS
 10
559.8583750797
 20
503.9476061466
 11
559.8469615306
 21
504.3834720044
  0
LINE
  5
6C7
100
AcDbEntity
  8
0
100
AcDbLine
 62
9
  6
CONTINUOUS
 10
559.8469615306
 20
504.3834720044
 11
559.8452866056
 21
504.4474348091
  0
LINE
  5
6C8
100
AcDbEntity
  8
0
100
AcDbLine
 62
9
  6
CONTINUOUS
 10
117.3583750797
 20
189.4939806606
 11
117.4578787987
 21
189.4939806606
  0
LINE
  5
6C9
100
AcDbEntity
  8
0
100
AcDbLine
 62
9
  6
CONTINUOUS
 10
117.4578787987
 20
189.4939806606
 11
117.8583750797
 21
189.4939806606
  0
LINE
  5
6CA
100
AcDbEntity
  8
0
100
AcDbLine
 62
9
  6
CONTINUOUS
 10
120.3583750797
 20
187.7360373588
 11
122.5768415307
 21
187.7360373637
  0
LINE
  5
6CB
100
AcDbEntity
  8
0
100
AcDbLine
 62
9
  6
CONTINUOUS
 10
122.5768415307
 20
187.7360373637
 11
132.0442517
 21
187.7360373588
  0
LINE
  5
6CC
100
AcDbEntity
  8
0
100
AcDbLine
 62
9
  6
CONTINUOUS
 10
559.8583750797
 20
149.0403551745
 11
559.8469615306
 21
148.6044893167
  0
LINE
  5
6CD
100
AcDbEntity
  8
0
100
AcDbLine
 62
9
  6
CONTINUOUS
 10
559.8469615306
 20
148.6044893167
 11
559.8452866056
 21
148.540526512
  0
LINE
  5
6CE
100
AcDbEntity
  8
0
100
AcDbLine
 62
9
  6
CONTINUOUS
 10
559.3583750797
 20
499.9217630176
 11
559.4557654416
 21
499.9268651957
  0
LINE
  5
6CF
100
AcDbEntity
  8
0
100
AcDbLine
 62
9
  6
CONTINUOUS
 10
559.4557654416
 20
499.9268651957
 11
559.7063468052
 21
499.9399885978
  0
LINE
  5
6D0
100
AcDbEntity
  8
0
100
AcDbLine
 62
9
  6
CONTINUOUS
 10
559.7063468052
 20
499.9399885978
 11
559.8583750797
 21
499.9479489391
  0
LINE
  5
6D1
100
AcDbEntity
  8
0
100
AcDbLine
 62
9
  6
CONTINUOUS
 10
119.8583750797
 20
189.4939806606
 11
119.8583750797
 21
190.2012519406
  0
LINE
  5
6D2
100
AcDbEntity
  8
0
100
AcDbLine
 62
9
  6
CONTINUOUS
 10
119.8583750797
 20
190.2012519406
 11
119.8583750797
 21
246.5439806606
  0
LINE
  5
6D3
100
AcDbEntity
  8
0
100
AcDbLine
 62
9
  6
CONTINUOUS
 10
119.8583750797
 20
246.5439806606
 11
119.8583750797
 21
406.4439806606
  0
LINE
  5
6D4
100
AcDbEntity
  8
0
100
AcDbLine
 62
9
  6
CONTINUOUS
 10
119.8583750797
 20
406.4439806606
 11
119.8583750797
 21
462.7867093805
  0
LINE
  5
6D5
100
AcDbEntity
  8
0
100
AcDbLine
 62
9
  6
CONTINUOUS
 10
119.8583750797
 20
462.7867093805
 11
119.8583750797
 21
463.4939806606
  0
LINE
  5
6D6
100
AcDbEntity
  8
0
100
AcDbLine
 62
9
  6
CONTINUOUS
 10
559.3583750797
 20
149.0403551745
 11
559.4578787987
 21
149.0403551745
  0
LINE
  5
6D7
100
AcDbEntity
  8
0
100
AcDbLine
 62
9
  6
CONTINUOUS
 10
559.4578787987
 20
149.0403551745
 11
559.6056565248
 21
149.0403551745
  0
LINE
  5
6D8
100
AcDbEntity
  8
0
100
AcDbLine
 62
9
  6
CONTINUOUS
 10
559.6056565248
 20
149.0403551745
 11
559.8583750797
 21
149.0403551745
  0
SPLINE
  5
6D9
100
AcDbEntity
  8
0
100
AcDbSpline
 62
9
  6
CONTINUOUS
 70
0
 71
3
 72
9
 73
5
 74
0
 42
0.0000001
 43
0.0000001
 44
0.0000000001
 40
0.0
 40
0.0
 40
0.0
 40
0.0
 40
0.2288851662
 40
1.0
 40
1.0
 40
1.0
 40
1.0
 10
622.2495693999
 20
399.202770411
 30
0.0
 10
622.2511485291
 20
399.2249460649
 30
0.0
 10
622.2568327699
 20
399.32191625
 30
0.0
 10
622.2588714749
 20
399.419081631
 30
0.0
 10
622.258871361
 20
399.4939806603
 30
0.0
  0
LINE
  5
6DA
100
AcDbEntity
  8
0
100
AcDbLine
 62
9
  6
CONTINUOUS
 10
624.2091195012
 20
396.9939806606
 11
624.7563899558
 21
396.9939806606
  0
LINE
  5
6DB
100
AcDbEntity
  8
0
100
AcDbLine
 62
9
  6
CONTINUOUS
 10
624.2091195012
 20
257.1260870279
 11
624.2091195012
 21
257.7790547282
  0
LINE
  5
6DC
100
AcDbEntity
  8
0
100
AcDbLine
 62
9
  6
CONTINUOUS
 10
624.2091195012
 20
257.7790547282
 11
624.2091195012
 21
395.2089065929
  0
LINE
  5
6DD
100
AcDbEntity
  8
0
100
AcDbLine
 62
9
  6
CONTINUOUS
 10
624.2091195012
 20
395.2089065929
 11
624.2091195012
 21
395.8618742932
  0
LINE
  5
6DE
100
AcDbEntity
  8
0
100
AcDbLine
 62
9
  6
CONTINUOUS
 10
624.2091195012
 20
395.8618742932
 11
624.2091195012
 21
396.9939806606
  0
LINE
  5
6DF
100
AcDbEntity
  8
0
100
AcDbLine
 62
9
  6
CONTINUOUS
 10
624.2091195012
 20
255.9939806606
 11
624.7563899558
 21
255.9939806606
  0
LINE
  5
6E0
100
AcDbEntity
  8
0
100
AcDbLine
 62
9
  6
CONTINUOUS
 10
624.7563899558
 20
396.9939806606
 11
624.7563899558
 21
395.2089065929
  0
LINE
  5
6E1
100
AcDbEntity
  8
0
100
AcDbLine
 62
9
  6
CONTINUOUS
 10
624.7563899558
 20
395.2089065929
 11
624.7563899558
 21
257.7790547282
  0
LINE
  5
6E2
100
AcDbEntity
  8
0
100
AcDbLine
 62
9
  6
CONTINUOUS
 10
624.7563899558
 20
257.7790547282
 11
624.7563899558
 21
255.9939806606
  0
LINE
  5
6E3
100
AcDbEntity
  8
0
100
AcDbLine
 62
9
  6
CONTINUOUS
 10
625.5204492021
 20
396.9943286007
 11
626.3324937745
 21
396.9941546522
  0
LINE
  5
6E4
100
AcDbEntity
  8
0
100
AcDbLine
 62
9
  6
CONTINUOUS
 10
625.5204492024
 20
255.9936327205
 11
625.5204492024
 21
396.9943286006
  0
LINE
  5
6E5
100
AcDbEntity
  8
0
100
AcDbLine
 62
9
  6
CONTINUOUS
 10
625.5204492021
 20
255.9936327205
 11
626.3324937745
 21
255.9938066689
  0
LINE
  5
6E6
100
AcDbEntity
  8
0
100
AcDbLine
 62
9
  6
CONTINUOUS
 10
626.3324937745
 20
396.9941546522
 11
626.3324937745
 21
255.9938066689
  0
LINE
  5
6E7
100
AcDbEntity
  8
0
100
AcDbLine
 62
9
  6
CONTINUOUS
 10
627.1444792123
 20
396.9939806606
 11
627.0309958163
 21
396.993980667
  0
LINE
  5
6E8
100
AcDbEntity
  8
0
100
AcDbLine
 62
9
  6
CONTINUOUS
 10
627.1444792123
 20
255.9939806606
 11
627.0043399218
 21
255.9939806526
  0
LINE
  5
6E9
100
AcDbEntity
  8
0
100
AcDbLine
 62
9
  6
CONTINUOUS
 10
627.1444792123
 20
396.9939806606
 11
627.1444792123
 21
396.7009568114
  0
LINE
  5
6EA
100
AcDbEntity
  8
0
100
AcDbLine
 62
9
  6
CONTINUOUS
 10
627.1444792123
 20
256.3094874281
 11
627.1444792123
 21
255.9939806606
  0
SPLINE
  5
6EB
100
AcDbEntity
  8
0
100
AcDbSpline
 62
9
  6
CONTINUOUS
 70
0
 71
3
 72
8
 73
4
 74
0
 42
0.0000001
 43
0.0000001
 44
0.0000000001
 40
0.0
 40
0.0
 40
0.0
 40
0.0
 40
1.0
 40
1.0
 40
1.0
 40
1.0
 10
622.2587929815
 20
400.2619197614
 30
0.0
 10
622.7746547577
 20
400.2618311469
 30
0.0
 10
623.3044323321
 20
400.1322684285
 30
0.0
 10
623.7620409631
 20
399.8941345989
 30
0.0
  0
ARC
  5
6EC
100
AcDbEntity
  8
0
100
AcDbCircle
 62
9
  6
CONTINUOUS
 10
622.2643027222
 20
397.0161245682
 40
3.2444046565
100
AcDbArc
 50
60.3458575957
 51
62.5071892586
  0
SPLINE
  5
6ED
100
AcDbEntity
  8
0
100
AcDbSpline
 62
9
  6
CONTINUOUS
 70
0
 71
3
 72
8
 73
4
 74
0
 42
0.0000001
 43
0.0000001
 44
0.0000000001
 40
0.0
 40
0.0
 40
0.0
 40
0.0
 40
1.0
 40
1.0
 40
1.0
 40
1.0
 10
623.8695150333
 20
399.8356023587
 30
0.0
 10
624.2708027682
 20
399.6071439492
 30
0.0
 10
624.63002073
 20
399.2846085642
 30
0.0
 10
624.9005170303
 20
398.910366874
 30
0.0
  0
ARC
  5
6EE
100
AcDbEntity
  8
0
100
AcDbCircle
 62
9
  6
CONTINUOUS
 10
622.2429218534
 20
396.9895451036
 40
3.2790804195
100
AcDbArc
 50
30.6678378195
 51
35.8581565959
  0
SPLINE
  5
6EF
100
AcDbEntity
  8
0
100
AcDbSpline
 62
9
  6
CONTINUOUS
 70
0
 71
3
 72
8
 73
4
 74
0
 42
0.0000001
 43
0.0000001
 44
0.0000000001
 40
0.0
 40
0.0
 40
0.0
 40
0.0
 40
1.0
 40
1.0
 40
1.0
 40
1.0
 10
625.0633858955
 20
398.6620734248
 30
0.0
 10
625.3573746661
 20
398.166267113
 30
0.0
 10
625.5209076823
 20
397.5707425889
 30
0.0
 10
625.5204492024
 20
396.9943286006
 30
0.0
  0
LINE
  5
6F0
100
AcDbEntity
  8
0
100
AcDbLine
 62
9
  6
CONTINUOUS
 10
609.4578787987
 20
400.261929853
 11
622.2587929815
 21
400.2619197614
  0
LINE
  5
6F1
100
AcDbEntity
  8
0
100
AcDbLine
 62
9
  6
CONTINUOUS
 10
609.4578787987
 20
399.4939806606
 11
609.7078787987
 21
399.4939806606
  0
LINE
  5
6F2
100
AcDbEntity
  8
0
100
AcDbLine
 62
9
  6
CONTINUOUS
 10
609.7078787987
 20
399.4939806606
 11
622.1593676417
 21
399.4939806606
  0
LINE
  5
6F3
100
AcDbEntity
  8
0
100
AcDbLine
 62
9
  6
CONTINUOUS
 10
622.1593676417
 20
399.4939806606
 11
622.2588713607
 21
399.4939806606
  0
SPLINE
  5
6F4
100
AcDbEntity
  8
0
100
AcDbSpline
 62
9
  6
CONTINUOUS
 70
0
 71
3
 72
8
 73
4
 74
0
 42
0.0000001
 43
0.0000001
 44
0.0000000001
 40
0.0
 40
0.0
 40
0.0
 40
0.0
 40
1.0
 40
1.0
 40
1.0
 40
1.0
 10
622.2588713607
 20
399.4939806606
 30
0.0
 10
622.647858107
 20
399.4940167379
 30
0.0
 10
623.0470024685
 20
399.3978383045
 30
0.0
 10
623.393440827
 20
399.2209452466
 30
0.0
  0
ARC
  5
6F5
100
AcDbEntity
  8
0
100
AcDbCircle
 62
9
  6
CONTINUOUS
 10
622.2539148735
 20
396.9896498271
 40
2.5054338242
100
AcDbArc
 50
52.7034036305
 51
62.9465300712
  0
ARC
  5
6F6
100
AcDbEntity
  8
0
100
AcDbCircle
 62
9
  6
CONTINUOUS
 10
622.2515875783
 20
396.9897016219
 40
2.506803532
100
AcDbArc
 50
38.2329395522
 51
52.660370827
  0
ARC
  5
6F7
100
AcDbEntity
  8
0
100
AcDbCircle
 62
9
  6
CONTINUOUS
 10
622.2479949554
 20
396.9903003796
 40
2.5092564402
100
AcDbArc
 50
24.2774238826
 51
38.1714332272
  0
SPLINE
  5
6F8
100
AcDbEntity
  8
0
100
AcDbSpline
 62
9
  6
CONTINUOUS
 70
0
 71
3
 72
8
 73
4
 74
0
 42
0.0000001
 43
0.0000001
 44
0.0000000001
 40
0.0
 40
0.0
 40
0.0
 40
0.0
 40
1.0
 40
1.0
 40
1.0
 40
1.0
 10
624.5353461904
 20
398.0219942348
 30
0.0
 10
624.6793420588
 20
397.7024356914
 30
0.0
 10
624.7564489689
 20
397.3444838265
 30
0.0
 10
624.7563899558
 20
396.9939806606
 30
0.0
  0
SPLINE
  5
6F9
100
AcDbEntity
  8
0
100
AcDbSpline
 62
9
  6
CONTINUOUS
 70
0
 71
3
 72
8
 73
4
 74
0
 42
0.0000001
 43
0.0000001
 44
0.0000000001
 40
0.0
 40
0.0
 40
0.0
 40
0.0
 40
1.0
 40
1.0
 40
1.0
 40
1.0
 10
622.2588713607
 20
253.4939806606
 30
0.0
 10
622.647858107
 20
253.4939445832
 30
0.0
 10
623.0470024685
 20
253.5901230166
 30
0.0
 10
623.393440827
 20
253.7670160745
 30
0.0
  0
ARC
  5
6FA
100
AcDbEntity
  8
0
100
AcDbCircle
 62
9
  6
CONTINUOUS
 10
622.2539148735
 20
255.998311494
 40
2.5054338242
100
AcDbArc
 50
297.0534699287
 51
307.2965963696
  0
ARC
  5
6FB
100
AcDbEntity
  8
0
100
AcDbCircle
 62
9
  6
CONTINUOUS
 10
622.2515875783
 20
255.9982596992
 40
2.506803532
100
AcDbArc
 50
307.3396291729
 51
321.7670604479
  0
ARC
  5
6FC
100
AcDbEntity
  8
0
100
AcDbCircle
 62
9
  6
CONTINUOUS
 10
622.2479949554
 20
255.9976609415
 40
2.5092564403
100
AcDbArc
 50
321.8285667728
 51
335.7225761174
  0
SPLINE
  5
6FD
100
AcDbEntity
  8
0
100
AcDbSpline
 62
9
  6
CONTINUOUS
 70
0
 71
3
 72
8
 73
4
 74
0
 42
0.0000001
 43
0.0000001
 44
0.0000000001
 40
0.0
 40
0.0
 40
0.0
 40
0.0
 40
1.0
 40
1.0
 40
1.0
 40
1.0
 10
624.5353461904
 20
254.9659670863
 30
0.0
 10
624.6793420588
 20
255.2855256297
 30
0.0
 10
624.7564489689
 20
255.6434774947
 30
0.0
 10
624.7563899558
 20
255.9939806606
 30
0.0
  0
LINE
  5
6FE
100
AcDbEntity
  8
0
100
AcDbLine
 62
9
  6
CONTINUOUS
 10
609.4578787987
 20
253.4939806606
 11
609.7078787987
 21
253.4939806606
  0
LINE
  5
6FF
100
AcDbEntity
  8
0
100
AcDbLine
 62
9
  6
CONTINUOUS
 10
609.7078787987
 20
253.4939806606
 11
622.1593676417
 21
253.4939806606
  0
LINE
  5
700
100
AcDbEntity
  8
0
100
AcDbLine
 62
9
  6
CONTINUOUS
 10
622.1593676417
 20
253.4939806606
 11
622.2588713607
 21
253.4939806606
  0
LINE
  5
701
100
AcDbEntity
  8
0
100
AcDbLine
 62
9
  6
CONTINUOUS
 10
609.4578787987
 20
252.7260314681
 11
622.2587929815
 21
252.7260415597
  0
SPLINE
  5
702
100
AcDbEntity
  8
0
100
AcDbSpline
 62
9
  6
CONTINUOUS
 70
0
 71
3
 72
8
 73
4
 74
0
 42
0.0000001
 43
0.0000001
 44
0.0000000001
 40
0.0
 40
0.0
 40
0.0
 40
0.0
 40
1.0
 40
1.0
 40
1.0
 40
1.0
 10
622.2587929815
 20
252.7260415597
 30
0.0
 10
622.7746547577
 20
252.7261301743
 30
0.0
 10
623.3044323321
 20
252.8556928926
 30
0.0
 10
623.7620409631
 20
253.0938267222
 30
0.0
  0
ARC
  5
703
100
AcDbEntity
  8
0
100
AcDbCircle
 62
9
  6
CONTINUOUS
 10
622.2643027221
 20
255.9718367532
 40
3.2444046568
100
AcDbArc
 50
297.4928107415
 51
299.6541424041
  0
SPLINE
  5
704
100
AcDbEntity
  8
0
100
AcDbSpline
 62
9
  6
CONTINUOUS
 70
0
 71
3
 72
8
 73
4
 74
0
 42
0.0000001
 43
0.0000001
 44
0.0000000001
 40
0.0
 40
0.0
 40
0.0
 40
0.0
 40
1.0
 40
1.0
 40
1.0
 40
1.0
 10
623.8695150333
 20
253.1523589624
 30
0.0
 10
624.2664161374
 20
253.3783200051
 30
0.0
 10
624.6221267784
 20
253.6961789358
 30
0.0
 10
624.8914128073
 20
254.0650609141
 30
0.0
  0
ARC
  5
705
100
AcDbEntity
  8
0
100
AcDbCircle
 62
9
  6
CONTINUOUS
 10
622.2427758954
 20
255.9985150139
 40
3.2792563558
100
AcDbArc
 50
323.871273397
 51
329.3319781775
  0
SPLINE
  5
706
100
AcDbEntity
  8
0
100
AcDbSpline
 62
9
  6
CONTINUOUS
 70
0
 71
3
 72
8
 73
4
 74
0
 42
0.0000001
 43
0.0000001
 44
0.0000000001
 40
0.0
 40
0.0
 40
0.0
 40
0.0
 40
1.0
 40
1.0
 40
1.0
 40
1.0
 10
625.0633858955
 20
254.3258878963
 30
0.0
 10
625.3573746661
 20
254.8216942081
 30
0.0
 10
625.5209076823
 20
255.4172187322
 30
0.0
 10
625.5204492024
 20
255.9936327205
 30
0.0
  0
LINE
  5
707
100
AcDbEntity
  8
0
100
AcDbLine
 62
9
  6
CONTINUOUS
 10
559.8645487175
 20
499.712187216
 11
559.8583750797
 21
499.9479489391
  0
LINE
  5
708
100
AcDbEntity
  8
0
100
AcDbLine
 62
9
  6
CONTINUOUS
 10
637.5573825178
 20
145.4939806606
 11
637.5573825178
 21
507.4939806606
  0
SPLINE
  5
709
100
AcDbEntity
  8
0
100
AcDbSpline
 62
9
  6
CONTINUOUS
 70
0
 71
3
 72
9
 73
5
 74
0
 42
0.0000001
 43
0.0000001
 44
0.0000000001
 40
0.0
 40
0.0
 40
0.0
 40
0.0
 40
0.2981095538
 40
1.0
 40
1.0
 40
1.0
 40
1.0
 10
622.2587929815
 20
400.2619197614
 30
0.0
 10
622.2587924098
 20
400.3481548304
 30
0.0
 10
622.2539331442
 20
400.6371296267
 30
0.0
 10
622.2435565443
 20
400.9278559419
 30
0.0
 10
622.2091557368
 20
401.1279584622
 30
0.0
  0
LINE
  5
70A
100
AcDbEntity
  8
0
100
AcDbLine
 62
9
  6
CONTINUOUS
 10
574.4578787987
 20
152.6577109227
 11
559.8583750797
 21
153.040012382
  0
LINE
  5
70B
100
AcDbEntity
  8
0
100
AcDbLine
 62
9
  6
CONTINUOUS
 10
529.8452866056
 20
478.6687106625
 11
529.8452866056
 21
477.6432162035
  0
LINE
  5
70C
100
AcDbEntity
  8
0
100
AcDbLine
 62
9
  6
CONTINUOUS
 10
529.8452866056
 20
477.6432162035
 11
529.8452866056
 21
398.1139096837
  0
LINE
  5
70D
100
AcDbEntity
  8
0
100
AcDbLine
 62
9
  6
CONTINUOUS
 10
529.8452866056
 20
398.1139096837
 11
529.8452866056
 21
254.8740516374
  0
LINE
  5
70E
100
AcDbEntity
  8
0
100
AcDbLine
 62
9
  6
CONTINUOUS
 10
529.8452866056
 20
254.8740516374
 11
529.8452866056
 21
175.3447452171
  0
LINE
  5
70F
100
AcDbEntity
  8
0
100
AcDbLine
 62
9
  6
CONTINUOUS
 10
529.8452866056
 20
175.3447452171
 11
529.8452866056
 21
174.3192506586
  0
LINE
  5
710
100
AcDbEntity
  8
0
100
AcDbLine
 62
9
  6
CONTINUOUS
 10
529.8452866056
 20
174.3192506586
 11
529.3583761641
 21
174.3192506575
  0
LINE
  5
711
100
AcDbEntity
  8
0
100
AcDbLine
 62
9
  6
CONTINUOUS
 10
529.8452866056
 20
174.3192506586
 11
529.8409082154
 21
156.3047938612
  0
LINE
  5
712
100
AcDbEntity
  8
0
100
AcDbLine
 62
9
  6
CONTINUOUS
 10
529.8409082154
 20
156.3047938612
 11
529.8427090519
 21
154.8261402439
  0
LINE
  5
713
100
AcDbEntity
  8
0
100
AcDbLine
 62
9
  6
CONTINUOUS
 10
529.8427090519
 20
154.8261402439
 11
529.8452883434
 21
154.3261039818
  0
LINE
  5
714
100
AcDbEntity
  8
0
100
AcDbLine
 62
9
  6
CONTINUOUS
 10
528.8714635539
 20
175.3447511126
 11
528.8720749911
 21
174.383414824
  0
LINE
  5
715
100
AcDbEntity
  8
0
100
AcDbLine
 62
9
  6
CONTINUOUS
 10
528.8720749911
 20
174.383414824
 11
528.8740442602
 21
155.8519098164
  0
LINE
  5
716
100
AcDbEntity
  8
0
100
AcDbLine
 62
9
  6
CONTINUOUS
 10
528.8740442602
 20
155.8519098164
 11
528.8714690321
 21
155.3516045759
  0
LINE
  5
717
100
AcDbEntity
  8
0
100
AcDbLine
 62
9
  6
CONTINUOUS
 10
609.4578787987
 20
401.1279552568
 11
622.2091238426
 21
401.1279544909
  0
SPLINE
  5
718
100
AcDbEntity
  8
0
100
AcDbSpline
 62
9
  6
CONTINUOUS
 70
0
 71
3
 72
9
 73
5
 74
0
 42
0.0000001
 43
0.0000001
 44
0.0000000001
 40
0.0
 40
0.0
 40
0.0
 40
0.0
 40
0.2970708804
 40
1.0
 40
1.0
 40
1.0
 40
1.0
 10
622.1593676417
 20
401.9939806606
 30
0.0
 10
622.1593686754
 20
401.9080467057
 30
0.0
 10
622.1642855026
 20
401.6190761436
 30
0.0
 10
622.1745902173
 20
401.3283374586
 30
0.0
 10
622.2091238426
 20
401.1279544909
 30
0.0
  0
ARC
  5
719
100
AcDbEntity
  8
0
100
AcDbCircle
 62
9
  6
CONTINUOUS
 10
622.2080354215
 20
397.0105825752
 40
4.1173608901
100
AcDbArc
 50
50.7924124757
 51
89.9848755474
  0
SPLINE
  5
71A
100
AcDbEntity
  8
0
100
AcDbSpline
 62
9
  6
CONTINUOUS
 70
0
 71
3
 72
8
 73
4
 74
0
 42
0.0000001
 43
0.0000001
 44
0.0000000001
 40
0.0
 40
0.0
 40
0.0
 40
0.0
 40
1.0
 40
1.0
 40
1.0
 40
1.0
 10
624.8107506701
 20
400.2009640624
 30
0.0
 10
625.4608149764
 20
399.6707280702
 30
0.0
 10
625.9620344226
 20
398.9010703783
 30
0.0
 10
626.1842514214
 20
398.0921492356
 30
0.0
  0
ARC
  5
71B
100
AcDbEntity
  8
0
100
AcDbCircle
 62
9
  6
CONTINUOUS
 10
622.1787309873
 20
396.9928761967
 40
4.1536243405
100
AcDbArc
 50
0.0152360633
 51
15.3463907601
  0
LINE
  5
71C
100
AcDbEntity
  8
0
100
AcDbLine
 62
9
  6
CONTINUOUS
 10
639.3583750797
 20
507.4939806606
 11
637.557382524
 21
507.4939807058
  0
LINE
  5
71D
100
AcDbEntity
  8
0
100
AcDbLine
 62
9
  6
CONTINUOUS
 10
448.8708998303
 20
178.4402300647
 11
448.8715123968
 21
177.4783197778
  0
LINE
  5
71E
100
AcDbEntity
  8
0
100
AcDbLine
 62
9
  6
CONTINUOUS
 10
448.8715123968
 20
177.4783197778
 11
448.8739190369
 21
158.9467804206
  0
LINE
  5
71F
100
AcDbEntity
  8
0
100
AcDbLine
 62
9
  6
CONTINUOUS
 10
448.8739190369
 20
158.9467804206
 11
448.8714690897
 21
158.4464782997
  0
LINE
  5
720
100
AcDbEntity
  8
0
100
AcDbLine
 62
9
  6
CONTINUOUS
 10
574.4578787987
 20
504.329907606
 11
559.8583750797
 21
503.9476061466
  0
LINE
  5
721
100
AcDbEntity
  8
0
100
AcDbLine
 62
9
  6
CONTINUOUS
 10
378.8714635539
 20
181.272639348
 11
378.8720746065
 21
180.3119221108
  0
LINE
  5
722
100
AcDbEntity
  8
0
100
AcDbLine
 62
9
  6
CONTINUOUS
 10
378.8720746065
 20
180.3119221108
 11
378.8740442602
 21
161.7797980517
  0
LINE
  5
723
100
AcDbEntity
  8
0
100
AcDbLine
 62
9
  6
CONTINUOUS
 10
378.8740442602
 20
161.7797980517
 11
378.8731714584
 21
161.4779928781
  0
LINE
  5
724
100
AcDbEntity
  8
0
100
AcDbLine
 62
9
  6
CONTINUOUS
 10
378.8731714584
 20
161.4779928781
 11
378.871469032
 21
161.2794928112
  0
LINE
  5
725
100
AcDbEntity
  8
0
100
AcDbLine
 62
9
  6
CONTINUOUS
 10
559.8583750797
 20
499.9479489391
 11
559.8583750797
 21
503.9476061466
  0
LINE
  5
726
100
AcDbEntity
  8
0
100
AcDbLine
 62
9
  6
CONTINUOUS
 10
559.8583750797
 20
499.9479489391
 11
574.4578787987
 21
500.3302503985
  0
SPLINE
  5
727
100
AcDbEntity
  8
0
100
AcDbSpline
 62
9
  6
CONTINUOUS
 70
0
 71
3
 72
11
 73
7
 74
0
 42
0.0000001
 43
0.0000001
 44
0.0000000001
 40
0.0
 40
0.0
 40
0.0
 40
0.0
 40
0.0712336278
 40
0.2597742655
 40
0.5693658118
 40
1.0
 40
1.0
 40
1.0
 40
1.0
 10
132.0442517
 20
167.7428908592
 30
0.0
 10
132.0321718405
 20
167.7432799664
 30
0.0
 10
132.0228346796
 20
167.8043351419
 30
0.0
 10
132.0066194667
 20
167.8834567731
 30
0.0
 10
131.9942313508
 20
168.0498703321
 30
0.0
 10
131.9861973741
 20
168.172170615
 30
0.0
 10
131.9823216309
 20
168.2451329376
 30
0.0
  0
SPLINE
  5
728
100
AcDbEntity
  8
0
100
AcDbSpline
 62
9
  6
CONTINUOUS
 70
0
 71
3
 72
9
 73
5
 74
0
 42
0.0000001
 43
0.0000001
 44
0.0000000001
 40
0.0
 40
0.0
 40
0.0
 40
0.0
 40
0.1896205198
 40
1.0
 40
1.0
 40
1.0
 40
1.0
 10
131.9823216309
 20
168.2451329376
 30
0.0
 10
131.9773587987
 20
168.3385601191
 30
0.0
 10
131.9559808973
 20
168.8315161729
 30
0.0
 10
131.9459300184
 20
169.3248771866
 30
0.0
 10
131.9391801502
 20
169.724662028
 30
0.0
  0
ARC
  5
729
100
AcDbEntity
  8
0
100
AcDbCircle
 62
9
  6
CONTINUOUS
 10
251.1216922433
 20
171.7274262536
 40
119.1993383093
100
AcDbArc
 50
180.7627690336
 51
180.9627179043
  0
ARC
  5
72A
100
AcDbEntity
  8
0
100
AcDbCircle
 62
9
  6
CONTINUOUS
 10
330.1162557614
 20
172.7200462241
 40
198.2001247658
100
AcDbArc
 50
180.1771414126
 51
180.7456906796
  0
LINE
  5
72B
100
AcDbEntity
  8
0
100
AcDbLine
 62
9
  6
CONTINUOUS
 10
131.9170782541
 20
172.107271698
 11
131.9167238786
 21
172.1997273678
  0
LINE
  5
72C
100
AcDbEntity
  8
0
100
AcDbLine
 62
9
  6
CONTINUOUS
 10
379.8452866056
 20
492.7339689267
 11
379.8427976933
 21
492.2165100461
  0
LINE
  5
72D
100
AcDbEntity
  8
0
100
AcDbLine
 62
9
  6
CONTINUOUS
 10
379.8427976933
 20
492.2165100461
 11
379.8411509591
 21
490.7558589557
  0
LINE
  5
72E
100
AcDbEntity
  8
0
100
AcDbLine
 62
9
  6
CONTINUOUS
 10
379.8411509591
 20
490.7558589557
 11
379.8458503292
 21
472.7402467239
  0
LINE
  5
72F
100
AcDbEntity
  8
0
100
AcDbLine
 62
9
  6
CONTINUOUS
 10
448.8714708863
 20
494.5414827783
 11
448.8739103271
 21
494.0453066169
  0
LINE
  5
730
100
AcDbEntity
  8
0
100
AcDbLine
 62
9
  6
CONTINUOUS
 10
448.8739103271
 20
494.0453066169
 11
448.8715123681
 21
475.5096546487
  0
LINE
  5
731
100
AcDbEntity
  8
0
100
AcDbLine
 62
9
  6
CONTINUOUS
 10
448.8715123681
 20
475.5096546487
 11
448.8708998303
 21
474.5477312564
  0
LINE
  5
732
100
AcDbEntity
  8
0
100
AcDbLine
 62
9
  6
CONTINUOUS
 10
449.8452866056
 20
495.5669834365
 11
449.842670354
 21
495.0494953525
  0
LINE
  5
733
100
AcDbEntity
  8
0
100
AcDbLine
 62
9
  6
CONTINUOUS
 10
449.842670354
 20
495.0494953525
 11
449.8409066788
 21
493.588866609
  0
LINE
  5
734
100
AcDbEntity
  8
0
100
AcDbLine
 62
9
  6
CONTINUOUS
 10
449.8409066788
 20
493.588866609
 11
449.8452866056
 21
475.573836937
  0
LINE
  5
735
100
AcDbEntity
  8
0
100
AcDbLine
 62
9
  6
CONTINUOUS
 10
378.8714635539
 20
471.7153219731
 11
379.3583750797
 21
471.7153219731
  0
LINE
  5
736
100
AcDbEntity
  8
0
100
AcDbLine
 62
9
  6
CONTINUOUS
 10
528.8714709074
 20
497.6363565045
 11
528.8740350397
 21
497.1401769983
  0
LINE
  5
737
100
AcDbEntity
  8
0
100
AcDbLine
 62
9
  6
CONTINUOUS
 10
528.8740350397
 20
497.1401769983
 11
528.8720749607
 21
478.6045594731
  0
LINE
  5
738
100
AcDbEntity
  8
0
100
AcDbLine
 62
9
  6
CONTINUOUS
 10
528.8720749607
 20
478.6045594731
 11
528.8714635539
 21
477.6432102085
  0
LINE
  5
739
100
AcDbEntity
  8
0
100
AcDbLine
 62
9
  6
CONTINUOUS
 10
449.8452866056
 20
475.573836937
 11
449.8452866056
 21
474.5477371198
  0
LINE
  5
73A
100
AcDbEntity
  8
0
100
AcDbLine
 62
9
  6
CONTINUOUS
 10
449.8452866056
 20
474.5477371198
 11
449.8452866056
 21
399.7417215447
  0
LINE
  5
73B
100
AcDbEntity
  8
0
100
AcDbLine
 62
9
  6
CONTINUOUS
 10
449.8452866056
 20
399.7417215447
 11
449.8452866056
 21
253.2462397765
  0
LINE
  5
73C
100
AcDbEntity
  8
0
100
AcDbLine
 62
9
  6
CONTINUOUS
 10
449.8452866056
 20
253.2462397765
 11
449.8452866056
 21
178.4402242986
  0
LINE
  5
73D
100
AcDbEntity
  8
0
100
AcDbLine
 62
9
  6
CONTINUOUS
 10
449.8452866056
 20
178.4402242986
 11
449.8452866056
 21
177.4141243841
  0
LINE
  5
73E
100
AcDbEntity
  8
0
100
AcDbLine
 62
9
  6
CONTINUOUS
 10
574.4578787987
 20
148.6580537151
 11
559.8583750797
 21
149.0403551745
  0
LINE
  5
73F
100
AcDbEntity
  8
0
100
AcDbLine
 62
9
  6
CONTINUOUS
 10
559.8583750797
 20
153.040012382
 11
559.8583750797
 21
149.0403551745
  0
LINE
  5
740
100
AcDbEntity
  8
0
100
AcDbLine
 62
9
  6
CONTINUOUS
 10
448.8708998303
 20
474.5477312564
 11
449.3583750797
 21
474.5477312564
  0
SPLINE
  5
741
100
AcDbEntity
  8
0
100
AcDbSpline
 62
9
  6
CONTINUOUS
 70
0
 71
3
 72
9
 73
5
 74
0
 42
0.0000001
 43
0.0000001
 44
0.0000000001
 40
0.0
 40
0.0
 40
0.0
 40
0.0
 40
0.2288851662
 40
1.0
 40
1.0
 40
1.0
 40
1.0
 10
622.2495693999
 20
253.7851909101
 30
0.0
 10
622.2511485291
 20
253.7630152562
 30
0.0
 10
622.2568327699
 20
253.6660450711
 30
0.0
 10
622.2588714749
 20
253.5688796901
 30
0.0
 10
622.258871361
 20
253.4939806608
 30
0.0
  0
LINE
  5
742
100
AcDbEntity
  8
0
100
AcDbLine
 62
9
  6
CONTINUOUS
 10
119.8583750797
 20
471.4939806606
 11
119.8583750797
 21
471.1012913495
  0
LINE
  5
743
100
AcDbEntity
  8
0
100
AcDbLine
 62
9
  6
CONTINUOUS
 10
119.8583750797
 20
471.1012913495
 11
119.8583750797
 21
470.7818359967
  0
LINE
  5
744
100
AcDbEntity
  8
0
100
AcDbLine
 62
9
  6
CONTINUOUS
 10
119.8583750797
 20
470.7818359967
 11
119.8583750797
 21
469.962940492
  0
LINE
  5
745
100
AcDbEntity
  8
0
100
AcDbLine
 62
9
  6
CONTINUOUS
 10
119.8583750797
 20
469.962940492
 11
119.8583750797
 21
469.7818360244
  0
LINE
  5
746
100
AcDbEntity
  8
0
100
AcDbLine
 62
9
  6
CONTINUOUS
 10
119.8583750797
 20
469.7818360244
 11
119.8583750797
 21
467.2818510445
  0
LINE
  5
747
100
AcDbEntity
  8
0
100
AcDbLine
 62
9
  6
CONTINUOUS
 10
119.8583750797
 20
467.2818510445
 11
119.8583750797
 21
465.9552323403
  0
LINE
  5
748
100
AcDbEntity
  8
0
100
AcDbLine
 62
9
  6
CONTINUOUS
 10
119.8583750797
 20
465.9552323403
 11
119.8583750797
 21
465.2519239624
  0
LINE
  5
749
100
AcDbEntity
  8
0
100
AcDbLine
 62
9
  6
CONTINUOUS
 10
119.8583750797
 20
465.2519239624
 11
119.8583750797
 21
463.4939806606
  0
LINE
  5
74A
100
AcDbEntity
  8
0
100
AcDbLine
 62
9
  6
CONTINUOUS
 10
117.8583750797
 20
471.4939806606
 11
117.8583750797
 21
469.9639727712
  0
LINE
  5
74B
100
AcDbEntity
  8
0
100
AcDbLine
 62
9
  6
CONTINUOUS
 10
117.8583750797
 20
469.9639727712
 11
117.8583750797
 21
469.7818360244
  0
LINE
  5
74C
100
AcDbEntity
  8
0
100
AcDbLine
 62
9
  6
CONTINUOUS
 10
117.8583750797
 20
469.7818360244
 11
117.8583750797
 21
469.4818361209
  0
LINE
  5
74D
100
AcDbEntity
  8
0
100
AcDbLine
 62
9
  6
CONTINUOUS
 10
117.8583750797
 20
469.4818361209
 11
117.8583750797
 21
468.1925804339
  0
LINE
  5
74E
100
AcDbEntity
  8
0
100
AcDbLine
 62
9
  6
CONTINUOUS
 10
117.8583750797
 20
468.1925804339
 11
117.8583750797
 21
467.2818510445
  0
LINE
  5
74F
100
AcDbEntity
  8
0
100
AcDbLine
 62
9
  6
CONTINUOUS
 10
117.8583750797
 20
467.2818510445
 11
117.8583750797
 21
465.9597564941
  0
LINE
  5
750
100
AcDbEntity
  8
0
100
AcDbLine
 62
9
  6
CONTINUOUS
 10
117.8583750797
 20
465.9597564941
 11
117.8583750797
 21
463.4939806606
  0
LINE
  5
751
100
AcDbEntity
  8
0
100
AcDbLine
 62
9
  6
CONTINUOUS
 10
448.8708998303
 20
178.4402300647
 11
449.3583750797
 21
178.4402300647
  0
LINE
  5
752
100
AcDbEntity
  8
0
100
AcDbLine
 62
9
  6
CONTINUOUS
 10
528.8714635539
 20
477.6432102085
 11
529.3583750797
 21
477.6432102085
  0
LINE
  5
753
100
AcDbEntity
  8
0
100
AcDbLine
 62
9
  6
CONTINUOUS
 10
379.8458503292
 20
472.7402467239
 11
379.8458503292
 21
471.7153278427
  0
LINE
  5
754
100
AcDbEntity
  8
0
100
AcDbLine
 62
9
  6
CONTINUOUS
 10
379.8458503292
 20
471.7153278427
 11
379.8458503292
 21
401.1660454525
  0
LINE
  5
755
100
AcDbEntity
  8
0
100
AcDbLine
 62
9
  6
CONTINUOUS
 10
379.8458503292
 20
401.1660454525
 11
379.8458503292
 21
251.8219158686
  0
LINE
  5
756
100
AcDbEntity
  8
0
100
AcDbLine
 62
9
  6
CONTINUOUS
 10
379.8458503292
 20
251.8219158686
 11
379.8458503292
 21
181.2726335757
  0
LINE
  5
757
100
AcDbEntity
  8
0
100
AcDbLine
 62
9
  6
CONTINUOUS
 10
379.8458503292
 20
181.2726335757
 11
379.8458503292
 21
180.2477145972
  0
LINE
  5
758
100
AcDbEntity
  8
0
100
AcDbLine
 62
9
  6
CONTINUOUS
 10
528.8714635539
 20
175.3447511126
 11
529.3583750797
 21
175.3447511126
  0
LINE
  5
759
100
AcDbEntity
  8
0
100
AcDbLine
 62
9
  6
CONTINUOUS
 10
529.8452866056
 20
478.6687106625
 11
529.8409082154
 21
496.6831674599
  0
LINE
  5
75A
100
AcDbEntity
  8
0
100
AcDbLine
 62
9
  6
CONTINUOUS
 10
529.8409082154
 20
496.6831674599
 11
529.8427090519
 21
498.1618210772
  0
LINE
  5
75B
100
AcDbEntity
  8
0
100
AcDbLine
 62
9
  6
CONTINUOUS
 10
529.8427090519
 20
498.1618210772
 11
529.8452883434
 21
498.6618573393
  0
LINE
  5
75C
100
AcDbEntity
  8
0
100
AcDbLine
 62
9
  6
CONTINUOUS
 10
529.8452866056
 20
478.6687106625
 11
529.3583761647
 21
478.6687106636
  0
LINE
  5
75D
100
AcDbEntity
  8
0
100
AcDbLine
 62
9
  6
CONTINUOUS
 10
378.8714694185
 20
491.708468494
 11
378.8731779079
 21
491.5083316331
  0
LINE
  5
75E
100
AcDbEntity
  8
0
100
AcDbLine
 62
9
  6
CONTINUOUS
 10
378.8731779079
 20
491.5083316331
 11
378.8740350397
 21
491.212288763
  0
LINE
  5
75F
100
AcDbEntity
  8
0
100
AcDbLine
 62
9
  6
CONTINUOUS
 10
378.8740350397
 20
491.212288763
 11
378.8720745761
 21
472.6760522532
  0
LINE
  5
760
100
AcDbEntity
  8
0
100
AcDbLine
 62
9
  6
CONTINUOUS
 10
378.8720745761
 20
472.6760522532
 11
378.8714635539
 21
471.7153219731
  0
SPLINE
  5
761
100
AcDbEntity
  8
0
100
AcDbSpline
 62
9
  6
CONTINUOUS
 70
0
 71
3
 72
9
 73
5
 74
0
 42
0.0000001
 43
0.0000001
 44
0.0000000001
 40
0.0
 40
0.0
 40
0.0
 40
0.0
 40
0.2839966093
 40
1.0
 40
1.0
 40
1.0
 40
1.0
 10
132.0442517
 20
465.2519239624
 30
0.0
 10
132.0211626363
 20
466.7225549797
 30
0.0
 10
131.9500963644
 20
471.901007338
 30
0.0
 10
131.9030574923
 20
477.0800931681
 30
0.0
 10
131.9167238786
 20
480.7882339566
 30
0.0
  0
LINE
  5
762
100
AcDbEntity
  8
0
100
AcDbLine
 62
9
  6
CONTINUOUS
 10
131.9167238786
 20
480.7882339566
 11
131.9170782542
 21
480.8806896512
  0
ARC
  5
763
100
AcDbEntity
  8
0
100
AcDbCircle
 62
9
  6
CONTINUOUS
 10
358.8154648573
 20
480.0367888128
 40
226.8999559536
100
AcDbArc
 50
179.2902665327
 51
179.7869013784
  0
ARC
  5
764
100
AcDbEntity
  8
0
100
AcDbCircle
 62
9
  6
CONTINUOUS
 10
251.1216856118
 20
481.260535159
 40
119.1993316773
100
AcDbArc
 50
179.0372820765
 51
179.2372309668
  0
SPLINE
  5
765
100
AcDbEntity
  8
0
100
AcDbSpline
 62
9
  6
CONTINUOUS
 70
0
 71
3
 72
9
 73
5
 74
0
 42
0.0000001
 43
0.0000001
 44
0.0000000001
 40
0.0
 40
0.0
 40
0.0
 40
0.0
 40
0.3096123161
 40
1.0
 40
1.0
 40
1.0
 40
1.0
 10
131.9391801504
 20
483.2632993132
 30
0.0
 10
131.9417589728
 20
483.4160391955
 30
0.0
 10
131.9514471294
 20
483.9093212654
 30
0.0
 10
131.964252652
 20
484.4026730598
 30
0.0
 10
131.9823216318
 20
484.742828394
 30
0.0
  0
SPLINE
  5
766
100
AcDbEntity
  8
0
100
AcDbSpline
 62
9
  6
CONTINUOUS
 70
0
 71
3
 72
11
 73
7
 74
0
 42
0.0000001
 43
0.0000001
 44
0.0000000001
 40
0.0
 40
0.0
 40
0.0
 40
0.0
 40
0.4306341874
 40
0.7402257329
 40
0.9287663706
 40
1.0
 40
1.0
 40
1.0
 40
1.0
 10
131.9823216318
 20
484.742828394
 30
0.0
 10
131.986197375
 20
484.8157907149
 30
0.0
 10
131.9942313516
 20
484.9380909953
 30
0.0
 10
132.0066194671
 20
485.1045045496
 30
0.0
 10
132.0228346802
 20
485.1836261809
 30
0.0
 10
132.0321718405
 20
485.2446813538
 30
0.0
 10
132.0442517
 20
485.2450704619
 30
0.0
  0
LINE
  5
767
100
AcDbEntity
  8
0
100
AcDbLine
 62
9
  6
CONTINUOUS
 10
637.5573825178
 20
507.4939806606
 11
637.5573896545
 21
508.7856879806
  0
LINE
  5
768
100
AcDbEntity
  8
0
100
AcDbLine
 62
9
  6
CONTINUOUS
 10
637.5573896545
 20
508.7856879806
 11
637.5574028407
 21
510.8749775726
  0
LINE
  5
769
100
AcDbEntity
  8
0
100
AcDbLine
 62
9
  6
CONTINUOUS
 10
637.5574028407
 20
510.8749775726
 11
637.5573825178
 21
511.6740799168
  0
LINE
  5
76A
100
AcDbEntity
  8
0
100
AcDbLine
 62
9
  6
CONTINUOUS
 10
637.5573825178
 20
507.4939806606
 11
609.4578787987
 21
507.4939806606
  0
LINE
  5
76B
100
AcDbEntity
  8
0
100
AcDbLine
 62
9
  6
CONTINUOUS
 10
132.0442517
 20
246.7796309675
 11
132.0442517
 21
406.2083303536
  0
LINE
  5
76C
100
AcDbEntity
  8
0
100
AcDbLine
 62
9
  6
CONTINUOUS
 10
132.0442517
 20
406.2083303536
 11
132.0442517
 21
465.2519239624
  0
LINE
  5
76D
100
AcDbEntity
  8
0
100
AcDbLine
 62
7
  6
CONTINUOUS
 10
639.4578787987
 20
496.9939806606
 11
639.4578787987
 21
498.0755401409
  0
LINE
  5
76E
100
AcDbEntity
  8
0
100
AcDbLine
 62
7
  6
CONTINUOUS
 10
639.4578787987
 20
498.0755401409
 11
639.4578787987
 21
499.0512290436
  0
LINE
  5
76F
100
AcDbEntity
  8
0
100
AcDbLine
 62
7
  6
CONTINUOUS
 10
639.4578787987
 20
499.0512290436
 11
639.4578787987
 21
500.4939806606
  0
LINE
  5
770
100
AcDbEntity
  8
0
100
AcDbLine
 62
7
  6
CONTINUOUS
 10
639.4578787987
 20
155.9939806606
 11
639.4578787987
 21
154.9124211802
  0
LINE
  5
771
100
AcDbEntity
  8
0
100
AcDbLine
 62
7
  6
CONTINUOUS
 10
639.4578787987
 20
154.9124211802
 11
639.4578787987
 21
153.9367322775
  0
LINE
  5
772
100
AcDbEntity
  8
0
100
AcDbLine
 62
7
  6
CONTINUOUS
 10
639.4578787987
 20
153.9367322775
 11
639.4578787987
 21
152.4939806606
  0
LINE
  5
773
100
AcDbEntity
  8
0
100
AcDbLine
 62
7
  6
CONTINUOUS
 10
282.2578787987
 20
403.1517311718
 11
337.2578787987
 21
402.0326105174
  0
LINE
  5
774
100
AcDbEntity
  8
0
100
AcDbLine
 62
7
  6
CONTINUOUS
 10
337.2578787987
 20
402.0326105174
 11
379.3583750797
 21
401.1759644274
  0
LINE
  5
775
100
AcDbEntity
  8
0
100
AcDbLine
 62
7
  6
CONTINUOUS
 10
402.2578787987
 20
400.7100133804
 11
449.3585837803
 21
399.7516248025
  0
LINE
  5
776
100
AcDbEntity
  8
BEZUGSACHSEN
100
AcDbLine
 62
7
  6
CONTINUOUS
 10
282.2578787987
 20
249.8362301493
 11
337.2578787987
 21
250.9553508037
  0
LINE
  5
777
100
AcDbEntity
  8
BEZUGSACHSEN
100
AcDbLine
 62
7
  6
CONTINUOUS
 10
337.2578787987
 20
250.9553508037
 11
379.3583750797
 21
251.8119968937
  0
LINE
  5
778
100
AcDbEntity
  8
BEZUGSACHSEN
100
AcDbLine
 62
7
  6
CONTINUOUS
 10
402.2578787987
 20
252.2779479407
 11
449.3585837718
 21
253.2363365184
  0
LINE
  5
779
100
AcDbEntity
  8
0
100
AcDbLine
 62
7
  6
CONTINUOUS
 10
639.4578787987
 20
496.9939806606
 11
639.4578787987
 21
480.4531736073
  0
LINE
  5
77A
100
AcDbEntity
  8
0
100
AcDbLine
 62
7
  6
CONTINUOUS
 10
639.4578787987
 20
480.4531736073
 11
639.4578787987
 21
172.5347877138
  0
LINE
  5
77B
100
AcDbEntity
  8
0
100
AcDbLine
 62
7
  6
CONTINUOUS
 10
639.4578787987
 20
172.5347877138
 11
639.4578787987
 21
155.9939806606
  0
ARC
  5
77C
100
AcDbEntity
  8
0
100
AcDbCircle
 62
7
  6
CONTINUOUS
 10
539.4578787987
 20
152.4939806606
 40
100.0
100
AcDbArc
 50
357.4616748689
 51
360.0
  0
ARC
  5
77D
100
AcDbEntity
  8
0
100
AcDbCircle
 62
7
  6
CONTINUOUS
 10
609.4578787987
 20
185.9939806606
 40
50.0
100
AcDbArc
 50
270.2879197018
 51
294.6748573246
  0
ARC
  5
77E
100
AcDbEntity
  8
0
100
AcDbCircle
 62
7
  6
CONTINUOUS
 10
609.7578787987
 20
517.6930930788
 40
0.3
100
AcDbArc
 50
119.773979827
 51
149.8869899135
  0
ARC
  5
77F
100
AcDbEntity
  8
0
100
AcDbCircle
 62
7
  6
CONTINUOUS
 10
609.7578787987
 20
517.6930930788
 40
0.3
100
AcDbArc
 50
89.6609697404
 51
119.773979827
  0
LINE
  5
780
100
AcDbEntity
  8
0
100
AcDbLine
 62
7
  6
CONTINUOUS
 10
609.4578787987
 20
398.9089065929
 11
609.4578787987
 21
396.989022307
  0
ARC
  5
781
100
AcDbEntity
  8
0
100
AcDbCircle
 62
7
  6
CONTINUOUS
 10
609.4578787987
 20
466.9939806606
 40
51.0
100
AcDbArc
 50
73.9703881534
 51
74.1605612964
  0
ARC
  5
782
100
AcDbEntity
  8
0
100
AcDbCircle
 62
7
  6
CONTINUOUS
 10
609.4578787987
 20
466.9939806606
 40
51.0
100
AcDbArc
 50
74.1605612964
 51
80.9325153795
  0
ARC
  5
783
100
AcDbEntity
  8
0
100
AcDbCircle
 62
7
  6
CONTINUOUS
 10
609.4578787987
 20
466.9939806606
 40
51.0
100
AcDbArc
 50
80.9325153795
 51
82.7138936804
  0
ARC
  5
784
100
AcDbEntity
  8
0
100
AcDbCircle
 62
7
  6
CONTINUOUS
 10
609.4578787987
 20
466.9939806606
 40
51.0
100
AcDbArc
 50
82.7138936804
 51
89.5494476478
  0
ARC
  5
785
100
AcDbEntity
  8
0
100
AcDbCircle
 62
7
  6
CONTINUOUS
 10
609.4578787987
 20
466.9939806606
 40
51.0
100
AcDbArc
 50
89.5494476478
 51
89.6609697404
  0
LINE
  5
786
100
AcDbEntity
  8
0
100
AcDbLine
 62
7
  6
CONTINUOUS
 10
627.4578787987
 20
395.2089065929
 11
627.4578787987
 21
257.7790547282
  0
LINE
  5
787
100
AcDbEntity
  8
0
100
AcDbLine
 62
7
  6
CONTINUOUS
 10
627.4578787987
 20
138.483981713
 11
627.4578787987
 21
139.1410191746
  0
LINE
  5
788
100
AcDbEntity
  8
0
100
AcDbLine
 62
7
  6
CONTINUOUS
 10
639.4578787987
 20
496.9939806606
 11
639.4578787987
 21
498.3333726738
  0
LINE
  5
789
100
AcDbEntity
  8
0
100
AcDbLine
 62
7
  6
CONTINUOUS
 10
639.4578787987
 20
498.3333726738
 11
639.4578787987
 21
500.4939806606
  0
ARC
  5
78A
100
AcDbEntity
  8
0
100
AcDbCircle
 62
7
  6
CONTINUOUS
 10
609.4578787987
 20
185.9939806606
 40
51.0
100
AcDbArc
 50
285.8394387036
 51
286.0296118466
  0
LINE
  5
78B
100
AcDbEntity
  8
0
100
AcDbLine
 62
7
  6
CONTINUOUS
 10
609.4578787987
 20
256.4939806606
 11
609.7027929767
 21
256.4989640881
  0
LINE
  5
78C
100
AcDbEntity
  8
0
100
AcDbLine
 62
7
  6
CONTINUOUS
 10
623.4578787987
 20
253.7790547282
 11
623.3743797928
 21
253.7790547282
  0
LINE
  5
78D
100
AcDbEntity
  8
0
100
AcDbLine
 62
7
  6
CONTINUOUS
 10
623.3743797928
 20
253.7790547282
 11
622.1593676417
 21
253.7790547282
  0
LINE
  5
78E
100
AcDbEntity
  8
0
100
AcDbLine
 62
7
  6
CONTINUOUS
 10
622.1593676417
 20
253.7790547282
 11
609.7078787987
 21
253.7790547282
  0
ARC
  5
78F
100
AcDbEntity
  8
0
100
AcDbCircle
 62
7
  6
CONTINUOUS
 10
623.4578787987
 20
257.7790547282
 40
4.0
100
AcDbArc
 50
345.3081512168
 51
360.0
  0
ARC
  5
790
100
AcDbEntity
  8
0
100
AcDbCircle
 62
7
  6
CONTINUOUS
 10
623.4578787987
 20
257.7790547282
 40
4.0
100
AcDbArc
 50
343.5547788651
 51
345.3081512168
  0
ARC
  5
791
100
AcDbEntity
  8
0
100
AcDbCircle
 62
7
  6
CONTINUOUS
 10
623.4578787987
 20
257.7790547282
 40
4.0
100
AcDbArc
 50
339.3650517006
 51
343.5547788651
  0
ARC
  5
792
100
AcDbEntity
  8
0
100
AcDbCircle
 62
7
  6
CONTINUOUS
 10
623.4578787987
 20
257.7790547282
 40
4.0
100
AcDbArc
 50
331.263914472
 51
339.3650517006
  0
ARC
  5
793
100
AcDbEntity
  8
0
100
AcDbCircle
 62
7
  6
CONTINUOUS
 10
623.4578787987
 20
257.7790547282
 40
4.0
100
AcDbArc
 50
323.0162086861
 51
331.263914472
  0
ARC
  5
794
100
AcDbEntity
  8
0
100
AcDbCircle
 62
7
  6
CONTINUOUS
 10
623.4578787987
 20
257.7790547282
 40
4.0
100
AcDbArc
 50
317.1184405761
 51
323.0162086861
  0
ARC
  5
795
100
AcDbEntity
  8
0
100
AcDbCircle
 62
7
  6
CONTINUOUS
 10
623.4578787987
 20
257.7790547282
 40
4.0
100
AcDbArc
 50
305.8441735876
 51
317.1184405761
  0
ARC
  5
796
100
AcDbEntity
  8
0
100
AcDbCircle
 62
7
  6
CONTINUOUS
 10
623.4578787987
 20
257.7790547282
 40
4.0
100
AcDbArc
 50
271.8762334906
 51
286.1608533105
  0
ARC
  5
797
100
AcDbEntity
  8
0
100
AcDbCircle
 62
7
  6
CONTINUOUS
 10
623.4578787987
 20
257.7790547282
 40
4.0
100
AcDbArc
 50
270.0
 51
271.8762334906
  0
ARC
  5
798
100
AcDbEntity
  8
0
100
AcDbCircle
 62
7
  6
CONTINUOUS
 10
609.7578787987
 20
135.2948682423
 40
0.3
100
AcDbArc
 50
180.0
 51
270.3390302596
  0
LINE
  5
799
100
AcDbEntity
  8
0
100
AcDbLine
 62
7
  6
CONTINUOUS
 10
609.4578787987
 20
255.9989390141
 11
609.4578787987
 21
254.0790547282
  0
ARC
  5
79A
100
AcDbEntity
  8
0
100
AcDbCircle
 62
7
  6
CONTINUOUS
 10
609.4578787987
 20
185.9939806606
 40
51.0
100
AcDbArc
 50
270.2822463608
 51
275.55694727
  0
ARC
  5
79B
100
AcDbEntity
  8
0
100
AcDbCircle
 62
7
  6
CONTINUOUS
 10
609.4578787987
 20
185.9939806606
 40
51.0
100
AcDbArc
 50
275.55694727
 51
276.6804707273
  0
ARC
  5
79C
100
AcDbEntity
  8
0
100
AcDbCircle
 62
7
  6
CONTINUOUS
 10
609.4578787987
 20
185.9939806606
 40
51.0
100
AcDbArc
 50
276.6804707273
 51
280.8191477911
  0
ARC
  5
79D
100
AcDbEntity
  8
0
100
AcDbCircle
 62
7
  6
CONTINUOUS
 10
609.4578787987
 20
185.9939806606
 40
51.0
100
AcDbArc
 50
280.8191477911
 51
282.7443158883
  0
ARC
  5
79E
100
AcDbEntity
  8
0
100
AcDbCircle
 62
7
  6
CONTINUOUS
 10
609.4578787987
 20
185.9939806606
 40
51.0
100
AcDbArc
 50
282.7443158883
 51
286.0296118453
  0
ARC
  5
79F
100
AcDbEntity
  8
0
100
AcDbCircle
 62
7
  6
CONTINUOUS
 10
609.4578787987
 20
185.9939806606
 40
51.0
100
AcDbArc
 50
286.0296118453
 51
286.1798578314
  0
ARC
  5
7A0
100
AcDbEntity
  8
0
100
AcDbCircle
 62
7
  6
CONTINUOUS
 10
609.4578787987
 20
185.9939806606
 40
51.0
100
AcDbArc
 50
286.1798578314
 51
287.345838942
  0
ARC
  5
7A1
100
AcDbEntity
  8
0
100
AcDbCircle
 62
7
  6
CONTINUOUS
 10
609.4578787987
 20
185.9939806606
 40
51.0
100
AcDbArc
 50
287.345838942
 51
288.279885738
  0
ARC
  5
7A2
100
AcDbEntity
  8
0
100
AcDbCircle
 62
7
  6
CONTINUOUS
 10
609.4578787987
 20
185.9939806606
 40
51.0
100
AcDbArc
 50
288.279885738
 51
289.1125337338
  0
ARC
  5
7A3
100
AcDbEntity
  8
0
100
AcDbCircle
 62
7
  6
CONTINUOUS
 10
609.4578787987
 20
185.9939806606
 40
51.0
100
AcDbArc
 50
289.1125337338
 51
290.4330367399
  0
ARC
  5
7A4
100
AcDbEntity
  8
0
100
AcDbCircle
 62
7
  6
CONTINUOUS
 10
609.4578787987
 20
185.9939806606
 40
51.0
100
AcDbArc
 50
282.7443410666
 51
286.0296833799
  0
ARC
  5
7A5
100
AcDbEntity
  8
0
100
AcDbCircle
 62
7
  6
CONTINUOUS
 10
609.4578787987
 20
185.9939806606
 40
51.0
100
AcDbArc
 50
280.8190656903
 51
282.7443410666
  0
ARC
  5
7A6
100
AcDbEntity
  8
0
100
AcDbCircle
 62
7
  6
CONTINUOUS
 10
609.4578787987
 20
185.9939806606
 40
51.0
100
AcDbArc
 50
287.705154211
 51
287.874356799
  0
ARC
  5
7A7
100
AcDbEntity
  8
0
100
AcDbCircle
 62
7
  6
CONTINUOUS
 10
609.4578787987
 20
185.9939806606
 40
51.0
100
AcDbArc
 50
287.2074306023
 51
287.705154211
  0
LINE
  5
7A8
100
AcDbEntity
  8
0
100
AcDbLine
 62
7
  6
CONTINUOUS
 10
609.7027929394
 20
256.4989640873
 11
623.4782222361
 21
256.7792616773
  0
ARC
  5
7A9
100
AcDbEntity
  8
0
100
AcDbCircle
 62
7
  6
CONTINUOUS
 10
623.4578787987
 20
257.7790547282
 40
1.0
100
AcDbArc
 50
271.1656735128
 51
296.1075740876
  0
ARC
  5
7AA
100
AcDbEntity
  8
0
100
AcDbCircle
 62
7
  6
CONTINUOUS
 10
623.4578787987
 20
257.7790547282
 40
1.0
100
AcDbArc
 50
296.1075740876
 51
314.9071605546
  0
LINE
  5
7AB
100
AcDbEntity
  8
0
100
AcDbLine
 62
7
  6
CONTINUOUS
 10
609.4578787987
 20
256.2490158246
 11
609.4578787987
 21
256.1747159808
  0
LINE
  5
7AC
100
AcDbEntity
  8
0
100
AcDbLine
 62
7
  6
CONTINUOUS
 10
609.4578787987
 20
256.1747159808
 11
609.4578787987
 21
255.998939014
  0
ARC
  5
7AD
100
AcDbEntity
  8
0
100
AcDbCircle
 62
7
  6
CONTINUOUS
 10
609.7078787987
 20
256.2482054369
 40
0.25
100
AcDbArc
 50
91.1619073891
 51
179.8142744545
  0
LINE
  5
7AE
100
AcDbEntity
  8
0
100
AcDbLine
 62
7
  6
CONTINUOUS
 10
609.4578787987
 20
255.998939014
 11
609.4578787987
 21
254.0290547282
  0
ARC
  5
7AF
100
AcDbEntity
  8
0
100
AcDbCircle
 62
7
  6
CONTINUOUS
 10
609.7078787987
 20
254.0290547282
 40
0.25
100
AcDbArc
 50
242.3578366881
 51
270.0
  0
ARC
  5
7B0
100
AcDbEntity
  8
0
100
AcDbCircle
 62
7
  6
CONTINUOUS
 10
609.7078787987
 20
254.0290547282
 40
0.25
100
AcDbArc
 50
206.071976709
 51
242.3578366881
  0
ARC
  5
7B1
100
AcDbEntity
  8
0
100
AcDbCircle
 62
7
  6
CONTINUOUS
 10
609.7078787987
 20
254.0290547282
 40
0.25
100
AcDbArc
 50
180.0
 51
206.071976709
  0
ARC
  5
7B2
100
AcDbEntity
  8
0
100
AcDbCircle
 62
7
  6
CONTINUOUS
 10
609.7078787987
 20
254.029074858
 40
0.2500091499
100
AcDbArc
 50
242.3128390139
 51
270.0
  0
ARC
  5
7B3
100
AcDbEntity
  8
0
100
AcDbCircle
 62
7
  6
CONTINUOUS
 10
609.7078787987
 20
254.029074858
 40
0.2500091499
100
AcDbArc
 50
207.6857915138
 51
242.3128390139
  0
ARC
  5
7B4
100
AcDbEntity
  8
0
100
AcDbCircle
 62
7
  6
CONTINUOUS
 10
609.7078787987
 20
135.2445964278
 40
0.25
100
AcDbArc
 50
242.558651106
 51
270.2822463608
  0
ARC
  5
7B5
100
AcDbEntity
  8
0
100
AcDbCircle
 62
7
  6
CONTINUOUS
 10
609.7078787987
 20
135.2455607203
 40
0.25
100
AcDbArc
 50
242.6092811841
 51
270.2819689846
  0
LINE
  5
7B6
100
AcDbEntity
  8
0
100
AcDbLine
 62
7
  6
CONTINUOUS
 10
639.4578787987
 20
496.9939806606
 11
639.4578787987
 21
480.4531736073
  0
LINE
  5
7B7
100
AcDbEntity
  8
0
100
AcDbLine
 62
7
  6
CONTINUOUS
 10
639.4578787987
 20
480.4531736073
 11
639.4578787987
 21
172.5347877138
  0
LINE
  5
7B8
100
AcDbEntity
  8
0
100
AcDbLine
 62
7
  6
CONTINUOUS
 10
639.4578787987
 20
172.5347877138
 11
639.4578787987
 21
155.9939806606
  0
ARC
  5
7B9
100
AcDbEntity
  8
0
100
AcDbCircle
 62
7
  6
CONTINUOUS
 10
609.7078787987
 20
256.2490158246
 40
0.25
100
AcDbArc
 50
91.1656649746
 51
120.80889283
  0
ARC
  5
7BA
100
AcDbEntity
  8
0
100
AcDbCircle
 62
7
  6
CONTINUOUS
 10
609.7078787987
 20
517.7424006008
 40
0.25
100
AcDbArc
 50
89.7180310154
 51
117.3907188159
  0
ARC
  5
7BB
100
AcDbEntity
  8
0
100
AcDbCircle
 62
7
  6
CONTINUOUS
 10
609.4578787987
 20
466.9939806606
 40
51.0
100
AcDbArc
 50
72.125643201
 51
72.294845789
  0
ARC
  5
7BC
100
AcDbEntity
  8
0
100
AcDbCircle
 62
7
  6
CONTINUOUS
 10
609.4578787987
 20
466.9939806606
 40
51.0
100
AcDbArc
 50
72.294845789
 51
72.7525621086
  0
ARC
  5
7BD
100
AcDbEntity
  8
0
100
AcDbCircle
 62
7
  6
CONTINUOUS
 10
609.4578787987
 20
466.9939806606
 40
51.0
100
AcDbArc
 50
72.7525621086
 51
73.4909676928
  0
ARC
  5
7BE
100
AcDbEntity
  8
0
100
AcDbCircle
 62
7
  6
CONTINUOUS
 10
609.4578787987
 20
466.9939806606
 40
51.0
100
AcDbArc
 50
73.4909676928
 51
73.8683947557
  0
ARC
  5
7BF
100
AcDbEntity
  8
0
100
AcDbCircle
 62
7
  6
CONTINUOUS
 10
609.4578787987
 20
466.9939806606
 40
51.0
100
AcDbArc
 50
73.8683947557
 51
73.9703166189
  0
ARC
  5
7C0
100
AcDbEntity
  8
0
100
AcDbCircle
 62
7
  6
CONTINUOUS
 10
609.4578787987
 20
466.9939806606
 40
51.0
100
AcDbArc
 50
73.9703166189
 51
74.1603461221
  0
ARC
  5
7C1
100
AcDbEntity
  8
0
100
AcDbCircle
 62
7
  6
CONTINUOUS
 10
609.4578787987
 20
466.9939806606
 40
51.0
100
AcDbArc
 50
74.1603461221
 51
77.2556589334
  0
ARC
  5
7C2
100
AcDbEntity
  8
0
100
AcDbCircle
 62
7
  6
CONTINUOUS
 10
609.4578787987
 20
466.9939806606
 40
51.0
100
AcDbArc
 50
89.5495785273
 51
89.7177496675
  0
ARC
  5
7C3
100
AcDbEntity
  8
0
100
AcDbCircle
 62
7
  6
CONTINUOUS
 10
627.7578787987
 20
513.8469421465
 40
0.3
100
AcDbArc
 50
180.0
 51
225.7767980148
  0
ARC
  5
7C4
100
AcDbEntity
  8
0
100
AcDbCircle
 62
7
  6
CONTINUOUS
 10
627.7578787987
 20
513.8469421465
 40
0.3
100
AcDbArc
 50
225.7767980148
 51
248.6651970221
  0
ARC
  5
7C5
100
AcDbEntity
  8
0
100
AcDbCircle
 62
7
  6
CONTINUOUS
 10
627.1578787987
 20
514.5039796081
 40
0.3
100
AcDbArc
 50
0.0
 51
46.3779810758
  0
ARC
  5
7C6
100
AcDbEntity
  8
0
100
AcDbCircle
 62
7
  6
CONTINUOUS
 10
627.1578787987
 20
514.5039796081
 40
0.3
100
AcDbArc
 50
46.3779810758
 51
69.5669632601
  0
ARC
  5
7C7
100
AcDbEntity
  8
0
100
AcDbCircle
 62
7
  6
CONTINUOUS
 10
627.1578787987
 20
514.5039796081
 40
0.3
100
AcDbArc
 50
0.0
 51
46.3779810758
  0
ARC
  5
7C8
100
AcDbEntity
  8
0
100
AcDbCircle
 62
7
  6
CONTINUOUS
 10
627.1578787987
 20
514.5039796081
 40
0.3
100
AcDbArc
 50
46.3779810758
 51
69.5669632601
  0
ARC
  5
7C9
100
AcDbEntity
  8
0
100
AcDbCircle
 62
7
  6
CONTINUOUS
 10
609.4578787987
 20
466.9939806606
 40
51.0
100
AcDbArc
 50
73.8201421686
 51
73.9703881547
  0
ARC
  5
7CA
100
AcDbEntity
  8
0
100
AcDbCircle
 62
7
  6
CONTINUOUS
 10
609.4578787987
 20
466.9939806606
 40
51.0
100
AcDbArc
 50
72.7480034014
 51
73.8201421686
  0
ARC
  5
7CB
100
AcDbEntity
  8
0
100
AcDbCircle
 62
7
  6
CONTINUOUS
 10
609.4578787987
 20
466.9939806606
 40
51.0
100
AcDbArc
 50
71.720114262
 51
72.1090570447
  0
ARC
  5
7CC
100
AcDbEntity
  8
0
100
AcDbCircle
 62
7
  6
CONTINUOUS
 10
609.4578787987
 20
466.9939806606
 40
51.0
100
AcDbArc
 50
84.44305273
 51
89.5501582738
  0
ARC
  5
7CD
100
AcDbEntity
  8
0
100
AcDbCircle
 62
7
  6
CONTINUOUS
 10
609.4578787987
 20
185.9939806606
 40
51.0
100
AcDbArc
 50
286.0296118453
 51
286.1798578314
  0
ARC
  5
7CE
100
AcDbEntity
  8
0
100
AcDbCircle
 62
7
  6
CONTINUOUS
 10
609.4578787987
 20
185.9939806606
 40
51.0
100
AcDbArc
 50
286.1798578314
 51
287.345838942
  0
ARC
  5
7CF
100
AcDbEntity
  8
0
100
AcDbCircle
 62
7
  6
CONTINUOUS
 10
609.4578787987
 20
185.9939806606
 40
51.0
100
AcDbArc
 50
287.8909429553
 51
288.279885738
  0
ARC
  5
7D0
100
AcDbEntity
  8
0
100
AcDbCircle
 62
7
  6
CONTINUOUS
 10
627.1578787987
 20
138.483981713
 40
0.3
100
AcDbArc
 50
313.6220189242
 51
360.0
  0
ARC
  5
7D1
100
AcDbEntity
  8
0
100
AcDbCircle
 62
7
  6
CONTINUOUS
 10
627.1578787987
 20
138.483981713
 40
0.3
100
AcDbArc
 50
290.4330367399
 51
313.6220189242
  0
ARC
  5
7D2
100
AcDbEntity
  8
0
100
AcDbCircle
 62
7
  6
CONTINUOUS
 10
627.1578787987
 20
138.483981713
 40
0.3
100
AcDbArc
 50
313.6220189242
 51
360.0
  0
ARC
  5
7D3
100
AcDbEntity
  8
0
100
AcDbCircle
 62
7
  6
CONTINUOUS
 10
627.1578787987
 20
138.483981713
 40
0.3
100
AcDbArc
 50
290.4330367399
 51
313.6220189242
  0
ARC
  5
7D4
100
AcDbEntity
  8
0
100
AcDbCircle
 62
7
  6
CONTINUOUS
 10
627.7578787987
 20
139.1410191746
 40
0.3
100
AcDbArc
 50
134.2232019852
 51
180.0
  0
ARC
  5
7D5
100
AcDbEntity
  8
0
100
AcDbCircle
 62
7
  6
CONTINUOUS
 10
627.7578787987
 20
139.1410191746
 40
0.3
100
AcDbArc
 50
111.3348029779
 51
134.2232019852
  0
ARC
  5
7D6
100
AcDbEntity
  8
0
100
AcDbCircle
 62
7
  6
CONTINUOUS
 10
609.4578787987
 20
185.9939806606
 40
51.0
100
AcDbArc
 50
285.8396538779
 51
286.0296833799
  0
ARC
  5
7D7
100
AcDbEntity
  8
0
100
AcDbCircle
 62
7
  6
CONTINUOUS
 10
609.4578787987
 20
185.9939806606
 40
51.0
100
AcDbArc
 50
282.7443410666
 51
285.8396538779
  0
ARC
  5
7D8
100
AcDbEntity
  8
0
100
AcDbCircle
 62
7
  6
CONTINUOUS
 10
609.4578787987
 20
185.9939806606
 40
51.0
100
AcDbArc
 50
270.4504214727
 51
275.5569043818
  0
ARC
  5
7D9
100
AcDbEntity
  8
0
100
AcDbCircle
 62
7
  6
CONTINUOUS
 10
609.4578787987
 20
185.9939806606
 40
51.0
100
AcDbArc
 50
270.2822503325
 51
270.4504214727
  0
ARC
  5
7DA
100
AcDbEntity
  8
0
100
AcDbCircle
 62
7
  6
CONTINUOUS
 10
609.4578787987
 20
185.9939806606
 40
51.0
100
AcDbArc
 50
287.705154211
 51
287.874356799
  0
ARC
  5
7DB
100
AcDbEntity
  8
0
100
AcDbCircle
 62
7
  6
CONTINUOUS
 10
609.4578787987
 20
185.9939806606
 40
51.0
100
AcDbArc
 50
287.2074306023
 51
287.705154211
  0
ARC
  5
7DC
100
AcDbEntity
  8
0
100
AcDbCircle
 62
7
  6
CONTINUOUS
 10
609.4578787987
 20
185.9939806606
 40
51.0
100
AcDbArc
 50
286.5090323072
 51
287.2074306023
  0
ARC
  5
7DD
100
AcDbEntity
  8
0
100
AcDbCircle
 62
7
  6
CONTINUOUS
 10
609.4578787987
 20
185.9939806606
 40
51.0
100
AcDbArc
 50
286.1316052443
 51
286.5090323072
  0
ARC
  5
7DE
100
AcDbEntity
  8
0
100
AcDbCircle
 62
7
  6
CONTINUOUS
 10
609.7078787987
 20
135.2455607203
 40
0.25
100
AcDbArc
 50
242.6092811841
 51
270.2819689846
  0
ARC
  5
7DF
100
AcDbEntity
  8
0
100
AcDbCircle
 62
7
  6
CONTINUOUS
 10
609.7078787987
 20
396.7389454965
 40
0.25
100
AcDbArc
 50
239.19110717
 51
268.8343350254
  0
ARC
  5
7E0
100
AcDbEntity
  8
0
100
AcDbCircle
 62
7
  6
CONTINUOUS
 10
609.7078787987
 20
517.7424006008
 40
0.25
100
AcDbArc
 50
89.7180310154
 51
117.3907188159
  0
ARC
  5
7E1
100
AcDbEntity
  8
0
100
AcDbCircle
 62
7
  6
CONTINUOUS
 10
609.7078787987
 20
517.7433648933
 40
0.25
100
AcDbArc
 50
89.7177536392
 51
117.441348894
  0
ARC
  5
7E2
100
AcDbEntity
  8
0
100
AcDbCircle
 62
7
  6
CONTINUOUS
 10
609.7078787987
 20
398.9588864631
 40
0.2500091499
100
AcDbArc
 50
90.0
 51
117.6871609861
  0
ARC
  5
7E3
100
AcDbEntity
  8
0
100
AcDbCircle
 62
7
  6
CONTINUOUS
 10
609.7078787987
 20
398.9588864631
 40
0.2500091499
100
AcDbArc
 50
117.6871609861
 51
149.9971192338
  0
ARC
  5
7E4
100
AcDbEntity
  8
0
100
AcDbCircle
 62
7
  6
CONTINUOUS
 10
609.7078787987
 20
398.9588864631
 40
0.2500091499
100
AcDbArc
 50
149.9971192338
 51
179.9953865829
  0
ARC
  5
7E5
100
AcDbEntity
  8
0
100
AcDbCircle
 62
7
  6
CONTINUOUS
 10
609.7078787987
 20
398.9589065929
 40
0.25
100
AcDbArc
 50
90.0
 51
117.6421633119
  0
ARC
  5
7E6
100
AcDbEntity
  8
0
100
AcDbCircle
 62
7
  6
CONTINUOUS
 10
609.7078787987
 20
398.9589065929
 40
0.25
100
AcDbArc
 50
117.6421633119
 51
153.928023291
  0
ARC
  5
7E7
100
AcDbEntity
  8
0
100
AcDbCircle
 62
7
  6
CONTINUOUS
 10
609.7078787987
 20
398.9589065929
 40
0.25
100
AcDbArc
 50
153.928023291
 51
180.0
  0
LINE
  5
7E8
100
AcDbEntity
  8
0
100
AcDbLine
 62
7
  6
CONTINUOUS
 10
609.4578787987
 20
396.9890223071
 11
609.4578787987
 21
398.9589065929
  0
LINE
  5
7E9
100
AcDbEntity
  8
0
100
AcDbLine
 62
7
  6
CONTINUOUS
 10
609.4578787987
 20
396.7389454965
 11
609.4578787987
 21
396.8132453404
  0
LINE
  5
7EA
100
AcDbEntity
  8
0
100
AcDbLine
 62
7
  6
CONTINUOUS
 10
609.4578787987
 20
396.8132453404
 11
609.4578787987
 21
396.9890223071
  0
ARC
  5
7EB
100
AcDbEntity
  8
0
100
AcDbCircle
 62
7
  6
CONTINUOUS
 10
609.7078787987
 20
396.7397558842
 40
0.25
100
AcDbArc
 50
180.1857255454
 51
268.8380926109
  0
ARC
  5
7EC
100
AcDbEntity
  8
0
100
AcDbCircle
 62
7
  6
CONTINUOUS
 10
539.4578787987
 20
500.4939806606
 40
100.0
100
AcDbArc
 50
0.0
 51
2.5383251311
  0
ARC
  5
7ED
100
AcDbEntity
  8
0
100
AcDbCircle
 62
7
  6
CONTINUOUS
 10
609.4578787987
 20
466.9939806606
 40
50.0
100
AcDbArc
 50
65.3251426754
 51
89.7120802982
  0
ARC
  5
7EE
100
AcDbEntity
  8
0
100
AcDbCircle
 62
7
  6
CONTINUOUS
 10
623.4578787987
 20
395.2089065929
 40
1.0
100
AcDbArc
 50
63.8924259124
 51
88.8343264872
  0
ARC
  5
7EF
100
AcDbEntity
  8
0
100
AcDbCircle
 62
7
  6
CONTINUOUS
 10
623.4578787987
 20
395.2089065929
 40
1.0
100
AcDbArc
 50
45.0928394454
 51
63.8924259124
  0
LINE
  5
7F0
100
AcDbEntity
  8
0
100
AcDbLine
 62
7
  6
CONTINUOUS
 10
609.7027929394
 20
396.4889972338
 11
623.4782222361
 21
396.2086996438
  0
ARC
  5
7F1
100
AcDbEntity
  8
0
100
AcDbCircle
 62
7
  6
CONTINUOUS
 10
609.4578787987
 20
466.9939806606
 40
51.0
100
AcDbArc
 50
72.125643201
 51
72.294845789
  0
ARC
  5
7F2
100
AcDbEntity
  8
0
100
AcDbCircle
 62
7
  6
CONTINUOUS
 10
609.4578787987
 20
466.9939806606
 40
51.0
100
AcDbArc
 50
72.294845789
 51
72.7525621086
  0
ARC
  5
7F3
100
AcDbEntity
  8
0
100
AcDbCircle
 62
7
  6
CONTINUOUS
 10
609.4578787987
 20
466.9939806606
 40
51.0
100
AcDbArc
 50
73.8683947557
 51
73.9703166189
  0
ARC
  5
7F4
100
AcDbEntity
  8
0
100
AcDbCircle
 62
7
  6
CONTINUOUS
 10
609.4578787987
 20
466.9939806606
 40
51.0
100
AcDbArc
 50
73.9703166189
 51
74.1603461221
  0
ARC
  5
7F5
100
AcDbEntity
  8
0
100
AcDbCircle
 62
7
  6
CONTINUOUS
 10
609.4578787987
 20
466.9939806606
 40
51.0
100
AcDbArc
 50
74.1603461221
 51
77.2556589334
  0
ARC
  5
7F6
100
AcDbEntity
  8
0
100
AcDbCircle
 62
7
  6
CONTINUOUS
 10
609.4578787987
 20
466.9939806606
 40
51.0
100
AcDbArc
 50
77.2556589334
 51
79.1809343097
  0
ARC
  5
7F7
100
AcDbEntity
  8
0
100
AcDbCircle
 62
7
  6
CONTINUOUS
 10
609.4578787987
 20
466.9939806606
 40
51.0
100
AcDbArc
 50
82.7114875826
 51
83.3213038449
  0
ARC
  5
7F8
100
AcDbEntity
  8
0
100
AcDbCircle
 62
7
  6
CONTINUOUS
 10
609.4578787987
 20
466.9939806606
 40
51.0
100
AcDbArc
 50
89.5495785273
 51
89.7177496675
  0
ARC
  5
7F9
100
AcDbEntity
  8
0
100
AcDbCircle
 62
7
  6
CONTINUOUS
 10
609.4578787987
 20
466.9939806606
 40
51.0
100
AcDbArc
 50
73.8231408036
 51
73.9703881547
  0
ARC
  5
7FA
100
AcDbEntity
  8
0
100
AcDbCircle
 62
7
  6
CONTINUOUS
 10
609.4578787987
 20
466.9939806606
 40
51.0
100
AcDbArc
 50
72.7480034014
 51
73.8231408036
  0
ARC
  5
7FB
100
AcDbEntity
  8
0
100
AcDbCircle
 62
7
  6
CONTINUOUS
 10
609.4578787987
 20
466.9939806606
 40
51.0
100
AcDbArc
 50
71.720114262
 51
72.7480034014
  0
ARC
  5
7FC
100
AcDbEntity
  8
0
100
AcDbCircle
 62
7
  6
CONTINUOUS
 10
609.4578787987
 20
466.9939806606
 40
51.0
100
AcDbArc
 50
70.8874662662
 51
71.720114262
  0
ARC
  5
7FD
100
AcDbEntity
  8
0
100
AcDbCircle
 62
7
  6
CONTINUOUS
 10
609.4578787987
 20
466.9939806606
 40
51.0
100
AcDbArc
 50
69.5669632601
 51
70.8874662662
  0
ARC
  5
7FE
100
AcDbEntity
  8
0
100
AcDbCircle
 62
7
  6
CONTINUOUS
 10
609.4578787987
 20
466.9939806606
 40
51.0
100
AcDbArc
 50
89.5501582738
 51
89.7177536392
  0
ARC
  5
7FF
100
AcDbEntity
  8
0
100
AcDbCircle
 62
7
  6
CONTINUOUS
 10
609.4578787987
 20
466.9939806606
 40
51.0
100
AcDbArc
 50
84.44305273
 51
89.5501582738
  0
ARC
  5
800
100
AcDbEntity
  8
0
100
AcDbCircle
 62
7
  6
CONTINUOUS
 10
609.4578787987
 20
466.9939806606
 40
51.0
100
AcDbArc
 50
83.3195292727
 51
84.44305273
  0
ARC
  5
801
100
AcDbEntity
  8
0
100
AcDbCircle
 62
7
  6
CONTINUOUS
 10
609.4578787987
 20
466.9939806606
 40
51.0
100
AcDbArc
 50
82.7036852598
 51
83.3195292727
  0
ARC
  5
802
100
AcDbEntity
  8
0
100
AcDbCircle
 62
7
  6
CONTINUOUS
 10
609.4578787987
 20
466.9939806606
 40
51.0
100
AcDbArc
 50
80.9566794471
 51
82.7036852598
  0
ARC
  5
803
100
AcDbEntity
  8
0
100
AcDbCircle
 62
7
  6
CONTINUOUS
 10
609.4578787987
 20
466.9939806606
 40
51.0
100
AcDbArc
 50
79.1808522089
 51
80.9566794471
  0
ARC
  5
804
100
AcDbEntity
  8
0
100
AcDbCircle
 62
7
  6
CONTINUOUS
 10
609.4578787987
 20
466.9939806606
 40
51.0
100
AcDbArc
 50
77.2556841117
 51
79.1808522089
  0
ARC
  5
805
100
AcDbEntity
  8
0
100
AcDbCircle
 62
7
  6
CONTINUOUS
 10
609.4578787987
 20
466.9939806606
 40
51.0
100
AcDbArc
 50
73.9703881547
 51
77.2556841117
  0
LINE
  5
806
100
AcDbEntity
  8
0
100
AcDbLine
 62
7
  6
CONTINUOUS
 10
627.4578787987
 20
395.2089065929
 11
627.4578787987
 21
257.7790547282
  0
ARC
  5
807
100
AcDbEntity
  8
0
100
AcDbCircle
 62
7
  6
CONTINUOUS
 10
623.4578787987
 20
395.2089065929
 40
4.0
100
AcDbArc
 50
0.0
 51
14.6918487832
  0
ARC
  5
808
100
AcDbEntity
  8
0
100
AcDbCircle
 62
7
  6
CONTINUOUS
 10
623.4578787987
 20
395.2089065929
 40
4.0
100
AcDbArc
 50
14.6918487832
 51
16.4452211349
  0
ARC
  5
809
100
AcDbEntity
  8
0
100
AcDbCircle
 62
7
  6
CONTINUOUS
 10
623.4578787987
 20
395.2089065929
 40
4.0
100
AcDbArc
 50
16.4452211349
 51
20.6349482994
  0
ARC
  5
80A
100
AcDbEntity
  8
0
100
AcDbCircle
 62
7
  6
CONTINUOUS
 10
623.4578787987
 20
395.2089065929
 40
4.0
100
AcDbArc
 50
20.6349482994
 51
28.736085528
  0
ARC
  5
80B
100
AcDbEntity
  8
0
100
AcDbCircle
 62
7
  6
CONTINUOUS
 10
623.4578787987
 20
395.2089065929
 40
4.0
100
AcDbArc
 50
28.736085528
 51
36.9837913139
  0
ARC
  5
80C
100
AcDbEntity
  8
0
100
AcDbCircle
 62
7
  6
CONTINUOUS
 10
623.4578787987
 20
395.2089065929
 40
4.0
100
AcDbArc
 50
36.9837913139
 51
42.8815594239
  0
ARC
  5
80D
100
AcDbEntity
  8
0
100
AcDbCircle
 62
7
  6
CONTINUOUS
 10
623.4578787987
 20
395.2089065929
 40
4.0
100
AcDbArc
 50
42.8815594239
 51
54.1558264124
  0
ARC
  5
80E
100
AcDbEntity
  8
0
100
AcDbCircle
 62
7
  6
CONTINUOUS
 10
623.4578787987
 20
395.2089065929
 40
4.0
100
AcDbArc
 50
73.8391466895
 51
88.1237665094
  0
ARC
  5
80F
100
AcDbEntity
  8
0
100
AcDbCircle
 62
7
  6
CONTINUOUS
 10
623.4578787987
 20
395.2089065929
 40
4.0
100
AcDbArc
 50
88.1237665094
 51
90.0
  0
LINE
  5
810
100
AcDbEntity
  8
0
100
AcDbLine
 62
7
  6
CONTINUOUS
 10
623.4578787987
 20
399.2089065929
 11
623.3743797928
 21
399.2089065929
  0
LINE
  5
811
100
AcDbEntity
  8
0
100
AcDbLine
 62
7
  6
CONTINUOUS
 10
623.3743797928
 20
399.2089065929
 11
622.1593676417
 21
399.2089065929
  0
LINE
  5
812
100
AcDbEntity
  8
0
100
AcDbLine
 62
7
  6
CONTINUOUS
 10
622.1593676417
 20
399.2089065929
 11
609.7078787987
 21
399.2089065929
  0
LINE
  5
813
100
AcDbEntity
  8
0
100
AcDbLine
 62
7
  6
CONTINUOUS
 10
627.4578787987
 20
514.5039796081
 11
627.4578787987
 21
513.8469421465
  0
LINE
  5
814
100
AcDbEntity
  8
0
100
AcDbLine
 62
7
  6
CONTINUOUS
 10
609.4578787987
 20
396.4939806606
 11
609.7027929767
 21
396.488997233
  0
LINE
  5
815
100
AcDbEntity
  8
0
100
AcDbLine
 62
9
  6
CONTINUOUS
 10
627.4578787987
 20
395.2089065929
 11
627.2626125266
 21
395.2089065938
  0
LINE
  5
816
100
AcDbEntity
  8
0
100
AcDbLine
 62
9
  6
CONTINUOUS
 10
639.3583750797
 20
155.9939806606
 11
639.4578787987
 21
155.9939806606
  0
LINE
  5
817
100
AcDbEntity
  8
0
100
AcDbLine
 62
9
  6
CONTINUOUS
 10
609.7091350801
 20
155.9939806606
 11
639.0476457611
 21
155.9939806606
  0
LINE
  5
818
100
AcDbEntity
  8
0
100
AcDbLine
 62
9
  6
CONTINUOUS
 10
623.4578787987
 20
137.265241707
 11
623.4578787987
 21
137.6815598974
  0
LINE
  5
819
100
AcDbEntity
  8
0
100
AcDbLine
 62
9
  6
CONTINUOUS
 10
623.5407190354
 20
254.0790547282
 11
623.4578787987
 21
254.0790547282
  0
LINE
  5
81A
100
AcDbEntity
  8
0
100
AcDbLine
 62
9
  6
CONTINUOUS
 10
623.4578787987
 20
254.0790547282
 11
622.5874683561
 21
254.0790547282
  0
LINE
  5
81B
100
AcDbEntity
  8
0
100
AcDbLine
 62
9
  6
CONTINUOUS
 10
622.5874683561
 20
254.0790547282
 11
622.1593676417
 21
254.0790547282
  0
LINE
  5
81C
100
AcDbEntity
  8
0
100
AcDbLine
 62
9
  6
CONTINUOUS
 10
622.1593676417
 20
254.0790547282
 11
609.7091103258
 21
254.0790547282
  0
SPLINE
  5
81D
100
AcDbEntity
  8
0
100
AcDbSpline
 62
9
  6
CONTINUOUS
 70
0
 71
3
 72
9
 73
5
 74
0
 42
0.0000001
 43
0.0000001
 44
0.0000000001
 40
0.0
 40
0.0
 40
0.0
 40
0.0
 40
0.330855127
 40
1.0
 40
1.0
 40
1.0
 40
1.0
 10
623.4578787987
 20
253.7790547282
 30
0.0
 10
623.4930736283
 20
253.7790547282
 30
0.0
 10
623.5341189322
 20
253.9208695178
 30
0.0
 10
623.5407190395
 20
254.0078742088
 30
0.0
 10
623.540719033
 20
254.0790547282
 30
0.0
  0
ARC
  5
81E
100
AcDbEntity
  8
0
100
AcDbCircle
 62
9
  6
CONTINUOUS
 10
623.5697455202
 20
257.781288454
 40
3.6928676819
100
AcDbArc
 50
343.5209545622
 51
359.9653431757
  0
ARC
  5
81F
100
AcDbEntity
  8
0
100
AcDbCircle
 62
9
  6
CONTINUOUS
 10
623.5562165322
 20
257.7912323869
 40
3.7086660662
100
AcDbArc
 50
291.0011479823
 51
343.4329286744
  0
ARC
  5
820
100
AcDbEntity
  8
0
100
AcDbCircle
 62
9
  6
CONTINUOUS
 10
623.5454212576
 20
257.8066773383
 40
3.7269567107
100
AcDbArc
 50
286.2536528567
 51
291.0709877875
  0
ARC
  5
821
100
AcDbEntity
  8
0
100
AcDbCircle
 62
9
  6
CONTINUOUS
 10
623.5386018382
 20
257.8377725169
 40
3.758718385
100
AcDbArc
 50
270.0322733602
 51
286.2207822846
  0
SPLINE
  5
822
100
AcDbEntity
  8
0
100
AcDbSpline
 62
9
  6
CONTINUOUS
 70
0
 71
3
 72
10
 73
6
 74
0
 42
0.0000001
 43
0.0000001
 44
0.0000000001
 40
0.0
 40
0.0
 40
0.0
 40
0.0
 40
0.0685783714
 40
0.2680080473
 40
1.0
 40
1.0
 40
1.0
 40
1.0
 10
609.7078787987
 20
253.7790547282
 30
0.0
 10
609.7113716202
 20
253.7789636309
 30
0.0
 10
609.7038038312
 20
253.7572315564
 30
0.0
 10
609.7156024055
 20
253.7180700402
 30
0.0
 10
609.7088842458
 20
253.6635090221
 30
0.0
 10
609.7089728099
 20
253.6262147648
 30
0.0
  0
LINE
  5
823
100
AcDbEntity
  8
0
100
AcDbLine
 62
9
  6
CONTINUOUS
 10
622.1593676417
 20
253.4790547282
 11
609.7091350801
 21
253.4790547282
  0
ARC
  5
824
100
AcDbEntity
  8
0
100
AcDbCircle
 62
9
  6
CONTINUOUS
 10
609.4578787987
 20
185.9939806606
 40
50.7
100
AcDbArc
 50
270.2825183387
 51
286.0296118453
  0
LINE
  5
825
100
AcDbEntity
  8
0
100
AcDbLine
 62
9
  6
CONTINUOUS
 10
623.4578787987
 20
137.265241707
 11
623.561849109
 21
137.2929713528
  0
ARC
  5
826
100
AcDbEntity
  8
0
100
AcDbCircle
 62
9
  6
CONTINUOUS
 10
608.4982630073
 20
193.5511738045
 40
58.2399945856
100
AcDbArc
 50
284.9897810197
 51
286.0302712952
  0
ARC
  5
827
100
AcDbEntity
  8
0
100
AcDbCircle
 62
9
  6
CONTINUOUS
 10
608.4931831299
 20
193.5682185145
 40
58.257779312
100
AcDbArc
 50
286.0304439332
 51
286.9894427733
  0
ARC
  5
828
100
AcDbEntity
  8
0
100
AcDbCircle
 62
9
  6
CONTINUOUS
 10
608.562661591
 20
193.3313260368
 40
58.010923924
100
AcDbArc
 50
286.9921811831
 51
287.7714446966
  0
SPLINE
  5
829
100
AcDbEntity
  8
0
100
AcDbSpline
 62
9
  6
CONTINUOUS
 70
0
 71
3
 72
12
 73
8
 74
0
 42
0.0000001
 43
0.0000001
 44
0.0000000001
 40
0.0
 40
0.0
 40
0.0
 40
0.0
 40
0.4190742178
 40
0.7353516477
 40
0.849816642
 40
0.9327693813
 40
1.0
 40
1.0
 40
1.0
 40
1.0
 10
626.2687987715
 20
138.0885889516
 30
0.0
 10
626.435495443
 20
138.1420176415
 30
0.0
 10
626.7327729876
 20
138.2403115969
 30
0.0
 10
627.0543603573
 20
138.3435402298
 30
0.0
 10
627.2782151377
 20
138.4252329482
 30
0.0
 10
627.3453781737
 20
138.4380425131
 30
0.0
 10
627.4780587887
 20
138.5035112145
 30
0.0
 10
627.4578787987
 20
138.483981713
 30
0.0
  0
LINE
  5
82A
100
AcDbEntity
  8
0
100
AcDbLine
 62
9
  6
CONTINUOUS
 10
623.4578787987
 20
137.265241707
 11
623.5407190365
 21
136.9769059739
  0
ARC
  5
82B
100
AcDbEntity
  8
0
100
AcDbCircle
 62
9
  6
CONTINUOUS
 10
609.4578787987
 20
185.9939806606
 40
50.3
100
AcDbArc
 50
270.2847714484
 51
286.0655677833
  0
ARC
  5
82C
100
AcDbEntity
  8
0
100
AcDbCircle
 62
9
  6
CONTINUOUS
 10
609.4578787987
 20
185.9939806606
 40
50.3
100
AcDbArc
 50
286.0655677833
 51
286.1605603335
  0
ARC
  5
82D
100
AcDbEntity
  8
0
100
AcDbCircle
 62
9
  6
CONTINUOUS
 10
610.307329471
 20
179.8977982569
 40
44.2170524668
100
AcDbArc
 50
287.302047889
 51
288.8980217261
  0
ARC
  5
82E
100
AcDbEntity
  8
0
100
AcDbCircle
 62
9
  6
CONTINUOUS
 10
610.3111660046
 20
179.8972926001
 40
44.2153316077
100
AcDbArc
 50
288.8935304178
 51
289.2312786196
  0
ARC
  5
82F
100
AcDbEntity
  8
0
100
AcDbCircle
 62
9
  6
CONTINUOUS
 10
610.0481702596
 20
180.6513639482
 40
45.0139493866
100
AcDbArc
 50
289.231204889
 51
290.3614859475
  0
ARC
  5
830
100
AcDbEntity
  8
0
100
AcDbCircle
 62
9
  6
CONTINUOUS
 10
610.1513949464
 20
180.3573095951
 40
44.7023528465
100
AcDbArc
 50
290.3685854243
 51
291.5096150293
  0
ARC
  5
831
100
AcDbEntity
  8
0
100
AcDbCircle
 62
9
  6
CONTINUOUS
 10
610.2611154851
 20
180.0823566112
 40
44.4063188493
100
AcDbArc
 50
291.5079820323
 51
292.6646926337
  0
LINE
  5
832
100
AcDbEntity
  8
0
100
AcDbLine
 62
9
  6
CONTINUOUS
 10
627.3725342039
 20
139.1052837145
 11
627.457878799
 21
139.1410191745
  0
LINE
  5
833
100
AcDbEntity
  8
0
100
AcDbLine
 62
9
  6
CONTINUOUS
 10
623.4578787987
 20
137.6815598974
 11
623.3743797929
 21
137.9697055481
  0
LINE
  5
834
100
AcDbEntity
  8
0
100
AcDbLine
 62
9
  6
CONTINUOUS
 10
609.7578787987
 20
517.6930930788
 11
609.7594161219
 21
517.9528961516
  0
LINE
  5
835
100
AcDbEntity
  8
0
100
AcDbLine
 62
9
  6
CONTINUOUS
 10
609.7594161219
 20
517.9528961516
 11
609.7596539467
 21
517.9930878269
  0
LINE
  5
836
100
AcDbEntity
  8
0
100
AcDbLine
 62
7
  6
CONTINUOUS
 10
609.7078787987
 20
517.6930889729
 11
609.4833181382
 21
517.6930752164
  0
LINE
  5
837
100
AcDbEntity
  8
0
100
AcDbLine
 62
9
  6
CONTINUOUS
 10
609.7078787987
 20
517.2933593844
 11
609.4913724479
 21
517.2933593843
  0
LINE
  5
838
100
AcDbEntity
  8
0
100
AcDbLine
 62
9
  6
CONTINUOUS
 10
609.7078787987
 20
517.2933593844
 11
609.7078787987
 21
517.6945081132
  0
LINE
  5
839
100
AcDbEntity
  8
0
100
AcDbLine
 62
9
  6
CONTINUOUS
 10
609.7091350801
 20
496.9939806606
 11
609.4578787987
 21
496.9939806606
  0
LINE
  5
83A
100
AcDbEntity
  8
0
100
AcDbLine
 62
9
  6
CONTINUOUS
 10
609.7091350801
 20
496.9939806606
 11
609.7091350846
 21
497.4939806583
  0
LINE
  5
83B
100
AcDbEntity
  8
0
100
AcDbLine
 62
9
  6
CONTINUOUS
 10
609.7091350846
 20
497.4939806583
 11
609.709135247
 21
506.969938265
  0
LINE
  5
83C
100
AcDbEntity
  8
0
100
AcDbLine
 62
9
  6
CONTINUOUS
 10
609.7091352437
 20
514.4589046442
 11
609.7091351812
 21
515.6541475311
  0
LINE
  5
83D
100
AcDbEntity
  8
0
100
AcDbLine
 62
9
  6
CONTINUOUS
 10
609.7091351812
 20
515.6541475311
 11
609.7091350801
 21
516.9933493594
  0
LINE
  5
83E
100
AcDbEntity
  8
0
100
AcDbLine
 62
9
  6
CONTINUOUS
 10
609.7091136855
 20
255.9989390788
 11
623.4901077393
 21
256.2766007942
  0
LINE
  5
83F
100
AcDbEntity
  8
0
100
AcDbLine
 62
9
  6
CONTINUOUS
 10
623.4901077393
 20
256.2766007942
 11
623.6273099464
 21
256.2793651519
  0
LINE
  5
840
100
AcDbEntity
  8
0
100
AcDbLine
 62
9
  6
CONTINUOUS
 10
609.7091350801
 20
400.261929853
 11
609.7091350801
 21
401.1268858071
  0
LINE
  5
841
100
AcDbEntity
  8
0
100
AcDbLine
 62
9
  6
CONTINUOUS
 10
609.7091350801
 20
401.1268858071
 11
609.7091350801
 21
401.9939806606
  0
LINE
  5
842
100
AcDbEntity
  8
0
100
AcDbLine
 62
9
  6
CONTINUOUS
 10
609.7091350801
 20
401.9939806606
 11
609.7091350801
 21
496.9939806606
  0
ARC
  5
843
100
AcDbEntity
  8
0
100
AcDbCircle
 62
9
  6
CONTINUOUS
 10
623.595990649
 20
257.8123126756
 40
1.5332674289
100
AcDbArc
 50
271.1704340244
 51
283.3877180161
  0
ARC
  5
844
100
AcDbEntity
  8
0
100
AcDbCircle
 62
9
  6
CONTINUOUS
 10
623.5969443708
 20
257.8059861408
 40
1.5268920847
100
AcDbArc
 50
283.4078700323
 51
291.7272160792
  0
ARC
  5
845
100
AcDbEntity
  8
0
100
AcDbCircle
 62
9
  6
CONTINUOUS
 10
623.5960753237
 20
257.8051838975
 40
1.5264689456
100
AcDbArc
 50
291.7686653692
 51
308.6589801903
  0
ARC
  5
846
100
AcDbEntity
  8
0
100
AcDbCircle
 62
9
  6
CONTINUOUS
 10
623.6039707136
 20
257.7923967848
 40
1.5115527496
100
AcDbArc
 50
308.7280650458
 51
321.7503294342
  0
SPLINE
  5
847
100
AcDbEntity
  8
0
100
AcDbSpline
 62
9
  6
CONTINUOUS
 70
0
 71
3
 72
8
 73
4
 74
0
 42
0.0000001
 43
0.0000001
 44
0.0000000001
 40
0.0
 40
0.0
 40
0.0
 40
0.0
 40
1.0
 40
1.0
 40
1.0
 40
1.0
 10
624.7910240603
 20
256.8566104487
 30
0.0
 10
624.9286788551
 20
257.0314145446
 30
0.0
 10
625.0288779164
 20
257.2425976612
 30
0.0
 10
625.0766483546
 20
257.4599068872
 30
0.0
  0
ARC
  5
848
100
AcDbEntity
  8
0
100
AcDbCircle
 62
9
  6
CONTINUOUS
 10
623.620932553
 20
257.7796232344
 40
1.4904117007
100
AcDbArc
 50
347.6128982032
 51
359.97814496
  0
SPLINE
  5
849
100
AcDbEntity
  8
0
100
AcDbSpline
 62
9
  6
CONTINUOUS
 70
0
 71
3
 72
9
 73
5
 74
0
 42
0.0000001
 43
0.0000001
 44
0.0000000001
 40
0.0
 40
0.0
 40
0.0
 40
0.0
 40
0.3313742765
 40
1.0
 40
1.0
 40
1.0
 40
1.0
 10
623.4782221589
 20
256.7792654826
 30
0.0
 10
623.5373048526
 20
256.7804673764
 30
0.0
 10
623.6112282378
 20
256.5443375467
 30
0.0
 10
623.6250708858
 20
256.3985820716
 30
0.0
 10
623.6273090351
 20
256.2793651519
 30
0.0
  0
SPLINE
  5
84A
100
AcDbEntity
  8
0
100
AcDbSpline
 62
9
  6
CONTINUOUS
 70
0
 71
3
 72
9
 73
5
 74
0
 42
0.0000001
 43
0.0000001
 44
0.0000000001
 40
0.0
 40
0.0
 40
0.0
 40
0.0
 40
0.2977453321
 40
1.0
 40
1.0
 40
1.0
 40
1.0
 10
609.7596539467
 20
398.9089065929
 30
0.0
 10
609.759653946
 20
398.9346922833
 30
0.0
 10
609.7595636335
 20
399.021295117
 30
0.0
 10
609.7593926646
 20
399.1078999567
 30
0.0
 10
609.7587663727
 20
399.1687142141
 30
0.0
  0
SPLINE
  5
84B
100
AcDbEntity
  8
0
100
AcDbSpline
 62
9
  6
CONTINUOUS
 70
0
 71
3
 72
9
 73
5
 74
0
 42
0.0000001
 43
0.0000001
 44
0.0000000001
 40
0.0
 40
0.0
 40
0.0
 40
0.0
 40
0.7436316406
 40
1.0
 40
1.0
 40
1.0
 40
1.0
 10
609.7587663727
 20
399.1687142141
 30
0.0
 10
609.7586637433
 20
399.178679747
 30
0.0
 10
609.7539609603
 20
399.18711034
 30
0.0
 10
609.7613146165
 20
399.2089065929
 30
0.0
 10
609.7578787987
 20
399.2089065929
 30
0.0
  0
LINE
  5
84C
100
AcDbEntity
  8
0
100
AcDbLine
 62
7
  6
CONTINUOUS
 10
609.7091103258
 20
398.9089065929
 11
609.4835073597
 21
398.9089065929
  0
LINE
  5
84D
100
AcDbEntity
  8
0
100
AcDbLine
 62
7
  6
CONTINUOUS
 10
609.4835073597
 20
398.9089065929
 11
609.4578787987
 21
398.9089065929
  0
LINE
  5
84E
100
AcDbEntity
  8
0
100
AcDbLine
 62
9
  6
CONTINUOUS
 10
609.7091136855
 20
396.9890222411
 11
609.4915725603
 21
396.9890209494
  0
LINE
  5
84F
100
AcDbEntity
  8
0
100
AcDbLine
 62
9
  6
CONTINUOUS
 10
609.4915725603
 20
396.9890209494
 11
609.4578787987
 21
396.9890223071
  0
LINE
  5
850
100
AcDbEntity
  8
0
100
AcDbLine
 62
9
  6
CONTINUOUS
 10
609.7091136855
 20
396.9890222411
 11
609.7091103258
 21
398.9089065929
  0
SPLINE
  5
851
100
AcDbEntity
  8
0
100
AcDbSpline
 62
9
  6
CONTINUOUS
 70
0
 71
3
 72
9
 73
5
 74
0
 42
0.0000001
 43
0.0000001
 44
0.0000000001
 40
0.0
 40
0.0
 40
0.0
 40
0.0
 40
0.2636198378
 40
1.0
 40
1.0
 40
1.0
 40
1.0
 10
609.7028234051
 20
256.4974535693
 30
0.0
 10
609.7123618828
 20
256.5152354627
 30
0.0
 10
609.6921285648
 20
256.3477390997
 30
0.0
 10
609.7055281241
 20
256.3242077768
 30
0.0
 10
609.7061915264
 20
256.2678457999
 30
0.0
  0
LINE
  5
852
100
AcDbEntity
  8
0
100
AcDbLine
 62
9
  6
CONTINUOUS
 10
609.7061915264
 20
256.2678457999
 11
609.7091084318
 21
255.9989520271
  0
SPLINE
  5
853
100
AcDbEntity
  8
0
100
AcDbSpline
 62
9
  6
CONTINUOUS
 70
0
 71
3
 72
9
 73
5
 74
0
 42
0.0000001
 43
0.0000001
 44
0.0000000001
 40
0.0
 40
0.0
 40
0.0
 40
0.0
 40
0.2636198372
 40
1.0
 40
1.0
 40
1.0
 40
1.0
 10
609.7028234051
 20
396.4905077518
 30
0.0
 10
609.7123618824
 20
396.4727258591
 30
0.0
 10
609.6921285652
 20
396.6402222158
 30
0.0
 10
609.705528124
 20
396.6637535378
 30
0.0
 10
609.7061915263
 20
396.7201155127
 30
0.0
  0
LINE
  5
854
100
AcDbEntity
  8
0
100
AcDbLine
 62
9
  6
CONTINUOUS
 10
609.7061915263
 20
396.7201155127
 11
609.7091084318
 21
396.9890092941
  0
LINE
  5
855
100
AcDbEntity
  8
0
100
AcDbLine
 62
9
  6
CONTINUOUS
 10
624.4578787987
 20
395.2089065929
 11
625.1113441453
 21
395.2089065929
  0
LINE
  5
856
100
AcDbEntity
  8
0
100
AcDbLine
 62
9
  6
CONTINUOUS
 10
639.3583750797
 20
496.9939806606
 11
639.4578787987
 21
496.9939806606
  0
LINE
  5
857
100
AcDbEntity
  8
0
100
AcDbLine
 62
9
  6
CONTINUOUS
 10
609.7091350801
 20
496.9939806606
 11
639.0476457611
 21
496.9939806606
  0
LINE
  5
858
100
AcDbEntity
  8
0
100
AcDbLine
 62
9
  6
CONTINUOUS
 10
609.7091350801
 20
516.9933493594
 11
609.7084901404
 21
517.1461946192
  0
LINE
  5
859
100
AcDbEntity
  8
0
100
AcDbLine
 62
9
  6
CONTINUOUS
 10
609.7084901404
 20
517.1461946192
 11
609.7078787987
 21
517.2933593844
  0
LINE
  5
85A
100
AcDbEntity
  8
0
100
AcDbLine
 62
9
  6
CONTINUOUS
 10
624.4578787987
 20
257.7790547282
 11
625.1113441453
 21
257.7790547282
  0
LINE
  5
85B
100
AcDbEntity
  8
0
100
AcDbLine
 62
9
  6
CONTINUOUS
 10
609.7091136855
 20
255.99893908
 11
609.7091103258
 21
254.0790547282
  0
LINE
  5
85C
100
AcDbEntity
  8
0
100
AcDbLine
 62
7
  6
CONTINUOUS
 10
609.7091103258
 20
254.0790547282
 11
609.4835073597
 21
254.0790547282
  0
LINE
  5
85D
100
AcDbEntity
  8
0
100
AcDbLine
 62
7
  6
CONTINUOUS
 10
609.4835073597
 20
254.0790547282
 11
609.4578787987
 21
254.0790547282
  0
LINE
  5
85E
100
AcDbEntity
  8
0
100
AcDbLine
 62
9
  6
CONTINUOUS
 10
625.1113441453
 20
395.2089065929
 11
625.1113441453
 21
257.7790547282
  0
ARC
  5
85F
100
AcDbEntity
  8
0
100
AcDbCircle
 62
9
  6
CONTINUOUS
 10
623.595990649
 20
395.1756486456
 40
1.533267429
100
AcDbArc
 50
76.6122819839
 51
88.8295659756
  0
ARC
  5
860
100
AcDbEntity
  8
0
100
AcDbCircle
 62
9
  6
CONTINUOUS
 10
623.5969443708
 20
395.1819751803
 40
1.5268920847
100
AcDbArc
 50
68.2727839209
 51
76.5921299677
  0
ARC
  5
861
100
AcDbEntity
  8
0
100
AcDbCircle
 62
9
  6
CONTINUOUS
 10
623.5960753237
 20
395.1827774236
 40
1.5264689456
100
AcDbArc
 50
51.3410198097
 51
68.2313346308
  0
ARC
  5
862
100
AcDbEntity
  8
0
100
AcDbCircle
 62
9
  6
CONTINUOUS
 10
623.6039707136
 20
395.1955645363
 40
1.5115527496
100
AcDbArc
 50
38.2496705658
 51
51.2719349541
  0
SPLINE
  5
863
100
AcDbEntity
  8
0
100
AcDbSpline
 62
9
  6
CONTINUOUS
 70
0
 71
3
 72
8
 73
4
 74
0
 42
0.0000001
 43
0.0000001
 44
0.0000000001
 40
0.0
 40
0.0
 40
0.0
 40
0.0
 40
1.0
 40
1.0
 40
1.0
 40
1.0
 10
624.7910240603
 20
396.1313508725
 30
0.0
 10
624.9286788551
 20
395.9565467765
 30
0.0
 10
625.0288779164
 20
395.7453636599
 30
0.0
 10
625.0766483546
 20
395.5280544339
 30
0.0
  0
ARC
  5
864
100
AcDbEntity
  8
0
100
AcDbCircle
 62
9
  6
CONTINUOUS
 10
623.620932553
 20
395.2083380867
 40
1.4904117007
100
AcDbArc
 50
0.02185504
 51
12.3871017968
  0
SPLINE
  5
865
100
AcDbEntity
  8
0
100
AcDbSpline
 62
9
  6
CONTINUOUS
 70
0
 71
3
 72
9
 73
5
 74
0
 42
0.0000001
 43
0.0000001
 44
0.0000000001
 40
0.0
 40
0.0
 40
0.0
 40
0.0
 40
0.3313742765
 40
1.0
 40
1.0
 40
1.0
 40
1.0
 10
623.4782221589
 20
396.2086958385
 30
0.0
 10
623.5373048526
 20
396.2074939448
 30
0.0
 10
623.6112282378
 20
396.4436237744
 30
0.0
 10
623.6250708858
 20
396.5893792495
 30
0.0
 10
623.6273090351
 20
396.7085961692
 30
0.0
  0
LINE
  5
866
100
AcDbEntity
  8
0
100
AcDbLine
 62
9
  6
CONTINUOUS
 10
609.7091136855
 20
396.9890222423
 11
623.4901077393
 21
396.7113605269
  0
LINE
  5
867
100
AcDbEntity
  8
0
100
AcDbLine
 62
9
  6
CONTINUOUS
 10
623.4901077393
 20
396.7113605269
 11
623.6273099464
 21
396.7085961692
  0
LINE
  5
868
100
AcDbEntity
  8
0
100
AcDbLine
 62
9
  6
CONTINUOUS
 10
609.7091136855
 20
255.99893908
 11
609.4915725603
 21
255.9989403717
  0
LINE
  5
869
100
AcDbEntity
  8
0
100
AcDbLine
 62
9
  6
CONTINUOUS
 10
609.4915725603
 20
255.9989403717
 11
609.4578787987
 21
255.998939014
  0
SPLINE
  5
86A
100
AcDbEntity
  8
0
100
AcDbSpline
 62
9
  6
CONTINUOUS
 70
0
 71
3
 72
9
 73
5
 74
0
 42
0.0000001
 43
0.0000001
 44
0.0000000001
 40
0.0
 40
0.0
 40
0.0
 40
0.0
 40
0.2977453321
 40
1.0
 40
1.0
 40
1.0
 40
1.0
 10
609.7596539467
 20
254.0790547282
 30
0.0
 10
609.7596539467
 20
254.0532690378
 30
0.0
 10
609.7595636342
 20
253.9666662042
 30
0.0
 10
609.7593926646
 20
253.8800613644
 30
0.0
 10
609.7587663727
 20
253.8192471071
 30
0.0
  0
SPLINE
  5
86B
100
AcDbEntity
  8
0
100
AcDbSpline
 62
9
  6
CONTINUOUS
 70
0
 71
3
 72
9
 73
5
 74
0
 42
0.0000001
 43
0.0000001
 44
0.0000000001
 40
0.0
 40
0.0
 40
0.0
 40
0.0
 40
0.7436316407
 40
1.0
 40
1.0
 40
1.0
 40
1.0
 10
609.7587663727
 20
253.8192471071
 30
0.0
 10
609.7586637433
 20
253.8092815741
 30
0.0
 10
609.75396096
 20
253.8008509811
 30
0.0
 10
609.7613146165
 20
253.7790547282
 30
0.0
 10
609.7578787987
 20
253.7790547282
 30
0.0
  0
SPLINE
  5
86C
100
AcDbEntity
  8
0
100
AcDbSpline
 62
9
  6
CONTINUOUS
 70
0
 71
3
 72
10
 73
6
 74
0
 42
0.0000001
 43
0.0000001
 44
0.0000000001
 40
0.0
 40
0.0
 40
0.0
 40
0.0
 40
0.0685783714
 40
0.2680080473
 40
1.0
 40
1.0
 40
1.0
 40
1.0
 10
609.7078787987
 20
399.2089065929
 30
0.0
 10
609.7113716202
 20
399.2089976902
 30
0.0
 10
609.7038038312
 20
399.2307297648
 30
0.0
 10
609.7156024055
 20
399.2698912809
 30
0.0
 10
609.7088842458
 20
399.324452299
 30
0.0
 10
609.7089728099
 20
399.3617465563
 30
0.0
  0
LINE
  5
86D
100
AcDbEntity
  8
0
100
AcDbLine
 62
9
  6
CONTINUOUS
 10
623.4578787987
 20
515.3064014238
 11
623.3743797929
 21
515.018255773
  0
ARC
  5
86E
100
AcDbEntity
  8
0
100
AcDbCircle
 62
9
  6
CONTINUOUS
 10
610.3073294711
 20
473.0901630643
 40
44.2170524666
100
AcDbArc
 50
71.1019782739
 51
72.697952111
  0
ARC
  5
86F
100
AcDbEntity
  8
0
100
AcDbCircle
 62
9
  6
CONTINUOUS
 10
610.3111660079
 20
473.0906687303
 40
44.2153315979
100
AcDbArc
 50
70.7687213803
 51
71.1064695823
  0
ARC
  5
870
100
AcDbEntity
  8
0
100
AcDbCircle
 62
9
  6
CONTINUOUS
 10
610.0481702595
 20
472.3365973727
 40
45.0139493868
100
AcDbArc
 50
69.6385140525
 51
70.768795111
  0
ARC
  5
871
100
AcDbEntity
  8
0
100
AcDbCircle
 62
9
  6
CONTINUOUS
 10
610.1513949472
 20
472.630651728
 40
44.7023528444
100
AcDbArc
 50
68.4903849706
 51
69.6314145757
  0
ARC
  5
872
100
AcDbEntity
  8
0
100
AcDbCircle
 62
9
  6
CONTINUOUS
 10
610.2611154842
 20
472.9056047077
 40
44.4063188517
100
AcDbArc
 50
67.3353073663
 51
68.4920179677
  0
LINE
  5
873
100
AcDbEntity
  8
0
100
AcDbLine
 62
9
  6
CONTINUOUS
 10
627.3725342039
 20
513.8826776066
 11
627.457878799
 21
513.8469421467
  0
ARC
  5
874
100
AcDbEntity
  8
0
100
AcDbCircle
 62
9
  6
CONTINUOUS
 10
609.4578787987
 20
466.9939806606
 40
50.3
100
AcDbArc
 50
73.9344322155
 51
89.7152285516
  0
ARC
  5
875
100
AcDbEntity
  8
0
100
AcDbCircle
 62
9
  6
CONTINUOUS
 10
609.4578787987
 20
466.9939806606
 40
50.3
100
AcDbArc
 50
73.8394396665
 51
73.9344322155
  0
LINE
  5
876
100
AcDbEntity
  8
0
100
AcDbLine
 62
9
  6
CONTINUOUS
 10
623.4578787987
 20
515.7227196141
 11
623.5407190365
 21
516.0110553472
  0
ARC
  5
877
100
AcDbEntity
  8
0
100
AcDbCircle
 62
9
  6
CONTINUOUS
 10
608.5558281675
 20
459.6438228629
 40
58.0251133032
100
AcDbArc
 50
73.9679068742
 51
75.1185025718
  0
ARC
  5
878
100
AcDbEntity
  8
0
100
AcDbCircle
 62
9
  6
CONTINUOUS
 10
608.4931831293
 20
459.4197428046
 40
58.2577793141
100
AcDbArc
 50
73.0105572267
 51
73.9695560668
  0
ARC
  5
879
100
AcDbEntity
  8
0
100
AcDbCircle
 62
9
  6
CONTINUOUS
 10
608.5626615904
 20
459.6566352825
 40
58.0109239259
100
AcDbArc
 50
72.2285553034
 51
73.0078188169
  0
SPLINE
  5
87A
100
AcDbEntity
  8
0
100
AcDbSpline
 62
9
  6
CONTINUOUS
 70
0
 71
3
 72
12
 73
8
 74
0
 42
0.0000001
 43
0.0000001
 44
0.0000000001
 40
0.0
 40
0.0
 40
0.0
 40
0.0
 40
0.4190742178
 40
0.7353516477
 40
0.849816642
 40
0.9327693813
 40
1.0
 40
1.0
 40
1.0
 40
1.0
 10
626.2687987715
 20
514.8993723695
 30
0.0
 10
626.435495443
 20
514.8459436796
 30
0.0
 10
626.7327729876
 20
514.7476497242
 30
0.0
 10
627.0543603573
 20
514.6444210913
 30
0.0
 10
627.2782151377
 20
514.5627283729
 30
0.0
 10
627.3453781737
 20
514.549918808
 30
0.0
 10
627.4780587887
 20
514.4844501066
 30
0.0
 10
627.4578787987
 20
514.5039796081
 30
0.0
  0
ARC
  5
87B
100
AcDbEntity
  8
0
100
AcDbCircle
 62
9
  6
CONTINUOUS
 10
609.4578787987
 20
466.9939806606
 40
50.7
100
AcDbArc
 50
73.9703881547
 51
89.7174816613
  0
LINE
  5
87C
100
AcDbEntity
  8
0
100
AcDbLine
 62
9
  6
CONTINUOUS
 10
622.1593676417
 20
399.5089065929
 11
609.7091350801
 21
399.5089065929
  0
LINE
  5
87D
100
AcDbEntity
  8
0
100
AcDbLine
 62
9
  6
CONTINUOUS
 10
627.2626125266
 20
257.7790547273
 11
627.2626125266
 21
395.2089065938
  0
ARC
  5
87E
100
AcDbEntity
  8
0
100
AcDbCircle
 62
9
  6
CONTINUOUS
 10
623.5697455203
 20
395.2066728672
 40
3.6928676819
100
AcDbArc
 50
0.0346568243
 51
16.4790454379
  0
ARC
  5
87F
100
AcDbEntity
  8
0
100
AcDbCircle
 62
9
  6
CONTINUOUS
 10
623.5562161146
 20
395.1967286582
 40
3.7086665452
100
AcDbArc
 50
16.5670735739
 51
68.9997574243
  0
ARC
  5
880
100
AcDbEntity
  8
0
100
AcDbCircle
 62
9
  6
CONTINUOUS
 10
623.5454217525
 20
395.1812854547
 40
3.7269551591
100
AcDbArc
 50
68.9299166154
 51
73.7463481152
  0
ARC
  5
881
100
AcDbEntity
  8
0
100
AcDbCircle
 62
9
  6
CONTINUOUS
 10
623.5386018382
 20
395.1501888042
 40
3.758718385
100
AcDbArc
 50
73.7792177154
 51
89.9677266398
  0
LINE
  5
882
100
AcDbEntity
  8
0
100
AcDbLine
 62
9
  6
CONTINUOUS
 10
623.5407190354
 20
398.9089065929
 11
623.4578787987
 21
398.9089065929
  0
LINE
  5
883
100
AcDbEntity
  8
0
100
AcDbLine
 62
9
  6
CONTINUOUS
 10
623.4578787987
 20
398.9089065929
 11
622.5874683561
 21
398.9089065929
  0
LINE
  5
884
100
AcDbEntity
  8
0
100
AcDbLine
 62
9
  6
CONTINUOUS
 10
622.5874683561
 20
398.9089065929
 11
622.1593676417
 21
398.9089065929
  0
LINE
  5
885
100
AcDbEntity
  8
0
100
AcDbLine
 62
9
  6
CONTINUOUS
 10
622.1593676417
 20
398.9089065929
 11
609.7091103258
 21
398.9089065929
  0
SPLINE
  5
886
100
AcDbEntity
  8
0
100
AcDbSpline
 62
9
  6
CONTINUOUS
 70
0
 71
3
 72
9
 73
5
 74
0
 42
0.0000001
 43
0.0000001
 44
0.0000000001
 40
0.0
 40
0.0
 40
0.0
 40
0.0
 40
0.330855127
 40
1.0
 40
1.0
 40
1.0
 40
1.0
 10
623.4578787987
 20
399.2089065929
 30
0.0
 10
623.4930736283
 20
399.2089065929
 30
0.0
 10
623.5341189322
 20
399.0670918033
 30
0.0
 10
623.5407190395
 20
398.9800871123
 30
0.0
 10
623.540719033
 20
398.9089065929
 30
0.0
  0
LINE
  5
887
100
AcDbEntity
  8
0
100
AcDbLine
 62
9
  6
CONTINUOUS
 10
609.7091350801
 20
252.7260314483
 11
609.7091350801
 21
251.861075514
  0
LINE
  5
888
100
AcDbEntity
  8
0
100
AcDbLine
 62
9
  6
CONTINUOUS
 10
609.7091350801
 20
251.861075514
 11
609.7091350801
 21
250.9939806606
  0
LINE
  5
889
100
AcDbEntity
  8
0
100
AcDbLine
 62
9
  6
CONTINUOUS
 10
609.7091350801
 20
250.9939806606
 11
609.7091350801
 21
155.9939806606
  0
LINE
  5
88A
100
AcDbEntity
  8
0
100
AcDbLine
 62
9
  6
CONTINUOUS
 10
609.7091350801
 20
155.9939806605
 11
609.7091350846
 21
155.4939806628
  0
LINE
  5
88B
100
AcDbEntity
  8
0
100
AcDbLine
 62
9
  6
CONTINUOUS
 10
609.7091350846
 20
155.4939806628
 11
609.709135247
 21
146.0180230561
  0
LINE
  5
88C
100
AcDbEntity
  8
0
100
AcDbLine
 62
9
  6
CONTINUOUS
 10
609.7091352437
 20
138.529056677
 11
609.7091351812
 21
137.33381379
  0
LINE
  5
88D
100
AcDbEntity
  8
0
100
AcDbLine
 62
9
  6
CONTINUOUS
 10
609.7091351812
 20
137.33381379
 11
609.7091350801
 21
135.9946119617
  0
LINE
  5
88E
100
AcDbEntity
  8
0
100
AcDbLine
 62
9
  6
CONTINUOUS
 10
623.4578787987
 20
515.7227196141
 11
623.4578787987
 21
515.3064014238
  0
LINE
  5
88F
100
AcDbEntity
  8
0
100
AcDbLine
 62
9
  6
CONTINUOUS
 10
609.7091350801
 20
155.9939806606
 11
609.4578787987
 21
155.9939806606
  0
LINE
  5
890
100
AcDbEntity
  8
0
100
AcDbLine
 62
9
  6
CONTINUOUS
 10
609.7091350801
 20
135.9946119617
 11
609.7084901404
 21
135.8417667019
  0
LINE
  5
891
100
AcDbEntity
  8
0
100
AcDbLine
 62
9
  6
CONTINUOUS
 10
609.7084901404
 20
135.8417667019
 11
609.7078787987
 21
135.6946019368
  0
LINE
  5
892
100
AcDbEntity
  8
0
100
AcDbLine
 62
9
  6
CONTINUOUS
 10
609.7078787987
 20
135.6946019368
 11
609.7078787987
 21
135.2934532079
  0
LINE
  5
893
100
AcDbEntity
  8
0
100
AcDbLine
 62
7
  6
CONTINUOUS
 10
609.7078787987
 20
135.2948723483
 11
609.4833181382
 21
135.2948861047
  0
LINE
  5
894
100
AcDbEntity
  8
0
100
AcDbLine
 62
9
  6
CONTINUOUS
 10
609.7078787987
 20
135.6946019368
 11
609.4913724479
 21
135.6946019369
  0
LINE
  5
895
100
AcDbEntity
  8
0
100
AcDbLine
 62
9
  6
CONTINUOUS
 10
609.7578787987
 20
135.2948682423
 11
609.7594161219
 21
135.0350651695
  0
LINE
  5
896
100
AcDbEntity
  8
0
100
AcDbLine
 62
9
  6
CONTINUOUS
 10
609.7594161219
 20
135.0350651695
 11
609.7596539467
 21
134.9948734943
  0
LINE
  5
897
100
AcDbEntity
  8
0
100
AcDbLine
 62
9
  6
CONTINUOUS
 10
627.4578787987
 20
257.7790547282
 11
627.2626125266
 21
257.7790547273
  0
LINE
  5
898
100
AcDbEntity
  8
0
100
AcDbLine
 62
7
  6
CONTINUOUS
 10
82.3578787987
 20
101.4939806606
 11
721.4578787987
 21
101.4939806606
  0
LINE
  5
899
100
AcDbEntity
  8
0
100
AcDbLine
 62
7
  6
CONTINUOUS
 10
721.4578787987
 20
551.4939806606
 11
721.4578787987
 21
101.4939806606
  0
LINE
  5
89A
100
AcDbEntity
  8
0
100
AcDbLine
 62
7
  6
CONTINUOUS
 10
705.4578787987
 20
535.4939806606
 11
705.4578787987
 21
117.4939806606
  0
LINE
  5
89B
100
AcDbEntity
  8
0
100
AcDbLine
 62
7
  6
CONTINUOUS
 10
98.3578787987
 20
117.4939806606
 11
705.4578787987
 21
117.4939806606
  0
LINE
  5
89C
100
AcDbEntity
  8
0
100
AcDbLine
 62
7
  6
CONTINUOUS
 10
82.3578787987
 20
551.4939806606
 11
721.4578787987
 21
551.4939806606
  0
LINE
  5
89D
100
AcDbEntity
  8
0
100
AcDbLine
 62
7
  6
CONTINUOUS
 10
82.3578787987
 20
101.4939806606
 11
82.3578787987
 21
551.4939806606
  0
LINE
  5
89E
100
AcDbEntity
  8
0
100
AcDbLine
 62
7
  6
CONTINUOUS
 10
98.3578787987
 20
117.4939806606
 11
98.3578787987
 21
535.4939806606
  0
LINE
  5
89F
100
AcDbEntity
  8
0
100
AcDbLine
 62
7
  6
CONTINUOUS
 10
98.3578787987
 20
535.4939806606
 11
705.4578787987
 21
535.4939806606
  0
LINE
  5
8A0
100
AcDbEntity
  8
0
100
AcDbLine
 62
3
  6
CONTINUOUS
 10
621.6578787987
 20
529.4939806606
 11
621.6578787987
 21
525.7933263627
  0
ARC
  5
8A1
100
AcDbEntity
  8
0
100
AcDbCircle
 62
3
  6
CONTINUOUS
 10
622.4578787987
 20
533.4939806606
 40
0.8
100
AcDbArc
 50
90.0
 51
180.0
  0
LINE
  5
8A2
100
AcDbEntity
  8
0
100
AcDbLine
 62
3
  6
CONTINUOUS
 10
621.6578787987
 20
533.4939806606
 11
621.6578787987
 21
530.4939806606
  0
LINE
  5
8A3
100
AcDbEntity
  8
0
100
AcDbLine
 62
3
  6
CONTINUOUS
 10
471.4578787987
 20
534.2939806606
 11
501.9578787987
 21
534.2939806606
  0
ARC
  5
8A4
100
AcDbEntity
  8
0
100
AcDbCircle
 62
3
  6
CONTINUOUS
 10
501.9578787987
 20
533.4939806606
 40
0.8
100
AcDbArc
 50
0.0
 51
90.0
  0
ARC
  5
8A5
100
AcDbEntity
  8
0
100
AcDbCircle
 62
3
  6
CONTINUOUS
 10
553.9578787987
 20
533.4939806606
 40
0.8
100
AcDbArc
 50
90.0
 51
180.0
  0
LINE
  5
8A6
100
AcDbEntity
  8
0
100
AcDbLine
 62
3
  6
CONTINUOUS
 10
502.7578787987
 20
533.4939806606
 11
502.7578787987
 21
532.2939806606
  0
ARC
  5
8A7
100
AcDbEntity
  8
0
100
AcDbCircle
 62
3
  6
CONTINUOUS
 10
504.7578787987
 20
532.2939806606
 40
2.0
100
AcDbArc
 50
180.0
 51
270.0
  0
LINE
  5
8A8
100
AcDbEntity
  8
0
100
AcDbLine
 62
3
  6
CONTINUOUS
 10
553.9578787987
 20
534.2939806606
 11
631.4578787987
 21
534.2939806606
  0
ARC
  5
8A9
100
AcDbEntity
  8
0
100
AcDbCircle
 62
3
  6
CONTINUOUS
 10
551.1578787987
 20
532.2939806606
 40
2.0
100
AcDbArc
 50
270.0
 51
360.0
  0
LINE
  5
8AA
100
AcDbEntity
  8
0
100
AcDbLine
 62
3
  6
CONTINUOUS
 10
553.1578787987
 20
532.2939806606
 11
553.1578787987
 21
533.4939806606
  0
LINE
  5
8AB
100
AcDbEntity
  8
0
100
AcDbLine
 62
3
  6
CONTINUOUS
 10
621.6578787987
 20
127.1946349584
 11
621.6578787987
 21
123.4939806606
  0
LINE
  5
8AC
100
AcDbEntity
  8
0
100
AcDbLine
 62
3
  6
CONTINUOUS
 10
471.4578787987
 20
118.6939806606
 11
501.9578787987
 21
118.6939806606
  0
ARC
  5
8AD
100
AcDbEntity
  8
0
100
AcDbCircle
 62
3
  6
CONTINUOUS
 10
501.9578787987
 20
119.4939806606
 40
0.8
100
AcDbArc
 50
270.0
 51
360.0
  0
ARC
  5
8AE
100
AcDbEntity
  8
0
100
AcDbCircle
 62
3
  6
CONTINUOUS
 10
622.4578787987
 20
119.4939806606
 40
0.8
100
AcDbArc
 50
180.0
 51
270.0
  0
LINE
  5
8AF
100
AcDbEntity
  8
0
100
AcDbLine
 62
3
  6
CONTINUOUS
 10
502.7578787987
 20
119.4939806606
 11
502.7578787987
 21
120.6939806606
  0
ARC
  5
8B0
100
AcDbEntity
  8
0
100
AcDbCircle
 62
3
  6
CONTINUOUS
 10
553.9578787987
 20
119.4939806606
 40
0.8
100
AcDbArc
 50
180.0
 51
270.0
  0
ARC
  5
8B1
100
AcDbEntity
  8
0
100
AcDbCircle
 62
3
  6
CONTINUOUS
 10
504.7578787987
 20
120.6939806606
 40
2.0
100
AcDbArc
 50
90.0
 51
180.0
  0
LINE
  5
8B2
100
AcDbEntity
  8
0
100
AcDbLine
 62
3
  6
CONTINUOUS
 10
553.9578787987
 20
118.6939806606
 11
631.4578787987
 21
118.6939806606
  0
ARC
  5
8B3
100
AcDbEntity
  8
0
100
AcDbCircle
 62
3
  6
CONTINUOUS
 10
551.1578787987
 20
120.6939806606
 40
2.0
100
AcDbArc
 50
0.0
 51
90.0
  0
LINE
  5
8B4
100
AcDbEntity
  8
0
100
AcDbLine
 62
3
  6
CONTINUOUS
 10
621.6578787987
 20
119.4939806606
 11
621.6578787987
 21
122.4939806606
  0
LINE
  5
8B5
100
AcDbEntity
  8
0
100
AcDbLine
 62
3
  6
CONTINUOUS
 10
553.1578787987
 20
120.6939806606
 11
553.1578787987
 21
119.4939806606
  0
LINE
  5
8B6
100
AcDbEntity
  8
0
100
AcDbLine
 62
3
  6
CONTINUOUS
 10
392.4578787987
 20
143.4939806606
 11
512.4578787987
 21
143.4939806606
  0
ARC
  5
8B7
100
AcDbEntity
  8
0
100
AcDbCircle
 62
3
  6
CONTINUOUS
 10
472.4578787987
 20
132.4939806606
 40
2.75
100
AcDbArc
 50
270.0
 51
90.0
  0
ARC
  5
8B8
100
AcDbEntity
  8
0
100
AcDbCircle
 62
3
  6
CONTINUOUS
 10
472.4578787987
 20
132.4939806606
 40
2.75
100
AcDbArc
 50
90.0
 51
270.0
  0
ARC
  5
8B9
100
AcDbEntity
  8
0
100
AcDbCircle
 62
3
  6
CONTINUOUS
 10
432.4578787987
 20
132.4939806606
 40
2.75
100
AcDbArc
 50
270.0
 51
90.0
  0
ARC
  5
8BA
100
AcDbEntity
  8
0
100
AcDbCircle
 62
3
  6
CONTINUOUS
 10
432.4578787987
 20
132.4939806606
 40
2.75
100
AcDbArc
 50
90.0
 51
270.0
  0
ARC
  5
8BB
100
AcDbEntity
  8
0
100
AcDbCircle
 62
3
  6
CONTINUOUS
 10
494.9578787987
 20
134.7439806606
 40
2.75
100
AcDbArc
 50
0.0
 51
180.0
  0
LINE
  5
8BC
100
AcDbEntity
  8
0
100
AcDbLine
 62
3
  6
CONTINUOUS
 10
492.2078787987
 20
134.7439806606
 11
492.2078787987
 21
130.2439806606
  0
ARC
  5
8BD
100
AcDbEntity
  8
0
100
AcDbCircle
 62
3
  6
CONTINUOUS
 10
494.9578787987
 20
130.2439806606
 40
2.75
100
AcDbArc
 50
180.0
 51
360.0
  0
LINE
  5
8BE
100
AcDbEntity
  8
0
100
AcDbLine
 62
3
  6
CONTINUOUS
 10
497.7078787987
 20
130.2439806606
 11
497.7078787987
 21
134.7439806606
  0
ARC
  5
8BF
100
AcDbEntity
  8
0
100
AcDbCircle
 62
3
  6
CONTINUOUS
 10
409.9578787987
 20
134.7439806606
 40
2.75
100
AcDbArc
 50
0.0
 51
180.0
  0
LINE
  5
8C0
100
AcDbEntity
  8
0
100
AcDbLine
 62
3
  6
CONTINUOUS
 10
407.2078787987
 20
134.7439806606
 11
407.2078787987
 21
130.2439806606
  0
ARC
  5
8C1
100
AcDbEntity
  8
0
100
AcDbCircle
 62
3
  6
CONTINUOUS
 10
409.9578787987
 20
130.2439806606
 40
2.75
100
AcDbArc
 50
180.0
 51
360.0
  0
LINE
  5
8C2
100
AcDbEntity
  8
0
100
AcDbLine
 62
3
  6
CONTINUOUS
 10
412.7078787987
 20
130.2439806606
 11
412.7078787987
 21
134.7439806606
  0
ARC
  5
8C3
100
AcDbEntity
  8
0
100
AcDbCircle
 62
3
  6
CONTINUOUS
 10
510.4578787987
 20
127.4939806606
 40
2.0
100
AcDbArc
 50
270.0
 51
360.0
  0
LINE
  5
8C4
100
AcDbEntity
  8
0
100
AcDbLine
 62
3
  6
CONTINUOUS
 10
394.4578787987
 20
125.4939806606
 11
510.4578787987
 21
125.4939806606
  0
ARC
  5
8C5
100
AcDbEntity
  8
0
100
AcDbCircle
 62
3
  6
CONTINUOUS
 10
394.4578787987
 20
127.4939806606
 40
2.0
100
AcDbArc
 50
180.0
 51
270.0
  0
LINE
  5
8C6
100
AcDbEntity
  8
0
100
AcDbLine
 62
3
  6
CONTINUOUS
 10
392.4578787987
 20
141.4939806606
 11
392.4578787987
 21
127.4939806606
  0
LINE
  5
8C7
100
AcDbEntity
  8
0
100
AcDbLine
 62
3
  6
CONTINUOUS
 10
512.4578787987
 20
141.4939806606
 11
512.4578787987
 21
127.4939806606
  0
LINE
  5
8C8
100
AcDbEntity
  8
0
100
AcDbLine
 62
3
  6
CONTINUOUS
 10
392.4578787987
 20
143.4939806606
 11
512.4578787987
 21
143.4939806606
  0
LINE
  5
8C9
100
AcDbEntity
  8
0
100
AcDbLine
 62
3
  6
CONTINUOUS
 10
392.4578787987
 20
143.4939806606
 11
392.4578787987
 21
141.9939806606
  0
LINE
  5
8CA
100
AcDbEntity
  8
0
100
AcDbLine
 62
3
  6
CONTINUOUS
 10
392.4578787987
 20
141.9939806606
 11
392.4578787987
 21
141.9390225285
  0
LINE
  5
8CB
100
AcDbEntity
  8
0
100
AcDbLine
 62
3
  6
CONTINUOUS
 10
392.4578787987
 20
141.9390225285
 11
392.4578787987
 21
141.4939806606
  0
LINE
  5
8CC
100
AcDbEntity
  8
0
100
AcDbLine
 62
3
  6
CONTINUOUS
 10
512.4578787987
 20
143.4939806606
 11
512.4578787987
 21
141.9939806606
  0
LINE
  5
8CD
100
AcDbEntity
  8
0
100
AcDbLine
 62
3
  6
CONTINUOUS
 10
512.4578787987
 20
141.9939806606
 11
512.4578787987
 21
141.9390225285
  0
LINE
  5
8CE
100
AcDbEntity
  8
0
100
AcDbLine
 62
3
  6
CONTINUOUS
 10
512.4578787987
 20
141.9390225285
 11
512.4578787987
 21
141.4939806606
  0
LINE
  5
8CF
100
AcDbEntity
  8
0
100
AcDbLine
 62
9
  6
CONTINUOUS
 10
392.4578787987
 20
141.4939806606
 11
512.4578787987
 21
141.4939806606
  0
LINE
  5
8D0
100
AcDbEntity
  8
0
100
AcDbLine
 62
3
  6
CONTINUOUS
 10
512.4578787987
 20
509.4939806606
 11
392.4578787987
 21
509.4939806606
  0
ARC
  5
8D1
100
AcDbEntity
  8
0
100
AcDbCircle
 62
3
  6
CONTINUOUS
 10
432.4578787987
 20
520.4939806606
 40
2.75
100
AcDbArc
 50
90.0
 51
270.0
  0
ARC
  5
8D2
100
AcDbEntity
  8
0
100
AcDbCircle
 62
3
  6
CONTINUOUS
 10
432.4578787987
 20
520.4939806606
 40
2.75
100
AcDbArc
 50
270.0
 51
90.0
  0
ARC
  5
8D3
100
AcDbEntity
  8
0
100
AcDbCircle
 62
3
  6
CONTINUOUS
 10
472.4578787987
 20
520.4939806606
 40
2.75
100
AcDbArc
 50
90.0
 51
270.0
  0
ARC
  5
8D4
100
AcDbEntity
  8
0
100
AcDbCircle
 62
3
  6
CONTINUOUS
 10
472.4578787987
 20
520.4939806606
 40
2.75
100
AcDbArc
 50
270.0
 51
90.0
  0
ARC
  5
8D5
100
AcDbEntity
  8
0
100
AcDbCircle
 62
3
  6
CONTINUOUS
 10
409.9578787987
 20
518.2439806606
 40
2.75
100
AcDbArc
 50
180.0
 51
360.0
  0
LINE
  5
8D6
100
AcDbEntity
  8
0
100
AcDbLine
 62
3
  6
CONTINUOUS
 10
412.7078787987
 20
518.2439806606
 11
412.7078787987
 21
522.7439806606
  0
ARC
  5
8D7
100
AcDbEntity
  8
0
100
AcDbCircle
 62
3
  6
CONTINUOUS
 10
409.9578787987
 20
522.7439806606
 40
2.75
100
AcDbArc
 50
0.0
 51
180.0
  0
LINE
  5
8D8
100
AcDbEntity
  8
0
100
AcDbLine
 62
3
  6
CONTINUOUS
 10
407.2078787987
 20
522.7439806606
 11
407.2078787987
 21
518.2439806606
  0
ARC
  5
8D9
100
AcDbEntity
  8
0
100
AcDbCircle
 62
3
  6
CONTINUOUS
 10
494.9578787987
 20
518.2439806606
 40
2.75
100
AcDbArc
 50
180.0
 51
360.0
  0
LINE
  5
8DA
100
AcDbEntity
  8
0
100
AcDbLine
 62
3
  6
CONTINUOUS
 10
497.7078787987
 20
518.2439806606
 11
497.7078787987
 21
522.7439806606
  0
ARC
  5
8DB
100
AcDbEntity
  8
0
100
AcDbCircle
 62
3
  6
CONTINUOUS
 10
494.9578787987
 20
522.7439806606
 40
2.75
100
AcDbArc
 50
0.0
 51
180.0
  0
LINE
  5
8DC
100
AcDbEntity
  8
0
100
AcDbLine
 62
3
  6
CONTINUOUS
 10
492.2078787987
 20
522.7439806606
 11
492.2078787987
 21
518.2439806606
  0
ARC
  5
8DD
100
AcDbEntity
  8
0
100
AcDbCircle
 62
3
  6
CONTINUOUS
 10
394.4578787987
 20
525.4939806606
 40
2.0
100
AcDbArc
 50
90.0
 51
180.0
  0
LINE
  5
8DE
100
AcDbEntity
  8
0
100
AcDbLine
 62
3
  6
CONTINUOUS
 10
510.4578787987
 20
527.4939806606
 11
394.4578787987
 21
527.4939806606
  0
ARC
  5
8DF
100
AcDbEntity
  8
0
100
AcDbCircle
 62
3
  6
CONTINUOUS
 10
510.4578787987
 20
525.4939806606
 40
2.0
100
AcDbArc
 50
0.0
 51
90.0
  0
LINE
  5
8E0
100
AcDbEntity
  8
0
100
AcDbLine
 62
3
  6
CONTINUOUS
 10
512.4578787987
 20
511.4939806606
 11
512.4578787987
 21
525.4939806606
  0
LINE
  5
8E1
100
AcDbEntity
  8
0
100
AcDbLine
 62
3
  6
CONTINUOUS
 10
392.4578787987
 20
511.4939806606
 11
392.4578787987
 21
525.4939806606
  0
LINE
  5
8E2
100
AcDbEntity
  8
0
100
AcDbLine
 62
3
  6
CONTINUOUS
 10
512.4578787987
 20
509.4939806606
 11
392.4578787987
 21
509.4939806606
  0
LINE
  5
8E3
100
AcDbEntity
  8
0
100
AcDbLine
 62
3
  6
CONTINUOUS
 10
512.4578787987
 20
509.4939806606
 11
512.4578787987
 21
510.9939806606
  0
LINE
  5
8E4
100
AcDbEntity
  8
0
100
AcDbLine
 62
3
  6
CONTINUOUS
 10
512.4578787987
 20
510.9939806606
 11
512.4578787987
 21
511.0489387926
  0
LINE
  5
8E5
100
AcDbEntity
  8
0
100
AcDbLine
 62
3
  6
CONTINUOUS
 10
512.4578787987
 20
511.0489387926
 11
512.4578787987
 21
511.4939806606
  0
LINE
  5
8E6
100
AcDbEntity
  8
0
100
AcDbLine
 62
3
  6
CONTINUOUS
 10
392.4578787987
 20
509.4939806606
 11
392.4578787987
 21
510.9939806606
  0
LINE
  5
8E7
100
AcDbEntity
  8
0
100
AcDbLine
 62
3
  6
CONTINUOUS
 10
392.4578787987
 20
510.9939806606
 11
392.4578787987
 21
511.0489387926
  0
LINE
  5
8E8
100
AcDbEntity
  8
0
100
AcDbLine
 62
3
  6
CONTINUOUS
 10
392.4578787987
 20
511.0489387926
 11
392.4578787987
 21
511.4939806606
  0
LINE
  5
8E9
100
AcDbEntity
  8
0
100
AcDbLine
 62
9
  6
CONTINUOUS
 10
512.4578787987
 20
511.4939806606
 11
392.4578787987
 21
511.4939806606
  0
LINE
  5
8EA
100
AcDbEntity
  8
0
100
AcDbLine
 62
3
  6
CONTINUOUS
 10
571.4578787987
 20
141.3939806606
 11
512.4578787987
 21
141.3939806606
  0
ARC
  5
8EB
100
AcDbEntity
  8
0
100
AcDbCircle
 62
3
  6
CONTINUOUS
 10
571.4578787987
 20
138.3939806606
 40
3.0
100
AcDbArc
 50
0.0
 51
90.0
  0
LINE
  5
8EC
100
AcDbEntity
  8
0
100
AcDbLine
 62
3
  6
CONTINUOUS
 10
571.4578787987
 20
511.5939806606
 11
512.4578787987
 21
511.5939806606
  0
ARC
  5
8ED
100
AcDbEntity
  8
0
100
AcDbCircle
 62
3
  6
CONTINUOUS
 10
571.4578787987
 20
514.5939806606
 40
3.0
100
AcDbArc
 50
270.0
 51
360.0
  0
LINE
  5
8EE
100
AcDbEntity
  8
0
100
AcDbLine
 62
3
  6
CONTINUOUS
 10
607.4578787987
 20
528.9939806606
 11
576.4578787987
 21
528.9939806606
  0
ARC
  5
8EF
100
AcDbEntity
  8
0
100
AcDbCircle
 62
3
  6
CONTINUOUS
 10
586.4578787987
 20
426.4939806606
 40
2.5
100
AcDbArc
 50
270.0
 51
90.0
  0
ARC
  5
8F0
100
AcDbEntity
  8
0
100
AcDbCircle
 62
3
  6
CONTINUOUS
 10
586.4578787987
 20
426.4939806606
 40
2.5
100
AcDbArc
 50
90.0
 51
270.0
  0
ARC
  5
8F1
100
AcDbEntity
  8
0
100
AcDbCircle
 62
3
  6
CONTINUOUS
 10
586.4578787987
 20
226.4939806606
 40
2.5
100
AcDbArc
 50
270.0
 51
90.0
  0
ARC
  5
8F2
100
AcDbEntity
  8
0
100
AcDbCircle
 62
3
  6
CONTINUOUS
 10
586.4578787987
 20
226.4939806606
 40
2.5
100
AcDbArc
 50
90.0
 51
270.0
  0
ARC
  5
8F3
100
AcDbEntity
  8
0
100
AcDbCircle
 62
3
  6
CONTINUOUS
 10
584.4578787987
 20
513.9939806606
 40
2.5
100
AcDbArc
 50
270.0
 51
90.0
  0
ARC
  5
8F4
100
AcDbEntity
  8
0
100
AcDbCircle
 62
3
  6
CONTINUOUS
 10
584.4578787987
 20
513.9939806606
 40
2.5
100
AcDbArc
 50
90.0
 51
270.0
  0
ARC
  5
8F5
100
AcDbEntity
  8
0
100
AcDbCircle
 62
3
  6
CONTINUOUS
 10
584.4578787987
 20
138.9939806606
 40
2.5
100
AcDbArc
 50
270.0
 51
90.0
  0
ARC
  5
8F6
100
AcDbEntity
  8
0
100
AcDbCircle
 62
3
  6
CONTINUOUS
 10
584.4578787987
 20
138.9939806606
 40
2.5
100
AcDbArc
 50
90.0
 51
270.0
  0
LINE
  5
8F7
100
AcDbEntity
  8
0
100
AcDbLine
 62
3
  6
CONTINUOUS
 10
609.4578787987
 20
326.4939806606
 11
609.4578787987
 21
396.488997233
  0
LINE
  5
8F8
100
AcDbEntity
  8
0
100
AcDbLine
 62
3
  6
CONTINUOUS
 10
609.4578787987
 20
396.488997233
 11
609.4578787987
 21
396.7389454876
  0
LINE
  5
8F9
100
AcDbEntity
  8
0
100
AcDbLine
 62
3
  6
CONTINUOUS
 10
609.4578787987
 20
398.9089065929
 11
609.4578787987
 21
398.9939806606
  0
LINE
  5
8FA
100
AcDbEntity
  8
0
100
AcDbLine
 62
3
  6
CONTINUOUS
 10
609.4578787987
 20
398.9939806606
 11
609.4578787987
 21
399.2089065929
  0
LINE
  5
8FB
100
AcDbEntity
  8
0
100
AcDbLine
 62
3
  6
CONTINUOUS
 10
609.4578787987
 20
399.2089065929
 11
609.4578787987
 21
399.5089065929
  0
LINE
  5
8FC
100
AcDbEntity
  8
0
100
AcDbLine
 62
3
  6
CONTINUOUS
 10
609.4578787987
 20
399.5089065929
 11
609.4578787987
 21
400.261929853
  0
LINE
  5
8FD
100
AcDbEntity
  8
0
100
AcDbLine
 62
3
  6
CONTINUOUS
 10
609.4578787987
 20
400.261929853
 11
609.4578787987
 21
401.1268858071
  0
LINE
  5
8FE
100
AcDbEntity
  8
0
100
AcDbLine
 62
3
  6
CONTINUOUS
 10
609.4578787987
 20
401.1268858071
 11
609.4578787987
 21
401.9939806606
  0
LINE
  5
8FF
100
AcDbEntity
  8
0
100
AcDbLine
 62
3
  6
CONTINUOUS
 10
609.4578787987
 20
401.9939806606
 11
609.4578787987
 21
496.9939806606
  0
LINE
  5
900
100
AcDbEntity
  8
0
100
AcDbLine
 62
3
  6
CONTINUOUS
 10
609.4578787987
 20
496.9939806606
 11
609.4578787987
 21
507.4939806606
  0
LINE
  5
901
100
AcDbEntity
  8
0
100
AcDbLine
 62
3
  6
CONTINUOUS
 10
609.4578787987
 20
507.4939806606
 11
609.4578787987
 21
514.4840302887
  0
LINE
  5
902
100
AcDbEntity
  8
0
100
AcDbLine
 62
3
  6
CONTINUOUS
 10
609.4578787987
 20
514.4840302887
 11
609.4578787987
 21
516.7433525159
  0
LINE
  5
903
100
AcDbEntity
  8
0
100
AcDbLine
 62
3
  6
CONTINUOUS
 10
609.4578787987
 20
516.7433525159
 11
609.4578787987
 21
526.9939806606
  0
LINE
  5
904
100
AcDbEntity
  8
0
100
AcDbLine
 62
3
  6
CONTINUOUS
 10
609.4578787987
 20
326.4939806606
 11
609.4578787987
 21
256.4989640873
  0
LINE
  5
905
100
AcDbEntity
  8
0
100
AcDbLine
 62
3
  6
CONTINUOUS
 10
609.4578787987
 20
256.4989640873
 11
609.4578787987
 21
256.2490158246
  0
LINE
  5
906
100
AcDbEntity
  8
0
100
AcDbLine
 62
3
  6
CONTINUOUS
 10
609.4578787987
 20
254.0790547282
 11
609.4578787987
 21
253.9939806606
  0
LINE
  5
907
100
AcDbEntity
  8
0
100
AcDbLine
 62
3
  6
CONTINUOUS
 10
609.4578787987
 20
253.9939806606
 11
609.4578787987
 21
253.7790547282
  0
LINE
  5
908
100
AcDbEntity
  8
0
100
AcDbLine
 62
3
  6
CONTINUOUS
 10
609.4578787987
 20
253.7790547282
 11
609.4578787987
 21
253.4790547282
  0
LINE
  5
909
100
AcDbEntity
  8
0
100
AcDbLine
 62
3
  6
CONTINUOUS
 10
609.4578787987
 20
253.4790547282
 11
609.4578787987
 21
252.7260314483
  0
LINE
  5
90A
100
AcDbEntity
  8
0
100
AcDbLine
 62
3
  6
CONTINUOUS
 10
609.4578787987
 20
252.7260314483
 11
609.4578787987
 21
251.861075514
  0
LINE
  5
90B
100
AcDbEntity
  8
0
100
AcDbLine
 62
3
  6
CONTINUOUS
 10
609.4578787987
 20
251.861075514
 11
609.4578787987
 21
250.9939806606
  0
LINE
  5
90C
100
AcDbEntity
  8
0
100
AcDbLine
 62
3
  6
CONTINUOUS
 10
609.4578787987
 20
250.9939806606
 11
609.4578787987
 21
155.9939806606
  0
LINE
  5
90D
100
AcDbEntity
  8
0
100
AcDbLine
 62
3
  6
CONTINUOUS
 10
609.4578787987
 20
155.9939806606
 11
609.4578787987
 21
145.4939806606
  0
LINE
  5
90E
100
AcDbEntity
  8
0
100
AcDbLine
 62
3
  6
CONTINUOUS
 10
609.4578787987
 20
145.4939806606
 11
609.4578787987
 21
138.5039310325
  0
LINE
  5
90F
100
AcDbEntity
  8
0
100
AcDbLine
 62
3
  6
CONTINUOUS
 10
609.4578787987
 20
138.5039310325
 11
609.4578787987
 21
136.2446088052
  0
LINE
  5
910
100
AcDbEntity
  8
0
100
AcDbLine
 62
3
  6
CONTINUOUS
 10
609.4578787987
 20
136.2446088052
 11
609.4578787987
 21
125.9939806606
  0
LINE
  5
911
100
AcDbEntity
  8
0
100
AcDbLine
 62
3
  6
CONTINUOUS
 10
607.4578787987
 20
125.9939806606
 11
608.4578787987
 21
125.9939806606
  0
LINE
  5
912
100
AcDbEntity
  8
0
100
AcDbLine
 62
3
  6
CONTINUOUS
 10
608.4578787987
 20
125.9939806606
 11
608.8720923611
 21
125.9939806606
  0
LINE
  5
913
100
AcDbEntity
  8
0
100
AcDbLine
 62
3
  6
CONTINUOUS
 10
608.8720923611
 20
125.9939806606
 11
609.4578787987
 21
125.9939806606
  0
LINE
  5
914
100
AcDbEntity
  8
0
100
AcDbLine
 62
3
  6
CONTINUOUS
 10
607.4578787987
 20
526.9939806606
 11
608.4578787987
 21
526.9939806606
  0
LINE
  5
915
100
AcDbEntity
  8
0
100
AcDbLine
 62
3
  6
CONTINUOUS
 10
608.4578787987
 20
526.9939806606
 11
608.8720923611
 21
526.9939806606
  0
LINE
  5
916
100
AcDbEntity
  8
0
100
AcDbLine
 62
3
  6
CONTINUOUS
 10
608.8720923611
 20
526.9939806606
 11
609.4578787987
 21
526.9939806606
  0
LINE
  5
917
100
AcDbEntity
  8
0
100
AcDbLine
 62
3
  6
CONTINUOUS
 10
607.4578787987
 20
526.9939806606
 11
579.4578787987
 21
526.9939806606
  0
LINE
  5
918
100
AcDbEntity
  8
0
100
AcDbLine
 62
3
  6
CONTINUOUS
 10
609.4578787987
 20
125.9939806606
 11
609.4578787987
 21
136.2446088052
  0
LINE
  5
919
100
AcDbEntity
  8
0
100
AcDbLine
 62
3
  6
CONTINUOUS
 10
609.4578787987
 20
136.2446088052
 11
609.4578787987
 21
138.5039310325
  0
LINE
  5
91A
100
AcDbEntity
  8
0
100
AcDbLine
 62
3
  6
CONTINUOUS
 10
609.4578787987
 20
138.5039310325
 11
609.4578787987
 21
145.4939806606
  0
LINE
  5
91B
100
AcDbEntity
  8
0
100
AcDbLine
 62
3
  6
CONTINUOUS
 10
609.4578787987
 20
145.4939806606
 11
609.4578787987
 21
155.9939806606
  0
LINE
  5
91C
100
AcDbEntity
  8
0
100
AcDbLine
 62
3
  6
CONTINUOUS
 10
609.4578787987
 20
155.9939806606
 11
609.4578787987
 21
250.9939806606
  0
LINE
  5
91D
100
AcDbEntity
  8
0
100
AcDbLine
 62
3
  6
CONTINUOUS
 10
609.4578787987
 20
250.9939806606
 11
609.4578787987
 21
251.861075514
  0
LINE
  5
91E
100
AcDbEntity
  8
0
100
AcDbLine
 62
3
  6
CONTINUOUS
 10
609.4578787987
 20
251.861075514
 11
609.4578787987
 21
252.7260314483
  0
LINE
  5
91F
100
AcDbEntity
  8
0
100
AcDbLine
 62
3
  6
CONTINUOUS
 10
609.4578787987
 20
252.7260314483
 11
609.4578787987
 21
253.4790547282
  0
LINE
  5
920
100
AcDbEntity
  8
0
100
AcDbLine
 62
3
  6
CONTINUOUS
 10
609.4578787987
 20
253.4790547282
 11
609.4578787987
 21
253.7790547282
  0
LINE
  5
921
100
AcDbEntity
  8
0
100
AcDbLine
 62
3
  6
CONTINUOUS
 10
609.4578787987
 20
255.9989390141
 11
609.4578787987
 21
256.2490158246
  0
LINE
  5
922
100
AcDbEntity
  8
0
100
AcDbLine
 62
3
  6
CONTINUOUS
 10
609.4578787987
 20
256.2490158246
 11
609.4578787987
 21
256.4989640873
  0
LINE
  5
923
100
AcDbEntity
  8
0
100
AcDbLine
 62
3
  6
CONTINUOUS
 10
609.4578787987
 20
256.4989640873
 11
609.4578787987
 21
396.488997233
  0
LINE
  5
924
100
AcDbEntity
  8
0
100
AcDbLine
 62
3
  6
CONTINUOUS
 10
609.4578787987
 20
396.488997233
 11
609.4578787987
 21
396.7389454876
  0
LINE
  5
925
100
AcDbEntity
  8
0
100
AcDbLine
 62
3
  6
CONTINUOUS
 10
609.4578787987
 20
398.9089065929
 11
609.4578787987
 21
398.9939806606
  0
LINE
  5
926
100
AcDbEntity
  8
0
100
AcDbLine
 62
3
  6
CONTINUOUS
 10
609.4578787987
 20
398.9939806606
 11
609.4578787987
 21
399.2089065929
  0
LINE
  5
927
100
AcDbEntity
  8
0
100
AcDbLine
 62
3
  6
CONTINUOUS
 10
609.4578787987
 20
399.2089065929
 11
609.4578787987
 21
399.5089065929
  0
LINE
  5
928
100
AcDbEntity
  8
0
100
AcDbLine
 62
3
  6
CONTINUOUS
 10
609.4578787987
 20
399.5089065929
 11
609.4578787987
 21
400.261929853
  0
LINE
  5
929
100
AcDbEntity
  8
0
100
AcDbLine
 62
3
  6
CONTINUOUS
 10
609.4578787987
 20
400.261929853
 11
609.4578787987
 21
401.1268858071
  0
LINE
  5
92A
100
AcDbEntity
  8
0
100
AcDbLine
 62
3
  6
CONTINUOUS
 10
609.4578787987
 20
401.1268858071
 11
609.4578787987
 21
401.9939806606
  0
LINE
  5
92B
100
AcDbEntity
  8
0
100
AcDbLine
 62
3
  6
CONTINUOUS
 10
609.4578787987
 20
401.9939806606
 11
609.4578787987
 21
496.9939806606
  0
LINE
  5
92C
100
AcDbEntity
  8
0
100
AcDbLine
 62
3
  6
CONTINUOUS
 10
609.4578787987
 20
496.9939806606
 11
609.4578787987
 21
507.4939806606
  0
LINE
  5
92D
100
AcDbEntity
  8
0
100
AcDbLine
 62
3
  6
CONTINUOUS
 10
609.4578787987
 20
507.4939806606
 11
609.4578787987
 21
514.4840302887
  0
LINE
  5
92E
100
AcDbEntity
  8
0
100
AcDbLine
 62
3
  6
CONTINUOUS
 10
609.4578787987
 20
514.4840302887
 11
609.4578787987
 21
516.7433525159
  0
LINE
  5
92F
100
AcDbEntity
  8
0
100
AcDbLine
 62
3
  6
CONTINUOUS
 10
609.4578787987
 20
516.7433525159
 11
609.4578787987
 21
526.9939806606
  0
LINE
  5
930
100
AcDbEntity
  8
0
100
AcDbLine
 62
3
  6
CONTINUOUS
 10
574.4578787987
 20
521.9939806606
 11
574.4578787987
 21
130.9939806606
  0
ARC
  5
931
100
AcDbEntity
  8
0
100
AcDbCircle
 62
3
  6
CONTINUOUS
 10
576.4578787987
 20
526.9939806606
 40
2.0
100
AcDbArc
 50
90.0
 51
180.0
  0
ARC
  5
932
100
AcDbEntity
  8
0
100
AcDbCircle
 62
3
  6
CONTINUOUS
 10
579.4578787987
 20
521.9939806606
 40
5.0
100
AcDbArc
 50
90.0
 51
143.4099887895
  0
ARC
  5
933
100
AcDbEntity
  8
0
100
AcDbCircle
 62
3
  6
CONTINUOUS
 10
579.4578787987
 20
521.9939806606
 40
5.0
100
AcDbArc
 50
143.4099887895
 51
180.0
  0
ARC
  5
934
100
AcDbEntity
  8
0
100
AcDbCircle
 62
3
  6
CONTINUOUS
 10
579.4578787987
 20
130.9939806606
 40
5.0
100
AcDbArc
 50
180.0
 51
216.5900112105
  0
ARC
  5
935
100
AcDbEntity
  8
0
100
AcDbCircle
 62
3
  6
CONTINUOUS
 10
579.4578787987
 20
130.9939806606
 40
5.0
100
AcDbArc
 50
216.5900112105
 51
270.0
  0
LINE
  5
936
100
AcDbEntity
  8
0
100
AcDbLine
 62
3
  6
CONTINUOUS
 10
607.4578787987
 20
123.9939806606
 11
576.4578787987
 21
123.9939806606
  0
LINE
  5
937
100
AcDbEntity
  8
0
100
AcDbLine
 62
3
  6
CONTINUOUS
 10
607.4578787987
 20
125.9939806606
 11
579.4578787987
 21
125.9939806606
  0
LINE
  5
938
100
AcDbEntity
  8
0
100
AcDbLine
 62
3
  6
CONTINUOUS
 10
574.4578787987
 20
130.9939806606
 11
574.4578787987
 21
129.3939806606
  0
LINE
  5
939
100
AcDbEntity
  8
0
100
AcDbLine
 62
3
  6
CONTINUOUS
 10
574.4578787987
 20
129.3939806606
 11
574.4578787987
 21
126.3939806606
  0
LINE
  5
93A
100
AcDbEntity
  8
0
100
AcDbLine
 62
3
  6
CONTINUOUS
 10
574.4578787987
 20
126.3939806606
 11
574.4578787987
 21
125.9939806606
  0
ARC
  5
93B
100
AcDbEntity
  8
0
100
AcDbCircle
 62
3
  6
CONTINUOUS
 10
576.4578787987
 20
125.9939806606
 40
2.0
100
AcDbArc
 50
180.0
 51
270.0
  0
ARC
  5
93C
100
AcDbEntity
  8
0
100
AcDbCircle
 62
3
  6
CONTINUOUS
 10
607.4578787987
 20
125.9939806606
 40
2.0
100
AcDbArc
 50
270.0
 51
360.0
  0
LINE
  5
93D
100
AcDbEntity
  8
0
100
AcDbLine
 62
3
  6
CONTINUOUS
 10
574.4578787987
 20
521.9939806606
 11
574.4578787987
 21
523.5939806606
  0
LINE
  5
93E
100
AcDbEntity
  8
0
100
AcDbLine
 62
3
  6
CONTINUOUS
 10
574.4578787987
 20
523.5939806606
 11
574.4578787987
 21
526.5939806606
  0
LINE
  5
93F
100
AcDbEntity
  8
0
100
AcDbLine
 62
3
  6
CONTINUOUS
 10
574.4578787987
 20
526.5939806606
 11
574.4578787987
 21
526.9939806606
  0
ARC
  5
940
100
AcDbEntity
  8
0
100
AcDbCircle
 62
3
  6
CONTINUOUS
 10
607.4578787987
 20
526.9939806606
 40
2.0
100
AcDbArc
 50
0.0
 51
90.0
  0
LINE
  5
941
100
AcDbEntity
  8
0
100
AcDbLine
 62
9
  6
CONTINUOUS
 10
607.4578787987
 20
125.9939806606
 11
607.4578787987
 21
526.9939806606
  0
SPLINE
  5
942
100
AcDbEntity
  8
0
100
AcDbSpline
 62
3
  6
CONTINUOUS
 70
0
 71
3
 72
10
 73
6
 74
0
 42
0.0000001
 43
0.0000001
 44
0.0000000001
 40
0.0
 40
0.0
 40
0.0
 40
0.0
 40
0.1847912897
 40
0.5364042089
 40
1.0
 40
1.0
 40
1.0
 40
1.0
 10
656.1588406931
 20
528.4939806606
 30
0.0
 10
656.3102425602
 20
528.4939806606
 30
0.0
 10
656.7511375398
 20
528.3445759823
 30
0.0
 10
657.2631066712
 20
527.6536964716
 30
0.0
 10
657.4676202761
 20
527.0139660077
 30
0.0
 10
657.5446599918
 20
526.6420309577
 30
0.0
  0
SPLINE
  5
943
100
AcDbEntity
  8
0
100
AcDbSpline
 62
3
  6
CONTINUOUS
 70
0
 71
3
 72
9
 73
5
 74
0
 42
0.0000001
 43
0.0000001
 44
0.0000000001
 40
0.0
 40
0.0
 40
0.0
 40
0.0
 40
0.2438082961
 40
1.0
 40
1.0
 40
1.0
 40
1.0
 10
657.5446599918
 20
526.6420309577
 30
0.0
 10
657.5636959921
 20
526.5501282857
 30
0.0
 10
657.6312083203
 20
526.1710439909
 30
0.0
 10
657.6588406931
 20
525.7850749456
 30
0.0
 10
657.6588406931
 20
525.4939806606
 30
0.0
  0
LINE
  5
944
100
AcDbEntity
  8
0
100
AcDbLine
 62
3
  6
CONTINUOUS
 10
618.4578787987
 20
530.4939806606
 11
628.4578787987
 21
530.4939806606
  0
LINE
  5
945
100
AcDbEntity
  8
0
100
AcDbLine
 62
3
  6
CONTINUOUS
 10
628.4578787987
 20
122.4939806606
 11
646.4578787987
 21
122.4939806606
  0
LINE
  5
946
100
AcDbEntity
  8
0
100
AcDbLine
 62
3
  6
CONTINUOUS
 10
646.4578787987
 20
530.4939806606
 11
628.4578787987
 21
530.4939806606
  0
SPLINE
  5
947
100
AcDbEntity
  8
0
100
AcDbSpline
 62
3
  6
CONTINUOUS
 70
0
 71
3
 72
9
 73
5
 74
0
 42
0.0000001
 43
0.0000001
 44
0.0000000001
 40
0.0
 40
0.0
 40
0.0
 40
0.0
 40
0.7561917039
 40
1.0
 40
1.0
 40
1.0
 40
1.0
 10
657.6588406931
 20
127.4939806606
 30
0.0
 10
657.6588406931
 20
127.2028863756
 30
0.0
 10
657.6312083203
 20
126.8169173302
 30
0.0
 10
657.5636959921
 20
126.4378330354
 30
0.0
 10
657.5446599918
 20
126.3459303635
 30
0.0
  0
SPLINE
  5
948
100
AcDbEntity
  8
0
100
AcDbSpline
 62
3
  6
CONTINUOUS
 70
0
 71
3
 72
11
 73
7
 74
0
 42
0.0000001
 43
0.0000001
 44
0.0000000001
 40
0.0
 40
0.0
 40
0.0
 40
0.0
 40
0.3208296745
 40
0.5320393254
 40
0.7138733368
 40
1.0
 40
1.0
 40
1.0
 40
1.0
 10
657.5446599918
 20
126.3459303635
 30
0.0
 10
657.4913633236
 20
126.0886228336
 30
0.0
 10
657.3710081053
 20
125.666993749
 30
0.0
 10
657.1067222332
 20
125.1406846816
 30
0.0
 10
656.7705461624
 20
124.6993374089
 30
0.0
 10
656.3931871582
 20
124.4939806606
 30
0.0
 10
656.1588406931
 20
124.4939806606
 30
0.0
  0
LINE
  5
949
100
AcDbEntity
  8
0
100
AcDbLine
 62
3
  6
CONTINUOUS
 10
628.4578787987
 20
122.4939806606
 11
618.4578787987
 21
122.4939806606
  0
LINE
  5
94A
100
AcDbEntity
  8
0
100
AcDbLine
 62
3
  6
CONTINUOUS
 10
657.6588406931
 20
127.4939806606
 11
657.6588406931
 21
525.4939806606
  0
ARC
  5
94B
100
AcDbEntity
  8
0
100
AcDbCircle
 62
3
  6
CONTINUOUS
 10
646.4578787987
 20
124.4939806606
 40
2.0
100
AcDbArc
 50
270.0
 51
352.0756815345
  0
ARC
  5
94C
100
AcDbEntity
  8
0
100
AcDbCircle
 62
3
  6
CONTINUOUS
 10
646.4578787987
 20
124.4939806606
 40
2.0
100
AcDbArc
 50
352.0756815345
 51
354.6870807747
  0
ARC
  5
94D
100
AcDbEntity
  8
0
100
AcDbCircle
 62
3
  6
CONTINUOUS
 10
646.4578787987
 20
124.4939806606
 40
2.0
100
AcDbArc
 50
354.6870807747
 51
360.0
  0
ARC
  5
94E
100
AcDbEntity
  8
0
100
AcDbCircle
 62
3
  6
CONTINUOUS
 10
646.4578787987
 20
528.4939806606
 40
2.0
100
AcDbArc
 50
0.0
 51
5.3129192253
  0
ARC
  5
94F
100
AcDbEntity
  8
0
100
AcDbCircle
 62
3
  6
CONTINUOUS
 10
646.4578787987
 20
528.4939806606
 40
2.0
100
AcDbArc
 50
5.3129192253
 51
7.9243184655
  0
ARC
  5
950
100
AcDbEntity
  8
0
100
AcDbCircle
 62
3
  6
CONTINUOUS
 10
646.4578787987
 20
528.4939806606
 40
2.0
100
AcDbArc
 50
7.9243184655
 51
90.0
  0
DIMENSION
  5
951
100
AcDbEntity
  8
0
100
AcDbDimension
 62
2
  6
CONTINUOUS
  2
*D0
 10
815.2609114331
 20
101.4939806606
 11
814.4282058976
 21
320.7568001957
 70
160
 71
2
 42
450.0
  3
DIMSTYLE_1
100
AcDbAlignedDimension
 13
705.4578787987
 23
551.4939806606
 14
705.4578787987
 24
101.4939806606
 50
270.0
100
AcDbRotatedDimension
  0
DIMENSION
  5
952
100
AcDbEntity
  8
0
100
AcDbDimension
 62
2
  6
CONTINUOUS
  2
*D1
 10
738.4651545524
 20
535.4939806606
 11
735.8401545524
 21
563.5761278227
 70
160
 71
1
 42
16.0
  3
DIMSTYLE_2
100
AcDbAlignedDimension
 13
705.4578787987
 23
551.4939806606
 14
705.4578787987
 24
535.4939806606
 50
270.0
100
AcDbRotatedDimension
  0
DIMENSION
  5
953
100
AcDbEntity
  8
0
100
AcDbDimension
 62
2
  6
CONTINUOUS
  2
*D2
 10
409.9578787987
 20
89.4749851113
 11
249.1599621013
 21
92.0999851113
 70
160
 71
2
 42
311.6
  3
DIMSTYLE_3
100
AcDbAlignedDimension
 13
98.3578787987
 23
117.4939806606
 14
409.9578787987
 24
137.4939806606
100
AcDbRotatedDimension
  0
DIMENSION
  5
954
100
AcDbEntity
  8
0
100
AcDbDimension
 62
2
  6
CONTINUOUS
  2
*D3
 10
98.3578787987
 20
73.2639560899
 11
265.3216026706
 21
75.8889560899
 70
160
 71
2
 42
334.1
  3
DIMSTYLE_3
100
AcDbAlignedDimension
 13
432.4578787987
 23
121.9814806606
 14
98.3578787987
 24
117.4939806606
 50
180.0
100
AcDbRotatedDimension
  0
DIMENSION
  5
955
100
AcDbEntity
  8
0
100
AcDbDimension
 62
2
  6
CONTINUOUS
  2
*D4
 10
98.3578787987
 20
60.0549694799
 11
304.2662454787
 21
62.6799694799
 70
160
 71
2
 42
374.1
  3
DIMSTYLE_3
100
AcDbAlignedDimension
 13
472.4578787987
 23
121.9814806606
 14
98.3578787987
 24
117.4939806606
 50
180.0
100
AcDbRotatedDimension
  0
DIMENSION
  5
956
100
AcDbEntity
  8
0
100
AcDbDimension
 62
2
  6
CONTINUOUS
  2
*D5
 10
98.3578787987
 20
45.0447574231
 11
316.4951604816
 21
47.6697574231
 70
160
 71
2
 42
396.6
  3
DIMSTYLE_3
100
AcDbAlignedDimension
 13
494.9578787987
 23
124.2314806606
 14
98.3578787987
 24
117.4939806606
 50
180.0
100
AcDbRotatedDimension
  0
DIMENSION
  5
957
100
AcDbEntity
  8
0
100
AcDbDimension
 62
2
  6
CONTINUOUS
  2
*D6
 10
790.3203875203
 20
117.4939806606
 11
789.3756635808
 21
321.9802133911
 70
160
 71
2
 42
418.0
  3
DIMSTYLE_1
100
AcDbAlignedDimension
 13
620.1148648667
 23
535.4939806606
 14
629.0031704776
 24
117.4939806606
 50
270.0
100
AcDbRotatedDimension
  0
DIMENSION
  5
958
100
AcDbEntity
  8
0
100
AcDbDimension
 62
2
  6
CONTINUOUS
  2
*D7
 10
769.2168672864
 20
520.4939806606
 11
768.3841617509
 21
321.7509738604
 70
160
 71
2
 42
388.0
  3
DIMSTYLE_3
100
AcDbAlignedDimension
 13
505.4703787987
 23
132.4939806606
 14
505.4703787987
 24
520.4939806606
 50
90.0
100
AcDbRotatedDimension
  0
DIMENSION
  5
959
100
AcDbEntity
  8
0
100
AcDbDimension
 62
2
  6
CONTINUOUS
  2
*D8
 10
746.194845213
 20
226.4939806606
 11
745.4181488796
 21
323.6447927014
 70
160
 71
2
 42
200.0
  3
DIMSTYLE_3
100
AcDbAlignedDimension
 13
596.9703787987
 23
426.4939806606
 14
596.9703787987
 24
226.4939806606
 50
270.0
100
AcDbRotatedDimension
  0
DIMENSION
  5
95A
100
AcDbEntity
  8
0
100
AcDbDimension
 62
2
  6
CONTINUOUS
  2
*D9
 10
586.4578787987
 20
29.5356981172
 11
318.5254920556
 21
32.1606981172
 70
160
 71
2
 42
488.1
  3
DIMSTYLE_1
100
AcDbAlignedDimension
 13
98.3578787987
 23
117.4939806606
 14
586.4578787987
 24
434.6822054002
100
AcDbRotatedDimension
  0
DIMENSION
  5
95B
100
AcDbEntity
  8
0
100
AcDbDimension
 62
2
  6
CONTINUOUS
  2
*D10
 10
758.3556031437
 20
138.9939806606
 11
757.4668884062
 21
321.4598753035
 70
160
 71
2
 42
375.0
  3
DIMSTYLE_3
100
AcDbAlignedDimension
 13
584.4578787987
 23
513.9939806606
 14
584.4578787987
 24
138.9939806606
 50
270.0
100
AcDbRotatedDimension
  0
LINE
  5
95C
100
AcDbEntity
  8
DEFAULT_1
100
AcDbLine
 62
2
  6
CENTER
 10
82.3578787987
 20
326.4939806606
 11
724.4578787987
 21
326.4939806606
  0
LINE
  5
95D
100
AcDbEntity
  8
DEFAULT_1
100
AcDbLine
 62
2
  6
CENTER
 10
82.3578787987
 20
326.4939806606
 11
79.3578787987
 21
326.4939806606
  0
LINE
  5
95E
100
AcDbEntity
  8
DEFAULT_1
100
AcDbLine
 62
2
  6
CENTER
 10
482.9703787987
 20
132.4939806606
 11
478.2078787987
 21
132.4939806606
  0
LINE
  5
95F
100
AcDbEntity
  8
DEFAULT_1
100
AcDbLine
 62
2
  6
CENTER
 10
461.9453787987
 20
132.4939806606
 11
466.7078787987
 21
132.4939806606
  0
LINE
  5
960
100
AcDbEntity
  8
DEFAULT_1
100
AcDbLine
 62
2
  6
CENTER
 10
472.4578787987
 20
143.0064806606
 11
472.4578787987
 21
138.2439806606
  0
LINE
  5
961
100
AcDbEntity
  8
DEFAULT_1
100
AcDbLine
 62
2
  6
CENTER
 10
472.4578787987
 20
121.9814806606
 11
472.4578787987
 21
126.7439806606
  0
LINE
  5
962
100
AcDbEntity
  8
0
100
AcDbLine
 62
2
  6
CONTINUOUS
 10
474.5603787987
 20
132.4939806606
 11
470.3553787987
 21
132.4939806606
  0
LINE
  5
963
100
AcDbEntity
  8
0
100
AcDbLine
 62
2
  6
CONTINUOUS
 10
470.3553787987
 20
132.4939806606
 11
474.5603787987
 21
132.4939806606
  0
LINE
  5
964
100
AcDbEntity
  8
0
100
AcDbLine
 62
2
  6
CONTINUOUS
 10
472.4578787987
 20
134.5964806606
 11
472.4578787987
 21
130.3914806606
  0
LINE
  5
965
100
AcDbEntity
  8
0
100
AcDbLine
 62
2
  6
CONTINUOUS
 10
472.4578787987
 20
130.3914806606
 11
472.4578787987
 21
134.5964806606
  0
LINE
  5
966
100
AcDbEntity
  8
DEFAULT_1
100
AcDbLine
 62
2
  6
CENTER
 10
442.9703787987
 20
132.4939806606
 11
438.2078787987
 21
132.4939806606
  0
LINE
  5
967
100
AcDbEntity
  8
DEFAULT_1
100
AcDbLine
 62
2
  6
CENTER
 10
421.9453787987
 20
132.4939806606
 11
426.7078787987
 21
132.4939806606
  0
LINE
  5
968
100
AcDbEntity
  8
DEFAULT_1
100
AcDbLine
 62
2
  6
CENTER
 10
432.4578787987
 20
143.0064806606
 11
432.4578787987
 21
138.2439806606
  0
LINE
  5
969
100
AcDbEntity
  8
DEFAULT_1
100
AcDbLine
 62
2
  6
CENTER
 10
432.4578787987
 20
121.9814806606
 11
432.4578787987
 21
126.7439806606
  0
LINE
  5
96A
100
AcDbEntity
  8
0
100
AcDbLine
 62
2
  6
CONTINUOUS
 10
434.5603787987
 20
132.4939806606
 11
430.3553787987
 21
132.4939806606
  0
LINE
  5
96B
100
AcDbEntity
  8
0
100
AcDbLine
 62
2
  6
CONTINUOUS
 10
430.3553787987
 20
132.4939806606
 11
434.5603787987
 21
132.4939806606
  0
LINE
  5
96C
100
AcDbEntity
  8
0
100
AcDbLine
 62
2
  6
CONTINUOUS
 10
432.4578787987
 20
134.5964806606
 11
432.4578787987
 21
130.3914806606
  0
LINE
  5
96D
100
AcDbEntity
  8
0
100
AcDbLine
 62
2
  6
CONTINUOUS
 10
432.4578787987
 20
130.3914806606
 11
432.4578787987
 21
134.5964806606
  0
LINE
  5
96E
100
AcDbEntity
  8
DEFAULT_1
100
AcDbLine
 62
2
  6
CENTER
 10
505.4703787987
 20
132.4939806606
 11
497.9579037987
 21
132.4939806606
  0
LINE
  5
96F
100
AcDbEntity
  8
DEFAULT_1
100
AcDbLine
 62
2
  6
CENTER
 10
484.4453787987
 20
132.4939806606
 11
491.9578537987
 21
132.4939806606
  0
LINE
  5
970
100
AcDbEntity
  8
DEFAULT_1
100
AcDbLine
 62
2
  6
CENTER
 10
494.9578787987
 20
143.0064806606
 11
494.9578787987
 21
135.4940056606
  0
LINE
  5
971
100
AcDbEntity
  8
DEFAULT_1
100
AcDbLine
 62
2
  6
CENTER
 10
494.9578787987
 20
121.9814806606
 11
494.9578787987
 21
129.4939556606
  0
LINE
  5
972
100
AcDbEntity
  8
0
100
AcDbLine
 62
2
  6
CONTINUOUS
 10
497.0603787987
 20
132.4939806606
 11
492.8553787987
 21
132.4939806606
  0
LINE
  5
973
100
AcDbEntity
  8
0
100
AcDbLine
 62
2
  6
CONTINUOUS
 10
492.8553787987
 20
132.4939806606
 11
497.0603787987
 21
132.4939806606
  0
LINE
  5
974
100
AcDbEntity
  8
0
100
AcDbLine
 62
2
  6
CONTINUOUS
 10
494.9578787987
 20
134.5964806606
 11
494.9578787987
 21
130.3914806606
  0
LINE
  5
975
100
AcDbEntity
  8
0
100
AcDbLine
 62
2
  6
CONTINUOUS
 10
494.9578787987
 20
130.3914806606
 11
494.9578787987
 21
134.5964806606
  0
LINE
  5
976
100
AcDbEntity
  8
DEFAULT_1
100
AcDbLine
 62
2
  6
CENTER
 10
420.4703787987
 20
132.4939806606
 11
412.9579037987
 21
132.4939806606
  0
LINE
  5
977
100
AcDbEntity
  8
DEFAULT_1
100
AcDbLine
 62
2
  6
CENTER
 10
399.4453787987
 20
132.4939806606
 11
406.9578537987
 21
132.4939806606
  0
LINE
  5
978
100
AcDbEntity
  8
DEFAULT_1
100
AcDbLine
 62
2
  6
CENTER
 10
409.9578787987
 20
143.0064806606
 11
409.9578787987
 21
135.4940056606
  0
LINE
  5
979
100
AcDbEntity
  8
DEFAULT_1
100
AcDbLine
 62
2
  6
CENTER
 10
409.9578787987
 20
121.9814806606
 11
409.9578787987
 21
129.4939556606
  0
LINE
  5
97A
100
AcDbEntity
  8
0
100
AcDbLine
 62
2
  6
CONTINUOUS
 10
412.0603787987
 20
132.4939806606
 11
407.8553787987
 21
132.4939806606
  0
LINE
  5
97B
100
AcDbEntity
  8
0
100
AcDbLine
 62
2
  6
CONTINUOUS
 10
407.8553787987
 20
132.4939806606
 11
412.0603787987
 21
132.4939806606
  0
LINE
  5
97C
100
AcDbEntity
  8
0
100
AcDbLine
 62
2
  6
CONTINUOUS
 10
409.9578787987
 20
134.5964806606
 11
409.9578787987
 21
130.3914806606
  0
LINE
  5
97D
100
AcDbEntity
  8
0
100
AcDbLine
 62
2
  6
CONTINUOUS
 10
409.9578787987
 20
130.3914806606
 11
409.9578787987
 21
134.5964806606
  0
LINE
  5
97E
100
AcDbEntity
  8
DEFAULT_1
100
AcDbLine
 62
2
  6
CENTER
 10
442.9703787987
 20
520.4939806606
 11
438.2078787987
 21
520.4939806606
  0
LINE
  5
97F
100
AcDbEntity
  8
DEFAULT_1
100
AcDbLine
 62
2
  6
CENTER
 10
421.9453787987
 20
520.4939806606
 11
426.7078787987
 21
520.4939806606
  0
LINE
  5
980
100
AcDbEntity
  8
DEFAULT_1
100
AcDbLine
 62
2
  6
CENTER
 10
432.4578787987
 20
531.0064806606
 11
432.4578787987
 21
526.2439806606
  0
LINE
  5
981
100
AcDbEntity
  8
DEFAULT_1
100
AcDbLine
 62
2
  6
CENTER
 10
432.4578787987
 20
509.9814806606
 11
432.4578787987
 21
514.7439806606
  0
LINE
  5
982
100
AcDbEntity
  8
0
100
AcDbLine
 62
2
  6
CONTINUOUS
 10
434.5603787987
 20
520.4939806606
 11
430.3553787987
 21
520.4939806606
  0
LINE
  5
983
100
AcDbEntity
  8
0
100
AcDbLine
 62
2
  6
CONTINUOUS
 10
430.3553787987
 20
520.4939806606
 11
434.5603787987
 21
520.4939806606
  0
LINE
  5
984
100
AcDbEntity
  8
0
100
AcDbLine
 62
2
  6
CONTINUOUS
 10
432.4578787987
 20
522.5964806606
 11
432.4578787987
 21
518.3914806606
  0
LINE
  5
985
100
AcDbEntity
  8
0
100
AcDbLine
 62
2
  6
CONTINUOUS
 10
432.4578787987
 20
518.3914806606
 11
432.4578787987
 21
522.5964806606
  0
LINE
  5
986
100
AcDbEntity
  8
DEFAULT_1
100
AcDbLine
 62
2
  6
CENTER
 10
482.9703787987
 20
520.4939806606
 11
478.2078787987
 21
520.4939806606
  0
LINE
  5
987
100
AcDbEntity
  8
DEFAULT_1
100
AcDbLine
 62
2
  6
CENTER
 10
461.9453787987
 20
520.4939806606
 11
466.7078787987
 21
520.4939806606
  0
LINE
  5
988
100
AcDbEntity
  8
DEFAULT_1
100
AcDbLine
 62
2
  6
CENTER
 10
472.4578787987
 20
531.0064806606
 11
472.4578787987
 21
526.2439806606
  0
LINE
  5
989
100
AcDbEntity
  8
DEFAULT_1
100
AcDbLine
 62
2
  6
CENTER
 10
472.4578787987
 20
509.9814806606
 11
472.4578787987
 21
514.7439806606
  0
LINE
  5
98A
100
AcDbEntity
  8
0
100
AcDbLine
 62
2
  6
CONTINUOUS
 10
474.5603787987
 20
520.4939806606
 11
470.3553787987
 21
520.4939806606
  0
LINE
  5
98B
100
AcDbEntity
  8
0
100
AcDbLine
 62
2
  6
CONTINUOUS
 10
470.3553787987
 20
520.4939806606
 11
474.5603787987
 21
520.4939806606
  0
LINE
  5
98C
100
AcDbEntity
  8
0
100
AcDbLine
 62
2
  6
CONTINUOUS
 10
472.4578787987
 20
522.5964806606
 11
472.4578787987
 21
518.3914806606
  0
LINE
  5
98D
100
AcDbEntity
  8
0
100
AcDbLine
 62
2
  6
CONTINUOUS
 10
472.4578787987
 20
518.3914806606
 11
472.4578787987
 21
522.5964806606
  0
LINE
  5
98E
100
AcDbEntity
  8
DEFAULT_1
100
AcDbLine
 62
2
  6
CENTER
 10
420.4703787987
 20
520.4939806606
 11
412.9579037987
 21
520.4939806606
  0
LINE
  5
98F
100
AcDbEntity
  8
DEFAULT_1
100
AcDbLine
 62
2
  6
CENTER
 10
399.4453787987
 20
520.4939806606
 11
406.9578537987
 21
520.4939806606
  0
LINE
  5
990
100
AcDbEntity
  8
DEFAULT_1
100
AcDbLine
 62
2
  6
CENTER
 10
409.9578787987
 20
531.0064806606
 11
409.9578787987
 21
523.4940056606
  0
LINE
  5
991
100
AcDbEntity
  8
DEFAULT_1
100
AcDbLine
 62
2
  6
CENTER
 10
409.9578787987
 20
509.9814806606
 11
409.9578787987
 21
517.4939556606
  0
LINE
  5
992
100
AcDbEntity
  8
0
100
AcDbLine
 62
2
  6
CONTINUOUS
 10
412.0603787987
 20
520.4939806606
 11
407.8553787987
 21
520.4939806606
  0
LINE
  5
993
100
AcDbEntity
  8
0
100
AcDbLine
 62
2
  6
CONTINUOUS
 10
407.8553787987
 20
520.4939806606
 11
412.0603787987
 21
520.4939806606
  0
LINE
  5
994
100
AcDbEntity
  8
0
100
AcDbLine
 62
2
  6
CONTINUOUS
 10
409.9578787987
 20
522.5964806606
 11
409.9578787987
 21
518.3914806606
  0
LINE
  5
995
100
AcDbEntity
  8
0
100
AcDbLine
 62
2
  6
CONTINUOUS
 10
409.9578787987
 20
518.3914806606
 11
409.9578787987
 21
522.5964806606
  0
LINE
  5
996
100
AcDbEntity
  8
DEFAULT_1
100
AcDbLine
 62
2
  6
CENTER
 10
505.4703787987
 20
520.4939806606
 11
497.9579037987
 21
520.4939806606
  0
LINE
  5
997
100
AcDbEntity
  8
DEFAULT_1
100
AcDbLine
 62
2
  6
CENTER
 10
484.4453787987
 20
520.4939806606
 11
491.9578537987
 21
520.4939806606
  0
LINE
  5
998
100
AcDbEntity
  8
DEFAULT_1
100
AcDbLine
 62
2
  6
CENTER
 10
494.9578787987
 20
531.0064806606
 11
494.9578787987
 21
523.4940056606
  0
LINE
  5
999
100
AcDbEntity
  8
DEFAULT_1
100
AcDbLine
 62
2
  6
CENTER
 10
494.9578787987
 20
509.9814806606
 11
494.9578787987
 21
517.4939556606
  0
LINE
  5
99A
100
AcDbEntity
  8
0
100
AcDbLine
 62
2
  6
CONTINUOUS
 10
497.0603787987
 20
520.4939806606
 11
492.8553787987
 21
520.4939806606
  0
LINE
  5
99B
100
AcDbEntity
  8
0
100
AcDbLine
 62
2
  6
CONTINUOUS
 10
492.8553787987
 20
520.4939806606
 11
497.0603787987
 21
520.4939806606
  0
LINE
  5
99C
100
AcDbEntity
  8
0
100
AcDbLine
 62
2
  6
CONTINUOUS
 10
494.9578787987
 20
522.5964806606
 11
494.9578787987
 21
518.3914806606
  0
LINE
  5
99D
100
AcDbEntity
  8
0
100
AcDbLine
 62
2
  6
CONTINUOUS
 10
494.9578787987
 20
518.3914806606
 11
494.9578787987
 21
522.5964806606
  0
LINE
  5
99E
100
AcDbEntity
  8
DEFAULT_1
100
AcDbLine
 62
2
  6
CENTER
 10
596.9703787987
 20
426.4939806606
 11
591.9578787987
 21
426.4939806606
  0
LINE
  5
99F
100
AcDbEntity
  8
DEFAULT_1
100
AcDbLine
 62
2
  6
CENTER
 10
575.9453787987
 20
426.4939806606
 11
580.9578787987
 21
426.4939806606
  0
LINE
  5
9A0
100
AcDbEntity
  8
DEFAULT_1
100
AcDbLine
 62
2
  6
CENTER
 10
586.4578787987
 20
437.0064806606
 11
586.4578787987
 21
431.9939806606
  0
LINE
  5
9A1
100
AcDbEntity
  8
DEFAULT_1
100
AcDbLine
 62
2
  6
CENTER
 10
586.4578787987
 20
415.9814806606
 11
586.4578787987
 21
420.9939806606
  0
LINE
  5
9A2
100
AcDbEntity
  8
0
100
AcDbLine
 62
2
  6
CONTINUOUS
 10
588.5603787987
 20
426.4939806606
 11
584.3553787987
 21
426.4939806606
  0
LINE
  5
9A3
100
AcDbEntity
  8
0
100
AcDbLine
 62
2
  6
CONTINUOUS
 10
584.3553787987
 20
426.4939806606
 11
588.5603787987
 21
426.4939806606
  0
LINE
  5
9A4
100
AcDbEntity
  8
0
100
AcDbLine
 62
2
  6
CONTINUOUS
 10
586.4578787987
 20
428.5964806606
 11
586.4578787987
 21
424.3914806606
  0
LINE
  5
9A5
100
AcDbEntity
  8
0
100
AcDbLine
 62
2
  6
CONTINUOUS
 10
586.4578787987
 20
424.3914806606
 11
586.4578787987
 21
428.5964806606
  0
LINE
  5
9A6
100
AcDbEntity
  8
DEFAULT_1
100
AcDbLine
 62
2
  6
CENTER
 10
596.9703787987
 20
226.4939806606
 11
591.9578787987
 21
226.4939806606
  0
LINE
  5
9A7
100
AcDbEntity
  8
DEFAULT_1
100
AcDbLine
 62
2
  6
CENTER
 10
575.9453787987
 20
226.4939806606
 11
580.9578787987
 21
226.4939806606
  0
LINE
  5
9A8
100
AcDbEntity
  8
DEFAULT_1
100
AcDbLine
 62
2
  6
CENTER
 10
586.4578787987
 20
237.0064806606
 11
586.4578787987
 21
231.9939806606
  0
LINE
  5
9A9
100
AcDbEntity
  8
DEFAULT_1
100
AcDbLine
 62
2
  6
CENTER
 10
586.4578787987
 20
215.9814806606
 11
586.4578787987
 21
220.9939806606
  0
LINE
  5
9AA
100
AcDbEntity
  8
0
100
AcDbLine
 62
2
  6
CONTINUOUS
 10
588.5603787987
 20
226.4939806606
 11
584.3553787987
 21
226.4939806606
  0
LINE
  5
9AB
100
AcDbEntity
  8
0
100
AcDbLine
 62
2
  6
CONTINUOUS
 10
584.3553787987
 20
226.4939806606
 11
588.5603787987
 21
226.4939806606
  0
LINE
  5
9AC
100
AcDbEntity
  8
0
100
AcDbLine
 62
2
  6
CONTINUOUS
 10
586.4578787987
 20
228.5964806606
 11
586.4578787987
 21
224.3914806606
  0
LINE
  5
9AD
100
AcDbEntity
  8
0
100
AcDbLine
 62
2
  6
CONTINUOUS
 10
586.4578787987
 20
224.3914806606
 11
586.4578787987
 21
228.5964806606
  0
ACAD_TABLE
  5
9AE
100
AcDbEntity
  8
0
 62
2
  6
CONTINUOUS
100
AcDbBlockReference
  2
*T1
 10
713.8100102429
 20
38.9999999823
 30
0.0
100
AcDbTable
342
       9BF
343
21D
 11
1.0
 21
0.0
 31
0.0
 90
22
 91
3
 92
2
 93
0
 94
0
 95
0
 96
0
141
4.25
141
4.25
141
4.25
142
15.6
142
18.2
171
1
172
0
173
0
174
0
175
1
176
1
 91
41
178
0
145
0.0
301
CELL_VALUE
 90
4
  1
05.02.01
304
ACVALUE_END
170
4
140
2.0
 64
5
171
1
172
0
173
0
174
0
175
1
176
1
 91
41
178
0
145
0.0
301
CELL_VALUE
 90
4
  1
Moos
304
ACVALUE_END
170
4
140
2.0
 64
5
171
1
172
0
173
0
174
0
175
1
176
1
 91
1
178
0
145
0.0
170
1
171
1
172
0
173
0
174
0
175
1
176
1
 91
1
178
0
145
0.0
170
1
171
1
172
0
173
0
174
0
175
1
176
1
 91
1
178
0
145
0.0
170
1
171
1
172
0
173
0
174
0
175
1
176
1
 91
1
178
0
145
0.0
170
1
  0
ACAD_TABLE
  5
9AF
100
AcDbEntity
  8
0
 62
2
  6
CONTINUOUS
100
AcDbBlockReference
  2
*T2
 10
747.6100100794
 20
26.2499999823
 30
0.0
100
AcDbTable
342
       9C0
343
21E
 11
1.0
 21
0.0
 31
0.0
 90
6
 91
2
 92
1
 93
4
 94
0
 95
0
 96
0
 70
1
141
17.0
141
10.625
142
88.4
171
1
172
0
173
0
174
0
175
1
176
1
 91
1
178
0
145
0.0
170
1
171
1
172
0
173
0
174
0
175
1
176
1
 91
1
178
0
145
0.0
170
1
  0
ACAD_TABLE
  5
9B0
100
AcDbEntity
  8
0
 62
2
  6
CONTINUOUS
100
AcDbBlockReference
  2
*T3
 10
747.6100099378
 20
53.8750000215
 30
0.0
100
AcDbTable
342
       9C0
343
21F
 11
1.0
 21
0.0
 31
0.0
 90
6
 91
2
 92
4
 93
4
 94
0
 95
0
 96
0
 70
1
141
4.65
141
1.725
142
11.5
142
40.5
142
11.4
142
25.0
171
1
172
0
173
0
174
0
175
1
176
1
 91
1
178
0
145
0.0
170
1
171
1
172
0
173
0
174
0
175
1
176
1
 91
41
178
0
145
0.0
301
CELL_VALUE
 90
4
  1
1:1
304
ACVALUE_END
170
1
140
1.8
 64
5
171
1
172
0
173
0
174
0
175
1
176
1
 91
1
178
0
145
0.0
170
1
171
1
172
0
173
0
174
0
175
1
176
1
 91
41
178
0
145
0.0
301
CELL_VALUE
 90
4
  1
0.000 kg
304
ACVALUE_END
170
1
140
1.8
 64
5
171
1
172
0
173
0
174
0
175
1
176
1
 91
1
178
0
145
0.0
170
1
171
1
172
0
173
0
174
0
175
1
176
1
 91
1
178
0
145
0.0
170
1
171
1
172
0
173
0
174
0
175
1
176
1
 91
1
178
0
145
0.0
170
1
171
1
172
0
173
0
174
0
175
1
176
1
 91
1
178
0
145
0.0
170
1
  0
ACAD_TABLE
  5
9B1
100
AcDbEntity
  8
0
 62
2
  6
CONTINUOUS
100
AcDbBlockReference
  2
*T4
 10
703.4100110114
 20
43.2500029328
 30
0.0
100
AcDbTable
342
       9C0
343
220
 11
1.0
 21
0.0
 31
0.0
 90
6
 91
1
 92
2
 93
4
 94
0
 95
0
 96
0
 70
1
141
17.0
142
26.0
142
18.2
171
1
172
0
173
0
174
0
175
1
176
1
 91
1
178
0
145
0.0
170
5
171
1
172
0
173
0
174
0
175
1
176
1
 91
1
178
0
145
0.0
170
5
  0
ACAD_TABLE
  5
9B2
100
AcDbEntity
  8
0
 62
2
  6
CONTINUOUS
100
AcDbBlockReference
  2
*T5
 10
648.8100098071
 20
9.2499960575
 30
0.0
100
AcDbTable
342
       9C0
343
221
 11
1.0
 21
0.0
 31
0.0
 90
6
 91
8
 92
4
 93
4
 94
0
 95
0
 96
0
 70
1
141
4.25
141
4.25
141
4.25
141
4.25
141
4.25
141
4.25
141
4.25
141
4.25
142
7.8
142
23.4
142
13.0
142
10.4
171
1
172
0
173
0
174
0
175
1
176
1
 91
1
178
0
145
0.0
170
1
171
1
172
0
173
0
174
0
175
1
176
1
 91
1
178
0
145
0.0
170
1
171
1
172
0
173
0
174
0
175
1
176
1
 91
1
178
0
145
0.0
170
1
171
1
172
0
173
0
174
0
175
1
176
1
 91
1
178
0
145
0.0
170
1
171
1
172
0
173
0
174
0
175
1
176
1
 91
1
178
0
145
0.0
170
1
171
1
172
0
173
0
174
0
175
1
176
1
 91
1
178
0
145
0.0
170
1
171
1
172
0
173
0
174
0
175
1
176
1
 91
1
178
0
145
0.0
170
1
171
1
172
0
173
0
174
0
175
1
176
1
 91
1
178
0
145
0.0
170
1
171
1
172
0
173
0
174
0
175
1
176
1
 91
1
178
0
145
0.0
170
1
171
1
172
0
173
0
174
0
175
1
176
1
 91
1
178
0
145
0.0
170
1
171
1
172
0
173
0
174
0
175
1
176
1
 91
1
178
0
145
0.0
170
1
171
1
172
0
173
0
174
0
175
1
176
1
 91
1
178
0
145
0.0
170
1
171
1
172
0
173
0
174
0
175
1
176
1
 91
1
178
0
145
0.0
170
1
171
1
172
0
173
0
174
0
175
1
176
1
 91
1
178
0
145
0.0
170
1
171
1
172
0
173
0
174
0
175
1
176
1
 91
1
178
0
145
0.0
170
1
171
1
172
0
173
0
174
0
175
1
176
1
 91
1
178
0
145
0.0
170
1
171
1
172
0
173
0
174
0
175
1
176
1
 91
1
178
0
145
0.0
170
1
171
1
172
0
173
0
174
0
175
1
176
1
 91
1
178
0
145
0.0
170
1
171
1
172
0
173
0
174
0
175
1
176
1
 91
1
178
0
145
0.0
170
1
171
1
172
0
173
0
174
0
175
1
176
1
 91
1
178
0
145
0.0
170
1
171
1
172
0
173
0
174
0
175
1
176
1
 91
1
178
0
145
0.0
170
1
171
1
172
0
173
0
174
0
175
1
176
1
 91
1
178
0
145
0.0
170
1
171
1
172
0
173
0
174
0
175
1
176
1
 91
1
178
0
145
0.0
170
1
171
1
172
0
173
0
174
0
175
1
176
1
 91
1
178
0
145
0.0
170
1
171
1
172
0
173
0
174
0
175
1
176
1
 91
1
178
0
145
0.0
170
1
171
1
172
0
173
0
174
0
175
1
176
1
 91
1
178
0
145
0.0
170
1
171
1
172
0
173
0
174
0
175
1
176
1
 91
1
178
0
145
0.0
170
1
171
1
172
0
173
0
174
0
175
1
176
1
 91
1
178
0
145
0.0
170
1
171
1
172
0
173
0
174
0
175
1
176
1
 91
1
178
0
145
0.0
170
1
171
1
172
0
173
0
174
0
175
1
176
1
 91
1
178
0
145
0.0
170
1
171
1
172
0
173
0
174
0
175
1
176
1
 91
1
178
0
145
0.0
170
1
171
1
172
0
173
0
174
0
175
1
176
1
 91
1
178
0
145
0.0
170
1
  0
ACAD_TABLE
  5
9B3
100
AcDbEntity
  8
0
 62
2
  6
CONTINUOUS
100
AcDbBlockReference
  2
*T6
 10
648.8100260575
 20
43.2499960575
 30
0.0
100
AcDbTable
342
       9C0
343
222
 11
1.0
 21
0.0
 31
0.0
 90
6
 91
1
 92
1
 93
4
 94
0
 95
0
 96
0
 70
1
141
10.625
142
54.6
171
1
172
0
173
0
174
0
175
1
176
1
 91
41
178
0
145
0.0
301
CELL_VALUE
 90
4
  1
3614-45
304
ACVALUE_END
170
7
140
2.5
 64
5
  0
ACAD_TABLE
  5
9B4
100
AcDbEntity
  8
0
 62
2
  6
CONTINUOUS
100
AcDbBlockReference
  2
*T7
 10
747.6100042953
 20
9.2500125087
 30
0.0
100
AcDbTable
342
       9C0
343
223
 11
1.0
 21
0.0
 31
0.0
 90
6
 91
1
 92
1
 93
4
 94
0
 95
0
 96
0
 70
1
141
12.75
142
75.4
171
1
172
0
173
0
174
0
175
1
176
1
 91
41
178
0
145
0.0
301
CELL_VALUE
 90
4
  1
3614-45
304
ACVALUE_END
170
7
140
3.5
 64
5
  0
ACAD_TABLE
  5
9B5
100
AcDbEntity
  8
0
 62
2
  6
CONTINUOUS
100
AcDbBlockReference
  2
*T8
 10
823.0100042953
 20
9.2500125087
 30
0.0
100
AcDbTable
342
       9C0
343
224
 11
1.0
 21
0.0
 31
0.0
 90
6
 91
3
 92
2
 93
4
 94
0
 95
0
 96
0
 70
1
141
4.25
141
4.5
141
4.0
142
8.0
142
5.0
171
1
172
0
173
0
174
0
175
1
176
1
 91
41
178
0
145
0.0
301
CELL_VALUE
 90
4
  1
8
304
ACVALUE_END
170
4
140
2.5
 64
5
171
1
172
0
173
0
174
0
175
1
176
1
 91
1
178
0
145
0.0
170
1
171
1
172
0
173
0
174
0
175
1
176
1
 91
41
178
0
145
0.0
301
CELL_VALUE
 90
4
  1
1
304
ACVALUE_END
170
4
140
2.5
 64
5
171
1
172
0
173
0
174
0
175
1
176
1
 91
1
178
0
145
0.0
170
1
171
1
172
0
173
0
174
0
175
1
176
1
 91
1
178
0
145
0.0
170
1
171
1
172
0
173
0
174
0
175
1
176
1
 91
1
178
0
145
0.0
170
1
  0
ACAD_TABLE
  5
9B6
100
AcDbEntity
  8
0
 62
2
  6
CONTINUOUS
100
AcDbBlockReference
  2
*T9
 10
648.8100101139
 20
64.4999996787
 30
0.0
100
AcDbTable
342
       9C0
343
225
 11
1.0
 21
0.0
 31
0.0
 90
6
 91
2
 92
6
 93
4
 94
0
 95
0
 96
0
 70
1
141
4.25
141
4.25
142
7.8
142
13.0
142
13.0
142
13.0
142
7.8
142
132.6
171
1
172
0
173
0
174
0
175
1
176
1
 91
1
178
0
145
0.0
170
1
171
1
172
0
173
0
174
0
175
1
176
1
 91
41
178
0
145
0.0
301
CELL_VALUE
 90
4
  1
 
304
ACVALUE_END
170
4
140
1.8
 64
5
171
1
172
0
173
0
174
0
175
1
176
1
 91
41
178
0
145
0.0
301
CELL_VALUE
 90
4
  1
 
304
ACVALUE_END
170
4
140
1.8
 64
5
171
1
172
0
173
0
174
0
175
1
176
1
 91
1
178
0
145
0.0
170
1
171
1
172
0
173
0
174
0
175
1
176
1
 91
1
178
0
145
0.0
170
1
171
1
172
0
173
0
174
0
175
1
176
1
 91
1
178
0
145
0.0
170
1
171
1
172
0
173
0
174
0
175
1
176
1
 91
1
178
0
145
0.0
170
1
171
1
172
0
173
0
174
0
175
1
176
1
 91
1
178
0
145
0.0
170
1
171
1
172
0
173
0
174
0
175
1
176
1
 91
1
178
0
145
0.0
170
1
171
1
172
0
173
0
174
0
175
1
176
1
 91
1
178
0
145
0.0
170
1
171
1
172
0
173
0
174
0
175
1
176
1
 91
1
178
0
145
0.0
170
1
171
1
172
0
173
0
174
0
175
1
176
1
 91
1
178
0
145
0.0
170
1
  0
ACAD_TABLE
  5
9B7
100
AcDbEntity
  8
0
 62
2
  6
CONTINUOUS
100
AcDbBlockReference
  2
*T10
 10
703.4100103712
 20
5.0000032165
 30
0.0
100
AcDbTable
342
       9C0
343
226
 11
1.0
 21
0.0
 31
0.0
 90
6
 91
1
 92
6
 93
4
 94
0
 95
0
 96
0
 70
1
141
4.25
142
9.0
142
35.2
142
11.0
142
33.2
142
11.0
142
33.2
171
1
172
0
173
0
174
0
175
1
176
1
 91
1
178
0
145
0.0
170
1
171
1
172
0
173
0
174
0
175
1
176
1
 91
1
178
0
145
0.0
170
1
171
1
172
0
173
0
174
0
175
1
176
1
 91
1
178
0
145
0.0
170
1
171
1
172
0
173
0
174
0
175
1
176
1
 91
1
178
0
145
0.0
170
1
171
1
172
0
173
0
174
0
175
1
176
1
 91
1
178
0
145
0.0
170
1
171
1
172
0
173
0
174
0
175
1
176
1
 91
1
178
0
145
0.0
170
1
  0
ACAD_TABLE
  5
9B8
100
AcDbEntity
  8
0
 62
2
  6
CONTINUOUS
100
AcDbBlockReference
  2
*T11
 10
648.8100110114
 20
53.8500029328
 30
0.0
100
AcDbTable
342
       9C0
343
227
 11
1.0
 21
0.0
 31
0.0
 90
6
 91
1
 92
2
 93
4
 94
0
 95
0
 96
0
 70
1
141
6.4
142
26.1
142
28.5
171
1
172
0
173
0
174
0
175
1
176
1
 91
1
178
0
145
0.0
170
1
171
1
172
0
173
0
174
0
175
1
176
1
 91
41
178
0
145
0.0
301
CELL_VALUE
 90
4
  1
Einbautechnik
304
ACVALUE_END
170
5
140
2.5
 64
5
  0
ACAD_TABLE
  5
9B9
100
AcDbEntity
  8
0
 62
2
  6
CONTINUOUS
100
AcDbBlockReference
  2
*T12
 10
747.6099798797
 20
53.8750692222
 30
0.0
100
AcDbTable
342
       9BF
343
228
 11
1.0
 21
0.0
 31
0.0
 90
22
 91
4
 92
1
 93
0
 94
0
 95
0
 96
0
141
4.0
141
6.6
141
10.0
141
7.0
142
88.4
171
1
172
0
173
0
174
0
175
1
176
1
 91
1
178
0
145
0.0
170
1
171
1
172
0
173
0
174
0
175
1
176
1
 91
41
178
0
145
0.0
301
CELL_VALUE
 90
4
  1
     \H2.5; 
304
ACVALUE_END
170
4
140
0.15625
 64
5
171
1
172
0
173
0
174
0
175
1
176
1
 91
41
178
0
145
0.0
301
CELL_VALUE
 90
4
  1
     \H3.5;EURO-CARGO 45
304
ACVALUE_END
170
7
140
0.15625
 64
5
171
1
172
0
173
0
174
0
175
1
176
1
 91
41
178
0
145
0.0
301
CELL_VALUE
 90
4
  1
     
304
ACVALUE_END
170
4
140
0.15625
 64
5
  0
MTEXT
  5
9BA
100
AcDbEntity
  8
0
100
AcDbMText
 62
5
  6
CONTINUOUS
  7
STANDARD
 71
1
 72
1
 10
523.271612521
 20
52.8443149949
 30
0.0
 11
1.0
 21
0.0
 31
0.0
 44
0.9
  1
EURO-CARGO 45
 40
3.5
 41
35.4166666667
  0
MTEXT
  5
9BB
100
AcDbEntity
  8
0
100
AcDbMText
 62
5
  6
CONTINUOUS
  7
STANDARD
 71
1
 72
1
 10
565.0507419611
 20
70.5614966214
 30
0.0
 11
1.0
 21
0.0
 31
0.0
 44
0.9
  1
1:1
 40
3.5
 41
5.25
  0
ENDSEC
  0
SECTION
  2
OBJECTS
  0
DICTIONARY
  5
C
100
AcDbDictionary
280
0
281
1
  3
ACAD_GROUP
350
D
  3
ACAD_MLINESTYLE
350
17
  3
ACAD_LAYOUT
350
1A
  3
ACAD_PLOTSETTINGS
350
19
  3
ACAD_PLOTSTYLENAME
350
E
  3
ACAD_TABLESTYLE
350
       9BC
  0
DICTIONARY
  5
D
102
{ACAD_REACTORS
330
C
102
}
100
AcDbDictionary
280
0
281
1
  0
ACDBDICTIONARYWDFLT
  5
E
102
{ACAD_REACTORS
330
C
102
}
100
AcDbDictionary
281
1
  3
Normal
350
F
100
AcDbDictionaryWithDefault
340
F
  0
DICTIONARY
  5
17
102
{ACAD_REACTORS
330
C
102
}
100
AcDbDictionary
280
0
281
1
  3
Standard
350
18
  0
DICTIONARY
  5
9BC
330
C
100
AcDbDictionary
281
1
  3
Standard
350
       9BF
  3
Standard1
350
       9C0
  0
DICTIONARY
  5
19
102
{ACAD_REACTORS
330
C
102
}
100
AcDbDictionary
281
1
  0
DICTIONARY
  5
1A
102
{ACAD_REACTORS
330
C
102
}
100
AcDbDictionary
281
1
  3
Model
350
9BD
  3
Layout1
350
9BE
  0
ACDBPLACEHOLDER
  5
F
102
{ACAD_REACTORS
330
E
102
}
  0
MLINESTYLE
  5
18
102
{ACAD_REACTORS
330
17
102
}
100
AcDbMlineStyle
  2
STANDARD
 70
0
  3

 62
256
 51
90.0
 52
90.0
 71
2
 49
0.5
 62
256
  6
BYLAYER
 49
-0.5
 62
256
  6
BYLAYER
  0
LAYOUT
  5
9BD
102
{ACAD_REACTORS
330
1A
102
}
100
AcDbPlotSettings
  1

  2
none_device
  4
ISO_A1_(594.00_x_841.00_MM)
  6

 40
0.0
 41
0.0
 42
0.0
 43
0.0
 44
841.0
 45
594.0
 46
0.0
 47
0.0
 48
0.0
 49
0.0
140
0.0
141
0.0
142
1.0
143
1.0
 70
1024
 72
1
 73
0
 74
0
  7

 75
0
147
1.0
148
0.0
149
0.0
100
AcDbLayout
  1
Model
 70
0
 71
0
 10
0.0
 20
0.0
 11
841.0
 21
594.0
 12
0.0
 22
0.0
 32
0.0
 14
0.0
 24
0.0
 34
0.0
 15
0.0
 25
0.0
 35
0.0
146
0.0
 13
0.0
 23
0.0
 33
0.0
 16
1.0
 26
0.0
 36
0.0
 17
0.0
 27
1.0
 37
0.0
 76
0
330
20E
345
0
346
0
  0
LAYOUT
  5
9BE
102
{ACAD_REACTORS
330
1A
102
}
100
AcDbPlotSettings
  1

  2
none_device
  4
ISO_A1_(594.00_x_841.00_MM)
  6

 40
0.0
 41
0.0
 42
0.0
 43
0.0
 44
841.0
 45
594.0
 46
0.0
 47
0.0
 48
0.0
 49
0.0
140
0.0
141
0.0
142
1.0
143
1.0
 70
0
 72
1
 73
0
 74
0
  7

 75
0
147
1.0
148
0.0
149
0.0
100
AcDbLayout
  1
Layout1
 70
0
 71
1
 10
0.0
 20
0.0
 11
841.0
 21
594.0
 12
0.0
 22
0.0
 32
0.0
 14
0.0
 24
0.0
 34
0.0
 15
0.0
 25
0.0
 35
0.0
146
0.0
 13
0.0
 23
0.0
 33
0.0
 16
1.0
 26
0.0
 36
0.0
 17
0.0
 27
1.0
 37
0.0
 76
0
330
20F
345
0
346
0
  0
TABLESTYLE
  5
9BF
102
{ACAD_REACTORS
330
9BC
330
9AE
330
9B9
102
}
330
9BC
100
AcDbTableStyle
  3
Standard
 70
0
 71
0
 40
0.06
 41
0.06
280
1
281
1
  7
Standard
140
0.18
170
1
 62
0
 63
7
283
0
  7
Standard
140
0.18
170
1
 62
0
 63
7
283
0
  7
Standard
140
0.18
170
1
 62
0
 63
7
283
0
  0
TABLESTYLE
  5
9C0
102
{ACAD_REACTORS
330
9BC
330
9AF
330
9B0
330
9B1
330
9B2
330
9B3
330
9B4
330
9B5
330
9B6
330
9B7
330
9B8
102
}
330
9BC
100
AcDbTableStyle
  3
Standard1
 70
1
 71
0
 40
0.06
 41
0.06
280
1
281
1
  7
Standard
140
0.18
170
1
 62
0
 63
7
283
0
  7
Standard
140
0.18
170
1
 62
0
 63
7
283
0
  7
Standard
140
0.18
170
1
 62
0
 63
7
283
0
  0
ENDSEC
  0
EOF
