  0
SECTION
  2
HEADER
  9
$ACADVER
  1
AC1015
  9
$ACADMAINTVER
 70
    20
  9
$DWGCODEPAGE
  3
ANSI_1252
  9
$INSBASE
 10
0.0
 20
0.0
 30
0.0
  9
$EXTMIN
 10
60.8076975
 20
92.060577
 30
0.0
  9
$EXTMAX
 10
141.521534
 20
170.1750795
 30
0.0
  9
$LIMMIN
 10
0.0
 20
0.0
  9
$LIMMAX
 10
420.0
 20
297.0
  9
$ORTHOMODE
 70
     0
  9
$REGENMODE
 70
     1
  9
$FILLMODE
 70
     1
  9
$QTEXTMODE
 70
     0
  9
$MIRRTEXT
 70
     1
  9
$LTSCALE
 40
1.0
  9
$ATTMODE
 70
     1
  9
$TEXTSIZE
 40
2.5
  9
$TRACEWID
 40
1.0
  9
$TEXTSTYLE
  7
STANDARD
  9
$CLAYER
  8
0
  9
$CELTYPE
  6
BYLAYER
  9
$CECOLOR
 62
   256
  9
$CELTSCALE
 40
1.0
  9
$DISPSILH
 70
     0
  9
$DIMSCALE
 40
1.0
  9
$DIMASZ
 40
2.5
  9
$DIMEXO
 40
0.625
  9
$DIMDLI
 40
3.75
  9
$DIMRND
 40
0.0
  9
$DIMDLE
 40
0.0
  9
$DIMEXE
 40
1.25
  9
$DIMTP
 40
0.0
  9
$DIMTM
 40
0.0
  9
$DIMTXT
 40
2.5
  9
$DIMCEN
 40
2.5
  9
$DIMTSZ
 40
0.0
  9
$DIMTOL
 70
     0
  9
$DIMLIM
 70
     0
  9
$DIMTIH
 70
     0
  9
$DIMTOH
 70
     0
  9
$DIMSE1
 70
     0
  9
$DIMSE2
 70
     0
  9
$DIMTAD
 70
     1
  9
$DIMZIN
 70
     8
  9
$DIMBLK
  1

  9
$DIMASO
 70
     1
  9
$DIMSHO
 70
     1
  9
$DIMPOST
  1

  9
$DIMAPOST
  1

  9
$DIMALT
 70
     0
  9
$DIMALTD
 70
     3
  9
$DIMALTF
 40
0.03937
  9
$DIMLFAC
 40
1.0
  9
$DIMTOFL
 70
     1
  9
$DIMTVP
 40
0.0
  9
$DIMTIX
 70
     0
  9
$DIMSOXD
 70
     0
  9
$DIMSAH
 70
     0
  9
$DIMBLK1
  1

  9
$DIMBLK2
  1

  9
$DIMSTYLE
  2
STANDARD
  9
$DIMCLRD
 70
     0
  9
$DIMCLRE
 70
     0
  9
$DIMCLRT
 70
     0
  9
$DIMTFAC
 40
1.0
  9
$DIMGAP
 40
0.625
  9
$DIMJUST
 70
     0
  9
$DIMSD1
 70
     0
  9
$DIMSD2
 70
     0
  9
$DIMTOLJ
 70
     0
  9
$DIMTZIN
 70
     8
  9
$DIMALTZ
 70
     0
  9
$DIMALTTZ
 70
     0
  9
$DIMUPT
 70
     0
  9
$DIMDEC
 70
     2
  9
$DIMTDEC
 70
     2
  9
$DIMALTU
 70
     2
  9
$DIMALTTD
 70
     3
  9
$DIMTXSTY
  7
STANDARD
  9
$DIMAUNIT
 70
     0
  9
$DIMADEC
 70
     0
  9
$DIMALTRND
 40
0.0
  9
$DIMAZIN
 70
     0
  9
$DIMDSEP
 70
    46
  9
$DIMATFIT
 70
     0
  9
$DIMFRAC
 70
     0
  9
$DIMLDRBLK
  1

  9
$DIMLUNIT
 70
     2
  9
$DIMLWD
 70
    -2
  9
$DIMLWE
 70
    -2
  9
$DIMTMOVE
 70
     0
  9
$LUNITS
 70
     2
  9
$LUPREC
 70
     4
  9
$SKETCHINC
 40
1.0
  9
$FILLETRAD
 40
2.5
  9
$AUNITS
 70
     0
  9
$AUPREC
 70
     0
  9
$MENU
  1
.
  9
$ELEVATION
 40
0.0
  9
$PELEVATION
 40
0.0
  9
$THICKNESS
 40
0.0
  9
$LIMCHECK
 70
     0
  9
$CHAMFERA
 40
2.5
  9
$CHAMFERB
 40
2.5
  9
$CHAMFERC
 40
0.0
  9
$CHAMFERD
 40
0.0
  9
$SKPOLY
 70
     0
  9
$TDCREATE
 40
2447893.000000000
  9
$TDUCREATE
 40
2447892.916666666
  9
$TDUPDATE
 40
2454272.407324167
  9
$TDUUPDATE
 40
2454272.323990834
  9
$TDINDWG
 40
0.0031764120
  9
$TDUSRTIMER
 40
0.0031764120
  9
$USRTIMER
 70
     1
  9
$ANGBASE
 50
0.0
  9
$ANGDIR
 70
     0
  9
$PDMODE
 70
     0
  9
$PDSIZE
 40
0.0
  9
$PLINEWID
 40
0.0
  9
$SPLFRAME
 70
     0
  9
$SPLINETYPE
 70
     6
  9
$SPLINESEGS
 70
     8
  9
$HANDSEED
  5
234
  9
$SURFTAB1
 70
     6
  9
$SURFTAB2
 70
     6
  9
$SURFTYPE
 70
     6
  9
$SURFU
 70
     6
  9
$SURFV
 70
     6
  9
$UCSBASE
  2

  9
$UCSNAME
  2

  9
$UCSORG
 10
0.0
 20
0.0
 30
0.0
  9
$UCSXDIR
 10
1.0
 20
0.0
 30
0.0
  9
$UCSYDIR
 10
0.0
 20
1.0
 30
0.0
  9
$UCSORTHOREF
  2

  9
$UCSORTHOVIEW
 70
     0
  9
$UCSORGTOP
 10
0.0
 20
0.0
 30
0.0
  9
$UCSORGBOTTOM
 10
0.0
 20
0.0
 30
0.0
  9
$UCSORGLEFT
 10
0.0
 20
0.0
 30
0.0
  9
$UCSORGRIGHT
 10
0.0
 20
0.0
 30
0.0
  9
$UCSORGFRONT
 10
0.0
 20
0.0
 30
0.0
  9
$UCSORGBACK
 10
0.0
 20
0.0
 30
0.0
  9
$PUCSBASE
  2

  9
$PUCSNAME
  2

  9
$PUCSORG
 10
0.0
 20
0.0
 30
0.0
  9
$PUCSXDIR
 10
1.0
 20
0.0
 30
0.0
  9
$PUCSYDIR
 10
0.0
 20
1.0
 30
0.0
  9
$PUCSORTHOREF
  2

  9
$PUCSORTHOVIEW
 70
     0
  9
$PUCSORGTOP
 10
0.0
 20
0.0
 30
0.0
  9
$PUCSORGBOTTOM
 10
0.0
 20
0.0
 30
0.0
  9
$PUCSORGLEFT
 10
0.0
 20
0.0
 30
0.0
  9
$PUCSORGRIGHT
 10
0.0
 20
0.0
 30
0.0
  9
$PUCSORGFRONT
 10
0.0
 20
0.0
 30
0.0
  9
$PUCSORGBACK
 10
0.0
 20
0.0
 30
0.0
  9
$USERI1
 70
     0
  9
$USERI2
 70
     0
  9
$USERI3
 70
     0
  9
$USERI4
 70
     0
  9
$USERI5
 70
     0
  9
$USERR1
 40
0.0
  9
$USERR2
 40
0.0
  9
$USERR3
 40
0.0
  9
$USERR4
 40
0.0
  9
$USERR5
 40
0.0
  9
$WORLDVIEW
 70
     1
  9
$SHADEDGE
 70
     3
  9
$SHADEDIF
 70
    70
  9
$TILEMODE
 70
     1
  9
$MAXACTVP
 70
    48
  9
$PINSBASE
 10
0.0
 20
0.0
 30
0.0
  9
$PLIMCHECK
 70
     0
  9
$PEXTMIN
 10
0.0
 20
0.0
 30
0.0
  9
$PEXTMAX
 10
36.521534
 20
21.733303
 30
2.0
  9
$PLIMMIN
 10
0.0
 20
0.0
  9
$PLIMMAX
 10
420.0
 20
297.0
  9
$UNITMODE
 70
     0
  9
$VISRETAIN
 70
     0
  9
$PLINEGEN
 70
     0
  9
$PSLTSCALE
 70
     1
  9
$TREEDEPTH
 70
  3020
  9
$CMLSTYLE
  2
STANDARD
  9
$CMLJUST
 70
     0
  9
$CMLSCALE
 40
20.0
  9
$PROXYGRAPHICS
 70
     1
  9
$MEASUREMENT
 70
     1
  9
$CELWEIGHT
370
    -1
  9
$ENDCAPS
280
     0
  9
$JOINSTYLE
280
     0
  9
$LWDISPLAY
290
     0
  9
$INSUNITS
 70
     0
  9
$HYPERLINKBASE
  1

  9
$STYLESHEET
  1

  9
$XEDIT
290
     1
  9
$CEPSNTYPE
380
     0
  9
$PSTYLEMODE
290
     1
  9
$FINGERPRINTGUID
  2
{3AED96E7-D524-4E39-A09F-FFE4C5F535C9}
  9
$VERSIONGUID
  2
{2D5952DF-CE41-4AF2-9338-EC122AEB90E8}
  9
$EXTNAMES
290
     1
  9
$PSVPSCALE
 40
0.0
  9
$OLESTARTUP
290
     0
  0
ENDSEC
  0
SECTION
  2
CLASSES
  0
CLASS
  1
IMAGE
  2
AcDbRasterImage
  3
ISM
 90
    34943
280
     0
281
     1
  0
CLASS
  1
DICTIONARYVAR
  2
AcDbDictionaryVar
  3
ObjectDBX Classes
 90
        0
280
     0
281
     0
  0
CLASS
  1
RASTERVARIABLES
  2
AcDbRasterVariables
  3
ISM
 90
    32768
280
     0
281
     0
  0
CLASS
  1
IMAGEDEF
  2
AcDbRasterImageDef
  3
ISM
 90
    32768
280
     0
281
     0
  0
CLASS
  1
IMAGEDEF_REACTOR
  2
AcDbRasterImageDefReactor
  3
ISM
 90
    32769
280
     0
281
     0
  0
CLASS
  1
IDBUFFER
  2
AcDbIdBuffer
  3
ObjectDBX Classes
 90
    32768
280
     0
281
     0
  0
CLASS
  1
SPATIAL_FILTER
  2
AcDbSpatialFilter
  3
ObjectDBX Classes
 90
    32768
280
     0
281
     0
  0
CLASS
  1
SORTENTSTABLE
  2
AcDbSortentsTable
  3
ObjectDBX Classes
 90
    32768
280
     0
281
     0
  0
CLASS
  1
LAYER_INDEX
  2
AcDbLayerIndex
  3
ObjectDBX Classes
 90
    32768
280
     0
281
     0
  0
CLASS
  1
SPATIAL_INDEX
  2
AcDbSpatialIndex
  3
ObjectDBX Classes
 90
    32768
280
     0
281
     0
  0
CLASS
  1
OBJECT_PTR
  2
CAseDLPNTableRecord
  3
ASE-LPNTableRecord
 90
    32769
280
     0
281
     0
  0
CLASS
  1
LAYOUT
  2
AcDbLayout
  3
ObjectDBX Classes
 90
        0
280
     0
281
     0
  0
CLASS
  1
PLOTSETTINGS
  2
AcDbPlotSettings
  3
ObjectDBX Classes
 90
    32768
280
     0
281
     0
  0
CLASS
  1
ACDBDICTIONARYWDFLT
  2
AcDbDictionaryWithDefault
  3
ObjectDBX Classes
 90
        0
280
     0
281
     0
  0
CLASS
  1
ACDBPLACEHOLDER
  2
AcDbPlaceHolder
  3
ObjectDBX Classes
 90
        0
280
     0
281
     0
  0
CLASS
  1
VBA_PROJECT
  2
AcDbVbaProject
  3
acad
 90
    32768
280
     0
281
     0
  0
CLASS
  1
WIPEOUT
  2
AcDbWipeout
  3
"WipeOut|Product Desc: Object Enabler for WipeOut entity                        |Company: Autodesk, Inc.                        |WEB Address: www.autodesk.com"
 90
    34943
280
     0
281
     1
  0
CLASS
  1
WIPEOUTVARIABLES
  2
AcDbWipeoutVariables
  3
"WipeOut|Product Desc:     WipeOut Dbx Application|Company:          Autodesk, Inc.|WEB Address:      www.autodesk.com"
 90
    32768
280
     0
281
     0
  0
CLASS
  1
RTEXT
  2
RText
  3
RText|AutoCAD Express Tool|expresstools@autodesk.com
 90
    32768
280
     0
281
     1
  0
CLASS
  1
ARCALIGNEDTEXT
  2
AcDbArcAlignedText
  3
ATEXT|AutoCAD Express Tool|expresstools@autodesk.com
 90
    32768
280
     0
281
     1
  0
CLASS
  1
MATERIAL
  2
AcDbMaterial
  3
ObjectDBX Classes
 90
     1024
280
     0
281
     0
  0
CLASS
  1
VISUALSTYLE
  2
AcDbVisualStyle
  3
ObjectDBX Classes
 90
     4095
280
     0
281
     0
  0
CLASS
  1
TABLESTYLE
  2
AcDbTableStyle
  3
ObjectDBX Classes
 90
     4095
280
     0
281
     0
  0
ENDSEC
  0
SECTION
  2
TABLES
  0
TABLE
  2
VPORT
  5
7
330
0
100
AcDbSymbolTable
 70
     1
  0
VPORT
  5
15
330
7
100
AcDbSymbolTableRecord
100
AcDbViewportTableRecord
  2
*ACTIVE
 70
     0
 10
0.0
 20
0.0
 11
1.0
 21
1.0
 12
101.1646157499999
 22
131.11782825
 13
0.0
 23
0.0
 14
1.0
 24
1.0
 15
0.0
 25
0.0
 16
0.0
 26
0.0
 36
1.0
 17
0.0
 27
0.0
 37
0.0
 40
78.73119594078943
 41
1.434782608695652
 42
50.0
 43
0.0
 44
0.0
 50
0.0
 51
0.0
 71
     0
 72
   100
 73
     1
 74
     1
 75
     0
 76
     0
 77
     0
 78
     0
281
     0
 65
     1
110
0.0
120
0.0
130
0.0
111
1.0
121
0.0
131
0.0
112
0.0
122
1.0
132
0.0
 79
     0
146
0.0
  0
ENDTAB
  0
TABLE
  2
LTYPE
  5
4
330
0
100
AcDbSymbolTable
 70
     8
  0
LTYPE
  5
11
330
4
100
AcDbSymbolTableRecord
100
AcDbLinetypeTableRecord
  2
BYBLOCK
 70
     0
  3

 72
    65
 73
     0
 40
0.0
  0
LTYPE
  5
12
330
4
100
AcDbSymbolTableRecord
100
AcDbLinetypeTableRecord
  2
BYLAYER
 70
     0
  3

 72
    65
 73
     0
 40
0.0
  0
LTYPE
  5
13
330
4
100
AcDbSymbolTableRecord
100
AcDbLinetypeTableRecord
  2
CONTINUOUS
 70
     0
  3
Solid line
 72
    65
 73
     0
 40
0.0
  0
LTYPE
  5
1D
330
4
100
AcDbSymbolTableRecord
100
AcDbLinetypeTableRecord
  2
DASHED
 70
     0
  3
__ __ __ __ __ __ __ __ __ __ __ __ __ __ __ __
 72
    65
 73
     2
 40
15.0
 49
12.0
 74
     0
 49
-3.0
 74
     0
  0
LTYPE
  5
1E
330
4
100
AcDbSymbolTableRecord
100
AcDbLinetypeTableRecord
  2
DASHDOT
 70
     0
  3
 __ . __ . __ . __ . __ . __ . __ . 
 72
    65
 73
     4
 40
18.5
 49
12.0
 74
     0
 49
-3.0
 74
     0
 49
0.5
 74
     0
 49
-3.0
 74
     0
  0
LTYPE
  5
1F
330
4
100
AcDbSymbolTableRecord
100
AcDbLinetypeTableRecord
  2
DOT
 70
     0
  3
 . . . . . . . . . . . . . . . .
 72
    65
 73
     2
 40
3.5
 49
0.5
 74
     0
 49
-3.0
 74
     0
  0
LTYPE
  5
20
330
4
100
AcDbSymbolTableRecord
100
AcDbLinetypeTableRecord
  2
DASHSPACE
 70
     0
  3
__    __    __    __    __   
 72
    65
 73
     2
 40
30.0
 49
12.0
 74
     0
 49
-18.0
 74
     0
  0
LTYPE
  5
21
330
4
100
AcDbSymbolTableRecord
100
AcDbLinetypeTableRecord
  2
DASHDOT2
 70
     0
  3
__ . . __ . . __ . . __ 
 72
    65
 73
     6
 40
22.0
 49
12.0
 74
     0
 49
-3.0
 74
     0
 49
0.5
 74
     0
 49
-3.0
 74
     0
 49
0.5
 74
     0
 49
-3.0
 74
     0
  0
LTYPE
  5
22
330
4
100
AcDbSymbolTableRecord
100
AcDbLinetypeTableRecord
  2
PHANTOM
 70
     0
  3
____________    ____    ____   _
 72
    65
 73
     6
 40
20.0
 49
10.0
 74
     0
 49
-2.0
 74
     0
 49
2.0
 74
     0
 49
-2.0
 74
     0
 49
2.0
 74
     0
 49
-2.0
 74
     0
  0
LTYPE
  5
23
330
4
100
AcDbSymbolTableRecord
100
AcDbLinetypeTableRecord
  2
AXES
 70
     0
  3
________  __  ________  __  _____
 72
    65
 73
     4
 40
24.0
 49
15.0
 74
     0
 49
-3.0
 74
     0
 49
3.0
 74
     0
 49
-3.0
 74
     0
  0
ENDTAB
  0
TABLE
  2
LAYER
  5
2
330
0
100
AcDbSymbolTable
 70
     6
  0
LAYER
  5
14
330
2
100
AcDbSymbolTableRecord
100
AcDbLayerTableRecord
  2
0
 70
     0
 62
     7
  6
CONTINUOUS
370
    -3
390
204
  0
LAYER
  5
1F9
330
2
100
AcDbSymbolTableRecord
100
AcDbLayerTableRecord
  2
Hawa1
 70
     0
 62
     2
  6
CONTINUOUS
370
    -3
390
204
  0
LAYER
  5
1FA
330
2
100
AcDbSymbolTableRecord
100
AcDbLayerTableRecord
  2
Hawa2
 70
     0
 62
     9
  6
CONTINUOUS
370
    -3
390
204
  0
LAYER
  5
1FB
330
2
100
AcDbSymbolTableRecord
100
AcDbLayerTableRecord
  2
Hawa4
 70
     0
 62
     4
  6
CONTINUOUS
370
    -3
390
204
  0
LAYER
  5
1FC
330
2
100
AcDbSymbolTableRecord
100
AcDbLayerTableRecord
  2
Hawa5
 70
     0
 62
     1
  6
CONTINUOUS
370
    -3
390
204
  0
LAYER
  5
1FD
330
2
100
AcDbSymbolTableRecord
100
AcDbLayerTableRecord
  2
Hawa6
 70
     0
 62
     3
  6
CONTINUOUS
370
    -3
390
204
  0
ENDTAB
  0
TABLE
  2
STYLE
  5
3
330
0
100
AcDbSymbolTable
 70
     2
  0
STYLE
  5
17
330
3
100
AcDbSymbolTableRecord
100
AcDbTextStyleTableRecord
  2
STANDARD
 70
     0
 40
0.0
 41
1.0
 50
0.0
 71
     0
 42
2.5
  3
isocp.shx
  4

  0
STYLE
  5
24
330
3
100
AcDbSymbolTableRecord
100
AcDbTextStyleTableRecord
  2
GDT
 70
     0
 40
0.0
 41
1.0
 50
0.0
 71
     0
 42
2.5
  3
amgdt.shx
  4

  0
ENDTAB
  0
TABLE
  2
VIEW
  5
5
330
0
100
AcDbSymbolTable
 70
     0
  0
ENDTAB
  0
TABLE
  2
UCS
  5
6
330
0
100
AcDbSymbolTable
 70
     0
  0
ENDTAB
  0
TABLE
  2
APPID
  5
8
330
0
100
AcDbSymbolTable
 70
     1
  0
APPID
  5
16
330
8
100
AcDbSymbolTableRecord
100
AcDbRegAppTableRecord
  2
ACAD
 70
     0
  0
ENDTAB
  0
TABLE
  2
DIMSTYLE
  5
9
330
0
100
AcDbSymbolTable
 70
     1
100
AcDbDimStyleTable
 71
     0
  0
DIMSTYLE
105
18
102
{ACAD_REACTORS
330
26
330
28
330
2A
330
2C
330
2E
102
}
330
9
100
AcDbSymbolTableRecord
100
AcDbDimStyleTableRecord
  2
STANDARD
 70
     0
 41
2.5
 42
0.625
 43
3.75
 44
1.25
 73
     0
 74
     0
 77
     1
 78
     8
140
2.5
141
2.5
143
0.03937
147
0.625
171
     3
172
     1
271
     2
272
     2
274
     3
283
     0
284
     8
289
     0
340
17
  0
ENDTAB
  0
TABLE
  2
BLOCK_RECORD
  5
1
330
0
100
AcDbSymbolTable
 70
    10
  0
BLOCK_RECORD
  5
A
330
1
100
AcDbSymbolTableRecord
100
AcDbBlockTableRecord
  2
*MODEL_SPACE
340
1B0
  0
BLOCK_RECORD
  5
B
330
1
100
AcDbSymbolTableRecord
100
AcDbBlockTableRecord
  2
*PAPER_SPACE
340
1B1
  0
BLOCK_RECORD
  5
25
330
1
100
AcDbSymbolTableRecord
100
AcDbBlockTableRecord
  2
*D0
340
0
  0
BLOCK_RECORD
  5
27
330
1
100
AcDbSymbolTableRecord
100
AcDbBlockTableRecord
  2
*D1
340
0
  0
BLOCK_RECORD
  5
29
330
1
100
AcDbSymbolTableRecord
100
AcDbBlockTableRecord
  2
*D2
340
0
  0
BLOCK_RECORD
  5
2B
330
1
100
AcDbSymbolTableRecord
100
AcDbBlockTableRecord
  2
*D3
340
0
  0
BLOCK_RECORD
  5
2D
330
1
100
AcDbSymbolTableRecord
100
AcDbBlockTableRecord
  2
*D4
340
0
  0
BLOCK_RECORD
  5
10F
330
1
100
AcDbSymbolTableRecord
100
AcDbBlockTableRecord
  2
BLOCK0
340
0
  0
BLOCK_RECORD
  5
110
330
1
100
AcDbSymbolTableRecord
100
AcDbBlockTableRecord
  2
BLOCK1
340
0
  0
BLOCK_RECORD
  5
111
330
1
100
AcDbSymbolTableRecord
100
AcDbBlockTableRecord
  2
BLOCK2
340
0
  0
BLOCK_RECORD
  5
112
330
1
100
AcDbSymbolTableRecord
100
AcDbBlockTableRecord
  2
BLOCK3
340
0
  0
BLOCK_RECORD
  5
113
330
1
100
AcDbSymbolTableRecord
100
AcDbBlockTableRecord
  2
BLOCK4
340
0
  0
ENDTAB
  0
ENDSEC
  0
SECTION
  2
BLOCKS
  0
BLOCK
  5
D
330
A
100
AcDbEntity
  8
0
100
AcDbBlockBegin
  2
*MODEL_SPACE
 70
     0
 10
0.0
 20
0.0
 30
0.0
  3
*MODEL_SPACE
  1

  0
ENDBLK
  5
E
330
A
100
AcDbEntity
  8
0
100
AcDbBlockEnd
  0
BLOCK
  5
F
330
B
100
AcDbEntity
 67
     1
  8
0
100
AcDbBlockBegin
  2
*PAPER_SPACE
 70
     0
 10
0.0
 20
0.0
 30
0.0
  3
*PAPER_SPACE
  1

  0
ENDBLK
  5
10
330
B
100
AcDbEntity
 67
     1
  8
0
100
AcDbBlockEnd
  0
BLOCK
  5
114
330
25
100
AcDbEntity
  8
Hawa2
 62
     9
100
AcDbBlockBegin
  2
*D0
 70
     1
 10
0.0
 20
0.0
 30
0.0
  3
*D0
  1

  0
TEXT
  5
115
330
25
100
AcDbEntity
  8
Hawa1
 62
     2
100
AcDbText
 10
65.124477
 20
128.26899
 30
0.0
 40
3.5
  1
37
 50
90.0
 41
1.381696914285709
 72
     5
 11
65.124477
 21
134.313914
 31
0.0
100
AcDbText
  0
TEXT
  5
116
330
25
100
AcDbEntity
  8
Hawa1
 62
     2
100
AcDbText
 10
63.874477
 20
135.313914
 30
0.0
 40
1.0
  1
/
 50
90.0
 41
1.818181818181818
 72
     5
 11
63.874477
 21
136.313914
 31
0.0
100
AcDbText
  0
TEXT
  5
117
330
25
100
AcDbEntity
  8
Hawa1
 62
     2
100
AcDbText
 10
65.124477
 20
137.313914
 30
0.0
 40
3.5
  1
1
 50
90.0
 41
2.181602448979609
 72
     5
 11
65.124477
 21
139.986377
 31
0.0
100
AcDbText
  0
TEXT
  5
118
330
25
100
AcDbEntity
  8
Hawa1
 62
     2
100
AcDbText
 10
63.024475
 20
142.611376
 30
0.0
 40
2.33345
  1
15
 50
90.0
 41
1.582451365366418
 72
     5
 11
63.024475
 21
146.641527
 31
0.0
100
AcDbText
  0
TEXT
  5
119
330
25
100
AcDbEntity
  8
Hawa1
 62
     2
100
AcDbText
 10
66.057926
 20
142.611376
 30
0.0
 40
2.33345
  1
32
 50
90.0
 41
1.318353709796759
 72
     5
 11
66.057926
 21
146.641527
 31
0.0
100
AcDbText
  0
TEXT
  5
11A
330
25
100
AcDbEntity
  8
Hawa1
 62
     2
100
AcDbText
 10
64.249477
 20
146.641527
 30
0.0
 40
3.5
  1
"
 50
90.0
 41
1.629629841269838
 72
     5
 11
64.249477
 21
149.208194
 31
0.0
100
AcDbText
  0
LINE
  5
11B
330
25
100
AcDbEntity
  8
Hawa1
 62
     2
 48
0.100754
100
AcDbLine
 10
63.374477
 20
142.611376
 30
0.0
 11
63.374477
 21
146.641527
 31
0.0
  0
LINE
  5
11C
330
25
100
AcDbEntity
  8
Hawa1
 62
     2
100
AcDbLine
 10
98.50075699999999
 20
119.5
 30
0.0
 11
66.057926
 21
119.5
 31
0.0
  0
LINE
  5
11D
330
25
100
AcDbEntity
  8
Hawa1
 62
     2
 48
0.432505
100
AcDbLine
 10
98.50075699999999
 20
156.499801
 30
0.0
 11
81.200554
 21
156.499801
 31
0.0
  0
LINE
  5
11E
330
25
100
AcDbEntity
  8
Hawa1
 62
     2
 48
0.160886
100
AcDbLine
 10
72.493385
 20
156.499801
 30
0.0
 11
66.057926
 21
156.499801
 31
0.0
  0
LINE
  5
11F
330
25
100
AcDbEntity
  8
Hawa1
 62
     2
 48
0.075
100
AcDbLine
 10
65.997265
 20
120.560659
 30
0.0
 11
68.11858700000001
 21
118.439341
 31
0.0
  0
LINE
  5
120
330
25
100
AcDbEntity
  8
Hawa1
 62
     2
 48
0.075
100
AcDbLine
 10
68.11858700000001
 20
155.43914
 30
0.0
 11
65.997265
 21
157.560461
 31
0.0
  0
LINE
  5
121
330
25
100
AcDbEntity
  8
Hawa1
 62
     2
100
AcDbLine
 10
67.05792599999999
 20
119.5
 30
0.0
 11
67.05792599999999
 21
156.499801
 31
0.0
  0
ENDBLK
  5
122
330
25
100
AcDbEntity
  8
Hawa2
 62
     9
100
AcDbBlockEnd
  0
BLOCK
  5
123
330
27
100
AcDbEntity
  8
Hawa2
 62
     9
100
AcDbBlockBegin
  2
*D1
 70
     1
 10
0.0
 20
0.0
 30
0.0
  3
*D1
  1

  0
TEXT
  5
124
330
27
100
AcDbEntity
  8
Hawa1
 62
     2
100
AcDbText
 10
102.120831
 20
165.858301
 30
0.0
 40
3.5
  1
33.5
 41
1.427832800162541
 72
     5
 11
113.572014
 21
165.858301
 31
0.0
100
AcDbText
  0
TEXT
  5
125
330
27
100
AcDbEntity
  8
Hawa1
 62
     2
100
AcDbText
 10
114.572014
 20
167.108301
 30
0.0
 40
1.0
  1
/
 41
1.818181818181818
 72
     5
 11
115.572014
 21
167.108301
 31
0.0
100
AcDbText
  0
TEXT
  5
126
330
27
100
AcDbEntity
  8
Hawa1
 62
     2
100
AcDbText
 10
116.572014
 20
165.858301
 30
0.0
 40
3.5
  1
1
 41
2.181601632653069
 72
     5
 11
119.244476
 21
165.858301
 31
0.0
100
AcDbText
  0
TEXT
  5
127
330
27
100
AcDbEntity
  8
Hawa1
 62
     2
100
AcDbText
 10
122.993685
 20
167.958302
 30
0.0
 40
2.33345
  1
5
 41
1.291059893857658
 72
     5
 11
124.775415
 21
167.958302
 31
0.0
100
AcDbText
  0
TEXT
  5
128
330
27
100
AcDbEntity
  8
Hawa1
 62
     2
100
AcDbText
 10
121.869474
 20
164.92485
 30
0.0
 40
2.33345
  1
16
 41
1.57067274455826
 72
     5
 11
125.899626
 21
164.92485
 31
0.0
100
AcDbText
  0
TEXT
  5
129
330
27
100
AcDbEntity
  8
Hawa1
 62
     2
100
AcDbText
 10
125.899628
 20
166.733301
 30
0.0
 40
3.5
  1
"
 41
1.629628571428571
 72
     5
 11
128.466293
 21
166.733301
 31
0.0
100
AcDbText
  0
LINE
  5
12A
330
27
100
AcDbEntity
  8
Hawa1
 62
     2
 48
0.100754
100
AcDbLine
 10
121.869476
 20
167.608301
 30
0.0
 11
125.899626
 21
167.608301
 31
0.0
  0
LINE
  5
12B
330
27
100
AcDbEntity
  8
Hawa1
 62
     2
 48
0.037997
100
AcDbLine
 10
98.50075699999999
 20
164.444727
 30
0.0
 11
98.50075699999999
 21
162.924851
 31
0.0
  0
LINE
  5
12C
330
27
100
AcDbEntity
  8
Hawa1
 62
     2
 48
0.373121
100
AcDbLine
 10
132.0
 20
150.0
 30
0.0
 11
132.0
 21
164.924852
 31
0.0
  0
LINE
  5
12D
330
27
100
AcDbEntity
  8
Hawa1
 62
     2
 48
0.075
100
AcDbLine
 10
130.939341
 20
162.864191
 30
0.0
 11
133.060659
 21
164.985512
 31
0.0
  0
LINE
  5
12E
330
27
100
AcDbEntity
  8
Hawa1
 62
     2
 48
0.075
100
AcDbLine
 10
99.56141700000001
 20
164.985512
 30
0.0
 11
97.440096
 21
162.864191
 31
0.0
  0
LINE
  5
12F
330
27
100
AcDbEntity
  8
Hawa1
 62
     2
100
AcDbLine
 10
98.50075699999999
 20
163.924851
 30
0.0
 11
132.0
 21
163.924851
 31
0.0
  0
ENDBLK
  5
130
330
27
100
AcDbEntity
  8
Hawa2
 62
     9
100
AcDbBlockEnd
  0
BLOCK
  5
131
330
29
100
AcDbEntity
  8
Hawa2
 62
     9
100
AcDbBlockBegin
  2
*D2
 70
     1
 10
0.0
 20
0.0
 30
0.0
  3
*D2
  1

  0
TEXT
  5
132
330
29
100
AcDbEntity
  8
Hawa1
 62
     2
100
AcDbText
 10
120.473534
 20
101.390739
 30
0.0
 40
3.5
  1
20.5
 41
1.427832800162539
 72
     5
 11
131.924717
 21
101.390739
 31
0.0
100
AcDbText
  0
TEXT
  5
133
330
29
100
AcDbEntity
  8
Hawa1
 62
     2
100
AcDbText
 10
134.924717
 20
103.490742
 30
0.0
 40
2.33345
  1
13
 41
1.582451365366428
 72
     5
 11
138.954868
 21
103.490742
 31
0.0
100
AcDbText
  0
TEXT
  5
134
330
29
100
AcDbEntity
  8
Hawa1
 62
     2
100
AcDbText
 10
134.924717
 20
100.457291
 30
0.0
 40
2.33345
  1
16
 41
1.570672354827868
 72
     5
 11
138.954868
 21
100.457291
 31
0.0
100
AcDbText
  0
TEXT
  5
135
330
29
100
AcDbEntity
  8
Hawa1
 62
     2
100
AcDbText
 10
138.954868
 20
102.265739
 30
0.0
 40
3.5
  1
"
 41
1.629629206349205
 72
     5
 11
141.521534
 21
102.265739
 31
0.0
100
AcDbText
  0
TEXT
  5
136
330
29
100
AcDbEntity
  8
Hawa1
 62
     2
100
AcDbText
 10
132.924717
 20
102.640739
 30
0.0
 40
1.0
  1
/
 41
1.818181818181818
 72
     5
 11
133.924717
 21
102.640739
 31
0.0
100
AcDbText
  0
LINE
  5
137
330
29
100
AcDbEntity
  8
Hawa1
 62
     2
 48
0.100754
100
AcDbLine
 10
134.924717
 20
103.140739
 30
0.0
 11
138.954868
 21
103.140739
 31
0.0
  0
LINE
  5
138
330
29
100
AcDbEntity
  8
Hawa1
 62
     2
 48
0.1101
100
AcDbLine
 10
98.50000000000001
 20
102.86129
 30
0.0
 11
98.50000000000001
 21
98.45729099999999
 31
0.0
  0
LINE
  5
139
330
29
100
AcDbEntity
  8
Hawa1
 62
     2
 48
0.090964
100
AcDbLine
 10
118.999922
 20
102.09584
 30
0.0
 11
118.999922
 21
98.45729099999999
 31
0.0
  0
LINE
  5
13A
330
29
100
AcDbEntity
  8
Hawa1
 62
     2
 48
0.075
100
AcDbLine
 10
117.939261
 20
98.396629
 30
0.0
 11
120.060582
 21
100.517952
 31
0.0
  0
LINE
  5
13B
330
29
100
AcDbEntity
  8
Hawa1
 62
     2
 48
0.075
100
AcDbLine
 10
99.56065999999999
 20
100.517952
 30
0.0
 11
97.43934000000001
 21
98.396629
 31
0.0
  0
LINE
  5
13C
330
29
100
AcDbEntity
  8
Hawa1
 62
     2
100
AcDbLine
 10
98.50000000000001
 20
99.45729100000001
 30
0.0
 11
141.521534
 21
99.45729100000001
 31
0.0
  0
ENDBLK
  5
13D
330
29
100
AcDbEntity
  8
Hawa2
 62
     9
100
AcDbBlockEnd
  0
BLOCK
  5
13E
330
2B
100
AcDbEntity
  8
Hawa2
 62
     9
100
AcDbBlockBegin
  2
*D3
 70
     1
 10
0.0
 20
0.0
 30
0.0
  3
*D3
  1

  0
TEXT
  5
13F
330
2B
100
AcDbEntity
  8
Hawa1
 62
     2
100
AcDbText
 10
80.97246700000001
 20
107.484516
 30
0.0
 40
3.5
  1
6.5
 41
1.450405319089987
 72
     5
 11
89.051188
 21
107.484516
 31
0.0
100
AcDbText
  0
TEXT
  5
140
330
2B
100
AcDbEntity
  8
Hawa1
 62
     2
100
AcDbText
 10
92.05118799999999
 20
109.584518
 30
0.0
 40
2.33345
  1
1
 41
2.181602348453997
 72
     5
 11
93.83291899999999
 21
109.584518
 31
0.0
100
AcDbText
  0
TEXT
  5
141
330
2B
100
AcDbEntity
  8
Hawa1
 62
     2
100
AcDbText
 10
92.05118799999999
 20
106.551067
 30
0.0
 40
2.33345
  1
4
 41
1.174708956859844
 72
     5
 11
93.83291899999999
 21
106.551067
 31
0.0
100
AcDbText
  0
TEXT
  5
142
330
2B
100
AcDbEntity
  8
Hawa1
 62
     2
100
AcDbText
 10
93.832918
 20
108.3595159999999
 30
0.0
 40
3.5
  1
"
 41
1.629630476190471
 72
     5
 11
96.39958599999999
 21
108.3595159999999
 31
0.0
100
AcDbText
  0
TEXT
  5
143
330
2B
100
AcDbEntity
  8
Hawa1
 62
     2
100
AcDbText
 10
90.05118799999999
 20
108.734516
 30
0.0
 40
1.0
  1
/
 41
1.818181818181818
 72
     5
 11
91.05118799999999
 21
108.734516
 31
0.0
100
AcDbText
  0
LINE
  5
144
330
2B
100
AcDbEntity
  8
Hawa1
 62
     2
 48
0.044543
100
AcDbLine
 10
92.05118799999999
 20
109.234516
 30
0.0
 11
93.83291899999999
 21
109.234516
 31
0.0
  0
LINE
  5
145
330
2B
100
AcDbEntity
  8
Hawa1
 62
     2
 48
0.114522
100
AcDbLine
 10
98.50075699999999
 20
109.131931
 30
0.0
 11
98.50075699999999
 21
104.551067
 31
0.0
  0
LINE
  5
146
330
2B
100
AcDbEntity
  8
Hawa1
 62
     2
 48
0.348724
100
AcDbLine
 10
105.0
 20
118.500031
 30
0.0
 11
105.0
 21
104.551067
 31
0.0
  0
LINE
  5
147
330
2B
100
AcDbEntity
  8
Hawa1
 62
     2
 48
0.075
100
AcDbLine
 10
97.440096
 20
104.490406
 30
0.0
 11
99.56141700000001
 21
106.611729
 31
0.0
  0
LINE
  5
148
330
2B
100
AcDbEntity
  8
Hawa1
 62
     2
 48
0.075
100
AcDbLine
 10
106.06066
 20
106.611729
 30
0.0
 11
103.93934
 21
104.490406
 31
0.0
  0
LINE
  5
149
330
2B
100
AcDbEntity
  8
Hawa1
 62
     2
100
AcDbLine
 10
80.97246700000001
 20
105.551067
 30
0.0
 11
105.0
 21
105.551067
 31
0.0
  0
ENDBLK
  5
14A
330
2B
100
AcDbEntity
  8
Hawa2
 62
     9
100
AcDbBlockEnd
  0
BLOCK
  5
14B
330
2D
100
AcDbEntity
  8
Hawa2
 62
     9
100
AcDbBlockBegin
  2
*D4
 70
     1
 10
0.0
 20
0.0
 30
0.0
  3
*D4
  1

  0
TEXT
  5
14C
330
2D
100
AcDbEntity
  8
Hawa1
 62
     2
100
AcDbText
 10
77.992056
 20
146.800105
 30
0.0
 40
3.5
  1
6.2
 50
90.0
 41
1.433615737672849
 72
     5
 11
77.992056
 21
154.878826
 31
0.0
100
AcDbText
  0
TEXT
  5
14D
330
2D
100
AcDbEntity
  8
Hawa1
 62
     2
100
AcDbText
 10
77.992056
 20
142.300105
 30
0.0
 40
3.5
  1
%%c
 50
90.0
 41
1.333333333333332
 72
     5
 11
77.992056
 21
145.800105
 31
0.0
100
AcDbText
  0
TEXT
  5
14E
330
2D
100
AcDbEntity
  8
Hawa1
 62
     2
100
AcDbText
 10
75.89205699999999
 20
157.878826
 30
0.0
 40
2.33345
  1
1
 50
90.0
 41
2.181602348454015
 72
     5
 11
75.89205699999999
 21
159.660557
 31
0.0
100
AcDbText
  0
TEXT
  5
14F
330
2D
100
AcDbEntity
  8
Hawa1
 62
     2
100
AcDbText
 10
78.925507
 20
157.878826
 30
0.0
 40
2.33345
  1
4
 50
90.0
 41
1.174708956859854
 72
     5
 11
78.925507
 21
159.660557
 31
0.0
100
AcDbText
  0
TEXT
  5
150
330
2D
100
AcDbEntity
  8
Hawa1
 62
     2
100
AcDbText
 10
77.11705600000001
 20
159.660557
 30
0.0
 40
3.5
  1
"
 50
90.0
 41
1.629628571428553
 72
     5
 11
77.11705600000001
 21
162.227222
 31
0.0
100
AcDbText
  0
TEXT
  5
151
330
2D
100
AcDbEntity
  8
Hawa1
 62
     2
100
AcDbText
 10
76.742056
 20
155.878826
 30
0.0
 40
1.0
  1
/
 50
90.0
 41
1.818181818181818
 72
     5
 11
76.742056
 21
156.878826
 31
0.0
100
AcDbText
  0
LINE
  5
152
330
2D
100
AcDbEntity
  8
Hawa1
 62
     2
 48
0.044543
100
AcDbLine
 10
76.242056
 20
157.878826
 30
0.0
 11
76.242056
 21
159.660557
 31
0.0
  0
LINE
  5
153
330
2D
100
AcDbEntity
  8
Hawa1
 62
     2
 48
0.489362
100
AcDbLine
 10
98.50000000000001
 20
133.4
 30
0.0
 11
78.925507
 21
133.4
 31
0.0
  0
LINE
  5
154
330
2D
100
AcDbEntity
  8
Hawa1
 62
     2
 48
0.489362
100
AcDbLine
 10
98.50000000000001
 20
139.6
 30
0.0
 11
78.925507
 21
139.6
 31
0.0
  0
LINE
  5
155
330
2D
100
AcDbEntity
  8
Hawa1
 62
     2
 48
0.075
100
AcDbLine
 10
78.864847
 20
140.66066
 30
0.0
 11
80.98616599999999
 21
138.53934
 31
0.0
  0
LINE
  5
156
330
2D
100
AcDbEntity
  8
Hawa1
 62
     2
 48
0.075
100
AcDbLine
 10
80.98616599999999
 20
132.33934
 30
0.0
 11
78.864847
 21
134.46066
 31
0.0
  0
LINE
  5
157
330
2D
100
AcDbEntity
  8
Hawa1
 62
     2
100
AcDbLine
 10
79.92550699999999
 20
133.4
 30
0.0
 11
79.92550699999999
 21
162.227223
 31
0.0
  0
ENDBLK
  5
158
330
2D
100
AcDbEntity
  8
Hawa2
 62
     9
100
AcDbBlockEnd
  0
BLOCK
  5
159
330
10F
100
AcDbEntity
  8
Hawa2
 62
     9
100
AcDbBlockBegin
  2
BLOCK0
 70
     0
 10
0.0
 20
0.0
 30
0.0
  3
BLOCK0
  1

  0
LINE
  5
15A
330
10F
100
AcDbEntity
  8
Hawa2
 62
     9
 48
0.054178
100
AcDbLine
 10
25.455845
 20
0.0
 30
0.0
 11
26.988216
 21
1.532372999999999
 31
0.0
  0
LINE
  5
15B
330
10F
100
AcDbEntity
  8
Hawa2
 62
     9
 48
0.127493
100
AcDbLine
 10
22.627417
 20
0.0
 30
0.0
 11
26.233461
 21
3.606044999999999
 31
0.0
  0
LINE
  5
15C
330
10F
100
AcDbEntity
  8
Hawa2
 62
     9
 48
0.070711
100
AcDbLine
 10
19.79899
 20
0.0
 30
0.0
 11
21.79899
 21
2.0
 31
0.0
  0
LINE
  5
15D
330
10F
100
AcDbEntity
  8
Hawa2
 62
     9
 48
0.096474
100
AcDbLine
 10
22.75
 20
2.951009999999999
 30
0.0
 11
25.478706
 21
5.679718
 31
0.0
  0
LINE
  5
15E
330
10F
100
AcDbEntity
  8
Hawa2
 62
     9
 48
0.064139
100
AcDbLine
 10
22.695873
 20
5.725311
 30
0.0
 11
24.509995
 21
7.539432999999999
 31
0.0
  0
LINE
  5
15F
330
10F
100
AcDbEntity
  8
Hawa2
 62
     9
 48
0.070711
100
AcDbLine
 10
20.142136
 20
6.0
 30
0.0
 11
22.142134
 21
7.999999
 31
0.0
  0
LINE
  5
160
330
10F
100
AcDbEntity
  8
Hawa2
 62
     9
 48
0.070711
100
AcDbLine
 10
17.313709
 20
6.0
 30
0.0
 11
19.313704
 21
7.999996
 31
0.0
  0
LINE
  5
161
330
10F
100
AcDbEntity
  8
Hawa2
 62
     9
 48
0.009359
100
AcDbLine
 10
8.485281
 20
0.0
 30
0.0
 11
8.75
 21
0.264719
 31
0.0
  0
LINE
  5
162
330
10F
100
AcDbEntity
  8
Hawa2
 62
     9
 48
0.07071
100
AcDbLine
 10
14.485281
 20
6.0
 30
0.0
 11
16.485273
 21
7.999991999999999
 31
0.0
  0
LINE
  5
163
330
10F
100
AcDbEntity
  8
Hawa2
 62
     9
 48
0.009214
100
AcDbLine
 10
-0.301879
 20
-5.958733999999999
 30
0.0
 11
-0.041266
 21
-5.698120999999999
 31
0.0
  0
LINE
  5
164
330
10F
100
AcDbEntity
  8
Hawa2
 62
     9
 48
0.070711
100
AcDbLine
 10
5.656854
 20
0.0
 30
0.0
 11
7.656853999999999
 21
2.0
 31
0.0
  0
LINE
  5
165
330
10F
100
AcDbEntity
  8
Hawa2
 62
     9
 48
0.07071
100
AcDbLine
 10
11.656855
 20
6.0
 30
0.0
 11
13.656843
 21
7.999989
 31
0.0
  0
LINE
  5
166
330
10F
100
AcDbEntity
  8
Hawa2
 62
     9
 48
0.073241
100
AcDbLine
 10
-6.071572999999999
 20
-8.9
 30
0.0
 11
-4.0
 21
-6.828427
 31
0.0
  0
LINE
  5
167
330
10F
100
AcDbEntity
  8
Hawa2
 62
     9
 48
0.112132
100
AcDbLine
 10
-3.171572999999999
 20
-6.0
 30
0.0
 11
0.0
 21
-2.828426999999999
 31
0.0
  0
LINE
  5
168
330
10F
100
AcDbEntity
  8
Hawa2
 62
     9
 48
0.085824
100
AcDbLine
 10
2.828426999999999
 20
0.0
 30
0.0
 11
5.255897
 21
2.42747
 31
0.0
  0
LINE
  5
169
330
10F
100
AcDbEntity
  8
Hawa2
 62
     9
 48
0.07071
100
AcDbLine
 10
8.828426999999999
 20
6.0
 30
0.0
 11
10.828413
 21
7.999985999999999
 31
0.0
  0
LINE
  5
16A
330
10F
100
AcDbEntity
  8
Hawa2
 62
     9
 48
0.212116
100
AcDbLine
 10
-6.49954
 20
-6.49954
 30
0.0
 11
-0.5
 21
-0.5
 31
0.0
  0
LINE
  5
16B
330
10F
100
AcDbEntity
  8
Hawa2
 62
     9
 48
0.167938
100
AcDbLine
 10
0.5
 20
0.5
 30
0.0
 11
5.25
 21
5.25
 31
0.0
  0
LINE
  5
16C
330
10F
100
AcDbEntity
  8
Hawa2
 62
     9
 48
0.07071
100
AcDbLine
 10
6.0
 20
6.0
 30
0.0
 11
7.999982000000001
 21
7.999982000000001
 31
0.0
  0
LINE
  5
16D
330
10F
100
AcDbEntity
  8
Hawa2
 62
     9
 48
0.412633
100
AcDbLine
 10
-6.499481999999999
 20
-3.671055
 30
0.0
 11
5.171551999999999
 21
7.999978999999999
 31
0.0
  0
LINE
  5
16E
330
10F
100
AcDbEntity
  8
Hawa2
 62
     9
 48
0.312631
100
AcDbLine
 10
-6.499423999999999
 20
-0.84257
 30
0.0
 11
2.343121
 21
7.999975999999999
 31
0.0
  0
LINE
  5
16F
330
10F
100
AcDbEntity
  8
Hawa2
 62
     9
 48
0.141941
100
AcDbLine
 10
-4.5
 20
3.985280999999999
 30
0.0
 11
-0.485309
 21
7.999972
 31
0.0
  0
LINE
  5
170
330
10F
100
AcDbEntity
  8
Hawa2
 62
     9
 48
0.112627
100
AcDbLine
 10
-6.499308
 20
4.8144
 30
0.0
 11
-3.31374
 21
7.999969
 31
0.0
  0
LINE
  5
171
330
10F
100
AcDbEntity
  8
Hawa2
 62
     9
 48
0.012625
100
AcDbLine
 10
-6.499249999999999
 20
7.642885
 30
0.0
 11
-6.14217
 21
7.999966
 31
0.0
  0
ENDBLK
  5
172
330
10F
100
AcDbEntity
  8
Hawa2
 62
     9
100
AcDbBlockEnd
  0
BLOCK
  5
173
330
110
100
AcDbEntity
  8
Hawa2
 62
     9
100
AcDbBlockBegin
  2
BLOCK1
 70
     0
 10
0.0
 20
0.0
 30
0.0
  3
BLOCK1
  1

  0
LINE
  5
174
330
110
100
AcDbEntity
  8
Hawa2
 62
     9
 48
0.025305
100
AcDbLine
 10
-0.715729
 20
-29.0
 30
0.0
 11
0.0
 21
-28.284271
 31
0.0
  0
LINE
  5
175
330
110
100
AcDbEntity
  8
Hawa2
 62
     9
 48
0.125305
100
AcDbLine
 10
-3.544155999999999
 20
-29.0
 30
0.0
 11
0.0
 21
-25.455845
 31
0.0
  0
LINE
  5
176
330
110
100
AcDbEntity
  8
Hawa2
 62
     9
 48
0.225305
100
AcDbLine
 10
-6.372583
 20
-29.0
 30
0.0
 11
0.0
 21
-22.627417
 31
0.0
  0
LINE
  5
177
330
110
100
AcDbEntity
  8
Hawa2
 62
     9
 48
0.022961
100
AcDbLine
 10
-6.499944999999999
 20
-26.298935
 30
0.0
 11
-5.850505
 21
-25.649494
 31
0.0
  0
LINE
  5
178
330
110
100
AcDbEntity
  8
Hawa2
 62
     9
 48
0.159099
100
AcDbLine
 10
-4.5
 20
-24.29899
 30
0.0
 11
0.0
 21
-19.79899
 31
0.0
  0
LINE
  5
179
330
110
100
AcDbEntity
  8
Hawa2
 62
     9
 48
0.146204
100
AcDbLine
 10
-5.164718999999999
 20
-22.135281
 30
0.0
 11
-1.029437
 21
-18.0
 31
0.0
  0
LINE
  5
17A
330
110
100
AcDbEntity
  8
Hawa2
 62
     9
 48
0.096331
100
AcDbLine
 10
-6.499829
 20
-20.641964
 30
0.0
 11
-3.775167999999999
 21
-17.917303
 31
0.0
  0
LINE
  5
17B
330
110
100
AcDbEntity
  8
Hawa2
 62
     9
 48
0.08838
100
AcDbLine
 10
-6.499770999999999
 20
-17.81348
 30
0.0
 11
-4.0
 21
-15.313708
 31
0.0
  0
ENDBLK
  5
17C
330
110
100
AcDbEntity
  8
Hawa2
 62
     9
100
AcDbBlockEnd
  0
BLOCK
  5
17D
330
111
100
AcDbEntity
  8
Hawa2
 62
     9
100
AcDbBlockBegin
  2
BLOCK2
 70
     0
 10
0.0
 20
0.0
 30
0.0
  3
BLOCK2
  1

  0
LINE
  5
17E
330
111
100
AcDbEntity
  8
Hawa2
 62
     9
 48
0.050608
100
AcDbLine
 10
26.568584
 20
-29.99995800000001
 30
0.0
 11
27.999992
 21
-28.56855
 31
0.0
  0
LINE
  5
17F
330
111
100
AcDbEntity
  8
Hawa2
 62
     9
 48
0.150608
100
AcDbLine
 10
23.740158
 20
-29.999956
 30
0.0
 11
27.999992
 21
-25.740124
 31
0.0
  0
LINE
  5
180
330
111
100
AcDbEntity
  8
Hawa2
 62
     9
 48
0.250608
100
AcDbLine
 10
20.911734
 20
-29.999954
 30
0.0
 11
27.999992
 21
-22.911695
 31
0.0
  0
LINE
  5
181
330
111
100
AcDbEntity
  8
Hawa2
 62
     9
 48
0.038301
100
AcDbLine
 10
18.999981
 20
-29.083281
 30
0.0
 11
20.083292
 21
-27.999969
 31
0.0
  0
LINE
  5
182
330
111
100
AcDbEntity
  8
Hawa2
 62
     9
 48
0.092466
100
AcDbLine
 10
25.384663
 20
-22.698599
 30
0.0
 11
27.999992
 21
-20.083269
 31
0.0
  0
LINE
  5
183
330
111
100
AcDbEntity
  8
Hawa2
 62
     9
 48
0.070711
100
AcDbLine
 10
25.999992
 20
-19.254841
 30
0.0
 11
27.999992
 21
-17.254841
 31
0.0
  0
LINE
  5
184
330
111
100
AcDbEntity
  8
Hawa2
 62
     9
 48
0.070711
100
AcDbLine
 10
25.999992
 20
-16.426414
 30
0.0
 11
27.999992
 21
-14.426414
 31
0.0
  0
LINE
  5
185
330
111
100
AcDbEntity
  8
Hawa2
 62
     9
 48
0.070711
100
AcDbLine
 10
25.999992
 20
-13.597987
 30
0.0
 11
27.999992
 21
-11.597987
 31
0.0
  0
LINE
  5
186
330
111
100
AcDbEntity
  8
Hawa2
 62
     9
 48
0.070707
100
AcDbLine
 10
6.769605
 20
-29.999947
 30
0.0
 11
8.769491
 21
-28.000061
 31
0.0
  0
LINE
  5
187
330
111
100
AcDbEntity
  8
Hawa2
 62
     9
 48
0.070711
100
AcDbLine
 10
25.999992
 20
-10.76956
 30
0.0
 11
27.999992
 21
-8.76956
 31
0.0
  0
LINE
  5
188
330
111
100
AcDbEntity
  8
Hawa2
 62
     9
 48
0.070707
100
AcDbLine
 10
3.94118
 20
-29.999947
 30
0.0
 11
5.941063999999999
 21
-28.000061
 31
0.0
  0
LINE
  5
189
330
111
100
AcDbEntity
  8
Hawa2
 62
     9
 48
0.070711
100
AcDbLine
 10
25.999992
 20
-7.941132999999999
 30
0.0
 11
27.999992
 21
-5.941132999999999
 31
0.0
  0
LINE
  5
18A
330
111
100
AcDbEntity
  8
Hawa2
 62
     9
 48
0.140586
100
AcDbLine
 10
1.112754
 20
-29.999945
 30
0.0
 11
5.089133
 21
-26.023565
 31
0.0
  0
LINE
  5
18B
330
111
100
AcDbEntity
  8
Hawa2
 62
     9
 48
0.071582
100
AcDbLine
 10
25.975361
 20
-5.137337
 30
0.0
 11
27.999992
 21
-3.112706
 31
0.0
  0
LINE
  5
18C
330
111
100
AcDbEntity
  8
Hawa2
 62
     9
 48
0.11465
100
AcDbLine
 10
0.0
 20
-28.284271
 30
0.0
 11
3.242802999999999
 21
-25.041468
 31
0.0
  0
LINE
  5
18D
330
111
100
AcDbEntity
  8
Hawa2
 62
     9
 48
0.105778
100
AcDbLine
 10
25.00815
 20
-3.276121999999999
 30
0.0
 11
27.999992
 21
-0.284279
 31
0.0
  0
LINE
  5
18E
330
111
100
AcDbEntity
  8
Hawa2
 62
     9
 48
0.093517
100
AcDbLine
 10
0.0
 20
-25.455845
 30
0.0
 11
2.645064
 21
-22.81078
 31
0.0
  0
LINE
  5
18F
330
111
100
AcDbEntity
  8
Hawa2
 62
     9
 48
0.088388
100
AcDbLine
 10
22.955845
 20
-2.499999
 30
0.0
 11
25.455845
 21
0.0
 31
0.0
  0
LINE
  5
190
330
111
100
AcDbEntity
  8
Hawa2
 62
     9
 48
0.072384
100
AcDbLine
 10
0.0
 20
-22.627417
 30
0.0
 11
2.047324
 21
-20.580093
 31
0.0
  0
LINE
  5
191
330
111
100
AcDbEntity
  8
Hawa2
 62
     9
 48
0.088387
100
AcDbLine
 10
20.127462
 20
-2.499954999999999
 30
0.0
 11
22.627417
 21
0.0
 31
0.0
  0
LINE
  5
192
330
111
100
AcDbEntity
  8
Hawa2
 62
     9
 48
0.07071
100
AcDbLine
 10
0.0
 20
-19.79899
 30
0.0
 11
1.999984999999999
 21
-17.799006
 31
0.0
  0
LINE
  5
193
330
111
100
AcDbEntity
  8
Hawa2
 62
     9
 48
0.088385
100
AcDbLine
 10
17.299078
 20
-2.499911999999999
 30
0.0
 11
19.79899
 21
0.0
 31
0.0
  0
LINE
  5
194
330
111
100
AcDbEntity
  8
Hawa2
 62
     9
 48
0.07071
100
AcDbLine
 10
0.0
 20
-16.970562
 30
0.0
 11
1.999984999999999
 21
-14.970578
 31
0.0
  0
LINE
  5
195
330
111
100
AcDbEntity
  8
Hawa2
 62
     9
 48
0.03078
100
AcDbLine
 10
16.099974
 20
-0.8705879999999998
 30
0.0
 11
16.970562
 21
0.0
 31
0.0
  0
LINE
  5
196
330
111
100
AcDbEntity
  8
Hawa2
 62
     9
 48
0.07071
100
AcDbLine
 10
0.0
 20
-14.142136
 30
0.0
 11
1.999984999999999
 21
-12.142151
 31
0.0
  0
LINE
  5
197
330
111
100
AcDbEntity
  8
Hawa2
 62
     9
 48
0.009112
100
AcDbLine
 10
11.642235
 20
-2.499899999999999
 30
0.0
 11
11.899975
 21
-2.242160999999999
 31
0.0
  0
LINE
  5
198
330
111
100
AcDbEntity
  8
Hawa2
 62
     9
 48
0.07071
100
AcDbLine
 10
0.0
 20
-11.313708
 30
0.0
 11
1.999984999999999
 21
-9.313724
 31
0.0
  0
LINE
  5
199
330
111
100
AcDbEntity
  8
Hawa2
 62
     9
 48
0.088385
100
AcDbLine
 10
8.813803999999999
 20
-2.499905
 30
0.0
 11
11.313708
 21
0.0
 31
0.0
  0
LINE
  5
19A
330
111
100
AcDbEntity
  8
Hawa2
 62
     9
 48
0.07071
100
AcDbLine
 10
0.0
 20
-8.485281
 30
0.0
 11
1.999984999999999
 21
-6.485297
 31
0.0
  0
LINE
  5
19B
330
111
100
AcDbEntity
  8
Hawa2
 62
     9
 48
0.088385
100
AcDbLine
 10
5.985371999999999
 20
-2.499909999999999
 30
0.0
 11
8.485281
 21
0.0
 31
0.0
  0
LINE
  5
19C
330
111
100
AcDbEntity
  8
Hawa2
 62
     9
 48
0.2
100
AcDbLine
 10
0.0
 20
-5.656854
 30
0.0
 11
5.656854
 21
0.0
 31
0.0
  0
LINE
  5
19D
330
111
100
AcDbEntity
  8
Hawa2
 62
     9
 48
0.1
100
AcDbLine
 10
0.0
 20
-2.828426999999999
 30
0.0
 11
2.828426999999999
 21
0.0
 31
0.0
  0
ENDBLK
  5
19E
330
111
100
AcDbEntity
  8
Hawa2
 62
     9
100
AcDbBlockEnd
  0
BLOCK
  5
19F
330
112
100
AcDbEntity
  8
Hawa2
 62
     9
100
AcDbBlockBegin
  2
BLOCK3
 70
     0
 10
0.0
 20
0.0
 30
0.0
  3
BLOCK3
  1

  0
LINE
  5
1A0
330
112
100
AcDbEntity
  8
Hawa2
 62
     9
 48
0.080925
100
AcDbLine
 10
-6.5
 20
-0.8431459999999999
 30
0.0
 11
-4.211082
 21
1.445771999999999
 31
0.0
  0
LINE
  5
1A1
330
112
100
AcDbEntity
  8
Hawa2
 62
     9
 48
0.080925
100
AcDbLine
 10
-6.5
 20
1.985281
 30
0.0
 11
-4.211082
 21
4.274198999999999
 31
0.0
  0
LINE
  5
1A2
330
112
100
AcDbEntity
  8
Hawa2
 62
     9
 48
0.047125
100
AcDbLine
 10
-6.5
 20
4.813708
 30
0.0
 11
-5.167117
 21
6.146590999999999
 31
0.0
  0
ENDBLK
  5
1A3
330
112
100
AcDbEntity
  8
Hawa2
 62
     9
100
AcDbBlockEnd
  0
BLOCK
  5
1A4
330
113
100
AcDbEntity
  8
Hawa2
 62
     9
100
AcDbBlockBegin
  2
BLOCK4
 70
     0
 10
0.0
 20
0.0
 30
0.0
  3
BLOCK4
  1

  0
LINE
  5
1A5
330
113
100
AcDbEntity
  8
Hawa2
 62
     9
 48
0.016723
100
AcDbLine
 10
-4.684091
 20
-27.311508
 30
0.0
 11
-4.211082
 21
-26.838499
 31
0.0
  0
LINE
  5
1A6
330
113
100
AcDbEntity
  8
Hawa2
 62
     9
 48
0.080925
100
AcDbLine
 10
-6.5
 20
-26.29899
 30
0.0
 11
-4.211082
 21
-24.010073
 31
0.0
  0
LINE
  5
1A7
330
113
100
AcDbEntity
  8
Hawa2
 62
     9
 48
0.080925
100
AcDbLine
 10
-6.5
 20
-23.470562
 30
0.0
 11
-4.211082
 21
-21.181644
 31
0.0
  0
LINE
  5
1A8
330
113
100
AcDbEntity
  8
Hawa2
 62
     9
 48
0.013683
100
AcDbLine
 10
-6.5
 20
-20.642136
 30
0.0
 11
-6.112991
 21
-20.255127
 31
0.0
  0
ENDBLK
  5
1A9
330
113
100
AcDbEntity
  8
Hawa2
 62
     9
100
AcDbBlockEnd
  0
ENDSEC
  0
SECTION
  2
ENTITIES
  0
DIMENSION
  5
26
330
A
100
AcDbEntity
  8
Hawa2
 62
     9
100
AcDbDimension
  2
*D0
 10
67.05792599999999
 20
119.5
 30
0.0
 11
67.05792599999999
 21
138.738592
 31
0.0
 70
   161
 71
     5
 42
-1.0
 52
89.999523
  3
STANDARD
100
AcDbAlignedDimension
 13
98.50075699999999
 23
156.499801
 33
0.0
 14
98.50075699999999
 24
119.5
 34
0.0
  0
DIMENSION
  5
28
330
A
100
AcDbEntity
  8
Hawa2
 62
     9
100
AcDbDimension
  2
*D1
 10
132.0
 20
163.924851
 30
0.0
 11
115.293562
 21
163.924851
 31
0.0
 70
   160
 71
     5
 42
-1.0
 52
89.999523
  3
STANDARD
100
AcDbAlignedDimension
 13
98.50075699999999
 23
164.444727
 33
0.0
 14
132.0
 24
150.0
 34
0.0
 50
359.998092
100
AcDbRotatedDimension
  0
DIMENSION
  5
2A
330
A
100
AcDbEntity
  8
Hawa2
 62
     9
100
AcDbDimension
  2
*D2
 10
118.999922
 20
99.45729100000001
 30
0.0
 11
130.997535
 21
99.45729100000001
 31
0.0
 70
   160
 71
     5
 42
-1.0
 52
89.999523
  3
STANDARD
100
AcDbAlignedDimension
 13
98.50000000000001
 23
102.86129
 33
0.0
 14
118.999922
 24
102.09584
 34
0.0
 50
359.998092
100
AcDbRotatedDimension
  0
DIMENSION
  5
2C
330
A
100
AcDbEntity
  8
Hawa2
 62
     9
100
AcDbDimension
  2
*D3
 10
98.50075699999999
 20
105.551067
 30
0.0
 11
88.686026
 21
105.551067
 31
0.0
 70
   160
 71
     5
 42
-1.0
 52
89.999523
  3
STANDARD
100
AcDbAlignedDimension
 13
105.0
 23
118.500031
 33
0.0
 14
98.50075699999999
 24
109.131931
 34
0.0
 50
179.999046
100
AcDbRotatedDimension
  0
DIMENSION
  5
2E
330
A
100
AcDbEntity
  8
Hawa2
 62
     9
100
AcDbDimension
  2
*D4
 10
79.92550699999999
 20
139.6
 30
0.0
 11
79.92550699999999
 21
152.2636639999999
 31
0.0
 70
   161
  1
%%c<>
 71
     5
 42
-1.0
 52
89.999523
  3
STANDARD
100
AcDbAlignedDimension
 13
98.50000000000001
 23
133.4
 33
0.0
 14
98.50000000000001
 24
139.6
 34
0.0
  0
LINE
  5
2F
330
A
100
AcDbEntity
  8
Hawa4
 62
     4
 48
0.19375
100
AcDbLine
 10
132.0
 20
148.5
 30
0.0
 11
124.25
 21
148.5
 31
0.0
  0
LINE
  5
30
330
A
100
AcDbEntity
  8
Hawa4
 62
     4
 48
0.096893
100
AcDbLine
 10
105.0
 20
146.875736
 30
0.0
 11
105.0
 21
143.0
 31
0.0
  0
LINE
  5
31
330
A
100
AcDbEntity
  8
Hawa4
 62
     4
100
AcDbLine
 10
98.50000000000001
 20
156.499965
 30
0.0
 11
98.50000000000001
 21
119.5
 31
0.0
  0
LINE
  5
32
330
A
100
AcDbEntity
  8
Hawa4
 62
     4
 48
0.081893
100
AcDbLine
 10
98.50000000000001
 20
122.775736
 30
0.0
 11
98.50000000000001
 21
119.5
 31
0.0
  0
LINE
  5
33
330
A
100
AcDbEntity
  8
Hawa4
 62
     4
 48
0.13
100
AcDbLine
 10
101.0
 20
142.0
 30
0.0
 11
101.0
 21
136.8
 31
0.0
  0
LINE
  5
34
330
A
100
AcDbEntity
  8
Hawa4
 62
     4
 48
0.137919
100
AcDbLine
 10
132.0
 20
150.0
 30
0.0
 11
130.113163
 21
155.184041
 31
0.0
  0
LINE
  5
35
330
A
100
AcDbEntity
  8
Hawa4
 62
     4
 48
0.075
100
AcDbLine
 10
104.5
 20
142.5
 30
0.0
 11
101.5
 21
142.5
 31
0.0
  0
LINE
  5
36
330
A
100
AcDbEntity
  8
Hawa4
 62
     4
 48
0.0375
100
AcDbLine
 10
132.0
 20
150.0
 30
0.0
 11
132.0
 21
148.5
 31
0.0
  0
LINE
  5
37
330
A
100
AcDbEntity
  8
Hawa4
 62
     4
 48
0.178143
100
AcDbLine
 10
113.75
 20
148.5
 30
0.0
 11
106.624264
 21
148.5
 31
0.0
  0
LINE
  5
38
330
A
100
AcDbEntity
  8
Hawa4
 62
     4
 48
0.1625
100
AcDbLine
 10
105.0
 20
119.5
 30
0.0
 11
98.50000000000001
 21
119.5
 31
0.0
  0
LINE
  5
3A
330
A
100
AcDbEntity
  8
Hawa4
 62
     4
100
AcDbLine
 10
128.233776
 20
156.5
 30
0.0
 11
98.50000000000001
 21
156.499965
 31
0.0
  0
LINE
  5
3B
330
A
100
AcDbEntity
  8
Hawa4
 62
     4
 48
0.075
100
AcDbLine
 10
104.5
 20
130.5
 30
0.0
 11
101.5
 21
130.5
 31
0.0
  0
LINE
  5
3C
330
A
100
AcDbEntity
  8
Hawa4
 62
     4
 48
0.0625
100
AcDbLine
 10
113.25
 20
150.5
 30
0.0
 11
110.75
 21
150.5
 31
0.0
  0
LINE
  5
3D
330
A
100
AcDbEntity
  8
Hawa4
 62
     4
 48
0.075
100
AcDbLine
 10
127.75
 20
154.0
 30
0.0
 11
127.75
 21
151.0
 31
0.0
  0
LINE
  5
3E
330
A
100
AcDbEntity
  8
Hawa4
 62
     4
 48
0.4125
100
AcDbLine
 10
127.25
 20
154.5
 30
0.0
 11
110.75
 21
154.5
 31
0.0
  0
LINE
  5
3F
330
A
100
AcDbEntity
  8
Hawa4
 62
     4
 48
0.0625
100
AcDbLine
 10
127.25
 20
150.5
 30
0.0
 11
124.75
 21
150.5
 31
0.0
  0
LINE
  5
40
330
A
100
AcDbEntity
  8
Hawa4
 62
     4
 48
0.081893
100
AcDbLine
 10
98.50000000000001
 20
156.499965
 30
0.0
 11
98.50000000000001
 21
153.224229
 31
0.0
  0
LINE
  5
41
330
A
100
AcDbEntity
  8
Hawa4
 62
     4
 48
0.075
100
AcDbLine
 10
110.25
 20
154.0
 30
0.0
 11
110.25
 21
151.0
 31
0.0
  0
LINE
  5
42
330
A
100
AcDbEntity
  8
Hawa4
 62
     4
 48
0.0375
100
AcDbLine
 10
124.25
 20
150.0
 30
0.0
 11
124.25
 21
148.5
 31
0.0
  0
LINE
  5
43
330
A
100
AcDbEntity
  8
Hawa4
 62
     4
 48
0.0375
100
AcDbLine
 10
113.75
 20
150.0
 30
0.0
 11
113.75
 21
148.5
 31
0.0
  0
LINE
  5
44
330
A
100
AcDbEntity
  8
Hawa4
 62
     4
 48
0.18
100
AcDbLine
 10
105.0
 20
130.0
 30
0.0
 11
105.0
 21
122.799999
 31
0.0
  0
LINE
  5
45
330
A
100
AcDbEntity
  8
Hawa1
 62
     2
 48
0.000002
100
AcDbLine
 10
111.5
 20
161.900017
 30
0.0
 11
111.5
 21
161.899952
 31
0.0
  0
LINE
  5
46
330
A
100
AcDbEntity
  8
Hawa5
 62
     1
 48
0.0625
100
AcDbLine
 10
101.0
 20
139.6
 30
0.0
 11
98.50000000000001
 21
139.6
 31
0.0
  0
LINE
  5
47
330
A
100
AcDbEntity
  8
Hawa5
 62
     1
 48
0.0625
100
AcDbLine
 10
101.0
 20
133.4
 30
0.0
 11
98.50000000000001
 21
133.4
 31
0.0
  0
LINE
  5
48
330
A
100
AcDbEntity
  8
Hawa4
 62
     4
 48
0.0675
100
AcDbLine
 10
105.0
 20
122.200001
 30
0.0
 11
105.0
 21
119.5
 31
0.0
  0
LINE
  5
49
330
A
100
AcDbEntity
  8
Hawa4
 62
     4
 48
0.010607
100
AcDbLine
 10
105.0
 20
122.799999
 30
0.0
 11
104.7
 21
122.5
 31
0.0
  0
LINE
  5
4A
330
A
100
AcDbEntity
  8
Hawa4
 62
     4
 48
0.010607
100
AcDbLine
 10
105.0
 20
122.200001
 30
0.0
 11
104.7
 21
122.5
 31
0.0
  0
LINE
  5
4B
330
A
100
AcDbEntity
  8
Hawa5
 62
     1
 48
0.010607
100
AcDbLine
 10
100.7
 20
136.5
 30
0.0
 11
101.0
 21
136.8
 31
0.0
  0
LINE
  5
4C
330
A
100
AcDbEntity
  8
Hawa5
 62
     1
 48
0.010607
100
AcDbLine
 10
100.7
 20
136.5
 30
0.0
 11
101.0
 21
136.2
 31
0.0
  0
LINE
  5
4D
330
A
100
AcDbEntity
  8
Hawa5
 62
     1
 48
0.13
100
AcDbLine
 10
101.0
 20
136.2
 30
0.0
 11
101.0
 21
131.0
 31
0.0
  0
LINE
  5
4E
330
A
100
AcDbEntity
  8
Hawa4
 62
     4
 48
0.026893
100
AcDbLine
 10
104.5
 20
148.7
 30
0.0
 11
104.5
 21
147.624264
 31
0.0
  0
LINE
  5
4F
330
A
100
AcDbEntity
  8
Hawa4
 62
     4
 48
0.026893
100
AcDbLine
 10
105.875736
 20
149.0
 30
0.0
 11
104.8
 21
149.0
 31
0.0
  0
LINE
  5
50
330
A
100
AcDbEntity
  8
Hawa4
  6
DASHDOT
 62
     4
 48
0.040607
100
AcDbLine
 10
106.624264
 20
148.5
 30
0.0
 11
105.0
 21
148.5
 31
0.0
  0
LINE
  5
51
330
A
100
AcDbEntity
  8
Hawa4
  6
DASHDOT
 62
     4
 48
0.040607
100
AcDbLine
 10
105.0
 20
148.5
 30
0.0
 11
105.0
 21
146.875736
 31
0.0
  0
LINE
  5
52
330
A
100
AcDbEntity
  8
Hawa4
 62
     4
 48
0.011464
100
AcDbLine
 10
106.412132
 20
148.587868
 30
0.0
 11
106.087868
 21
148.912132
 31
0.0
  0
LINE
  5
53
330
A
100
AcDbEntity
  8
Hawa4
 62
     4
 48
0.011464
100
AcDbLine
 10
104.912132
 20
147.087868
 30
0.0
 11
104.587868
 21
147.412132
 31
0.0
  0
LINE
  5
54
330
A
100
AcDbEntity
  8
Hawa6
 62
     3
 48
0.199998
100
AcDbLine
 10
123.999985
 20
126.499969
 30
0.0
 11
123.999985
 21
118.500031
 31
0.0
  0
LINE
  5
55
330
A
100
AcDbEntity
  8
Hawa6
 62
     3
 48
0.199998
100
AcDbLine
 10
113.999977
 20
126.499969
 30
0.0
 11
113.999977
 21
118.500031
 31
0.0
  0
LINE
  5
56
330
A
100
AcDbEntity
  8
Hawa6
 62
     3
 48
0.150001
100
AcDbLine
 10
110.999985
 20
139.5
 30
0.0
 11
110.999985
 21
145.500031
 31
0.0
  0
LINE
  5
57
330
A
100
AcDbEntity
  8
Hawa6
  6
DASHED
 62
     3
 48
0.375
100
AcDbLine
 10
115.799988
 20
139.500078
 30
0.0
 11
115.799988
 21
124.500061
 31
0.0
  0
LINE
  5
58
330
A
100
AcDbEntity
  8
Hawa6
  6
DASHED
 62
     3
 48
0.2
100
AcDbLine
 10
114.999985
 20
138.699982
 30
0.0
 11
122.999985
 21
138.699982
 31
0.0
  0
LINE
  5
59
330
A
100
AcDbEntity
  8
Hawa6
  6
DASHED
 62
     3
 48
0.375001
100
AcDbLine
 10
122.999985
 20
124.500061
 30
0.0
 11
122.999985
 21
139.500089
 31
0.0
  0
LINE
  5
5A
330
A
100
AcDbEntity
  8
Hawa6
  6
DASHED
 62
     3
 48
0.375001
100
AcDbLine
 10
122.200005
 20
124.500061
 30
0.0
 11
122.200005
 21
139.500092
 31
0.0
  0
LINE
  5
5B
330
A
100
AcDbEntity
  8
Hawa6
  6
DASHED
 62
     3
 48
0.375
100
AcDbLine
 10
114.999985
 20
124.500061
 30
0.0
 11
114.999985
 21
139.500077
 31
0.0
  0
LINE
  5
5C
330
A
100
AcDbEntity
  8
Hawa6
 62
     3
 48
0.028287
100
AcDbLine
 10
114.999971
 20
138.699893
 30
0.0
 11
115.799983
 21
139.500021
 31
0.0
  0
LINE
  5
5D
330
A
100
AcDbEntity
  8
Hawa6
 62
     3
 48
0.028286
100
AcDbLine
 10
122.99995
 20
138.699536
 30
0.0
 11
122.199968
 21
139.49965
 31
0.0
  0
LINE
  5
5E
330
A
100
AcDbEntity
  8
Hawa4
 62
     4
 48
0.225
100
AcDbLine
 10
132.999992
 20
118.500031
 30
0.0
 11
123.999985
 21
118.500031
 31
0.0
  0
LINE
  5
5F
330
A
100
AcDbEntity
  8
Hawa4
 62
     4
 48
0.45
100
AcDbLine
 10
128.000032
 20
146.000119
 30
0.0
 11
110.000039
 21
146.0000879999999
 31
0.0
  0
LINE
  5
60
330
A
100
AcDbEntity
  8
Hawa4
 62
     4
 48
0.035
100
AcDbLine
 10
129.499992
 20
122.500061
 30
0.0
 11
128.099976
 21
122.500061
 31
0.0
  0
LINE
  5
61
330
A
100
AcDbEntity
  8
Hawa4
 62
     4
100
AcDbLine
 10
132.999992
 20
148.5
 30
0.0
 11
132.999992
 21
118.500031
 31
0.0
  0
LINE
  5
62
330
A
100
AcDbEntity
  8
Hawa4
 62
     4
 48
0.0825
100
AcDbLine
 10
127.299973
 20
120.500031
 30
0.0
 11
123.999985
 21
120.500031
 31
0.0
  0
LINE
  5
63
330
A
100
AcDbEntity
  8
Hawa4
 62
     4
100
AcDbLine
 10
105.0
 20
148.5
 30
0.0
 11
105.0
 21
118.500031
 31
0.0
  0
LINE
  5
64
330
A
100
AcDbEntity
  8
Hawa4
 62
     4
 48
0.372548
100
AcDbLine
 10
106.999985
 20
143.0
 30
0.0
 11
106.999985
 21
128.098083
 31
0.0
  0
LINE
  5
65
330
A
100
AcDbEntity
  8
Hawa6
 62
     3
 48
0.150001
100
AcDbLine
 10
123.999985
 20
145.500031
 30
0.0
 11
123.999985
 21
139.5
 31
0.0
  0
LINE
  5
66
330
A
100
AcDbEntity
  8
Hawa4
 62
     4
 48
0.372548
100
AcDbLine
 10
130.999992
 20
143.0
 30
0.0
 11
130.999992
 21
128.098083
 31
0.0
  0
LINE
  5
67
330
A
100
AcDbEntity
  8
Hawa6
 62
     3
 48
0.150001
100
AcDbLine
 10
113.999977
 20
145.500031
 30
0.0
 11
113.999977
 21
139.5
 31
0.0
  0
LINE
  5
68
330
A
100
AcDbEntity
  8
Hawa4
 62
     4
 48
0.030002
100
AcDbLine
 10
110.700012
 20
121.700012
 30
0.0
 11
110.700012
 21
120.499939
 31
0.0
  0
LINE
  5
69
330
A
100
AcDbEntity
  8
Hawa4
 62
     4
 48
0.224999
100
AcDbLine
 10
113.999977
 20
118.500031
 30
0.0
 11
105.0
 21
118.500031
 31
0.0
  0
LINE
  5
6A
330
A
100
AcDbEntity
  8
Hawa4
 62
     4
 48
0.03
100
AcDbLine
 10
127.299973
 20
121.700012
 30
0.0
 11
127.299973
 21
120.500031
 31
0.0
  0
LINE
  5
6B
330
A
100
AcDbEntity
  8
Hawa4
 62
     4
 48
0.082499
100
AcDbLine
 10
113.999977
 20
120.499939
 30
0.0
 11
110.700012
 21
120.499939
 31
0.0
  0
LINE
  5
6C
330
A
100
AcDbEntity
  8
Hawa4
 62
     4
 48
0.144888
100
AcDbLine
 10
108.499822
 20
122.499372
 30
0.0
 11
106.999767
 21
128.097385
 31
0.0
  0
LINE
  5
6D
330
A
100
AcDbEntity
  8
Hawa4
 62
     4
 48
0.144889
100
AcDbLine
 10
131.000111
 20
128.098324
 30
0.0
 11
129.500132
 21
122.500221
 31
0.0
  0
LINE
  5
6E
330
A
100
AcDbEntity
  8
Hawa4
 62
     4
 48
0.034999
100
AcDbLine
 10
109.89994
 20
122.499969
 30
0.0
 11
108.499992
 21
122.499969
 31
0.0
  0
LINE
  5
6F
330
A
100
AcDbEntity
  8
Hawa6
 62
     3
 48
0.150001
100
AcDbLine
 10
110.999985
 20
120.499939
 30
0.0
 11
110.999985
 21
126.499969
 31
0.0
  0
LINE
  5
70
330
A
100
AcDbEntity
  8
Hawa6
 62
     3
 48
0.075
100
AcDbLine
 10
126.999985
 20
145.500031
 30
0.0
 11
123.999985
 21
145.500031
 31
0.0
  0
LINE
  5
71
330
A
100
AcDbEntity
  8
Hawa6
 62
     3
100
AcDbLine
 10
129.749977
 20
139.500098
 30
0.0
 11
108.249973
 21
139.500068
 31
0.0
  0
LINE
  5
72
330
A
100
AcDbEntity
  8
Hawa6
 62
     3
 48
0.325001
100
AcDbLine
 10
129.749992
 20
126.499969
 30
0.0
 11
129.749992
 21
139.5
 31
0.0
  0
LINE
  5
73
330
A
100
AcDbEntity
  8
Hawa6
 62
     3
 48
0.150001
100
AcDbLine
 10
126.999985
 20
139.5
 30
0.0
 11
126.999985
 21
145.500031
 31
0.0
  0
LINE
  5
74
330
A
100
AcDbEntity
  8
Hawa4
 62
     4
 48
0.2975
100
AcDbLine
 10
132.999992
 20
148.5
 30
0.0
 11
121.099974
 21
148.5
 31
0.0
  0
LINE
  5
75
330
A
100
AcDbEntity
  8
Hawa6
 62
     3
 48
0.325001
100
AcDbLine
 10
108.249985
 20
126.499969
 30
0.0
 11
108.249985
 21
139.5
 31
0.0
  0
LINE
  5
76
330
A
100
AcDbEntity
  8
Hawa6
 62
     3
 48
0.075
100
AcDbLine
 10
113.999977
 20
145.500031
 30
0.0
 11
110.999985
 21
145.500031
 31
0.0
  0
LINE
  5
77
330
A
100
AcDbEntity
  8
Hawa6
 62
     3
 48
0.149998
100
AcDbLine
 10
126.999985
 20
120.500031
 30
0.0
 11
126.999985
 21
126.499969
 31
0.0
  0
LINE
  5
78
330
A
100
AcDbEntity
  8
Hawa5
  6
DASHDOT
 62
     1
100
AcDbLine
 10
130.449362
 20
133.00003
 30
0.0
 11
107.599028
 21
132.999999
 31
0.0
  0
LINE
  5
79
330
A
100
AcDbEntity
  8
Hawa6
 62
     3
 48
0.25
100
AcDbLine
 10
123.999985
 20
141.500031
 30
0.0
 11
113.999977
 21
141.500031
 31
0.0
  0
LINE
  5
7A
330
A
100
AcDbEntity
  8
Hawa6
 62
     3
100
AcDbLine
 10
129.749964
 20
126.500086
 30
0.0
 11
108.249953
 21
126.500055
 31
0.0
  0
LINE
  5
7B
330
A
100
AcDbEntity
  8
Hawa6
 62
     3
 48
0.25
100
AcDbLine
 10
123.999985
 20
124.500061
 30
0.0
 11
113.999977
 21
124.500061
 31
0.0
  0
LINE
  5
7C
330
A
100
AcDbEntity
  8
Hawa6
 62
     3
 48
0.05
100
AcDbLine
 10
127.499985
 20
153.0
 30
0.0
 11
127.499985
 21
151.0
 31
0.0
  0
LINE
  5
7D
330
A
100
AcDbEntity
  8
Hawa6
 62
     3
 48
0.1225
100
AcDbLine
 10
115.899984
 20
150.5
 30
0.0
 11
110.999985
 21
150.5
 31
0.0
  0
LINE
  5
7E
330
A
100
AcDbEntity
  8
Hawa6
  6
DASHED
 62
     3
 48
0.155
100
AcDbLine
 10
122.099985
 20
150.5
 30
0.0
 11
115.899984
 21
150.5
 31
0.0
  0
LINE
  5
7F
330
A
100
AcDbEntity
  8
Hawa6
  6
DASHED
 62
     3
 48
0.12
100
AcDbLine
 10
120.999985
 20
148.7
 30
0.0
 11
120.999985
 21
153.5
 31
0.0
  0
LINE
  5
80
330
A
100
AcDbEntity
  8
Hawa6
  6
DASHED
 62
     3
 48
0.12
100
AcDbLine
 10
116.999985
 20
148.7
 30
0.0
 11
116.999985
 21
153.5
 31
0.0
  0
LINE
  5
81
330
A
100
AcDbEntity
  8
Hawa6
  6
DASHED
 62
     3
 48
0.12
100
AcDbLine
 10
120.570485
 20
153.5
 30
0.0
 11
120.570485
 21
148.7
 31
0.0
  0
LINE
  5
82
330
A
100
AcDbEntity
  8
Hawa6
 62
     3
 48
0.0325
100
AcDbLine
 10
116.399984
 20
150.0
 30
0.0
 11
116.399984
 21
148.7
 31
0.0
  0
LINE
  5
83
330
A
100
AcDbEntity
  8
Hawa6
  6
DASHED
 62
     3
 48
0.12
100
AcDbLine
 10
117.429484
 20
153.5
 30
0.0
 11
117.429484
 21
148.7
 31
0.0
  0
LINE
  5
84
330
A
100
AcDbEntity
  8
Hawa6
 62
     3
 48
0.1225
100
AcDbLine
 10
126.999985
 20
150.5
 30
0.0
 11
122.099985
 21
150.5
 31
0.0
  0
LINE
  5
85
330
A
100
AcDbEntity
  8
Hawa6
 62
     3
 48
0.4
100
AcDbLine
 10
126.999985
 20
153.5
 30
0.0
 11
110.999985
 21
153.5
 31
0.0
  0
LINE
  5
86
330
A
100
AcDbEntity
  8
Hawa6
 62
     3
 48
0.05
100
AcDbLine
 10
110.499985
 20
153.0
 30
0.0
 11
110.499985
 21
151.0
 31
0.0
  0
LINE
  5
87
330
A
100
AcDbEntity
  8
Hawa6
 62
     3
 48
0.13
100
AcDbLine
 10
121.599985
 20
148.7
 30
0.0
 11
116.399984
 21
148.7
 31
0.0
  0
LINE
  5
88
330
A
100
AcDbEntity
  8
Hawa6
 62
     3
 48
0.0325
100
AcDbLine
 10
121.599985
 20
150.0
 30
0.0
 11
121.599985
 21
148.7
 31
0.0
  0
LINE
  5
89
330
A
100
AcDbEntity
  8
Hawa6
  6
DASHED
 62
     3
 48
0.007852
100
AcDbLine
 10
118.842935
 20
146.000104
 30
0.0
 11
118.842935
 21
146.314204
 31
0.0
  0
LINE
  5
8A
330
A
100
AcDbEntity
  8
Hawa6
  6
DASHED
 62
     3
 48
0.007852
100
AcDbLine
 10
119.157035
 20
146.314204
 30
0.0
 11
119.157035
 21
146.000104
 31
0.0
  0
LINE
  5
8B
330
A
100
AcDbEntity
  8
Hawa6
 62
     3
 48
0.013151
100
AcDbLine
 10
116.999985
 20
153.696401
 30
0.0
 11
117.429484
 21
154.000103
 31
0.0
  0
LINE
  5
8C
330
A
100
AcDbEntity
  8
Hawa6
 62
     3
 48
0.013151
100
AcDbLine
 10
120.570485
 20
154.000103
 30
0.0
 11
120.999985
 21
153.696401
 31
0.0
  0
LINE
  5
8D
330
A
100
AcDbEntity
  8
Hawa6
 62
     3
 48
0.014997
100
AcDbLine
 10
116.999985
 20
148.100104
 30
0.0
 11
116.999985
 21
148.7
 31
0.0
  0
LINE
  5
8E
330
A
100
AcDbEntity
  8
Hawa6
 62
     3
 48
0.00491
100
AcDbLine
 10
120.999985
 20
153.696401
 30
0.0
 11
120.999985
 21
153.5
 31
0.0
  0
LINE
  5
8F
330
A
100
AcDbEntity
  8
Hawa6
 62
     3
 48
0.026826
100
AcDbLine
 10
117.221223
 20
147.050104
 30
0.0
 11
116.999985
 21
148.100104
 31
0.0
  0
LINE
  5
90
330
A
100
AcDbEntity
  8
Hawa6
 62
     3
 48
0.026826
100
AcDbLine
 10
120.999985
 20
148.100104
 30
0.0
 11
120.778747
 21
147.050104
 31
0.0
  0
LINE
  5
91
330
A
100
AcDbEntity
  8
Hawa6
 62
     3
 48
0.020604
100
AcDbLine
 10
116.975863
 20
146.263296
 30
0.0
 11
117.221223
 21
147.050104
 31
0.0
  0
LINE
  5
92
330
A
100
AcDbEntity
  8
Hawa6
 62
     3
 48
0.020604
100
AcDbLine
 10
120.778747
 20
147.050104
 30
0.0
 11
121.024107
 21
146.263296
 31
0.0
  0
LINE
  5
93
330
A
100
AcDbEntity
  8
Hawa6
 62
     3
 48
0.050705
100
AcDbLine
 10
114.999985
 20
143.9719
 30
0.0
 11
114.999985
 21
146.000104
 31
0.0
  0
LINE
  5
94
330
A
100
AcDbEntity
  8
Hawa6
 62
     3
 48
0.050705
100
AcDbLine
 10
122.999985
 20
146.000104
 30
0.0
 11
122.999985
 21
143.9719
 31
0.0
  0
LINE
  5
95
330
A
100
AcDbEntity
  8
Hawa6
  6
DASHED
 62
     3
 48
0.007853
100
AcDbLine
 10
118.842935
 20
146.314204
 30
0.0
 11
119.157035
 21
146.314204
 31
0.0
  0
LINE
  5
96
330
A
100
AcDbEntity
  8
Hawa6
 62
     3
 48
0.078525
100
AcDbLine
 10
120.570485
 20
154.000103
 30
0.0
 11
117.429484
 21
154.000103
 31
0.0
  0
LINE
  5
97
330
A
100
AcDbEntity
  8
Hawa6
 62
     3
 48
0.1
100
AcDbLine
 10
120.999985
 20
153.696401
 30
0.0
 11
116.999985
 21
153.696401
 31
0.0
  0
LINE
  5
98
330
A
100
AcDbEntity
  8
Hawa6
 62
     3
 48
0.1
100
AcDbLine
 10
120.999985
 20
148.100104
 30
0.0
 11
116.999985
 21
148.100104
 31
0.0
  0
LINE
  5
99
330
A
100
AcDbEntity
  8
Hawa6
 62
     3
 48
0.088938
100
AcDbLine
 10
120.778747
 20
147.050104
 30
0.0
 11
117.221223
 21
147.050104
 31
0.0
  0
LINE
  5
9A
330
A
100
AcDbEntity
  8
Hawa6
 62
     3
 48
0.101206
100
AcDbLine
 10
121.024107
 20
146.263296
 30
0.0
 11
116.975863
 21
146.263296
 31
0.0
  0
LINE
  5
9B
330
A
100
AcDbEntity
  8
Hawa6
 62
     3
 48
0.2
100
AcDbLine
 10
122.999985
 20
146.000104
 30
0.0
 11
114.999985
 21
146.000104
 31
0.0
  0
LINE
  5
9C
330
A
100
AcDbEntity
  8
Hawa6
  6
DASHED
 62
     3
 48
0.029766
100
AcDbLine
 10
116.699985
 20
144.450104
 30
0.0
 11
116.699985
 21
143.259464
 31
0.0
  0
LINE
  5
9D
330
A
100
AcDbEntity
  8
Hawa6
  6
DASHED
 62
     3
 48
0.054423
100
AcDbLine
 10
118.424985
 20
145.778009
 30
0.0
 11
116.699985
 21
144.450104
 31
0.0
  0
LINE
  5
9E
330
A
100
AcDbEntity
  8
Hawa6
  6
DASHED
 62
     3
 48
0.02875
100
AcDbLine
 10
119.574985
 20
145.778009
 30
0.0
 11
118.424985
 21
145.778009
 31
0.0
  0
LINE
  5
9F
330
A
100
AcDbEntity
  8
Hawa6
  6
DASHED
 62
     3
 48
0.054423
100
AcDbLine
 10
121.299984
 20
144.450104
 30
0.0
 11
119.574985
 21
145.778009
 31
0.0
  0
LINE
  5
A0
330
A
100
AcDbEntity
  8
Hawa6
  6
DASHED
 62
     3
 48
0.029766
100
AcDbLine
 10
121.299984
 20
143.259464
 30
0.0
 11
121.299984
 21
144.450104
 31
0.0
  0
LINE
  5
A1
330
A
100
AcDbEntity
  8
Hawa6
 62
     3
 48
0.00054
100
AcDbLine
 10
116.699985
 20
143.259464
 30
0.0
 11
116.699985
 21
143.237858
 31
0.0
  0
LINE
  5
A2
330
A
100
AcDbEntity
  8
Hawa6
 62
     3
 48
0.00054
100
AcDbLine
 10
121.299984
 20
143.237858
 30
0.0
 11
121.299984
 21
143.259464
 31
0.0
  0
LINE
  5
A3
330
A
100
AcDbEntity
  8
Hawa6
 62
     3
 48
0.2
100
AcDbLine
 10
122.999985
 20
143.9719
 30
0.0
 11
114.999985
 21
143.9719
 31
0.0
  0
LINE
  5
A4
330
A
100
AcDbEntity
  8
Hawa6
  6
DASHED
 62
     3
 48
0.029766
100
AcDbLine
 10
118.424985
 20
144.450104
 30
0.0
 11
118.424985
 21
143.259464
 31
0.0
  0
LINE
  5
A5
330
A
100
AcDbEntity
  8
Hawa6
  6
DASHED
 62
     3
 48
0.02875
100
AcDbLine
 10
118.424985
 20
144.450104
 30
0.0
 11
119.574985
 21
144.450104
 31
0.0
  0
LINE
  5
A6
330
A
100
AcDbEntity
  8
Hawa6
  6
DASHED
 62
     3
 48
0.02875
100
AcDbLine
 10
118.424985
 20
145.678009
 30
0.0
 11
119.574985
 21
145.678009
 31
0.0
  0
LINE
  5
A7
330
A
100
AcDbEntity
  8
Hawa6
  6
DASHED
 62
     3
 48
0.060464
100
AcDbLine
 10
119.574985
 20
143.259464
 30
0.0
 11
119.574985
 21
145.678009
 31
0.0
  0
LINE
  5
A8
330
A
100
AcDbEntity
  8
Hawa6
 62
     3
 48
0.007948
100
AcDbLine
 10
119.574985
 20
142.9415389999999
 30
0.0
 11
119.574985
 21
143.259464
 31
0.0
  0
LINE
  5
A9
330
A
100
AcDbEntity
  8
Hawa6
  6
DASHED
 62
     3
 48
0.029766
100
AcDbLine
 10
119.574985
 20
144.450104
 30
0.0
 11
119.574985
 21
143.259464
 31
0.0
  0
LINE
  5
AA
330
A
100
AcDbEntity
  8
Hawa6
  6
DASHED
 62
     3
 48
0.030698
100
AcDbLine
 10
119.574985
 20
145.678009
 30
0.0
 11
119.574985
 21
144.450104
 31
0.0
  0
LINE
  5
AB
330
A
100
AcDbEntity
  8
Hawa6
  6
DASHED
 62
     3
 48
0.030698
100
AcDbLine
 10
118.424985
 20
145.678009
 30
0.0
 11
118.424985
 21
144.450104
 31
0.0
  0
LINE
  5
AD
330
A
100
AcDbEntity
  8
Hawa6
 62
     3
 48
0.007948
100
AcDbLine
 10
118.424985
 20
143.259464
 30
0.0
 11
118.424985
 21
142.9415389999999
 31
0.0
  0
LINE
  5
AE
330
A
100
AcDbEntity
  8
Hawa6
 62
     3
 48
0.012503
100
AcDbLine
 10
120.570485
 20
154.000103
 30
0.0
 11
120.570485
 21
153.5
 31
0.0
  0
LINE
  5
AF
330
A
100
AcDbEntity
  8
Hawa6
 62
     3
 48
0.026761
100
AcDbLine
 10
120.778747
 20
147.050104
 30
0.0
 11
120.570485
 21
148.100104
 31
0.0
  0
LINE
  5
B0
330
A
100
AcDbEntity
  8
Hawa6
 62
     3
 48
0.012503
100
AcDbLine
 10
117.429484
 20
154.000103
 30
0.0
 11
117.429484
 21
153.5
 31
0.0
  0
LINE
  5
B1
330
A
100
AcDbEntity
  8
Hawa6
 62
     3
 48
0.026761
100
AcDbLine
 10
117.221223
 20
147.050104
 30
0.0
 11
117.429484
 21
148.100104
 31
0.0
  0
LINE
  5
B2
330
A
100
AcDbEntity
  8
Hawa6
  6
DASHDOT
 62
     3
 48
0.007852
100
AcDbLine
 10
118.999985
 20
146.000104
 30
0.0
 11
118.999985
 21
146.314204
 31
0.0
  0
LINE
  5
B3
330
A
100
AcDbEntity
  8
Hawa6
 62
     3
 48
0.2
100
AcDbLine
 10
114.999928
 20
113.500023
 30
0.0
 11
122.999931
 21
113.500019
 31
0.0
  0
LINE
  5
B4
330
A
100
AcDbEntity
  8
Hawa6
 62
     3
 48
0.072732
100
AcDbLine
 10
121.999989
 20
118.499998
 30
0.0
 11
122.999973
 21
115.767971
 31
0.0
  0
LINE
  5
B5
330
A
100
AcDbEntity
  8
Hawa4
 62
     4
 48
0.225
100
AcDbLine
 10
113.999987
 20
118.500051
 30
0.0
 11
104.999982
 21
118.500057
 31
0.0
  0
LINE
  5
B7
330
A
100
AcDbEntity
  8
Hawa6
 62
     3
 48
0.05
100
AcDbLine
 10
123.999981
 20
120.500048
 30
0.0
 11
123.999981
 21
118.500046
 31
0.0
  0
LINE
  5
B8
330
A
100
AcDbEntity
  8
Hawa6
 62
     3
 48
0.2
100
AcDbLine
 10
123.000025
 20
118.500031
 30
0.0
 11
115.000032
 21
118.500031
 31
0.0
  0
LINE
  5
B9
330
A
100
AcDbEntity
  8
Hawa6
 62
     3
 48
0.072733
100
AcDbLine
 10
114.999786
 20
115.767937
 30
0.0
 11
115.99979
 21
118.499992
 31
0.0
  0
LINE
  5
BA
330
A
100
AcDbEntity
  8
Hawa6
 62
     3
 48
0.150001
100
AcDbLine
 10
115.999936
 20
118.50001
 30
0.0
 11
115.999938
 21
124.500038
 31
0.0
  0
LINE
  5
BB
330
A
100
AcDbEntity
  8
Hawa6
 62
     3
 48
0.37553
100
AcDbLine
 10
114.999925
 20
109.478844
 30
0.0
 11
114.999934
 21
124.500042
 31
0.0
  0
LINE
  5
BC
330
A
100
AcDbEntity
  8
Hawa6
 62
     3
 48
0.15
100
AcDbLine
 10
121.999939
 20
118.500029
 30
0.0
 11
121.999941
 21
124.500042
 31
0.0
  0
LINE
  5
BD
330
A
100
AcDbEntity
  8
Hawa6
 62
     3
 48
0.37553
100
AcDbLine
 10
122.999929
 20
109.478836
 30
0.0
 11
122.999939
 21
124.500048
 31
0.0
  0
LINE
  5
BE
330
A
100
AcDbEntity
  8
Hawa6
 62
     3
 48
0.05
100
AcDbLine
 10
113.999988
 20
120.500031
 30
0.0
 11
113.999987
 21
118.500029
 31
0.0
  0
LINE
  5
BF
330
A
100
AcDbEntity
  8
Hawa6
 62
     3
 48
0.00491
100
AcDbLine
 10
116.999985
 20
153.5
 30
0.0
 11
116.999985
 21
153.696401
 31
0.0
  0
LINE
  5
C0
330
A
100
AcDbEntity
  8
Hawa6
 62
     3
 48
0.014997
100
AcDbLine
 10
117.429484
 20
148.7
 30
0.0
 11
117.429484
 21
148.100104
 31
0.0
  0
LINE
  5
C1
330
A
100
AcDbEntity
  8
Hawa6
 62
     3
 48
0.014997
100
AcDbLine
 10
120.570485
 20
148.7
 30
0.0
 11
120.570485
 21
148.100104
 31
0.0
  0
LINE
  5
C2
330
A
100
AcDbEntity
  8
Hawa6
 62
     3
 48
0.014997
100
AcDbLine
 10
120.999985
 20
148.7
 30
0.0
 11
120.999985
 21
148.100104
 31
0.0
  0
LINE
  5
C3
330
A
100
AcDbEntity
  8
Hawa4
 62
     4
 48
0.059112
100
AcDbLine
 10
121.099976
 20
146.13554
 30
0.0
 11
121.099974
 21
148.5
 31
0.0
  0
LINE
  5
C4
330
A
100
AcDbEntity
  8
Hawa4
 62
     4
 48
0.059112
100
AcDbLine
 10
116.899975
 20
146.135518
 30
0.0
 11
116.899975
 21
148.5
 31
0.0
  0
LINE
  5
C5
330
A
100
AcDbEntity
  8
Hawa5
 62
     1
100
AcDbLine
 10
98.50075699999999
 20
169.039824
 30
0.0
 11
98.50075699999999
 21
92.060577
 31
0.0
  0
LINE
  5
C6
330
A
100
AcDbEntity
  8
Hawa5
  6
DASHDOT
 62
     1
100
AcDbLine
 10
106.14753
 20
136.5
 30
0.0
 11
84.556471
 21
136.5
 31
0.0
  0
LINE
  5
C7
330
A
100
AcDbEntity
  8
Hawa5
 62
     1
 48
0.109938
100
AcDbLine
 10
98.50075699999999
 20
139.559809
 30
0.0
 11
94.10324399999998
 21
139.559809
 31
0.0
  0
LINE
  5
C8
330
A
100
AcDbEntity
  8
Hawa5
 62
     1
 48
0.15751
100
AcDbLine
 10
88.645992
 20
139.560078
 30
0.0
 11
94.10225
 21
142.710383
 31
0.0
  0
LINE
  5
C9
330
A
100
AcDbEntity
  8
Hawa5
 62
     1
 48
0.157512
100
AcDbLine
 10
88.646442
 20
133.500011
 30
0.0
 11
94.10285599999999
 21
130.349833
 31
0.0
  0
LINE
  5
CA
330
A
100
AcDbEntity
  8
Hawa5
 62
     1
 48
0.026645
100
AcDbLine
 10
94.10324399999998
 20
142.71005
 30
0.0
 11
94.10324399999998
 21
141.644235
 31
0.0
  0
LINE
  5
CB
330
A
100
AcDbEntity
  8
Hawa5
 62
     1
 48
0.150375
100
AcDbLine
 10
88.89434599999999
 20
134.423169
 30
0.0
 11
94.103539
 21
131.415724
 31
0.0
  0
LINE
  5
CC
330
A
100
AcDbEntity
  8
Hawa5
 62
     1
 48
0.144184
100
AcDbLine
 10
89.108909
 20
138.760111
 30
0.0
 11
94.103551
 21
141.643836
 31
0.0
  0
LINE
  5
CD
330
A
100
AcDbEntity
  8
Hawa5
 62
     1
 48
0.026648
100
AcDbLine
 10
94.10324399999998
 20
131.415659
 30
0.0
 11
94.10324399999998
 21
130.349758
 31
0.0
  0
LINE
  5
CE
330
A
100
AcDbEntity
  8
Hawa5
 62
     1
 48
0.092308
100
AcDbLine
 10
88.64695899999999
 20
139.559809
 30
0.0
 11
84.95463199999999
 21
139.559809
 31
0.0
  0
LINE
  5
CF
330
A
100
AcDbEntity
  8
Hawa5
 62
     1
 48
0.092308
100
AcDbLine
 10
88.64695899999999
 20
133.5
 30
0.0
 11
84.95463199999999
 21
133.5
 31
0.0
  0
LINE
  5
D0
330
A
100
AcDbEntity
  8
Hawa5
 62
     1
 48
0.109938
100
AcDbLine
 10
98.50075699999999
 20
133.5
 30
0.0
 11
94.10324399999998
 21
133.5
 31
0.0
  0
LINE
  5
D1
330
A
100
AcDbEntity
  8
Hawa5
 62
     1
 48
0.023078
100
AcDbLine
 10
94.10324399999998
 20
139.559809
 30
0.0
 11
94.10324399999998
 21
138.636705
 31
0.0
  0
LINE
  5
D2
330
A
100
AcDbEntity
  8
Hawa5
 62
     1
 48
0.023078
100
AcDbLine
 10
94.10324399999998
 20
134.423103
 30
0.0
 11
94.10324399999998
 21
133.5
 31
0.0
  0
LINE
  5
D3
330
A
100
AcDbEntity
  8
Hawa5
 62
     1
 48
0.130224
100
AcDbLine
 10
94.10324399999998
 20
138.636705
 30
0.0
 11
88.894295
 21
138.636705
 31
0.0
  0
LINE
  5
D4
330
A
100
AcDbEntity
  8
Hawa5
 62
     1
 48
0.130224
100
AcDbLine
 10
94.10324399999998
 20
134.423103
 30
0.0
 11
88.894295
 21
134.423103
 31
0.0
  0
LINE
  5
D5
330
A
100
AcDbEntity
  8
Hawa5
 62
     1
 48
0.062478
100
AcDbLine
 10
100.999872
 20
137.792585
 30
0.0
 11
98.50075699999999
 21
137.792331
 31
0.0
  0
LINE
  5
D6
330
A
100
AcDbEntity
  8
Hawa5
 62
     1
 48
0.062484
100
AcDbLine
 10
101.000135
 20
135.206726
 30
0.0
 11
98.50075699999999
 21
135.206472
 31
0.0
  0
LINE
  5
D7
330
A
100
AcDbEntity
  8
Hawa5
 62
     1
 48
0.1125
100
AcDbLine
 10
104.262733
 20
134.249784
 30
0.0
 11
104.262275
 21
138.749784
 31
0.0
  0
LINE
  5
D8
330
A
100
AcDbEntity
  8
Hawa5
 62
     1
 48
0.025313
100
AcDbLine
 10
102.012051
 20
140.999569
 30
0.0
 11
100.999533
 21
140.999466
 31
0.0
  0
LINE
  5
D9
330
A
100
AcDbEntity
  8
Hawa5
 62
     1
 48
0.025312
100
AcDbLine
 10
102.012971
 20
131.999458
 30
0.0
 11
101.000483
 21
131.999355
 31
0.0
  0
LINE
  5
DA
330
A
100
AcDbEntity
  8
Hawa5
 62
     1
 48
0.225
100
AcDbLine
 10
101.000463
 20
131.999453
 30
0.0
 11
100.999547
 21
140.999453
 31
0.0
  0
LINE
  5
DB
330
A
100
AcDbEntity
  8
Hawa5
  6
DASHDOT
 62
     1
100
AcDbLine
 10
118.999916
 20
93.060562
 30
0.0
 11
118.999955
 21
154.333597
 31
0.0
  0
LINE
  5
DC
330
A
100
AcDbEntity
  8
Hawa4
 62
     4
 48
0.297499
100
AcDbLine
 10
116.899975
 20
148.5
 30
0.0
 11
105.0
 21
148.5
 31
0.0
  0
ARC
  5
DD
330
A
100
AcDbEntity
  8
Hawa4
 62
     4
100
AcDbCircle
 10
104.5
 20
130.0
 30
0.0
 40
0.5
100
AcDbArc
 50
0.0
 51
90.00000300000001
  0
ARC
  5
DE
330
A
100
AcDbEntity
  8
Hawa4
 62
     4
100
AcDbCircle
 10
101.5
 20
142.0
 30
0.0
 40
0.5
100
AcDbArc
 50
90.00000300000001
 51
180.000005
  0
ARC
  5
DF
330
A
100
AcDbEntity
  8
Hawa4
 62
     4
100
AcDbCircle
 10
101.5
 20
131.0
 30
0.0
 40
0.5
100
AcDbArc
 50
180.000005
 51
270.000001
  0
ARC
  5
E0
330
A
100
AcDbEntity
  8
Hawa4
 62
     4
100
AcDbCircle
 10
104.5
 20
143.0
 30
0.0
 40
0.5
100
AcDbArc
 50
270.000001
 51
0.0
  0
ARC
  5
E1
330
A
100
AcDbEntity
  8
Hawa4
 62
     4
100
AcDbCircle
 10
124.75
 20
150.0
 30
0.0
 40
0.5
100
AcDbArc
 50
90.00000300000001
 51
180.000005
  0
ARC
  5
E2
330
A
100
AcDbEntity
  8
Hawa4
 62
     4
100
AcDbCircle
 10
110.75
 20
151.0
 30
0.0
 40
0.5
100
AcDbArc
 50
179.999991
 51
270.000001
  0
ARC
  5
E3
330
A
100
AcDbEntity
  8
Hawa4
 62
     4
100
AcDbCircle
 10
113.25
 20
150.0
 30
0.0
 40
0.5
100
AcDbArc
 50
0.0
 51
90.00000300000001
  0
ARC
  5
E4
330
A
100
AcDbEntity
  8
Hawa4
 62
     4
100
AcDbCircle
 10
127.25
 20
154.0
 30
0.0
 40
0.5
100
AcDbArc
 50
0.0
 51
90.00000300000001
  0
ARC
  5
E5
330
A
100
AcDbEntity
  8
Hawa4
 62
     4
100
AcDbCircle
 10
127.25
 20
151.0
 30
0.0
 40
0.5
100
AcDbArc
 50
270.000001
 51
0.0
  0
ARC
  5
E6
330
A
100
AcDbEntity
  8
Hawa4
 62
     4
100
AcDbCircle
 10
110.75
 20
154.0
 30
0.0
 40
0.5
100
AcDbArc
 50
90.00000300000001
 51
180.000005
  0
ARC
  5
E7
330
A
100
AcDbEntity
  8
Hawa4
 62
     4
100
AcDbCircle
 10
128.233778
 20
154.5
 30
0.0
 40
2.0
100
AcDbArc
 50
19.999999
 51
90.00007100000003
  0
ARC
  5
E8
330
A
100
AcDbEntity
  8
Hawa4
 62
     4
100
AcDbCircle
 10
104.7
 20
146.875736
 30
0.0
 40
0.3
100
AcDbArc
 50
0.0
 51
45.0
  0
ARC
  5
E9
330
A
100
AcDbEntity
  8
Hawa4
 62
     4
100
AcDbCircle
 10
105.875736
 20
148.7
 30
0.0
 40
0.3
100
AcDbArc
 50
45.0
 51
90.00000300000001
  0
ARC
  5
EA
330
A
100
AcDbEntity
  8
Hawa4
 62
     4
100
AcDbCircle
 10
104.8
 20
148.7
 30
0.0
 40
0.3
100
AcDbArc
 50
90.00000300000001
 51
180.000005
  0
ARC
  5
EB
330
A
100
AcDbEntity
  8
Hawa4
 62
     4
100
AcDbCircle
 10
106.624264
 20
148.8
 30
0.0
 40
0.3
100
AcDbArc
 50
224.999995
 51
270.000001
  0
ARC
  5
EC
330
A
100
AcDbEntity
  8
Hawa4
 62
     4
100
AcDbCircle
 10
104.8
 20
147.624264
 30
0.0
 40
0.3
100
AcDbArc
 50
179.999991
 51
224.999995
  0
ARC
  5
ED
330
A
100
AcDbEntity
  8
Hawa4
 62
     4
100
AcDbCircle
 10
128.099976
 20
121.700012
 30
0.0
 40
0.8
100
AcDbArc
 50
90.00003000000001
 51
180.000032
  0
ARC
  5
EE
330
A
100
AcDbEntity
  8
Hawa4
 62
     4
100
AcDbCircle
 10
127.999985
 20
143.0
 30
0.0
 40
3.0
100
AcDbArc
 50
0.00005
 51
90.00003000000001
  0
ARC
  5
EF
330
A
100
AcDbEntity
  8
Hawa4
 62
     4
100
AcDbCircle
 10
109.999977
 20
143.0
 30
0.0
 40
3.0
100
AcDbArc
 50
90.00003000000001
 51
180.000032
  0
ARC
  5
F0
330
A
100
AcDbEntity
  8
Hawa4
 62
     4
100
AcDbCircle
 10
109.89994
 20
121.700012
 30
0.0
 40
0.8
100
AcDbArc
 50
0.00005
 51
90.00003000000001
  0
ARC
  5
F1
330
A
100
AcDbEntity
  8
Hawa6
 62
     3
100
AcDbCircle
 10
110.999985
 20
153.0
 30
0.0
 40
0.5
100
AcDbArc
 50
90.00000300000001
 51
180.000005
  0
ARC
  5
F2
330
A
100
AcDbEntity
  8
Hawa6
 62
     3
100
AcDbCircle
 10
122.099985
 20
150.0
 30
0.0
 40
0.5
100
AcDbArc
 50
90.00000300000001
 51
180.000005
  0
ARC
  5
F3
330
A
100
AcDbEntity
  8
Hawa6
 62
     3
100
AcDbCircle
 10
115.899984
 20
150.0
 30
0.0
 40
0.5
100
AcDbArc
 50
0.0
 51
90.00000300000001
  0
ARC
  5
F4
330
A
100
AcDbEntity
  8
Hawa6
 62
     3
100
AcDbCircle
 10
110.999985
 20
151.0
 30
0.0
 40
0.5
100
AcDbArc
 50
179.999991
 51
270.000001
  0
ARC
  5
F5
330
A
100
AcDbEntity
  8
Hawa6
 62
     3
100
AcDbCircle
 10
126.999985
 20
151.0
 30
0.0
 40
0.5
100
AcDbArc
 50
270.000001
 51
0.0
  0
ARC
  5
F6
330
A
100
AcDbEntity
  8
Hawa6
 62
     3
100
AcDbCircle
 10
126.999985
 20
153.0
 30
0.0
 40
0.5
100
AcDbArc
 50
0.0
 51
90.00000300000001
  0
ARC
  5
F7
330
A
100
AcDbEntity
  8
Hawa6
 62
     3
100
AcDbCircle
 10
121.399984
 20
146.400104
 30
0.0
 40
0.4
100
AcDbArc
 50
199.999919
 51
270.000001
  0
ARC
  5
F8
330
A
100
AcDbEntity
  8
Hawa6
 62
     3
100
AcDbCircle
 10
116.599985
 20
146.400104
 30
0.0
 40
0.4
100
AcDbArc
 50
270.000001
 51
340.000068
  0
ARC
  5
F9
330
A
100
AcDbEntity
  8
Hawa6
 62
     3
100
AcDbCircle
 10
118.999985
 20
150.900104
 30
0.0
 40
8.0
100
AcDbArc
 50
286.708338
 51
299.999994
  0
ARC
  5
FA
330
A
100
AcDbEntity
  8
Hawa6
 62
     3
100
AcDbCircle
 10
118.999985
 20
150.900104
 30
0.0
 40
8.0
100
AcDbArc
 50
240.000006
 51
253.291664
  0
ARC
  5
FB
330
A
100
AcDbEntity
  8
Hawa6
 62
     3
100
AcDbCircle
 10
118.999985
 20
150.900104
 30
0.0
 40
7.979308999999999
100
AcDbArc
 50
253.2470490000001
 51
265.867599
  0
ARC
  5
FC
330
A
100
AcDbEntity
  8
Hawa6
 62
     3
100
AcDbCircle
 10
118.999985
 20
150.900104
 30
0.0
 40
7.979308999999999
100
AcDbArc
 50
274.132402
 51
286.752953
  0
ARC
  5
FD
330
A
100
AcDbEntity
  8
Hawa6
 62
     3
100
AcDbCircle
 10
118.999985
 20
150.900104
 30
0.0
 40
7.662244999999999
100
AcDbArc
 50
265.696298
 51
274.303703
  0
ARC
  5
FE
330
A
100
AcDbEntity
  8
Hawa5
 62
     1
100
AcDbCircle
 10
102.012736
 20
134.24953
 30
0.0
 40
2.25
100
AcDbArc
 50
270.005847
 51
0.005828
  0
ARC
  5
FF
330
A
100
AcDbEntity
  8
Hawa5
 62
     1
100
AcDbCircle
 10
102.012285
 20
138.7495
 30
0.0
 40
2.25
100
AcDbArc
 50
0.005828
 51
90.00587600000001
  0
LINE
  5
100
330
A
100
AcDbEntity
  8
Hawa1
 62
     2
 48
0.025
100
AcDbLine
 10
98.50075699999999
 20
119.5
 30
0.0
 11
99.50075699999999
 21
119.5
 31
0.0
  0
LINE
  5
101
330
A
100
AcDbEntity
  8
Hawa1
 62
     2
 48
0.025
100
AcDbLine
 10
98.50075699999999
 20
156.499801
 30
0.0
 11
99.50075699999999
 21
156.499801
 31
0.0
  0
LINE
  5
102
330
A
100
AcDbEntity
  8
Hawa6
 62
     3
 48
0.025
100
AcDbLine
 10
132.0
 20
150.0
 30
0.0
 11
132.0
 21
149.0
 31
0.0
  0
LINE
  5
103
330
A
100
AcDbEntity
  8
Hawa1
 62
     2
 48
0.025
100
AcDbLine
 10
98.50075699999999
 20
164.444727
 30
0.0
 11
98.50075699999999
 21
165.444727
 31
0.0
  0
LINE
  5
104
330
A
100
AcDbEntity
  8
Hawa1
 62
     2
 48
0.025
100
AcDbLine
 10
98.50075699999999
 20
109.131931
 30
0.0
 11
98.50075699999999
 21
110.131931
 31
0.0
  0
LINE
  5
105
330
A
100
AcDbEntity
  8
Hawa1
 62
     2
 48
0.025
100
AcDbLine
 10
105.0
 20
118.500031
 30
0.0
 11
105.0
 21
119.500031
 31
0.0
  0
LINE
  5
106
330
A
100
AcDbEntity
  8
Hawa5
 62
     1
 48
0.057223
100
AcDbLine
 10
98.50000000000001
 20
154.646591
 30
0.0
 11
100.788918
 21
154.646591
 31
0.0
  0
LINE
  5
107
330
A
100
AcDbEntity
  8
Hawa5
 62
     1
 48
0.17641
100
AcDbLine
 10
100.788918
 20
147.59021
 30
0.0
 11
100.788918
 21
154.646591
 31
0.0
  0
LINE
  5
108
330
A
100
AcDbEntity
  8
Hawa5
 62
     1
 48
0.057223
100
AcDbLine
 10
100.788918
 20
147.59021
 30
0.0
 11
98.50000000000001
 21
147.59021
 31
0.0
  0
LINE
  5
109
330
A
100
AcDbEntity
  8
Hawa5
 62
     1
 48
0.17641
100
AcDbLine
 10
98.50000000000001
 20
154.646591
 30
0.0
 11
98.50000000000001
 21
147.59021
 31
0.0
  0
LINE
  5
10A
330
A
100
AcDbEntity
  8
Hawa5
 62
     1
 48
0.057223
100
AcDbLine
 10
98.50000000000001
 20
128.244873
 30
0.0
 11
100.788918
 21
128.244873
 31
0.0
  0
LINE
  5
10B
330
A
100
AcDbEntity
  8
Hawa5
 62
     1
 48
0.17641
100
AcDbLine
 10
100.788918
 20
121.188492
 30
0.0
 11
100.788918
 21
128.244873
 31
0.0
  0
LINE
  5
10C
330
A
100
AcDbEntity
  8
Hawa5
 62
     1
 48
0.057223
100
AcDbLine
 10
100.788918
 20
121.188492
 30
0.0
 11
98.50000000000001
 21
121.188492
 31
0.0
  0
LINE
  5
10D
330
A
100
AcDbEntity
  8
Hawa5
 62
     1
 48
0.17641
100
AcDbLine
 10
98.50000000000001
 20
128.244873
 30
0.0
 11
98.50000000000001
 21
121.188492
 31
0.0
  0
LINE
  5
1B2
330
A
100
AcDbEntity
  8
Hawa2
 62
     9
 48
0.054178
100
AcDbLine
 10
130.455845
 20
148.5
 30
0.0
 11
131.988216
 21
150.032373
 31
0.0
  0
LINE
  5
1B3
330
A
100
AcDbEntity
  8
Hawa2
 62
     9
 48
0.127493
100
AcDbLine
 10
127.627417
 20
148.5
 30
0.0
 11
131.233461
 21
152.106045
 31
0.0
  0
LINE
  5
1B4
330
A
100
AcDbEntity
  8
Hawa2
 62
     9
 48
0.070711
100
AcDbLine
 10
124.79899
 20
148.5
 30
0.0
 11
126.79899
 21
150.5
 31
0.0
  0
LINE
  5
1B5
330
A
100
AcDbEntity
  8
Hawa2
 62
     9
 48
0.096474
100
AcDbLine
 10
127.75
 20
151.45101
 30
0.0
 11
130.478706
 21
154.179718
 31
0.0
  0
LINE
  5
1B6
330
A
100
AcDbEntity
  8
Hawa2
 62
     9
 48
0.064139
100
AcDbLine
 10
127.695873
 20
154.225311
 30
0.0
 11
129.509995
 21
156.039433
 31
0.0
  0
LINE
  5
1B7
330
A
100
AcDbEntity
  8
Hawa2
 62
     9
 48
0.070711
100
AcDbLine
 10
125.142136
 20
154.5
 30
0.0
 11
127.142134
 21
156.499999
 31
0.0
  0
LINE
  5
1B8
330
A
100
AcDbEntity
  8
Hawa2
 62
     9
 48
0.070711
100
AcDbLine
 10
122.313709
 20
154.5
 30
0.0
 11
124.313704
 21
156.499996
 31
0.0
  0
LINE
  5
1B9
330
A
100
AcDbEntity
  8
Hawa2
 62
     9
 48
0.009359
100
AcDbLine
 10
113.485281
 20
148.5
 30
0.0
 11
113.75
 21
148.764719
 31
0.0
  0
LINE
  5
1BA
330
A
100
AcDbEntity
  8
Hawa2
 62
     9
 48
0.07071
100
AcDbLine
 10
119.485281
 20
154.5
 30
0.0
 11
121.485273
 21
156.499992
 31
0.0
  0
LINE
  5
1BB
330
A
100
AcDbEntity
  8
Hawa2
 62
     9
 48
0.009214
100
AcDbLine
 10
104.698121
 20
142.541266
 30
0.0
 11
104.958734
 21
142.801879
 31
0.0
  0
LINE
  5
1BC
330
A
100
AcDbEntity
  8
Hawa2
 62
     9
 48
0.070711
100
AcDbLine
 10
110.656854
 20
148.5
 30
0.0
 11
112.656854
 21
150.5
 31
0.0
  0
LINE
  5
1BD
330
A
100
AcDbEntity
  8
Hawa2
 62
     9
 48
0.07071
100
AcDbLine
 10
116.656855
 20
154.5
 30
0.0
 11
118.656843
 21
156.499989
 31
0.0
  0
LINE
  5
1BE
330
A
100
AcDbEntity
  8
Hawa2
 62
     9
 48
0.073241
100
AcDbLine
 10
98.928427
 20
139.6
 30
0.0
 11
101.0
 21
141.671573
 31
0.0
  0
LINE
  5
1BF
330
A
100
AcDbEntity
  8
Hawa2
 62
     9
 48
0.112132
100
AcDbLine
 10
101.828427
 20
142.5
 30
0.0
 11
105.0
 21
145.671573
 31
0.0
  0
LINE
  5
1C0
330
A
100
AcDbEntity
  8
Hawa2
 62
     9
 48
0.085824
100
AcDbLine
 10
107.828427
 20
148.5
 30
0.0
 11
110.255897
 21
150.92747
 31
0.0
  0
LINE
  5
1C1
330
A
100
AcDbEntity
  8
Hawa2
 62
     9
 48
0.07071
100
AcDbLine
 10
113.828427
 20
154.5
 30
0.0
 11
115.828413
 21
156.499986
 31
0.0
  0
LINE
  5
1C2
330
A
100
AcDbEntity
  8
Hawa2
 62
     9
 48
0.212116
100
AcDbLine
 10
98.50046
 20
142.00046
 30
0.0
 11
104.5
 21
148.0
 31
0.0
  0
LINE
  5
1C3
330
A
100
AcDbEntity
  8
Hawa2
 62
     9
 48
0.167938
100
AcDbLine
 10
105.5
 20
149.0
 30
0.0
 11
110.25
 21
153.75
 31
0.0
  0
LINE
  5
1C4
330
A
100
AcDbEntity
  8
Hawa2
 62
     9
 48
0.07071
100
AcDbLine
 10
111.0
 20
154.5
 30
0.0
 11
112.999982
 21
156.499982
 31
0.0
  0
LINE
  5
1C5
330
A
100
AcDbEntity
  8
Hawa2
 62
     9
 48
0.412633
100
AcDbLine
 10
98.50051800000001
 20
144.828945
 30
0.0
 11
110.171552
 21
156.499979
 31
0.0
  0
LINE
  5
1C6
330
A
100
AcDbEntity
  8
Hawa2
 62
     9
 48
0.312631
100
AcDbLine
 10
98.50057599999999
 20
147.65743
 30
0.0
 11
107.343121
 21
156.499976
 31
0.0
  0
LINE
  5
1C7
330
A
100
AcDbEntity
  8
Hawa2
 62
     9
 48
0.141941
100
AcDbLine
 10
100.5
 20
152.485281
 30
0.0
 11
104.514691
 21
156.499972
 31
0.0
  0
LINE
  5
1C8
330
A
100
AcDbEntity
  8
Hawa2
 62
     9
 48
0.112627
100
AcDbLine
 10
98.500692
 20
153.3144
 30
0.0
 11
101.68626
 21
156.499969
 31
0.0
  0
LINE
  5
1C9
330
A
100
AcDbEntity
  8
Hawa2
 62
     9
 48
0.012625
100
AcDbLine
 10
98.50075
 20
156.142885
 30
0.0
 11
98.85783000000001
 21
156.499966
 31
0.0
  0
LINE
  5
1CA
330
A
100
AcDbEntity
  8
Hawa2
 62
     9
 48
0.025305
100
AcDbLine
 10
104.284271
 20
119.5
 30
0.0
 11
105.0
 21
120.215729
 31
0.0
  0
LINE
  5
1CB
330
A
100
AcDbEntity
  8
Hawa2
 62
     9
 48
0.125305
100
AcDbLine
 10
101.455844
 20
119.5
 30
0.0
 11
105.0
 21
123.044155
 31
0.0
  0
LINE
  5
1CC
330
A
100
AcDbEntity
  8
Hawa2
 62
     9
 48
0.225305
100
AcDbLine
 10
98.627417
 20
119.5
 30
0.0
 11
105.0
 21
125.872583
 31
0.0
  0
LINE
  5
1CD
330
A
100
AcDbEntity
  8
Hawa2
 62
     9
 48
0.022961
100
AcDbLine
 10
98.50005500000001
 20
122.201065
 30
0.0
 11
99.149495
 21
122.850506
 31
0.0
  0
LINE
  5
1CE
330
A
100
AcDbEntity
  8
Hawa2
 62
     9
 48
0.159099
100
AcDbLine
 10
100.5
 20
124.20101
 30
0.0
 11
105.0
 21
128.70101
 31
0.0
  0
LINE
  5
1CF
330
A
100
AcDbEntity
  8
Hawa2
 62
     9
 48
0.146204
100
AcDbLine
 10
99.835281
 20
126.364719
 30
0.0
 11
103.970563
 21
130.5
 31
0.0
  0
LINE
  5
1D0
330
A
100
AcDbEntity
  8
Hawa2
 62
     9
 48
0.096331
100
AcDbLine
 10
98.500171
 20
127.858036
 30
0.0
 11
101.224832
 21
130.582697
 31
0.0
  0
LINE
  5
1D1
330
A
100
AcDbEntity
  8
Hawa2
 62
     9
 48
0.08838
100
AcDbLine
 10
98.500229
 20
130.68652
 30
0.0
 11
101.0
 21
133.186292
 31
0.0
  0
LINE
  5
1D2
330
A
100
AcDbEntity
  8
Hawa2
 62
     9
 48
0.050608
100
AcDbLine
 10
131.568584
 20
118.500042
 30
0.0
 11
132.999992
 21
119.93145
 31
0.0
  0
LINE
  5
1D3
330
A
100
AcDbEntity
  8
Hawa2
 62
     9
 48
0.150608
100
AcDbLine
 10
128.740158
 20
118.500044
 30
0.0
 11
132.999992
 21
122.759876
 31
0.0
  0
LINE
  5
1D4
330
A
100
AcDbEntity
  8
Hawa2
 62
     9
 48
0.250608
100
AcDbLine
 10
125.911734
 20
118.500046
 30
0.0
 11
132.999992
 21
125.588305
 31
0.0
  0
LINE
  5
1D5
330
A
100
AcDbEntity
  8
Hawa2
 62
     9
 48
0.038301
100
AcDbLine
 10
123.999981
 20
119.416719
 30
0.0
 11
125.083292
 21
120.500031
 31
0.0
  0
LINE
  5
1D6
330
A
100
AcDbEntity
  8
Hawa2
 62
     9
 48
0.092466
100
AcDbLine
 10
130.384663
 20
125.801401
 30
0.0
 11
132.999992
 21
128.416731
 31
0.0
  0
LINE
  5
1D7
330
A
100
AcDbEntity
  8
Hawa2
 62
     9
 48
0.070711
100
AcDbLine
 10
130.999992
 20
129.245159
 30
0.0
 11
132.999992
 21
131.245159
 31
0.0
  0
LINE
  5
1D8
330
A
100
AcDbEntity
  8
Hawa2
 62
     9
 48
0.070711
100
AcDbLine
 10
130.999992
 20
132.073586
 30
0.0
 11
132.999992
 21
134.073586
 31
0.0
  0
LINE
  5
1D9
330
A
100
AcDbEntity
  8
Hawa2
 62
     9
 48
0.070711
100
AcDbLine
 10
130.999992
 20
134.9020129999999
 30
0.0
 11
132.999992
 21
136.902013
 31
0.0
  0
LINE
  5
1DA
330
A
100
AcDbEntity
  8
Hawa2
 62
     9
 48
0.070707
100
AcDbLine
 10
111.769605
 20
118.500053
 30
0.0
 11
113.769491
 21
120.499939
 31
0.0
  0
LINE
  5
1DB
330
A
100
AcDbEntity
  8
Hawa2
 62
     9
 48
0.070711
100
AcDbLine
 10
130.999992
 20
137.73044
 30
0.0
 11
132.999992
 21
139.73044
 31
0.0
  0
LINE
  5
1DC
330
A
100
AcDbEntity
  8
Hawa2
 62
     9
 48
0.070707
100
AcDbLine
 10
108.94118
 20
118.500053
 30
0.0
 11
110.941064
 21
120.499939
 31
0.0
  0
LINE
  5
1DD
330
A
100
AcDbEntity
  8
Hawa2
 62
     9
 48
0.070711
100
AcDbLine
 10
130.999992
 20
140.558867
 30
0.0
 11
132.999992
 21
142.558867
 31
0.0
  0
LINE
  5
1DE
330
A
100
AcDbEntity
  8
Hawa2
 62
     9
 48
0.140586
100
AcDbLine
 10
106.112754
 20
118.500055
 30
0.0
 11
110.089133
 21
122.476435
 31
0.0
  0
LINE
  5
1DF
330
A
100
AcDbEntity
  8
Hawa2
 62
     9
 48
0.071582
100
AcDbLine
 10
130.975361
 20
143.362663
 30
0.0
 11
132.999992
 21
145.387294
 31
0.0
  0
LINE
  5
1E0
330
A
100
AcDbEntity
  8
Hawa2
 62
     9
 48
0.11465
100
AcDbLine
 10
105.0
 20
120.215729
 30
0.0
 11
108.242803
 21
123.458532
 31
0.0
  0
LINE
  5
1E1
330
A
100
AcDbEntity
  8
Hawa2
 62
     9
 48
0.105778
100
AcDbLine
 10
130.00815
 20
145.223878
 30
0.0
 11
132.999992
 21
148.215721
 31
0.0
  0
LINE
  5
1E2
330
A
100
AcDbEntity
  8
Hawa2
 62
     9
 48
0.093517
100
AcDbLine
 10
105.0
 20
123.044155
 30
0.0
 11
107.645064
 21
125.68922
 31
0.0
  0
LINE
  5
1E3
330
A
100
AcDbEntity
  8
Hawa2
 62
     9
 48
0.088388
100
AcDbLine
 10
127.955845
 20
146.000001
 30
0.0
 11
130.455845
 21
148.5
 31
0.0
  0
LINE
  5
1E4
330
A
100
AcDbEntity
  8
Hawa2
 62
     9
 48
0.072384
100
AcDbLine
 10
105.0
 20
125.872583
 30
0.0
 11
107.047324
 21
127.919907
 31
0.0
  0
LINE
  5
1E5
330
A
100
AcDbEntity
  8
Hawa2
 62
     9
 48
0.088387
100
AcDbLine
 10
125.127462
 20
146.000045
 30
0.0
 11
127.627417
 21
148.5
 31
0.0
  0
LINE
  5
1E6
330
A
100
AcDbEntity
  8
Hawa2
 62
     9
 48
0.07071
100
AcDbLine
 10
105.0
 20
128.70101
 30
0.0
 11
106.999985
 21
130.700994
 31
0.0
  0
LINE
  5
1E7
330
A
100
AcDbEntity
  8
Hawa2
 62
     9
 48
0.088385
100
AcDbLine
 10
122.299078
 20
146.0000879999999
 30
0.0
 11
124.79899
 21
148.5
 31
0.0
  0
LINE
  5
1E8
330
A
100
AcDbEntity
  8
Hawa2
 62
     9
 48
0.07071
100
AcDbLine
 10
105.0
 20
131.529438
 30
0.0
 11
106.999985
 21
133.529422
 31
0.0
  0
LINE
  5
1E9
330
A
100
AcDbEntity
  8
Hawa2
 62
     9
 48
0.03078
100
AcDbLine
 10
121.099974
 20
147.629412
 30
0.0
 11
121.970562
 21
148.5
 31
0.0
  0
LINE
  5
1EA
330
A
100
AcDbEntity
  8
Hawa2
 62
     9
 48
0.07071
100
AcDbLine
 10
105.0
 20
134.357864
 30
0.0
 11
106.999985
 21
136.357849
 31
0.0
  0
LINE
  5
1EB
330
A
100
AcDbEntity
  8
Hawa2
 62
     9
 48
0.009112
100
AcDbLine
 10
116.642235
 20
146.0001
 30
0.0
 11
116.899975
 21
146.257839
 31
0.0
  0
LINE
  5
1EC
330
A
100
AcDbEntity
  8
Hawa2
 62
     9
 48
0.07071
100
AcDbLine
 10
105.0
 20
137.186292
 30
0.0
 11
106.999985
 21
139.186276
 31
0.0
  0
LINE
  5
1ED
330
A
100
AcDbEntity
  8
Hawa2
 62
     9
 48
0.088385
100
AcDbLine
 10
113.813804
 20
146.000095
 30
0.0
 11
116.313708
 21
148.5
 31
0.0
  0
LINE
  5
1EE
330
A
100
AcDbEntity
  8
Hawa2
 62
     9
 48
0.07071
100
AcDbLine
 10
105.0
 20
140.014719
 30
0.0
 11
106.999985
 21
142.014703
 31
0.0
  0
LINE
  5
1EF
330
A
100
AcDbEntity
  8
Hawa2
 62
     9
 48
0.088385
100
AcDbLine
 10
110.985372
 20
146.00009
 30
0.0
 11
113.485281
 21
148.5
 31
0.0
  0
LINE
  5
1F0
330
A
100
AcDbEntity
  8
Hawa2
 62
     9
 48
0.2
100
AcDbLine
 10
105.0
 20
142.843146
 30
0.0
 11
110.656854
 21
148.5
 31
0.0
  0
LINE
  5
1F1
330
A
100
AcDbEntity
  8
Hawa2
 62
     9
 48
0.1
100
AcDbLine
 10
105.0
 20
145.671573
 30
0.0
 11
107.828427
 21
148.5
 31
0.0
  0
LINE
  5
1F2
330
A
100
AcDbEntity
  8
Hawa2
 62
     9
 48
0.080925
100
AcDbLine
 10
98.50000000000001
 20
147.656854
 30
0.0
 11
100.788918
 21
149.945772
 31
0.0
  0
LINE
  5
1F3
330
A
100
AcDbEntity
  8
Hawa2
 62
     9
 48
0.080925
100
AcDbLine
 10
98.50000000000001
 20
150.485281
 30
0.0
 11
100.788918
 21
152.774199
 31
0.0
  0
LINE
  5
1F4
330
A
100
AcDbEntity
  8
Hawa2
 62
     9
 48
0.047125
100
AcDbLine
 10
98.50000000000001
 20
153.313708
 30
0.0
 11
99.83288299999999
 21
154.646591
 31
0.0
  0
LINE
  5
1F5
330
A
100
AcDbEntity
  8
Hawa2
 62
     9
 48
0.016723
100
AcDbLine
 10
100.315909
 20
121.188492
 30
0.0
 11
100.788918
 21
121.661501
 31
0.0
  0
LINE
  5
1F6
330
A
100
AcDbEntity
  8
Hawa2
 62
     9
 48
0.080925
100
AcDbLine
 10
98.50000000000001
 20
122.20101
 30
0.0
 11
100.788918
 21
124.489927
 31
0.0
  0
LINE
  5
1F7
330
A
100
AcDbEntity
  8
Hawa2
 62
     9
 48
0.080925
100
AcDbLine
 10
98.50000000000001
 20
125.029438
 30
0.0
 11
100.788918
 21
127.318356
 31
0.0
  0
LINE
  5
1F8
330
A
100
AcDbEntity
  8
Hawa2
 62
     9
 48
0.013683
100
AcDbLine
 10
98.50000000000001
 20
127.857864
 30
0.0
 11
98.88700899999999
 21
128.244873
 31
0.0
  0
VIEWPORT
  5
10E
102
{ACAD_XDICTIONARY
360
226
102
}
330
B
100
AcDbEntity
 67
     1
  8
0
 62
     9
100
AcDbViewport
 10
0.0
 20
0.0
 30
0.0
 40
1000.0
 41
1000.0
 68
     1
 69
     1
 12
0.0
 22
0.0
 13
0.0
 23
0.0
 14
1.0
 24
1.0
 15
1.0
 25
1.0
 16
0.0
 26
0.0
 36
1.0
 17
0.0
 27
0.0
 37
0.0
 42
50.0
 43
0.0
 44
0.0
 45
1000.0
 50
0.0
 51
0.0
 72
   100
 90
   557216
  1

281
     0
 71
     1
 74
     0
110
0.0
120
0.0
130
0.0
111
1.0
121
0.0
131
0.0
112
0.0
122
1.0
132
0.0
 79
     0
146
0.0
  0
ENDSEC
  0
SECTION
  2
OBJECTS
  0
DICTIONARY
  5
19
330
0
100
AcDbDictionary
281
     1
  3
ACAD_COLOR
350
21A
  3
ACAD_GROUP
350
1A
  3
ACAD_LAYOUT
350
1AF
  3
ACAD_MATERIAL
350
205
  3
ACAD_MLINESTYLE
350
1B
  3
ACAD_PLOTSETTINGS
350
21D
  3
ACAD_PLOTSTYLENAME
350
203
  3
ACAD_TABLESTYLE
350
21B
  3
ACAD_VISUALSTYLE
350
209
  3
AcDbVariableDictionary
350
220
  3
DWGPROPS
350
225
  0
DICTIONARY
  5
226
330
10E
100
AcDbDictionary
280
     1
281
     1
  3
ACAD_XREC_ROUNDTRIP
360
227
  0
DICTIONARY
  5
21A
102
{ACAD_REACTORS
330
19
102
}
330
19
100
AcDbDictionary
281
     1
  0
DICTIONARY
  5
1A
102
{ACAD_REACTORS
330
19
102
}
330
19
100
AcDbDictionary
281
     1
  0
DICTIONARY
  5
1AF
102
{ACAD_REACTORS
330
19
102
}
330
19
100
AcDbDictionary
281
     1
  3
Layout1
350
1B1
  3
Model
350
1B0
  0
DICTIONARY
  5
205
102
{ACAD_REACTORS
330
19
102
}
330
19
100
AcDbDictionary
281
     1
  3
ByBlock
350
207
  3
ByLayer
350
206
  3
Global
350
208
  0
DICTIONARY
  5
1B
102
{ACAD_REACTORS
330
19
102
}
330
19
100
AcDbDictionary
281
     1
  3
STANDARD
350
1C
  0
DICTIONARY
  5
21D
102
{ACAD_REACTORS
330
19
102
}
330
19
100
AcDbDictionary
281
     1
  0
ACDBDICTIONARYWDFLT
  5
203
102
{ACAD_REACTORS
330
19
102
}
330
19
100
AcDbDictionary
281
     1
  3
Normal
350
204
100
AcDbDictionaryWithDefault
340
204
  0
DICTIONARY
  5
21B
102
{ACAD_REACTORS
330
19
102
}
330
19
100
AcDbDictionary
281
     1
  3
Standard
350
21C
  0
DICTIONARY
  5
209
102
{ACAD_REACTORS
330
19
102
}
330
19
100
AcDbDictionary
281
     1
  3
2dWireframe
350
20F
  3
3D Hidden
350
211
  3
3dWireframe
350
210
  3
Basic
350
20E
  3
Brighten
350
215
  3
ColorChange
350
219
  3
Conceptual
350
212
  3
Dim
350
214
  3
Facepattern
350
218
  3
Flat
350
20A
  3
FlatWithEdges
350
20B
  3
Gouraud
350
20C
  3
GouraudWithEdges
350
20D
  3
Linepattern
350
217
  3
Realistic
350
213
  3
Thicken
350
216
  0
DICTIONARY
  5
220
102
{ACAD_REACTORS
330
19
102
}
330
19
100
AcDbDictionary
281
     1
  3
CTABLESTYLE
350
221
  3
DIMASSOC
350
224
  3
INDEXCTL
350
223
  3
SORTENTS
350
222
  0
XRECORD
  5
225
102
{ACAD_REACTORS
330
19
102
}
330
19
100
AcDbXrecord
280
     1
  1
DWGPROPS COOKIE
  2

  3

  4

  6

  7

  8
rhu
  9

300
=
301
=
302
=
303
=
304
=
305
=
306
=
307
=
308
=
309
=
 40
0.0031762268518519
 41
2447893.0
 42
2454272.407324167
  1

 90
        0
  0
XRECORD
  5
227
102
{ACAD_REACTORS
330
226
102
}
330
226
100
AcDbXrecord
280
     1
102
SHADEPLOT
 70
     0
  0
LAYOUT
  5
1B1
102
{ACAD_XDICTIONARY
360
22A
102
}
102
{ACAD_REACTORS
330
1AF
102
}
330
1AF
100
AcDbPlotSettings
  1

  2
none_device
  4

  6

 40
0.0
 41
0.0
 42
0.0
 43
0.0
 44
0.0
 45
0.0
 46
0.0
 47
0.0
 48
0.0
 49
0.0
140
0.0
141
0.0
142
1.0
143
1.0
 70
   688
 72
     0
 73
     0
 74
     5
  7

 75
    16
147
1.0
148
0.0
149
0.0
100
AcDbLayout
  1
Layout1
 70
     1
 71
     1
 10
0.0
 20
0.0
 11
420.0
 21
297.0
 12
0.0
 22
0.0
 32
0.0
 14
0.0
 24
0.0
 34
0.0
 15
36.521534
 25
21.733303
 35
2.0
146
0.0
 13
0.0
 23
0.0
 33
0.0
 16
1.0
 26
0.0
 36
0.0
 17
0.0
 27
1.0
 37
0.0
 76
     0
330
B
331
10E
  0
LAYOUT
  5
1B0
102
{ACAD_XDICTIONARY
360
228
102
}
102
{ACAD_REACTORS
330
1AF
102
}
330
1AF
100
AcDbPlotSettings
  1

  2
none_device
  4

  6

 40
0.0
 41
0.0
 42
0.0
 43
0.0
 44
0.0
 45
0.0
 46
0.0
 47
0.0
 48
0.0
 49
0.0
140
0.0
141
0.0
142
1.0
143
1.0
 70
   688
 72
     0
 73
     0
 74
     5
  7

 75
    16
147
1.0
148
0.0
149
0.0
100
AcDbLayout
  1
Model
 70
     1
 71
     0
 10
0.0
 20
0.0
 11
0.0
 21
0.0
 12
0.0
 22
0.0
 32
0.0
 14
0.0
 24
0.0
 34
0.0
 15
0.0
 25
0.0
 35
0.0
146
0.0
 13
0.0
 23
0.0
 33
0.0
 16
1.0
 26
0.0
 36
0.0
 17
0.0
 27
1.0
 37
0.0
 76
     0
330
A
331
15
  0
MATERIAL
  5
207
102
{ACAD_XDICTIONARY
360
22E
102
}
102
{ACAD_REACTORS
330
205
102
}
330
205
100
AcDbMaterial
  1
ByBlock
  0
MATERIAL
  5
206
102
{ACAD_XDICTIONARY
360
22C
102
}
102
{ACAD_REACTORS
330
205
102
}
330
205
100
AcDbMaterial
  1
ByLayer
  0
MATERIAL
  5
208
102
{ACAD_XDICTIONARY
360
230
102
}
102
{ACAD_REACTORS
330
205
102
}
330
205
100
AcDbMaterial
  1
Global
  0
MLINESTYLE
  5
1C
102
{ACAD_REACTORS
330
1B
102
}
330
1B
100
AcDbMlineStyle
  2
STANDARD
 70
     0
  3

 62
     0
 51
90.0
 52
90.0
 71
     2
 49
0.5
 62
   256
  6
BYLAYER
 49
-0.5
 62
   256
  6
BYLAYER
  0
ACDBPLACEHOLDER
  5
204
102
{ACAD_REACTORS
330
203
102
}
330
203
  0
TABLESTYLE
  5
21C
102
{ACAD_XDICTIONARY
360
232
102
}
102
{ACAD_REACTORS
330
21B
102
}
330
21B
100
AcDbTableStyle
  3
Standard
 70
     0
 71
     0
 40
1.5
 41
1.5
280
     0
281
     0
  7
STANDARD
140
4.5
170
     2
 62
     0
 63
     7
283
     0
274
    -2
284
     1
 64
     0
275
    -2
285
     1
 65
     0
276
    -2
286
     1
 66
     0
277
    -2
287
     1
 67
     0
278
    -2
288
     1
 68
     0
279
    -2
289
     1
 69
     0
  7
STANDARD
140
6.0
170
     5
 62
     0
 63
     7
283
     0
274
    -2
284
     1
 64
     0
275
    -2
285
     1
 65
     0
276
    -2
286
     1
 66
     0
277
    -2
287
     1
 67
     0
278
    -2
288
     1
 68
     0
279
    -2
289
     1
 69
     0
  7
STANDARD
140
4.5
170
     5
 62
     0
 63
     7
283
     0
274
    -2
284
     1
 64
     0
275
    -2
285
     1
 65
     0
276
    -2
286
     1
 66
     0
277
    -2
287
     1
 67
     0
278
    -2
288
     1
 68
     0
279
    -2
289
     1
 69
     0
  0
VISUALSTYLE
  5
20F
102
{ACAD_REACTORS
330
209
102
}
330
209
100
AcDbVisualStyle
  2
2dWireframe
 70
     4
 71
     0
 72
     2
 73
     0
 90
        0
 40
-0.6
 41
-30.0
 62
     5
 63
     7
 74
     1
 91
        4
 64
     7
 65
   257
 75
     1
175
     1
 42
1.0
 92
        0
 66
   257
 43
1.0
 76
     1
 77
     6
 78
     2
 67
     7
 79
     5
170
     0
171
     0
290
     0
174
     0
 93
        1
 44
0.0
173
     0
291
     0
 45
0.0
1001
ACAD
1000
AcDbSavedByObjectVersion
1070
     0
  0
VISUALSTYLE
  5
211
102
{ACAD_REACTORS
330
209
102
}
330
209
100
AcDbVisualStyle
  2
3D Hidden
 70
     6
 71
     1
 72
     2
 73
     2
 90
        0
 40
-0.6
 41
-30.0
 62
     5
 63
     7
 74
     2
 91
        2
 64
     7
 65
   257
 75
     2
175
     1
 42
40.0
 92
        0
 66
   257
 43
1.0
 76
     1
 77
     6
 78
     2
 67
     7
 79
     3
170
     0
171
     0
290
     0
174
     0
 93
        1
 44
0.0
173
     0
291
     0
 45
0.0
1001
ACAD
1000
AcDbSavedByObjectVersion
1070
     0
  0
VISUALSTYLE
  5
210
102
{ACAD_REACTORS
330
209
102
}
330
209
100
AcDbVisualStyle
  2
3dWireframe
 70
     5
 71
     0
 72
     2
 73
     0
 90
        0
 40
-0.6
 41
-30.0
 62
     5
 63
     7
 74
     1
 91
        4
 64
     7
 65
   257
 75
     1
175
     1
 42
1.0
 92
        0
 66
   257
 43
1.0
 76
     1
 77
     6
 78
     2
 67
     7
 79
     5
170
     0
171
     0
290
     0
174
     0
 93
        1
 44
0.0
173
     0
291
     0
 45
0.0
1001
ACAD
1000
AcDbSavedByObjectVersion
1070
     0
  0
VISUALSTYLE
  5
20E
102
{ACAD_REACTORS
330
209
102
}
330
209
100
AcDbVisualStyle
  2
Basic
 70
     7
 71
     1
 72
     0
 73
     1
 90
        0
 40
-0.6
 41
-30.0
 62
     5
 63
     7
 74
     0
 91
        4
 64
     7
 65
   257
 75
     1
175
     1
 42
1.0
 92
        8
 66
     7
 43
1.0
 76
     1
 77
     6
 78
     2
 67
     7
 79
     5
170
     0
171
     0
290
     0
174
     0
 93
        1
 44
0.0
173
     0
291
     1
 45
0.0
1001
ACAD
1000
AcDbSavedByObjectVersion
1070
     0
  0
VISUALSTYLE
  5
215
102
{ACAD_REACTORS
330
209
102
}
330
209
100
AcDbVisualStyle
  2
Brighten
 70
    12
 71
     2
 72
     2
 73
     0
 90
        0
 40
-0.6
 41
-30.0
 62
     5
 63
     7
 74
     1
 91
        4
 64
     7
 65
   257
 75
     1
175
     1
 42
1.0
 92
        8
 66
     7
 43
1.0
 76
     1
 77
     6
 78
     2
 67
     7
 79
     5
170
     0
171
     0
290
     0
174
     0
 93
        1
 44
50.0
173
     0
291
     1
 45
0.0
1001
ACAD
1000
AcDbSavedByObjectVersion
1070
     0
  0
VISUALSTYLE
  5
219
102
{ACAD_REACTORS
330
209
102
}
330
209
100
AcDbVisualStyle
  2
ColorChange
 70
    16
 71
     2
 72
     2
 73
     3
 90
        0
 40
-0.6
 41
-30.0
 62
     5
 63
     8
 74
     1
 91
        4
 64
     7
 65
   257
 75
     1
175
     1
 42
1.0
 92
        8
 66
     8
 43
1.0
 76
     1
 77
     6
 78
     2
 67
     7
 79
     5
170
     0
171
     0
290
     0
174
     0
 93
        1
 44
0.0
173
     0
291
     1
 45
0.0
1001
ACAD
1000
AcDbSavedByObjectVersion
1070
     0
  0
VISUALSTYLE
  5
212
102
{ACAD_REACTORS
330
209
102
}
330
209
100
AcDbVisualStyle
  2
Conceptual
 70
     9
 71
     3
 72
     2
 73
     0
 90
        0
 40
-0.6
 41
-30.0
 62
     5
 63
     7
 74
     2
 91
        2
 64
     7
 65
   257
 75
     1
175
     1
 42
40.0
 92
        8
 66
     7
 43
1.0
 76
     1
 77
     6
 78
     2
 67
     7
 79
     3
170
     0
171
     0
290
     0
174
     0
 93
        1
 44
0.0
173
     0
291
     0
 45
0.0
1001
ACAD
1000
AcDbSavedByObjectVersion
1070
     0
  0
VISUALSTYLE
  5
214
102
{ACAD_REACTORS
330
209
102
}
330
209
100
AcDbVisualStyle
  2
Dim
 70
    11
 71
     2
 72
     2
 73
     0
 90
        0
 40
-0.6
 41
-30.0
 62
     5
 63
     7
 74
     1
 91
        4
 64
     7
 65
   257
 75
     1
175
     1
 42
1.0
 92
        8
 66
     7
 43
1.0
 76
     1
 77
     6
 78
     2
 67
     7
 79
     5
170
     0
171
     0
290
     0
174
     0
 93
        1
 44
-50.0
173
     0
291
     1
 45
0.0
1001
ACAD
1000
AcDbSavedByObjectVersion
1070
     0
  0
VISUALSTYLE
  5
218
102
{ACAD_REACTORS
330
209
102
}
330
209
100
AcDbVisualStyle
  2
Facepattern
 70
    15
 71
     2
 72
     2
 73
     0
 90
        0
 40
-0.6
 41
-30.0
 62
     5
 63
     7
 74
     1
 91
        4
 64
     7
 65
   257
 75
     1
175
     1
 42
1.0
 92
        8
 66
     7
 43
1.0
 76
     1
 77
     6
 78
     2
 67
     7
 79
     5
170
     0
171
     0
290
     0
174
     0
 93
        1
 44
0.0
173
     0
291
     1
 45
0.0
1001
ACAD
1000
AcDbSavedByObjectVersion
1070
     0
  0
VISUALSTYLE
  5
20A
102
{ACAD_REACTORS
330
209
102
}
330
209
100
AcDbVisualStyle
  2
Flat
 70
     0
 71
     2
 72
     1
 73
     1
 90
        2
 40
-0.6
 41
30.0
 62
     5
 63
     7
 74
     0
 91
        4
 64
     7
 65
   257
 75
     1
175
     1
 42
1.0
 92
        8
 66
     7
 43
1.0
 76
     1
 77
     6
 78
     2
 67
     7
 79
     5
170
     0
171
     0
290
     0
174
     0
 93
       13
 44
0.0
173
     0
291
     1
 45
0.0
1001
ACAD
1000
AcDbSavedByObjectVersion
1070
     0
  0
VISUALSTYLE
  5
20B
102
{ACAD_REACTORS
330
209
102
}
330
209
100
AcDbVisualStyle
  2
FlatWithEdges
 70
     1
 71
     2
 72
     1
 73
     1
 90
        2
 40
-0.6
 41
30.0
 62
     5
 63
     7
 74
     1
 91
        4
 64
     7
 65
   257
 75
     1
175
     1
 42
1.0
 92
        0
 66
   257
 43
1.0
 76
     1
 77
     6
 78
     2
 67
     7
 79
     5
170
     0
171
     0
290
     0
174
     0
 93
       13
 44
0.0
173
     0
291
     1
 45
0.0
1001
ACAD
1000
AcDbSavedByObjectVersion
1070
     0
  0
VISUALSTYLE
  5
20C
102
{ACAD_REACTORS
330
209
102
}
330
209
100
AcDbVisualStyle
  2
Gouraud
 70
     2
 71
     2
 72
     2
 73
     1
 90
        2
 40
-0.6
 41
30.0
 62
     5
 63
     7
 74
     0
 91
        4
 64
     7
 65
   257
 75
     1
175
     1
 42
1.0
 92
        0
 66
     7
 43
1.0
 76
     1
 77
     6
 78
     2
 67
     7
 79
     5
170
     0
171
     0
290
     0
174
     0
 93
       13
 44
0.0
173
     0
291
     1
 45
0.0
1001
ACAD
1000
AcDbSavedByObjectVersion
1070
     0
  0
VISUALSTYLE
  5
20D
102
{ACAD_REACTORS
330
209
102
}
330
209
100
AcDbVisualStyle
  2
GouraudWithEdges
 70
     3
 71
     2
 72
     2
 73
     1
 90
        2
 40
-0.6
 41
30.0
 62
     5
 63
     7
 74
     1
 91
        4
 64
     7
 65
   257
 75
     1
175
     1
 42
1.0
 92
        0
 66
   257
 43
1.0
 76
     1
 77
     6
 78
     2
 67
     7
 79
     5
170
     0
171
     0
290
     0
174
     0
 93
       13
 44
0.0
173
     0
291
     1
 45
0.0
1001
ACAD
1000
AcDbSavedByObjectVersion
1070
     0
  0
VISUALSTYLE
  5
217
102
{ACAD_REACTORS
330
209
102
}
330
209
100
AcDbVisualStyle
  2
Linepattern
 70
    14
 71
     2
 72
     2
 73
     0
 90
        0
 40
-0.6
 41
-30.0
 62
     5
 63
     7
 74
     1
 91
        4
 64
     7
 65
   257
 75
     7
175
     7
 42
1.0
 92
        8
 66
     7
 43
1.0
 76
     1
 77
     6
 78
     2
 67
     7
 79
     5
170
     0
171
     0
290
     0
174
     0
 93
        1
 44
0.0
173
     0
291
     1
 45
0.0
1001
ACAD
1000
AcDbSavedByObjectVersion
1070
     0
  0
VISUALSTYLE
  5
213
102
{ACAD_REACTORS
330
209
102
}
330
209
100
AcDbVisualStyle
  2
Realistic
 70
     8
 71
     2
 72
     2
 73
     0
 90
        0
 40
-0.6
 41
-30.0
 62
     5
 63
     7
 74
     1
 91
        0
 64
     7
 65
   257
 75
     1
175
     1
 42
1.0
 92
        8
 66
     8
 43
1.0
 76
     1
 77
     6
 78
     2
 67
     7
 79
     5
170
     0
171
     0
290
     0
174
     0
 93
       13
 44
0.0
173
     0
291
     0
 45
0.0
1001
ACAD
1000
AcDbSavedByObjectVersion
1070
     0
  0
VISUALSTYLE
  5
216
102
{ACAD_REACTORS
330
209
102
}
330
209
100
AcDbVisualStyle
  2
Thicken
 70
    13
 71
     2
 72
     2
 73
     0
 90
        0
 40
-0.6
 41
-30.0
 62
     5
 63
     7
 74
     1
 91
        4
 64
     7
 65
   257
 75
     1
175
     1
 42
1.0
 92
       12
 66
     7
 43
1.0
 76
     1
 77
     6
 78
     2
 67
     7
 79
     5
170
     0
171
     0
290
     0
174
     0
 93
        1
 44
0.0
173
     0
291
     1
 45
0.0
1001
ACAD
1000
AcDbSavedByObjectVersion
1070
     0
  0
DICTIONARYVAR
  5
221
102
{ACAD_REACTORS
330
220
102
}
330
220
100
DictionaryVariables
280
     0
  1
STANDARD
  0
DICTIONARYVAR
  5
224
102
{ACAD_REACTORS
330
220
102
}
330
220
100
DictionaryVariables
280
     0
  1
1
  0
DICTIONARYVAR
  5
223
102
{ACAD_REACTORS
330
220
102
}
330
220
100
DictionaryVariables
280
     0
  1
0
  0
DICTIONARYVAR
  5
222
102
{ACAD_REACTORS
330
220
102
}
330
220
100
DictionaryVariables
280
     0
  1
127
  0
DICTIONARY
  5
22A
330
1B1
100
AcDbDictionary
280
     1
281
     1
  3
ACAD_XREC_ROUNDTRIP
360
22B
  0
DICTIONARY
  5
228
330
1B0
100
AcDbDictionary
280
     1
281
     1
  3
ACAD_XREC_ROUNDTRIP
360
229
  0
DICTIONARY
  5
22E
330
207
100
AcDbDictionary
280
     1
281
     1
  3
ACAD_XREC_ROUNDTRIP
360
22F
  0
DICTIONARY
  5
22C
330
206
100
AcDbDictionary
280
     1
281
     1
  3
ACAD_XREC_ROUNDTRIP
360
22D
  0
DICTIONARY
  5
230
330
208
100
AcDbDictionary
280
     1
281
     1
  3
ACAD_XREC_ROUNDTRIP
360
231
  0
DICTIONARY
  5
232
330
21C
100
AcDbDictionary
280
     1
281
     1
  3
ACAD_XREC_ROUNDTRIP
360
233
  0
XRECORD
  5
22B
102
{ACAD_REACTORS
330
22A
102
}
330
22A
100
AcDbXrecord
280
     1
102
SHADEPLOT
 70
     0
102
SHADEPLOTRESLEVEL
 70
     2
102
SHADEPLOTCUSTOMDPI
 70
   300
  0
XRECORD
  5
229
102
{ACAD_REACTORS
330
228
102
}
330
228
100
AcDbXrecord
280
     1
102
SHADEPLOT
 70
     0
102
SHADEPLOTRESLEVEL
 70
     2
102
SHADEPLOTCUSTOMDPI
 70
   300
  0
XRECORD
  5
22F
102
{ACAD_REACTORS
330
22E
102
}
330
22E
100
AcDbXrecord
280
     1
102
MATERIAL
148
0.0
149
0.0
149
0.0
 93
        0
 94
       63
282
     0
 72
     1
 77
     1
171
     1
175
     1
179
     1
273
     0
  0
XRECORD
  5
22D
102
{ACAD_REACTORS
330
22C
102
}
330
22C
100
AcDbXrecord
280
     1
102
MATERIAL
148
0.0
149
0.0
149
0.0
 93
        0
 94
       63
282
     0
 72
     1
 77
     1
171
     1
175
     1
179
     1
273
     0
  0
XRECORD
  5
231
102
{ACAD_REACTORS
330
230
102
}
330
230
100
AcDbXrecord
280
     1
102
MATERIAL
148
0.0
149
0.0
149
0.0
 93
        0
 94
       63
282
     0
 72
     1
 77
     1
171
     1
175
     1
179
     1
273
     0
  0
XRECORD
  5
233
102
{ACAD_REACTORS
330
232
102
}
330
232
100
AcDbXrecord
280
     1
102
ACAD_ROUNDTRIP_PRE2007_TABLESTYLE
 90
      512
 91
        0
  1

 92
      512
 93
        0
  2

 94
      512
 95
        0
  3

  0
ENDSEC
  0
EOF
