  0
SECTION
  2
HEADER
  9
$ACADVER
  1
AC1015
  9
$ACADMAINTVER
 70
    20
  9
$DWGCODEPAGE
  3
ANSI_1252
  9
$INSBASE
 10
0.0
 20
0.0
 30
0.0
  9
$EXTMIN
 10
50.19928082148465
 20
101.5725868693233
 30
-0.0000610304997082
  9
$EXTMAX
 10
138.1585699857196
 20
225.0431219456288
 30
0.000091555062788
  9
$LIMMIN
 10
0.0
 20
0.0
  9
$LIMMAX
 10
420.0
 20
297.0
  9
$ORTHOMODE
 70
     0
  9
$REGENMODE
 70
     1
  9
$FILLMODE
 70
     1
  9
$QTEXTMODE
 70
     0
  9
$MIRRTEXT
 70
     1
  9
$LTSCALE
 40
1.0
  9
$ATTMODE
 70
     1
  9
$TEXTSIZE
 40
2.5
  9
$TRACEWID
 40
1.0
  9
$TEXTSTYLE
  7
STANDARD
  9
$CLAYER
  8
0
  9
$CELTYPE
  6
BYLAYER
  9
$CECOLOR
 62
   256
  9
$CELTSCALE
 40
1.0
  9
$DISPSILH
 70
     0
  9
$DIMSCALE
 40
1.0
  9
$DIMASZ
 40
2.5
  9
$DIMEXO
 40
0.625
  9
$DIMDLI
 40
3.75
  9
$DIMRND
 40
0.0
  9
$DIMDLE
 40
0.0
  9
$DIMEXE
 40
1.25
  9
$DIMTP
 40
0.0
  9
$DIMTM
 40
0.0
  9
$DIMTXT
 40
2.5
  9
$DIMCEN
 40
2.5
  9
$DIMTSZ
 40
0.0
  9
$DIMTOL
 70
     0
  9
$DIMLIM
 70
     0
  9
$DIMTIH
 70
     0
  9
$DIMTOH
 70
     0
  9
$DIMSE1
 70
     0
  9
$DIMSE2
 70
     0
  9
$DIMTAD
 70
     1
  9
$DIMZIN
 70
     8
  9
$DIMBLK
  1

  9
$DIMASO
 70
     1
  9
$DIMSHO
 70
     1
  9
$DIMPOST
  1

  9
$DIMAPOST
  1

  9
$DIMALT
 70
     0
  9
$DIMALTD
 70
     3
  9
$DIMALTF
 40
0.03937
  9
$DIMLFAC
 40
1.0
  9
$DIMTOFL
 70
     1
  9
$DIMTVP
 40
0.0
  9
$DIMTIX
 70
     0
  9
$DIMSOXD
 70
     0
  9
$DIMSAH
 70
     0
  9
$DIMBLK1
  1

  9
$DIMBLK2
  1

  9
$DIMSTYLE
  2
STANDARD
  9
$DIMCLRD
 70
     0
  9
$DIMCLRE
 70
     0
  9
$DIMCLRT
 70
     0
  9
$DIMTFAC
 40
1.0
  9
$DIMGAP
 40
0.625
  9
$DIMJUST
 70
     0
  9
$DIMSD1
 70
     0
  9
$DIMSD2
 70
     0
  9
$DIMTOLJ
 70
     0
  9
$DIMTZIN
 70
     8
  9
$DIMALTZ
 70
     0
  9
$DIMALTTZ
 70
     0
  9
$DIMUPT
 70
     0
  9
$DIMDEC
 70
     2
  9
$DIMTDEC
 70
     2
  9
$DIMALTU
 70
     2
  9
$DIMALTTD
 70
     3
  9
$DIMTXSTY
  7
STANDARD
  9
$DIMAUNIT
 70
     0
  9
$DIMADEC
 70
     0
  9
$DIMALTRND
 40
0.0
  9
$DIMAZIN
 70
     0
  9
$DIMDSEP
 70
    46
  9
$DIMATFIT
 70
     0
  9
$DIMFRAC
 70
     0
  9
$DIMLDRBLK
  1

  9
$DIMLUNIT
 70
     2
  9
$DIMLWD
 70
    -2
  9
$DIMLWE
 70
    -2
  9
$DIMTMOVE
 70
     0
  9
$LUNITS
 70
     2
  9
$LUPREC
 70
     4
  9
$SKETCHINC
 40
1.0
  9
$FILLETRAD
 40
2.5
  9
$AUNITS
 70
     0
  9
$AUPREC
 70
     0
  9
$MENU
  1
.
  9
$ELEVATION
 40
0.0
  9
$PELEVATION
 40
0.0
  9
$THICKNESS
 40
0.0
  9
$LIMCHECK
 70
     0
  9
$CHAMFERA
 40
2.5
  9
$CHAMFERB
 40
2.5
  9
$CHAMFERC
 40
0.0
  9
$CHAMFERD
 40
0.0
  9
$SKPOLY
 70
     0
  9
$TDCREATE
 40
2447893.000000000
  9
$TDUCREATE
 40
2447892.916666666
  9
$TDUPDATE
 40
2454272.406296134
  9
$TDUUPDATE
 40
2454272.322962801
  9
$TDINDWG
 40
0.0021335417
  9
$TDUSRTIMER
 40
0.0021335417
  9
$USRTIMER
 70
     1
  9
$ANGBASE
 50
0.0
  9
$ANGDIR
 70
     0
  9
$PDMODE
 70
     0
  9
$PDSIZE
 40
0.0
  9
$PLINEWID
 40
0.0
  9
$SPLFRAME
 70
     0
  9
$SPLINETYPE
 70
     6
  9
$SPLINESEGS
 70
     8
  9
$HANDSEED
  5
685
  9
$SURFTAB1
 70
     6
  9
$SURFTAB2
 70
     6
  9
$SURFTYPE
 70
     6
  9
$SURFU
 70
     6
  9
$SURFV
 70
     6
  9
$UCSBASE
  2

  9
$UCSNAME
  2

  9
$UCSORG
 10
0.0
 20
0.0
 30
0.0
  9
$UCSXDIR
 10
1.0
 20
0.0
 30
0.0
  9
$UCSYDIR
 10
0.0
 20
1.0
 30
0.0
  9
$UCSORTHOREF
  2

  9
$UCSORTHOVIEW
 70
     0
  9
$UCSORGTOP
 10
0.0
 20
0.0
 30
0.0
  9
$UCSORGBOTTOM
 10
0.0
 20
0.0
 30
0.0
  9
$UCSORGLEFT
 10
0.0
 20
0.0
 30
0.0
  9
$UCSORGRIGHT
 10
0.0
 20
0.0
 30
0.0
  9
$UCSORGFRONT
 10
0.0
 20
0.0
 30
0.0
  9
$UCSORGBACK
 10
0.0
 20
0.0
 30
0.0
  9
$PUCSBASE
  2

  9
$PUCSNAME
  2

  9
$PUCSORG
 10
0.0
 20
0.0
 30
0.0
  9
$PUCSXDIR
 10
1.0
 20
0.0
 30
0.0
  9
$PUCSYDIR
 10
0.0
 20
1.0
 30
0.0
  9
$PUCSORTHOREF
  2

  9
$PUCSORTHOVIEW
 70
     0
  9
$PUCSORGTOP
 10
0.0
 20
0.0
 30
0.0
  9
$PUCSORGBOTTOM
 10
0.0
 20
0.0
 30
0.0
  9
$PUCSORGLEFT
 10
0.0
 20
0.0
 30
0.0
  9
$PUCSORGRIGHT
 10
0.0
 20
0.0
 30
0.0
  9
$PUCSORGFRONT
 10
0.0
 20
0.0
 30
0.0
  9
$PUCSORGBACK
 10
0.0
 20
0.0
 30
0.0
  9
$USERI1
 70
     0
  9
$USERI2
 70
     0
  9
$USERI3
 70
     0
  9
$USERI4
 70
     0
  9
$USERI5
 70
     0
  9
$USERR1
 40
0.0
  9
$USERR2
 40
0.0
  9
$USERR3
 40
0.0
  9
$USERR4
 40
0.0
  9
$USERR5
 40
0.0
  9
$WORLDVIEW
 70
     1
  9
$SHADEDGE
 70
     3
  9
$SHADEDIF
 70
    70
  9
$TILEMODE
 70
     1
  9
$MAXACTVP
 70
    48
  9
$PINSBASE
 10
0.0
 20
0.0
 30
0.0
  9
$PLIMCHECK
 70
     0
  9
$PEXTMIN
 10
0.0
 20
0.0
 30
0.0
  9
$PEXTMAX
 10
56.30533199999999
 20
105.7584
 30
2.0
  9
$PLIMMIN
 10
0.0
 20
0.0
  9
$PLIMMAX
 10
420.0
 20
297.0
  9
$UNITMODE
 70
     0
  9
$VISRETAIN
 70
     0
  9
$PLINEGEN
 70
     0
  9
$PSLTSCALE
 70
     1
  9
$TREEDEPTH
 70
  3020
  9
$CMLSTYLE
  2
STANDARD
  9
$CMLJUST
 70
     0
  9
$CMLSCALE
 40
20.0
  9
$PROXYGRAPHICS
 70
     1
  9
$MEASUREMENT
 70
     1
  9
$CELWEIGHT
370
    -1
  9
$ENDCAPS
280
     0
  9
$JOINSTYLE
280
     0
  9
$LWDISPLAY
290
     0
  9
$INSUNITS
 70
     0
  9
$HYPERLINKBASE
  1

  9
$STYLESHEET
  1

  9
$XEDIT
290
     1
  9
$CEPSNTYPE
380
     0
  9
$PSTYLEMODE
290
     1
  9
$FINGERPRINTGUID
  2
{7B3D514F-0D51-4671-B4E8-6AA4900DA460}
  9
$VERSIONGUID
  2
{41A24127-15F5-4FCD-BD96-BF84B910361E}
  9
$EXTNAMES
290
     1
  9
$PSVPSCALE
 40
0.0
  9
$OLESTARTUP
290
     0
  0
ENDSEC
  0
SECTION
  2
CLASSES
  0
CLASS
  1
IMAGE
  2
AcDbRasterImage
  3
ISM
 90
    34943
280
     0
281
     1
  0
CLASS
  1
DICTIONARYVAR
  2
AcDbDictionaryVar
  3
ObjectDBX Classes
 90
        0
280
     0
281
     0
  0
CLASS
  1
RASTERVARIABLES
  2
AcDbRasterVariables
  3
ISM
 90
    32768
280
     0
281
     0
  0
CLASS
  1
IMAGEDEF
  2
AcDbRasterImageDef
  3
ISM
 90
    32768
280
     0
281
     0
  0
CLASS
  1
IMAGEDEF_REACTOR
  2
AcDbRasterImageDefReactor
  3
ISM
 90
    32769
280
     0
281
     0
  0
CLASS
  1
IDBUFFER
  2
AcDbIdBuffer
  3
ObjectDBX Classes
 90
    32768
280
     0
281
     0
  0
CLASS
  1
SPATIAL_FILTER
  2
AcDbSpatialFilter
  3
ObjectDBX Classes
 90
    32768
280
     0
281
     0
  0
CLASS
  1
SORTENTSTABLE
  2
AcDbSortentsTable
  3
ObjectDBX Classes
 90
    32768
280
     0
281
     0
  0
CLASS
  1
LAYER_INDEX
  2
AcDbLayerIndex
  3
ObjectDBX Classes
 90
    32768
280
     0
281
     0
  0
CLASS
  1
SPATIAL_INDEX
  2
AcDbSpatialIndex
  3
ObjectDBX Classes
 90
    32768
280
     0
281
     0
  0
CLASS
  1
OBJECT_PTR
  2
CAseDLPNTableRecord
  3
ASE-LPNTableRecord
 90
    32769
280
     0
281
     0
  0
CLASS
  1
LAYOUT
  2
AcDbLayout
  3
ObjectDBX Classes
 90
        0
280
     0
281
     0
  0
CLASS
  1
PLOTSETTINGS
  2
AcDbPlotSettings
  3
ObjectDBX Classes
 90
    32768
280
     0
281
     0
  0
CLASS
  1
ACDBDICTIONARYWDFLT
  2
AcDbDictionaryWithDefault
  3
ObjectDBX Classes
 90
        0
280
     0
281
     0
  0
CLASS
  1
ACDBPLACEHOLDER
  2
AcDbPlaceHolder
  3
ObjectDBX Classes
 90
        0
280
     0
281
     0
  0
CLASS
  1
VBA_PROJECT
  2
AcDbVbaProject
  3
acad
 90
    32768
280
     0
281
     0
  0
CLASS
  1
WIPEOUT
  2
AcDbWipeout
  3
"WipeOut|Product Desc: Object Enabler for WipeOut entity                        |Company: Autodesk, Inc.                        |WEB Address: www.autodesk.com"
 90
    34943
280
     0
281
     1
  0
CLASS
  1
WIPEOUTVARIABLES
  2
AcDbWipeoutVariables
  3
"WipeOut|Product Desc:     WipeOut Dbx Application|Company:          Autodesk, Inc.|WEB Address:      www.autodesk.com"
 90
    32768
280
     0
281
     0
  0
CLASS
  1
RTEXT
  2
RText
  3
RText|AutoCAD Express Tool|expresstools@autodesk.com
 90
    32768
280
     0
281
     1
  0
CLASS
  1
ARCALIGNEDTEXT
  2
AcDbArcAlignedText
  3
ATEXT|AutoCAD Express Tool|expresstools@autodesk.com
 90
    32768
280
     0
281
     1
  0
CLASS
  1
MATERIAL
  2
AcDbMaterial
  3
ObjectDBX Classes
 90
     1024
280
     0
281
     0
  0
CLASS
  1
VISUALSTYLE
  2
AcDbVisualStyle
  3
ObjectDBX Classes
 90
     4095
280
     0
281
     0
  0
CLASS
  1
TABLESTYLE
  2
AcDbTableStyle
  3
ObjectDBX Classes
 90
     4095
280
     0
281
     0
  0
ENDSEC
  0
SECTION
  2
TABLES
  0
TABLE
  2
VPORT
  5
7
330
0
100
AcDbSymbolTable
 70
     1
  0
VPORT
  5
15
330
7
100
AcDbSymbolTableRecord
100
AcDbViewportTableRecord
  2
*ACTIVE
 70
     0
 10
0.0
 20
0.0
 11
1.0
 21
1.0
 12
94.17892540360217
 22
163.3078544074761
 13
0.0
 23
0.0
 14
1.0
 24
1.0
 15
0.0
 25
0.0
 16
0.0
 26
0.0
 36
1.0
 17
0.0
 27
0.0
 37
0.0
 40
124.4453024584869
 41
1.434782608695652
 42
50.0
 43
0.0
 44
0.0
 50
0.0
 51
0.0
 71
     0
 72
   100
 73
     1
 74
     1
 75
     0
 76
     0
 77
     0
 78
     0
281
     0
 65
     1
110
0.0
120
0.0
130
0.0
111
1.0
121
0.0
131
0.0
112
0.0
122
1.0
132
0.0
 79
     0
146
0.0
  0
ENDTAB
  0
TABLE
  2
LTYPE
  5
4
330
0
100
AcDbSymbolTable
 70
     8
  0
LTYPE
  5
11
330
4
100
AcDbSymbolTableRecord
100
AcDbLinetypeTableRecord
  2
BYBLOCK
 70
     0
  3

 72
    65
 73
     0
 40
0.0
  0
LTYPE
  5
12
330
4
100
AcDbSymbolTableRecord
100
AcDbLinetypeTableRecord
  2
BYLAYER
 70
     0
  3

 72
    65
 73
     0
 40
0.0
  0
LTYPE
  5
13
330
4
100
AcDbSymbolTableRecord
100
AcDbLinetypeTableRecord
  2
CONTINUOUS
 70
     0
  3
Solid line
 72
    65
 73
     0
 40
0.0
  0
LTYPE
  5
1D
330
4
100
AcDbSymbolTableRecord
100
AcDbLinetypeTableRecord
  2
DASHED
 70
     0
  3
__ __ __ __ __ __ __ __ __ __ __ __ __ __ __ __
 72
    65
 73
     2
 40
15.0
 49
12.0
 74
     0
 49
-3.0
 74
     0
  0
LTYPE
  5
1E
330
4
100
AcDbSymbolTableRecord
100
AcDbLinetypeTableRecord
  2
DASHDOT
 70
     0
  3
 __ . __ . __ . __ . __ . __ . __ . 
 72
    65
 73
     4
 40
18.5
 49
12.0
 74
     0
 49
-3.0
 74
     0
 49
0.5
 74
     0
 49
-3.0
 74
     0
  0
LTYPE
  5
1F
330
4
100
AcDbSymbolTableRecord
100
AcDbLinetypeTableRecord
  2
DOT
 70
     0
  3
 . . . . . . . . . . . . . . . .
 72
    65
 73
     2
 40
3.5
 49
0.5
 74
     0
 49
-3.0
 74
     0
  0
LTYPE
  5
20
330
4
100
AcDbSymbolTableRecord
100
AcDbLinetypeTableRecord
  2
DASHSPACE
 70
     0
  3
__    __    __    __    __   
 72
    65
 73
     2
 40
30.0
 49
12.0
 74
     0
 49
-18.0
 74
     0
  0
LTYPE
  5
21
330
4
100
AcDbSymbolTableRecord
100
AcDbLinetypeTableRecord
  2
DASHDOT2
 70
     0
  3
__ . . __ . . __ . . __ 
 72
    65
 73
     6
 40
22.0
 49
12.0
 74
     0
 49
-3.0
 74
     0
 49
0.5
 74
     0
 49
-3.0
 74
     0
 49
0.5
 74
     0
 49
-3.0
 74
     0
  0
LTYPE
  5
22
330
4
100
AcDbSymbolTableRecord
100
AcDbLinetypeTableRecord
  2
PHANTOM
 70
     0
  3
____________    ____    ____   _
 72
    65
 73
     6
 40
20.0
 49
10.0
 74
     0
 49
-2.0
 74
     0
 49
2.0
 74
     0
 49
-2.0
 74
     0
 49
2.0
 74
     0
 49
-2.0
 74
     0
  0
LTYPE
  5
23
330
4
100
AcDbSymbolTableRecord
100
AcDbLinetypeTableRecord
  2
AXES
 70
     0
  3
________  __  ________  __  _____
 72
    65
 73
     4
 40
24.0
 49
15.0
 74
     0
 49
-3.0
 74
     0
 49
3.0
 74
     0
 49
-3.0
 74
     0
  0
ENDTAB
  0
TABLE
  2
LAYER
  5
2
330
0
100
AcDbSymbolTable
 70
     6
  0
LAYER
  5
14
330
2
100
AcDbSymbolTableRecord
100
AcDbLayerTableRecord
  2
0
 70
     0
 62
     7
  6
CONTINUOUS
370
    -3
390
655
  0
LAYER
  5
64A
330
2
100
AcDbSymbolTableRecord
100
AcDbLayerTableRecord
  2
Hawa1
 70
     0
 62
     2
  6
CONTINUOUS
370
    -3
390
655
  0
LAYER
  5
64B
330
2
100
AcDbSymbolTableRecord
100
AcDbLayerTableRecord
  2
Hawa2
 70
     0
 62
     9
  6
CONTINUOUS
370
    -3
390
655
  0
LAYER
  5
64C
330
2
100
AcDbSymbolTableRecord
100
AcDbLayerTableRecord
  2
Hawa4
 70
     0
 62
     4
  6
CONTINUOUS
370
    -3
390
655
  0
LAYER
  5
64D
330
2
100
AcDbSymbolTableRecord
100
AcDbLayerTableRecord
  2
Hawa5
 70
     0
 62
     1
  6
CONTINUOUS
370
    -3
390
655
  0
LAYER
  5
64E
330
2
100
AcDbSymbolTableRecord
100
AcDbLayerTableRecord
  2
Hawa6
 70
     0
 62
     3
  6
CONTINUOUS
370
    -3
390
655
  0
ENDTAB
  0
TABLE
  2
STYLE
  5
3
330
0
100
AcDbSymbolTable
 70
     2
  0
STYLE
  5
17
330
3
100
AcDbSymbolTableRecord
100
AcDbTextStyleTableRecord
  2
STANDARD
 70
     0
 40
0.0
 41
1.0
 50
0.0
 71
     0
 42
2.5
  3
isocp.shx
  4

  0
STYLE
  5
24
330
3
100
AcDbSymbolTableRecord
100
AcDbTextStyleTableRecord
  2
GDT
 70
     0
 40
0.0
 41
1.0
 50
0.0
 71
     0
 42
2.5
  3
amgdt.shx
  4

  0
ENDTAB
  0
TABLE
  2
VIEW
  5
5
330
0
100
AcDbSymbolTable
 70
     0
  0
ENDTAB
  0
TABLE
  2
UCS
  5
6
330
0
100
AcDbSymbolTable
 70
     0
  0
ENDTAB
  0
TABLE
  2
APPID
  5
8
330
0
100
AcDbSymbolTable
 70
     1
  0
APPID
  5
16
330
8
100
AcDbSymbolTableRecord
100
AcDbRegAppTableRecord
  2
ACAD
 70
     0
  0
ENDTAB
  0
TABLE
  2
DIMSTYLE
  5
9
330
0
100
AcDbSymbolTable
 70
     1
100
AcDbDimStyleTable
 71
     0
  0
DIMSTYLE
105
18
102
{ACAD_REACTORS
330
26
330
28
330
2A
330
2C
330
2E
102
}
330
9
100
AcDbSymbolTableRecord
100
AcDbDimStyleTableRecord
  2
STANDARD
 70
     0
 41
2.5
 42
0.625
 43
3.75
 44
1.25
 73
     0
 74
     0
 77
     1
 78
     8
140
2.5
141
2.5
143
0.03937
147
0.625
171
     3
172
     1
271
     2
272
     2
274
     3
283
     0
284
     8
289
     0
340
17
  0
ENDTAB
  0
TABLE
  2
BLOCK_RECORD
  5
1
330
0
100
AcDbSymbolTable
 70
    10
  0
BLOCK_RECORD
  5
A
330
1
100
AcDbSymbolTableRecord
100
AcDbBlockTableRecord
  2
*MODEL_SPACE
340
45B
  0
BLOCK_RECORD
  5
B
330
1
100
AcDbSymbolTableRecord
100
AcDbBlockTableRecord
  2
*PAPER_SPACE
340
45C
  0
BLOCK_RECORD
  5
25
330
1
100
AcDbSymbolTableRecord
100
AcDbBlockTableRecord
  2
*D0
340
0
  0
BLOCK_RECORD
  5
27
330
1
100
AcDbSymbolTableRecord
100
AcDbBlockTableRecord
  2
*D1
340
0
  0
BLOCK_RECORD
  5
29
330
1
100
AcDbSymbolTableRecord
100
AcDbBlockTableRecord
  2
*D2
340
0
  0
BLOCK_RECORD
  5
2B
330
1
100
AcDbSymbolTableRecord
100
AcDbBlockTableRecord
  2
*D3
340
0
  0
BLOCK_RECORD
  5
2D
330
1
100
AcDbSymbolTableRecord
100
AcDbBlockTableRecord
  2
*D4
340
0
  0
BLOCK_RECORD
  5
A4
330
1
100
AcDbSymbolTableRecord
100
AcDbBlockTableRecord
  2
BLOCK0
340
0
  0
BLOCK_RECORD
  5
A5
330
1
100
AcDbSymbolTableRecord
100
AcDbBlockTableRecord
  2
BLOCK1
340
0
  0
BLOCK_RECORD
  5
A6
330
1
100
AcDbSymbolTableRecord
100
AcDbBlockTableRecord
  2
BLOCK2
340
0
  0
BLOCK_RECORD
  5
A7
330
1
100
AcDbSymbolTableRecord
100
AcDbBlockTableRecord
  2
BLOCK3
340
0
  0
BLOCK_RECORD
  5
A8
330
1
100
AcDbSymbolTableRecord
100
AcDbBlockTableRecord
  2
BLOCK4
340
0
  0
ENDTAB
  0
ENDSEC
  0
SECTION
  2
BLOCKS
  0
BLOCK
  5
D
330
A
100
AcDbEntity
  8
0
100
AcDbBlockBegin
  2
*MODEL_SPACE
 70
     0
 10
0.0
 20
0.0
 30
0.0
  3
*MODEL_SPACE
  1

  0
ENDBLK
  5
E
330
A
100
AcDbEntity
  8
0
100
AcDbBlockEnd
  0
BLOCK
  5
F
330
B
100
AcDbEntity
 67
     1
  8
0
100
AcDbBlockBegin
  2
*PAPER_SPACE
 70
     0
 10
0.0
 20
0.0
 30
0.0
  3
*PAPER_SPACE
  1

  0
ENDBLK
  5
10
330
B
100
AcDbEntity
 67
     1
  8
0
100
AcDbBlockEnd
  0
BLOCK
  5
A9
330
25
100
AcDbEntity
  8
Hawa2
 62
     9
100
AcDbBlockBegin
  2
*D0
 70
     1
 10
0.0
 20
0.0
 30
0.0
  3
*D0
  1

  0
TEXT
  5
AA
330
25
100
AcDbEntity
  8
Hawa1
 62
     2
100
AcDbText
 10
90.115093
 20
104.586942
 30
0.0
 40
3.5
  1
30
 41
1.380827101938038
 72
     5
 11
96.16001700000001
 21
104.586942
 31
0.0
100
AcDbText
  0
TEXT
  5
AB
330
25
100
AcDbEntity
  8
Hawa1
 62
     2
100
AcDbText
 10
97.160016
 20
105.836942
 30
0.0
 40
1.0
  1
/
 41
1.818181818181818
 72
     5
 11
98.16001599999999
 21
105.836942
 31
0.0
100
AcDbText
  0
TEXT
  5
AC
330
25
100
AcDbEntity
  8
Hawa1
 62
     2
100
AcDbText
 10
99.16001600000001
 20
104.586942
 30
0.0
 40
3.5
  1
1
 41
2.181601632653069
 72
     5
 11
101.832478
 21
104.586942
 31
0.0
100
AcDbText
  0
TEXT
  5
AD
330
25
100
AcDbEntity
  8
Hawa1
 62
     2
100
AcDbText
 10
105.581688
 20
106.686941
 30
0.0
 40
2.33345
  1
3
 41
1.291060618467967
 72
     5
 11
107.363419
 21
106.686941
 31
0.0
100
AcDbText
  0
TEXT
  5
AE
330
25
100
AcDbEntity
  8
Hawa1
 62
     2
100
AcDbText
 10
104.457478
 20
103.653491
 30
0.0
 40
2.33345
  1
16
 41
1.570672354827857
 72
     5
 11
108.487629
 21
103.653491
 31
0.0
100
AcDbText
  0
TEXT
  5
AF
330
25
100
AcDbEntity
  8
Hawa1
 62
     2
100
AcDbText
 10
108.487629
 20
105.461942
 30
0.0
 40
3.5
  1
"
 41
1.629629206349205
 72
     5
 11
111.054295
 21
105.461942
 31
0.0
100
AcDbText
  0
LINE
  5
B0
330
25
100
AcDbEntity
  8
Hawa1
 62
     2
 48
0.100754
100
AcDbLine
 10
104.457478
 20
106.336942
 30
0.0
 11
108.487629
 21
106.336942
 31
0.0
  0
LINE
  5
B1
330
25
100
AcDbEntity
  8
Hawa1
 62
     2
100
AcDbLine
 10
85.58404300000001
 20
126.769718
 30
0.0
 11
85.58404300000001
 21
101.653492
 31
0.0
  0
LINE
  5
B2
330
25
100
AcDbEntity
  8
Hawa1
 62
     2
100
AcDbLine
 10
115.585346
 20
184.729853
 30
0.0
 11
115.585346
 21
101.653492
 31
0.0
  0
LINE
  5
B3
330
25
100
AcDbEntity
  8
Hawa1
 62
     2
 48
0.075
100
AcDbLine
 10
114.524685
 20
101.592831
 30
0.0
 11
116.646006
 21
103.714152
 31
0.0
  0
LINE
  5
B4
330
25
100
AcDbEntity
  8
Hawa1
 62
     2
 48
0.075
100
AcDbLine
 10
86.64470300000001
 20
103.714152
 30
0.0
 11
84.52338199999999
 21
101.592831
 31
0.0
  0
LINE
  5
B5
330
25
100
AcDbEntity
  8
Hawa1
 62
     2
100
AcDbLine
 10
85.58404300000001
 20
102.653492
 30
0.0
 11
115.585346
 21
102.653492
 31
0.0
  0
ENDBLK
  5
B6
330
25
100
AcDbEntity
  8
Hawa2
 62
     9
100
AcDbBlockEnd
  0
BLOCK
  5
B7
330
27
100
AcDbEntity
  8
Hawa2
 62
     9
100
AcDbBlockBegin
  2
*D1
 70
     1
 10
0.0
 20
0.0
 30
0.0
  3
*D1
  1

  0
TEXT
  5
B8
330
27
100
AcDbEntity
  8
Hawa1
 62
     2
100
AcDbText
 10
98.161312
 20
220.713251
 30
0.0
 40
3.5
  1
51.5
 41
1.564374659210149
 72
     5
 11
109.612495
 21
220.713251
 31
0.0
100
AcDbText
  0
TEXT
  5
B9
330
27
100
AcDbEntity
  8
Hawa1
 62
     2
100
AcDbText
 10
110.612495
 20
221.963251
 30
0.0
 40
1.0
  1
/
 41
1.818181818181818
 72
     5
 11
111.612495
 21
221.963251
 31
0.0
100
AcDbText
  0
TEXT
  5
BA
330
27
100
AcDbEntity
  8
Hawa1
 62
     2
100
AcDbText
 10
112.612493
 20
220.713251
 30
0.0
 40
3.5
  1
2
 41
1.251617938848616
 72
     5
 11
115.284956
 21
220.713251
 31
0.0
100
AcDbText
  0
TEXT
  5
BB
330
27
100
AcDbEntity
  8
Hawa1
 62
     2
100
AcDbText
 10
119.034168
 20
222.81325
 30
0.0
 40
2.33345
  1
1
 41
2.181602348454015
 72
     5
 11
120.815899
 21
222.81325
 31
0.0
100
AcDbText
  0
TEXT
  5
BC
330
27
100
AcDbEntity
  8
Hawa1
 62
     2
100
AcDbText
 10
117.909958
 20
219.779803
 30
0.0
 40
2.33345
  1
32
 41
1.318353709796764
 72
     5
 11
121.940109
 21
219.779803
 31
0.0
100
AcDbText
  0
TEXT
  5
BD
330
27
100
AcDbEntity
  8
Hawa1
 62
     2
100
AcDbText
 10
121.940109
 20
221.588251
 30
0.0
 40
3.5
  1
"
 41
1.629629206349205
 72
     5
 11
124.506775
 21
221.588251
 31
0.0
100
AcDbText
  0
LINE
  5
BE
330
27
100
AcDbEntity
  8
Hawa1
 62
     2
 48
0.100754
100
AcDbLine
 10
117.909958
 20
222.463251
 30
0.0
 11
121.940105
 21
222.463251
 31
0.0
  0
LINE
  5
BF
330
27
100
AcDbEntity
  8
Hawa1
 62
     2
 48
0.2612489999999999
100
AcDbLine
 10
85.58404300000001
 20
209.329851
 30
0.0
 11
85.58404300000001
 21
219.779803
 31
0.0
  0
LINE
  5
C0
330
27
100
AcDbEntity
  8
Hawa1
 62
     2
100
AcDbLine
 10
137.084042
 20
187.829851
 30
0.0
 11
137.084042
 21
219.779803
 31
0.0
  0
LINE
  5
C1
330
27
100
AcDbEntity
  8
Hawa1
 62
     2
 48
0.075
100
AcDbLine
 10
136.023384
 20
217.719141
 30
0.0
 11
138.144703
 21
219.840464
 31
0.0
  0
LINE
  5
C2
330
27
100
AcDbEntity
  8
Hawa1
 62
     2
 48
0.075
100
AcDbLine
 10
86.64470300000001
 20
219.840464
 30
0.0
 11
84.52338199999999
 21
217.719141
 31
0.0
  0
LINE
  5
C3
330
27
100
AcDbEntity
  8
Hawa1
 62
     2
100
AcDbLine
 10
85.58404300000001
 20
218.779803
 30
0.0
 11
137.084042
 21
218.779803
 31
0.0
  0
ENDBLK
  5
C4
330
27
100
AcDbEntity
  8
Hawa2
 62
     9
100
AcDbBlockEnd
  0
BLOCK
  5
C5
330
29
100
AcDbEntity
  8
Hawa2
 62
     9
100
AcDbBlockBegin
  2
*D2
 70
     1
 10
0.0
 20
0.0
 30
0.0
  3
*D2
  1

  0
TEXT
  5
C6
330
29
100
AcDbEntity
  8
Hawa1
 62
     2
100
AcDbText
 10
54.54539499999999
 20
153.860251
 30
0.0
 40
3.5
  1
59
 50
90.0
 41
1.306847074285745
 72
     5
 11
54.54539499999999
 21
159.905173
 31
0.0
100
AcDbText
  0
TEXT
  5
C7
330
29
100
AcDbEntity
  8
Hawa1
 62
     2
100
AcDbText
 10
53.29539499999999
 20
160.905176
 30
0.0
 40
1.0
  1
/
 50
90.0
 41
1.818181818181818
 72
     5
 11
53.29539499999999
 21
161.905176
 31
0.0
100
AcDbText
  0
TEXT
  5
C8
330
29
100
AcDbEntity
  8
Hawa1
 62
     2
100
AcDbText
 10
54.54539499999999
 20
162.905173
 30
0.0
 40
3.5
  1
2
 50
90.0
 41
1.251617470509882
 72
     5
 11
54.54539499999999
 21
165.577635
 31
0.0
100
AcDbText
  0
TEXT
  5
C9
330
29
100
AcDbEntity
  8
Hawa1
 62
     2
100
AcDbText
 10
52.445393
 20
169.326845
 30
0.0
 40
2.33345
  1
5
 50
90.0
 41
1.291060618467968
 72
     5
 11
52.445393
 21
171.108576
 31
0.0
100
AcDbText
  0
TEXT
  5
CA
330
29
100
AcDbEntity
  8
Hawa1
 62
     2
100
AcDbText
 10
55.478844
 20
168.202635
 30
0.0
 40
2.33345
  1
16
 50
90.0
 41
1.570672354827857
 72
     5
 11
55.478844
 21
172.232786
 31
0.0
100
AcDbText
  0
TEXT
  5
CB
330
29
100
AcDbEntity
  8
Hawa1
 62
     2
100
AcDbText
 10
53.67039499999999
 20
172.232786
 30
0.0
 40
3.5
  1
"
 50
90.0
 41
1.629629206349205
 72
     5
 11
53.67039499999999
 21
174.799452
 31
0.0
100
AcDbText
  0
LINE
  5
CC
330
29
100
AcDbEntity
  8
Hawa1
 62
     2
 48
0.100754
100
AcDbLine
 10
52.79539499999999
 20
168.202635
 30
0.0
 11
52.79539499999999
 21
172.232786
 31
0.0
  0
LINE
  5
CD
330
29
100
AcDbEntity
  8
Hawa1
 62
     2
100
AcDbLine
 10
85.884043
 20
134.829852
 30
0.0
 11
55.478844
 21
134.829852
 31
0.0
  0
LINE
  5
CE
330
29
100
AcDbEntity
  8
Hawa1
 62
     2
100
AcDbLine
 10
85.884043
 20
193.829851
 30
0.0
 11
55.478844
 21
193.829851
 31
0.0
  0
LINE
  5
CF
330
29
100
AcDbEntity
  8
Hawa1
 62
     2
 48
0.075
100
AcDbLine
 10
57.539503
 20
192.76919
 30
0.0
 11
55.41818199999999
 21
194.890513
 31
0.0
  0
LINE
  5
D0
330
29
100
AcDbEntity
  8
Hawa1
 62
     2
 48
0.075
100
AcDbLine
 10
55.41818199999999
 20
135.890513
 30
0.0
 11
57.539503
 21
133.769192
 31
0.0
  0
LINE
  5
D1
330
29
100
AcDbEntity
  8
Hawa1
 62
     2
100
AcDbLine
 10
56.47884399999999
 20
134.829852
 30
0.0
 11
56.47884399999999
 21
193.829851
 31
0.0
  0
ENDBLK
  5
D2
330
29
100
AcDbEntity
  8
Hawa2
 62
     9
100
AcDbBlockEnd
  0
BLOCK
  5
D3
330
2B
100
AcDbEntity
  8
Hawa2
 62
     9
100
AcDbBlockBegin
  2
*D3
 70
     1
 10
0.0
 20
0.0
 30
0.0
  3
*D3
  1

  0
TEXT
  5
D4
330
2B
100
AcDbEntity
  8
Hawa1
 62
     2
100
AcDbText
 10
64.636806
 20
124.878415
 30
0.0
 40
3.5
  1
7.5
 41
1.45040531908999
 72
     5
 11
72.715527
 21
124.878415
 31
0.0
100
AcDbText
  0
TEXT
  5
D5
330
2B
100
AcDbEntity
  8
Hawa1
 62
     2
100
AcDbText
 10
76.839738
 20
126.978415
 30
0.0
 40
2.33345
  1
9
 41
1.228392587362938
 72
     5
 11
78.62146899999999
 21
126.978415
 31
0.0
100
AcDbText
  0
TEXT
  5
D6
330
2B
100
AcDbEntity
  8
Hawa1
 62
     2
100
AcDbText
 10
75.715528
 20
123.944965
 30
0.0
 40
2.33345
  1
32
 41
1.318353709796763
 72
     5
 11
79.74567900000001
 21
123.944965
 31
0.0
100
AcDbText
  0
TEXT
  5
D7
330
2B
100
AcDbEntity
  8
Hawa1
 62
     2
100
AcDbText
 10
79.74567900000001
 20
125.753414
 30
0.0
 40
3.5
  1
"
 41
1.629629206349196
 72
     5
 11
82.31234499999999
 21
125.753414
 31
0.0
100
AcDbText
  0
TEXT
  5
D8
330
2B
100
AcDbEntity
  8
Hawa1
 62
     2
100
AcDbText
 10
73.715528
 20
126.128415
 30
0.0
 40
1.0
  1
/
 41
1.818181818181818
 72
     5
 11
74.71552800000001
 21
126.128415
 31
0.0
100
AcDbText
  0
LINE
  5
D9
330
2B
100
AcDbEntity
  8
Hawa1
 62
     2
 48
0.100754
100
AcDbLine
 10
75.715528
 20
126.628415
 30
0.0
 11
79.74567900000001
 21
126.628415
 31
0.0
  0
LINE
  5
DA
330
2B
100
AcDbEntity
  8
Hawa1
 62
     2
 48
0.120619
100
AcDbLine
 10
85.58404300000001
 20
126.769718
 30
0.0
 11
85.58404300000001
 21
121.944965
 31
0.0
  0
LINE
  5
DB
330
2B
100
AcDbEntity
  8
Hawa1
 62
     2
 48
0.329622
100
AcDbLine
 10
93.08404300000001
 20
135.129853
 30
0.0
 11
93.08404300000001
 21
121.944965
 31
0.0
  0
LINE
  5
DC
330
2B
100
AcDbEntity
  8
Hawa1
 62
     2
 48
0.075
100
AcDbLine
 10
92.02338199999999
 20
121.884305
 30
0.0
 11
94.14470300000001
 21
124.005625
 31
0.0
  0
LINE
  5
DD
330
2B
100
AcDbEntity
  8
Hawa1
 62
     2
 48
0.075
100
AcDbLine
 10
86.64470300000001
 20
124.005625
 30
0.0
 11
84.52338199999999
 21
121.884305
 31
0.0
  0
LINE
  5
DE
330
2B
100
AcDbEntity
  8
Hawa1
 62
     2
100
AcDbLine
 10
64.636806
 20
122.944965
 30
0.0
 11
93.08404300000001
 21
122.944965
 31
0.0
  0
ENDBLK
  5
DF
330
2B
100
AcDbEntity
  8
Hawa2
 62
     9
100
AcDbBlockEnd
  0
BLOCK
  5
E0
330
2D
100
AcDbEntity
  8
Hawa2
 62
     9
100
AcDbBlockBegin
  2
*D4
 70
     1
 10
0.0
 20
0.0
 30
0.0
  3
*D4
  1

  0
TEXT
  5
E1
330
2D
100
AcDbEntity
  8
Hawa1
 62
     2
100
AcDbText
 10
64.970703
 20
175.29949
 30
0.0
 40
3.5
  1
6.2
 50
90.0
 41
1.433616270040188
 72
     5
 11
64.970703
 21
183.378214
 31
0.0
100
AcDbText
  0
TEXT
  5
E2
330
2D
100
AcDbEntity
  8
Hawa1
 62
     2
100
AcDbText
 10
64.970703
 20
170.79949
 30
0.0
 40
3.5
  1
%%c
 50
90.0
 41
1.333333333333332
 72
     5
 11
64.970703
 21
174.29949
 31
0.0
100
AcDbText
  0
TEXT
  5
E3
330
2D
100
AcDbEntity
  8
Hawa1
 62
     2
100
AcDbText
 10
62.870703
 20
186.3782139999999
 30
0.0
 40
2.33345
  1
1
 50
90.0
 41
2.181592553025443
 72
     5
 11
62.870703
 21
188.159937
 31
0.0
100
AcDbText
  0
TEXT
  5
E4
330
2D
100
AcDbEntity
  8
Hawa1
 62
     2
100
AcDbText
 10
65.90415400000001
 20
186.3782139999999
 30
0.0
 40
2.33345
  1
4
 50
90.0
 41
1.174703682398315
 72
     5
 11
65.90415400000001
 21
188.159937
 31
0.0
100
AcDbText
  0
TEXT
  5
E5
330
2D
100
AcDbEntity
  8
Hawa1
 62
     2
100
AcDbText
 10
64.095703
 20
188.159945
 30
0.0
 40
3.5
  1
"
 50
90.0
 41
1.629628571428589
 72
     5
 11
64.095703
 21
190.72661
 31
0.0
100
AcDbText
  0
TEXT
  5
E6
330
2D
100
AcDbEntity
  8
Hawa1
 62
     2
100
AcDbText
 10
63.720703
 20
184.378214
 30
0.0
 40
1.0
  1
/
 50
90.0
 41
1.818181818181818
 72
     5
 11
63.720703
 21
185.378214
 31
0.0
100
AcDbText
  0
LINE
  5
E7
330
2D
100
AcDbEntity
  8
Hawa1
 62
     2
 48
0.044543
100
AcDbLine
 10
63.220703
 20
186.3782139999999
 30
0.0
 11
63.220703
 21
188.159945
 31
0.0
  0
LINE
  5
E8
330
2D
100
AcDbEntity
  8
Hawa1
 62
     2
 48
0.4919970000000001
100
AcDbLine
 10
85.58404300000001
 20
162.729853
 30
0.0
 11
65.90415400000001
 21
162.729853
 31
0.0
  0
LINE
  5
E9
330
2D
100
AcDbEntity
  8
Hawa1
 62
     2
 48
0.4919970000000001
100
AcDbLine
 10
85.58404300000001
 20
168.929854
 30
0.0
 11
65.90415400000001
 21
168.929854
 31
0.0
  0
LINE
  5
EA
330
2D
100
AcDbEntity
  8
Hawa1
 62
     2
 48
0.075
100
AcDbLine
 10
67.964813
 20
167.869192
 30
0.0
 11
65.843492
 21
169.990511
 31
0.0
  0
LINE
  5
EB
330
2D
100
AcDbEntity
  8
Hawa1
 62
     2
 48
0.075
100
AcDbLine
 10
65.843492
 20
163.790514
 30
0.0
 11
67.964813
 21
161.669192
 31
0.0
  0
LINE
  5
EC
330
2D
100
AcDbEntity
  8
Hawa1
 62
     2
100
AcDbLine
 10
66.904154
 20
162.729853
 30
0.0
 11
66.904154
 21
190.72661
 31
0.0
  0
ENDBLK
  5
ED
330
2D
100
AcDbEntity
  8
Hawa2
 62
     9
100
AcDbBlockEnd
  0
BLOCK
  5
EE
330
A4
100
AcDbEntity
  8
Hawa2
 62
     9
100
AcDbBlockBegin
  2
BLOCK0
 70
     0
 10
0.0
 20
0.0
 30
0.0
  3
BLOCK0
  1

  0
LINE
  5
EF
330
A4
100
AcDbEntity
  8
Hawa5
 62
     1
100
AcDbLine
 10
0.000001
 20
90.0
 30
0.0
 11
0.000001
 21
47.79999899999999
 31
0.0
  0
LINE
  5
F0
330
A4
100
AcDbEntity
  8
Hawa5
 62
     1
100
AcDbLine
 10
0.000001
 20
43.400002
 30
0.0
 11
0.000001
 21
7.439866999999999
 31
0.0
  0
LINE
  5
F1
330
A4
100
AcDbEntity
  8
Hawa4
 62
     4
 48
0.03625
100
AcDbLine
 10
3.500001
 20
50.75
 30
0.0
 11
3.500001
 21
52.200001
 31
0.0
  0
LINE
  5
F2
330
A4
100
AcDbEntity
  8
Hawa5
 62
     1
 48
0.004656
100
AcDbLine
 10
0.000001
 20
47.986221
 30
0.0
 11
0.000001
 21
47.799995
 31
0.0
  0
LINE
  5
F3
330
A4
100
AcDbEntity
  8
Hawa5
 62
     1
 48
0.034379
100
AcDbLine
 10
0.000001
 20
44.77517299999999
 30
0.0
 11
0.000001
 21
43.400002
 31
0.0
  0
LINE
  5
F4
330
A4
100
AcDbEntity
  8
Hawa4
 62
     4
 48
0.0875
100
AcDbLine
 10
0.000001
 20
43.400002
 30
0.0
 11
3.500001
 21
43.400002
 31
0.0
  0
LINE
  5
F5
330
A4
100
AcDbEntity
  8
Hawa5
 62
     1
 48
0.040345
100
AcDbLine
 10
0.000001
 20
49.600002
 30
0.0
 11
0.000001
 21
47.986221
 31
0.0
  0
LINE
  5
F6
330
A4
100
AcDbEntity
  8
Hawa4
 62
     4
 48
0.0875
100
AcDbLine
 10
0.000001
 20
49.600002
 30
0.0
 11
3.500001
 21
49.600002
 31
0.0
  0
ARC
  5
F7
330
A4
100
AcDbEntity
  8
Hawa4
 62
     4
100
AcDbCircle
 10
3.800001
 20
52.200001
 30
0.0
 40
0.3
100
AcDbArc
 50
90.00000300000001
 51
180.000005
  0
LINE
  5
F8
330
A4
100
AcDbEntity
  8
Hawa4
 62
     4
 48
0.259393
100
AcDbLine
 10
7.500000999999999
 20
52.5
 30
0.0
 11
7.500000999999999
 21
62.87573599999999
 31
0.0
  0
LINE
  5
F9
330
A4
100
AcDbEntity
  8
Hawa4
 62
     4
 48
0.0925
100
AcDbLine
 10
3.800001
 20
52.5
 30
0.0
 11
7.500000999999999
 21
52.5
 31
0.0
  0
LINE
  5
FA
330
A4
100
AcDbEntity
  8
Hawa5
 62
     1
 48
0.03625
100
AcDbLine
 10
3.500001
 20
40.79999899999999
 30
0.0
 11
3.500001
 21
42.25
 31
0.0
  0
ARC
  5
FB
330
A4
100
AcDbEntity
  8
Hawa5
 62
     1
100
AcDbCircle
 10
3.800001
 20
40.79999899999999
 30
0.0
 40
0.3
100
AcDbArc
 50
180.000005
 51
270.000001
  0
LINE
  5
FC
330
A4
100
AcDbEntity
  8
Hawa4
 62
     4
 48
0.0925
100
AcDbLine
 10
7.500000999999999
 20
40.49999999999999
 30
0.0
 11
3.800001
 21
40.49999999999999
 31
0.0
  0
LINE
  5
FD
330
A4
100
AcDbEntity
  8
Hawa4
 62
     4
100
AcDbLine
 10
7.500000999999999
 20
15.800001
 30
0.0
 11
7.500000999999999
 21
40.49999999999999
 31
0.0
  0
ARC
  5
FE
330
A4
100
AcDbEntity
  8
Hawa4
 62
     4
100
AcDbCircle
 10
7.200000999999999
 20
15.800001
 30
0.0
 40
0.3
100
AcDbArc
 50
270.000001
 51
0.00001
  0
LINE
  5
FF
330
A4
100
AcDbEntity
  8
Hawa4
 62
     4
 48
0.1725
100
AcDbLine
 10
0.300001
 20
15.500001
 30
0.0
 11
7.200000999999999
 21
15.500001
 31
0.0
  0
ARC
  5
100
330
A4
100
AcDbEntity
  8
Hawa4
 62
     4
100
AcDbCircle
 10
0.300001
 20
15.800001
 30
0.0
 40
0.3
100
AcDbArc
 50
180.000005
 51
270.000001
  0
LINE
  5
101
330
A4
100
AcDbEntity
  8
Hawa4
 62
     4
100
AcDbLine
 10
0.000001
 20
43.400002
 30
0.0
 11
0.000001
 21
15.800001
 31
0.0
  0
LINE
  5
102
330
A4
100
AcDbEntity
  8
Hawa4
 62
     4
100
AcDbLine
 10
0.000001
 20
74.200005
 30
0.0
 11
0.000001
 21
49.600002
 31
0.0
  0
ARC
  5
103
330
A4
100
AcDbEntity
  8
Hawa4
 62
     4
100
AcDbCircle
 10
0.300001
 20
74.200005
 30
0.0
 40
0.3
100
AcDbArc
 50
90.00000300000001
 51
180.000005
  0
LINE
  5
104
330
A4
100
AcDbEntity
  8
Hawa4
 62
     4
 48
0.205435
100
AcDbLine
 10
8.517395
 20
74.5
 30
0.0
 11
0.300001
 21
74.5
 31
0.0
  0
ARC
  5
105
330
A4
100
AcDbEntity
  8
Hawa4
 62
     4
100
AcDbCircle
 10
8.517395
 20
74.200005
 30
0.0
 40
0.3
100
AcDbArc
 50
30.0
 51
90.00000300000001
  0
LINE
  5
106
330
A4
100
AcDbEntity
  8
Hawa4
 62
     4
 48
0.054131
100
AcDbLine
 10
9.859825
 20
72.47484599999999
 30
0.0
 11
8.777203
 21
74.34999799999999
 31
0.0
  0
ARC
  5
107
330
A4
100
AcDbEntity
  8
Hawa4
 62
     4
100
AcDbCircle
 10
9.600017999999998
 20
72.324844
 30
0.0
 40
0.3
100
AcDbArc
 50
307.494706
 51
30.000003
  0
ARC
  5
108
330
A4
100
AcDbEntity
  8
Hawa4
 62
     4
100
AcDbCircle
 10
11.000001
 20
70.5
 30
0.0
 40
2.0
100
AcDbArc
 50
127.494715
 51
52.505287
  0
ARC
  5
109
330
A4
100
AcDbEntity
  8
Hawa4
 62
     4
100
AcDbCircle
 10
12.399984
 20
72.324844
 30
0.0
 40
0.3
100
AcDbArc
 50
149.999997
 51
232.505294
  0
LINE
  5
10A
330
A4
100
AcDbEntity
  8
Hawa4
 62
     4
 48
0.054131
100
AcDbLine
 10
13.222799
 20
74.34999799999999
 30
0.0
 11
12.140177
 21
72.47484599999999
 31
0.0
  0
ARC
  5
10B
330
A4
100
AcDbEntity
  8
Hawa4
 62
     4
100
AcDbCircle
 10
13.482607
 20
74.200005
 30
0.0
 40
0.3
100
AcDbArc
 50
90.00000300000001
 51
149.999997
  0
LINE
  5
10C
330
A4
100
AcDbEntity
  8
Hawa4
 62
     4
100
AcDbLine
 10
47.915764
 20
74.5
 30
0.0
 11
13.482607
 21
74.5
 31
0.0
  0
ARC
  5
10D
330
A4
100
AcDbEntity
  8
Hawa4
 62
     4
100
AcDbCircle
 10
47.915764
 20
72.5
 30
0.0
 40
2.0
100
AcDbArc
 50
19.999999
 51
90.00000300000001
  0
LINE
  5
10E
330
A4
100
AcDbEntity
  8
Hawa4
 62
     4
 48
0.124616
100
AcDbLine
 10
51.5
 20
68.5
 30
0.0
 11
49.795151
 21
73.184044
 31
0.0
  0
LINE
  5
10F
330
A4
100
AcDbEntity
  8
Hawa4
 62
     4
 48
0.1
100
AcDbLine
 10
51.5
 20
64.5
 30
0.0
 11
51.5
 21
68.5
 31
0.0
  0
LINE
  5
110
330
A4
100
AcDbEntity
  8
Hawa4
 62
     4
 48
0.40625
100
AcDbLine
 10
35.25
 20
64.5
 30
0.0
 11
51.5
 21
64.5
 31
0.0
  0
LINE
  5
111
330
A4
100
AcDbEntity
  8
Hawa4
 62
     4
 48
0.06
100
AcDbLine
 10
35.25
 20
66.900002
 30
0.0
 11
35.25
 21
64.5
 31
0.0
  0
ARC
  5
112
330
A4
100
AcDbEntity
  8
Hawa4
 62
     4
100
AcDbCircle
 10
35.549999
 20
66.900002
 30
0.0
 40
0.3
100
AcDbArc
 50
90.00000300000001
 51
180.000005
  0
LINE
  5
113
330
A4
100
AcDbEntity
  8
Hawa6
 62
     3
 48
0.004917
100
AcDbLine
 10
38.450001
 20
67.20000500000001
 30
0.0
 11
38.253334
 21
67.20000500000001
 31
0.0
  0
ARC
  5
114
330
A4
100
AcDbEntity
  8
Hawa4
 62
     4
100
AcDbCircle
 10
38.450001
 20
67.5
 30
0.0
 40
0.3
100
AcDbArc
 50
270.000001
 51
0.00001
  0
LINE
  5
115
330
A4
100
AcDbEntity
  8
Hawa4
 62
     4
 48
0.029115
100
AcDbLine
 10
38.75
 20
70.900002
 30
0.0
 11
38.75
 21
69.73541999999999
 31
0.0
  0
LINE
  5
116
330
A4
100
AcDbEntity
  8
Hawa6
 62
     3
 48
0.004114
100
AcDbLine
 10
38.75
 20
67.664574
 30
0.0
 11
38.75
 21
67.5
 31
0.0
  0
ARC
  5
117
330
A4
100
AcDbEntity
  8
Hawa4
 62
     4
100
AcDbCircle
 10
38.450001
 20
70.900002
 30
0.0
 40
0.3
100
AcDbArc
 50
0.0
 51
90.00000300000001
  0
LINE
  5
118
330
A4
100
AcDbEntity
  8
Hawa4
 62
     4
 48
0.18875
100
AcDbLine
 10
30.900002
 20
71.200005
 30
0.0
 11
38.450001
 21
71.200005
 31
0.0
  0
LINE
  5
119
330
A4
100
AcDbEntity
  8
Hawa4
 62
     4
 48
0.010607
100
AcDbLine
 10
30.900002
 20
71.200005
 30
0.0
 11
30.6
 21
71.5
 31
0.0
  0
LINE
  5
11A
330
A4
100
AcDbEntity
  8
Hawa4
 62
     4
 48
0.010607
100
AcDbLine
 10
30.6
 20
71.5
 30
0.0
 11
30.300001
 21
71.200005
 31
0.0
  0
LINE
  5
11B
330
A4
100
AcDbEntity
  8
Hawa4
 62
     4
 48
0.015
100
AcDbLine
 10
29.700001
 20
71.200005
 30
0.0
 11
30.300001
 21
71.200005
 31
0.0
  0
LINE
  5
11C
330
A4
100
AcDbEntity
  8
Hawa4
 62
     4
 48
0.010607
100
AcDbLine
 10
29.400002
 20
71.5
 30
0.0
 11
29.700001
 21
71.200005
 31
0.0
  0
LINE
  5
11D
330
A4
100
AcDbEntity
  8
Hawa4
 62
     4
 48
0.010607
100
AcDbLine
 10
29.1
 20
71.200005
 30
0.0
 11
29.400002
 21
71.5
 31
0.0
  0
LINE
  5
11E
330
A4
100
AcDbEntity
  8
Hawa4
 62
     4
 48
0.18875
100
AcDbLine
 10
21.550001
 20
71.200005
 30
0.0
 11
29.1
 21
71.200005
 31
0.0
  0
ARC
  5
11F
330
A4
100
AcDbEntity
  8
Hawa4
 62
     4
100
AcDbCircle
 10
21.550001
 20
70.900002
 30
0.0
 40
0.3
100
AcDbArc
 50
90.00000300000001
 51
180.000005
  0
LINE
  5
120
330
A4
100
AcDbEntity
  8
Hawa4
 62
     4
 48
0.085
100
AcDbLine
 10
21.250002
 20
67.5
 30
0.0
 11
21.250002
 21
70.900002
 31
0.0
  0
ARC
  5
121
330
A4
100
AcDbEntity
  8
Hawa4
 62
     4
100
AcDbCircle
 10
21.550001
 20
67.5
 30
0.0
 40
0.3
100
AcDbArc
 50
180.000005
 51
270.000001
  0
LINE
  5
122
330
A4
100
AcDbEntity
  8
Hawa4
 62
     4
 48
0.0725
100
AcDbLine
 10
24.450001
 20
67.20000500000001
 30
0.0
 11
21.550001
 21
67.20000500000001
 31
0.0
  0
ARC
  5
123
330
A4
100
AcDbEntity
  8
Hawa4
 62
     4
100
AcDbCircle
 10
24.450001
 20
66.900002
 30
0.0
 40
0.3
100
AcDbArc
 50
0.00001
 51
89.99999200000001
  0
LINE
  5
124
330
A4
100
AcDbEntity
  8
Hawa4
 62
     4
 48
0.06
100
AcDbLine
 10
24.750002
 20
64.5
 30
0.0
 11
24.750002
 21
66.900002
 31
0.0
  0
LINE
  5
125
330
A4
100
AcDbEntity
  8
Hawa4
 62
     4
 48
0.3906429999999999
100
AcDbLine
 10
9.124264999999999
 20
64.5
 30
0.0
 11
24.750002
 21
64.5
 31
0.0
  0
ARC
  5
126
330
A4
100
AcDbEntity
  8
Hawa4
 62
     4
100
AcDbCircle
 10
9.124264999999999
 20
64.800003
 30
0.0
 40
0.3
100
AcDbArc
 50
224.999995
 51
270.000001
  0
LINE
  5
127
330
A4
100
AcDbEntity
  8
Hawa4
 62
     4
 48
0.010086
100
AcDbLine
 10
8.626872999999999
 20
64.873131
 30
0.0
 11
8.912133
 21
64.587868
 31
0.0
  0
ARC
  5
128
330
A4
100
AcDbEntity
  8
Hawa4
 62
     4
100
AcDbCircle
 10
8.320577
 20
64.566833
 30
0.0
 40
0.4331680000000001
100
AcDbArc
 50
45.0
 51
90.00000300000001
  0
LINE
  5
129
330
A4
100
AcDbEntity
  8
Hawa4
 62
     4
 48
0.025514
100
AcDbLine
 10
7.300000999999999
 20
65.0
 30
0.0
 11
8.320577
 21
65.0
 31
0.0
  0
ARC
  5
12A
330
A4
100
AcDbEntity
  8
Hawa4
 62
     4
100
AcDbCircle
 10
7.300000999999999
 20
64.70000500000001
 30
0.0
 40
0.3
100
AcDbArc
 50
90.00000300000001
 51
180.000005
  0
LINE
  5
12B
330
A4
100
AcDbEntity
  8
Hawa4
 62
     4
 48
0.026894
100
AcDbLine
 10
7.000000999999999
 20
63.624264
 30
0.0
 11
7.000000999999999
 21
64.70000500000001
 31
0.0
  0
ARC
  5
12C
330
A4
100
AcDbEntity
  8
Hawa4
 62
     4
100
AcDbCircle
 10
7.300000999999999
 20
63.624264
 30
0.0
 40
0.3
100
AcDbArc
 50
180.000005
 51
224.999995
  0
LINE
  5
12D
330
A4
100
AcDbEntity
  8
Hawa4
 62
     4
 48
0.011464
100
AcDbLine
 10
7.412132999999999
 20
63.087868
 30
0.0
 11
7.087869
 21
63.41213199999999
 31
0.0
  0
ARC
  5
12E
330
A4
100
AcDbEntity
  8
Hawa4
 62
     4
100
AcDbCircle
 10
7.200000999999999
 20
62.87573599999999
 30
0.0
 40
0.3
100
AcDbArc
 50
0.00001
 51
45.0
  0
LINE
  5
12F
330
A4
100
AcDbEntity
  8
Hawa4
 62
     4
 48
0.3125
100
AcDbLine
 10
51.0
 20
14.500001
 30
0.0
 11
38.5
 21
14.500001
 31
0.0
  0
ARC
  5
130
330
A4
100
AcDbEntity
  8
Hawa4
 62
     4
100
AcDbCircle
 10
38.5
 20
16.000002
 30
0.0
 40
1.5
100
AcDbArc
 50
180.000005
 51
270.000001
  0
LINE
  5
131
330
A4
100
AcDbEntity
  8
Hawa4
 62
     4
 48
0.0575
100
AcDbLine
 10
37.0
 20
16.000002
 30
0.0
 11
37.0
 21
18.300001
 31
0.0
  0
LINE
  5
132
330
A4
100
AcDbEntity
  8
Hawa4
 62
     4
 48
0.14625
100
AcDbLine
 10
37.0
 20
18.300001
 30
0.0
 11
42.850002
 21
18.300001
 31
0.0
  0
ARC
  5
133
330
A4
100
AcDbEntity
  8
Hawa4
 62
     4
100
AcDbCircle
 10
42.850002
 20
18.800001
 30
0.0
 40
0.5
100
AcDbArc
 50
270.000001
 51
0.00001
  0
LINE
  5
134
330
A4
100
AcDbEntity
  8
Hawa4
 62
     4
 48
0.0375
100
AcDbLine
 10
43.350002
 20
18.800001
 30
0.0
 11
43.350002
 21
20.300001
 31
0.0
  0
ARC
  5
135
330
A4
100
AcDbEntity
  8
Hawa4
 62
     4
100
AcDbCircle
 10
44.350002
 20
20.300001
 30
0.0
 40
1.0
100
AcDbArc
 50
90.00000300000001
 51
180.000005
  0
LINE
  5
136
330
A4
100
AcDbEntity
  8
Hawa4
 62
     4
 48
0.10375
100
AcDbLine
 10
44.350002
 20
21.300001
 30
0.0
 11
48.5
 21
21.300001
 31
0.0
  0
ARC
  5
137
330
A4
100
AcDbEntity
  8
Hawa4
 62
     4
100
AcDbCircle
 10
48.5
 20
21.800001
 30
0.0
 40
0.5
100
AcDbArc
 50
270.000001
 51
0.00001
  0
LINE
  5
138
330
A4
100
AcDbEntity
  8
Hawa4
 62
     4
100
AcDbLine
 10
49.0
 20
21.800001
 30
0.0
 11
49.0
 21
58.700001
 31
0.0
  0
ARC
  5
139
330
A4
100
AcDbEntity
  8
Hawa4
 62
     4
100
AcDbCircle
 10
47.0
 20
58.700001
 30
0.0
 40
2.0
100
AcDbArc
 50
0.00001
 51
89.99999200000001
  0
LINE
  5
13A
330
A4
100
AcDbEntity
  8
Hawa4
 62
     4
 48
0.3625
100
AcDbLine
 10
27.50000200000001
 20
60.700001
 30
0.0
 11
13.000001
 21
60.700001
 31
0.0
  0
LINE
  5
13B
330
A4
100
AcDbEntity
  8
Hawa4
 62
     4
 48
0.3625
100
AcDbLine
 10
47.0
 20
60.700001
 30
0.0
 11
32.5
 21
60.700001
 31
0.0
  0
ARC
  5
13C
330
A4
100
AcDbEntity
  8
Hawa4
 62
     4
100
AcDbCircle
 10
13.000001
 20
58.700001
 30
0.0
 40
2.0
100
AcDbArc
 50
90.00000300000001
 51
180.000005
  0
LINE
  5
13D
330
A4
100
AcDbEntity
  8
Hawa4
 62
     4
100
AcDbLine
 10
11.000001
 20
58.700001
 30
0.0
 11
11.000001
 21
21.800001
 31
0.0
  0
ARC
  5
13E
330
A4
100
AcDbEntity
  8
Hawa4
 62
     4
100
AcDbCircle
 10
11.500001
 20
21.800001
 30
0.0
 40
0.5
100
AcDbArc
 50
180.000005
 51
270.000001
  0
LINE
  5
13F
330
A4
100
AcDbEntity
  8
Hawa4
 62
     4
 48
0.10375
100
AcDbLine
 10
11.500001
 20
21.300001
 30
0.0
 11
15.650001
 21
21.300001
 31
0.0
  0
ARC
  5
140
330
A4
100
AcDbEntity
  8
Hawa4
 62
     4
100
AcDbCircle
 10
15.650001
 20
20.300001
 30
0.0
 40
1.0
100
AcDbArc
 50
0.00001
 51
89.99999200000001
  0
LINE
  5
141
330
A4
100
AcDbEntity
  8
Hawa4
 62
     4
 48
0.0375
100
AcDbLine
 10
16.650002
 20
20.300001
 30
0.0
 11
16.650002
 21
18.800001
 31
0.0
  0
ARC
  5
142
330
A4
100
AcDbEntity
  8
Hawa4
 62
     4
100
AcDbCircle
 10
17.150002
 20
18.800001
 30
0.0
 40
0.5
100
AcDbArc
 50
180.000005
 51
270.000001
  0
LINE
  5
143
330
A4
100
AcDbEntity
  8
Hawa4
 62
     4
 48
0.14625
100
AcDbLine
 10
17.150002
 20
18.300001
 30
0.0
 11
23.000002
 21
18.300001
 31
0.0
  0
LINE
  5
144
330
A4
100
AcDbEntity
  8
Hawa4
 62
     4
 48
0.0575
100
AcDbLine
 10
23.000002
 20
18.300001
 30
0.0
 11
23.000002
 21
16.000002
 31
0.0
  0
ARC
  5
145
330
A4
100
AcDbEntity
  8
Hawa4
 62
     4
100
AcDbCircle
 10
21.500002
 20
16.000002
 30
0.0
 40
1.5
100
AcDbArc
 50
270.000001
 51
0.00001
  0
LINE
  5
146
330
A4
100
AcDbEntity
  8
Hawa4
 62
     4
 48
0.3125
100
AcDbLine
 10
21.500002
 20
14.500001
 30
0.0
 11
9.000000999999999
 21
14.500001
 31
0.0
  0
ARC
  5
147
330
A4
100
AcDbEntity
  8
Hawa4
 62
     4
100
AcDbCircle
 10
9.000000999999999
 20
16.000002
 30
0.0
 40
1.5
100
AcDbArc
 50
180.000005
 51
270.000001
  0
LINE
  5
148
330
A4
100
AcDbEntity
  8
Hawa4
 62
     4
100
AcDbLine
 10
7.500000999999999
 20
16.000002
 30
0.0
 11
7.500000999999999
 21
63.0
 31
0.0
  0
ARC
  5
149
330
A4
100
AcDbEntity
  8
Hawa4
 62
     4
100
AcDbCircle
 10
9.000000999999999
 20
63.0
 30
0.0
 40
1.5
100
AcDbArc
 50
90.00000300000001
 51
180.000005
  0
LINE
  5
14A
330
A4
100
AcDbEntity
  8
Hawa4
 62
     4
 48
0.4625
100
AcDbLine
 10
32.5
 20
64.5
 30
0.0
 11
51.0
 21
64.5
 31
0.0
  0
LINE
  5
14B
330
A4
100
AcDbEntity
  8
Hawa4
 62
     4
 48
0.4625
100
AcDbLine
 10
9.000000999999999
 20
64.5
 30
0.0
 11
27.50000200000001
 21
64.5
 31
0.0
  0
ARC
  5
14C
330
A4
100
AcDbEntity
  8
Hawa4
 62
     4
100
AcDbCircle
 10
51.0
 20
63.0
 30
0.0
 40
1.5
100
AcDbArc
 50
0.0
 51
90.00000300000001
  0
LINE
  5
14D
330
A4
100
AcDbEntity
  8
Hawa4
 62
     4
100
AcDbLine
 10
52.5
 20
63.0
 30
0.0
 11
52.5
 21
16.000002
 31
0.0
  0
ARC
  5
14E
330
A4
100
AcDbEntity
  8
Hawa4
 62
     4
100
AcDbCircle
 10
51.0
 20
16.000002
 30
0.0
 40
1.5
100
AcDbArc
 50
270.000001
 51
0.00001
  0
LINE
  5
14F
330
A4
100
AcDbEntity
  8
Hawa5
 62
     1
 48
0.113192
100
AcDbLine
 10
-14.999999
 20
49.0
 30
0.0
 11
-10.499999
 21
49.5
 31
0.0
  0
LINE
  5
150
330
A4
100
AcDbEntity
  8
Hawa5
 62
     1
 48
0.25
100
AcDbLine
 10
-10.499999
 20
49.5
 30
0.0
 11
-0.499999
 21
49.5
 31
0.0
  0
LINE
  5
151
330
A4
100
AcDbEntity
  8
Hawa5
 62
     1
 48
0.0125
100
AcDbLine
 10
-0.499999
 20
49.5
 30
0.0
 11
-0.499999
 21
49.0
 31
0.0
  0
LINE
  5
152
330
A4
100
AcDbEntity
  8
Hawa5
 62
     1
 48
0.249308
100
AcDbLine
 10
-10.472306
 20
49.0
 30
0.0
 11
-0.499999
 21
49.0
 31
0.0
  0
LINE
  5
153
330
A4
100
AcDbEntity
  8
Hawa5
 62
     1
 48
0.113889
100
AcDbLine
 10
-14.999999
 20
48.49692499999999
 30
0.0
 11
-10.472306
 21
49.0
 31
0.0
  0
LINE
  5
154
330
A4
100
AcDbEntity
  8
Hawa5
 62
     1
 48
0.113889
100
AcDbLine
 10
-14.999999
 20
44.503078
 30
0.0
 11
-10.472306
 21
44.0
 31
0.0
  0
LINE
  5
155
330
A4
100
AcDbEntity
  8
Hawa5
 62
     1
 48
0.249308
100
AcDbLine
 10
-10.472306
 20
44.0
 30
0.0
 11
-0.499999
 21
44.0
 31
0.0
  0
LINE
  5
156
330
A4
100
AcDbEntity
  8
Hawa5
 62
     1
 48
0.0125
100
AcDbLine
 10
-0.499999
 20
44.0
 30
0.0
 11
-0.499999
 21
43.5
 31
0.0
  0
LINE
  5
157
330
A4
100
AcDbEntity
  8
Hawa5
 62
     1
 48
0.25
100
AcDbLine
 10
-10.499999
 20
43.5
 30
0.0
 11
-0.499999
 21
43.5
 31
0.0
  0
LINE
  5
158
330
A4
100
AcDbEntity
  8
Hawa5
 62
     1
 48
0.113192
100
AcDbLine
 10
-14.999999
 20
44.0
 30
0.0
 11
-10.499999
 21
43.5
 31
0.0
  0
LWPOLYLINE
  5
159
330
A4
100
AcDbEntity
  8
Hawa5
 62
     1
100
AcDbPolyline
 90
        3
 70
     0
 43
0.0
 10
0.093503
 20
45.20000099999999
 10
-0.042913
 20
45.31757
 10
-0.065651
 20
45.35914199999999
  0
LWPOLYLINE
  5
15E
330
A4
100
AcDbEntity
  8
Hawa5
 62
     1
100
AcDbPolyline
 90
        4
 70
     0
 43
0.0
 10
-0.065651
 20
45.35914199999999
 10
-0.377165
 20
46.38037899999999
 10
-0.60879
 20
47.271679
 10
-0.736517
 20
47.619011
  0
LWPOLYLINE
  5
164
330
A4
100
AcDbEntity
  8
Hawa5
 62
     1
100
AcDbPolyline
 90
        6
 70
     0
 43
0.0
 10
1.136543
 20
45.380943
 10
0.815104
 20
46.464859
 10
0.6044830000000001
 20
47.270763
 10
0.468412
 20
47.635414
 10
0.387456
 20
47.75817899999999
 10
0.306498
 20
47.79999899999999
  0
LWPOLYLINE
  5
16C
330
A4
100
AcDbEntity
  8
Hawa5
 62
     1
100
AcDbPolyline
 90
        3
 70
     0
 43
0.0
 10
-2.065650999999999
 20
45.35914199999999
 10
-1.984070999999999
 20
45.238415
 10
-1.906500999999999
 20
45.20000099999999
  0
LWPOLYLINE
  5
171
330
A4
100
AcDbEntity
  8
Hawa5
 62
     1
100
AcDbPolyline
 90
        4
 70
     0
 43
0.0
 10
-2.065650999999999
 20
45.35914199999999
 10
-2.373877
 20
46.367012
 10
-2.596470999999999
 20
47.230625
 10
-2.736581
 20
47.619141
  0
LWPOLYLINE
  5
177
330
A4
100
AcDbEntity
  8
Hawa5
 62
     1
100
AcDbPolyline
 90
        6
 70
     0
 43
0.0
 10
-1.693533
 20
47.79999899999999
 10
-1.573069
 20
47.708057
 10
-1.471355999999999
 20
47.496059
 10
-1.306208
 20
46.950741
 10
-1.046565999999999
 20
45.920994
 10
-0.8634889999999998
 20
45.381008
  0
LWPOLYLINE
  5
17F
330
A4
100
AcDbEntity
  8
Hawa5
 62
     1
100
AcDbPolyline
 90
        3
 70
     0
 43
0.0
 10
-4.065649999999999
 20
45.35914199999999
 10
-3.997431999999999
 20
45.252693
 10
-3.906469
 20
45.20000099999999
  0
LWPOLYLINE
  5
184
330
A4
100
AcDbEntity
  8
Hawa5
 62
     1
100
AcDbPolyline
 90
        6
 70
     0
 43
0.0
 10
-3.693474999999999
 20
47.79999899999999
 10
-3.556287
 20
47.681076
 10
-3.441950999999999
 20
47.414753
 10
-3.266572
 20
46.795811
 10
-3.014274
 20
45.80609099999999
 10
-2.863445999999999
 20
45.38092
  0
LWPOLYLINE
  5
18C
330
A4
100
AcDbEntity
  8
Hawa5
 62
     1
100
AcDbPolyline
 90
        4
 70
     0
 43
0.0
 10
-4.065649999999999
 20
45.35914199999999
 10
-4.382467
 20
46.40195799999999
 10
-4.606101999999999
 20
47.262821
 10
-4.736558999999999
 20
47.619099
  0
LWPOLYLINE
  5
192
330
A4
100
AcDbEntity
  8
Hawa5
 62
     1
100
AcDbPolyline
 90
        3
 70
     0
 43
0.0
 10
-5.906495999999999
 20
45.20000099999999
 10
-6.039124
 20
45.31122199999999
 10
-6.065650999999999
 20
45.35914199999999
  0
LWPOLYLINE
  5
197
330
A4
100
AcDbEntity
  8
Hawa5
 62
     1
100
AcDbPolyline
 90
        6
 70
     0
 43
0.0
 10
-5.693487
 20
47.79999899999999
 10
-5.558175
 20
47.684277
 10
-5.439777999999999
 20
47.408424
 10
-5.253728999999999
 20
46.744507
 10
-5.015708999999999
 20
45.81104999999999
 10
-4.86348
 20
45.38099299999999
  0
LWPOLYLINE
  5
19F
330
A4
100
AcDbEntity
  8
Hawa5
 62
     1
100
AcDbPolyline
 90
        4
 70
     0
 43
0.0
 10
-6.736596
 20
47.619171
 10
-6.407066
 20
46.502331
 10
-6.189580999999999
 20
45.681091
 10
-6.065650999999999
 20
45.35914199999999
  0
LWPOLYLINE
  5
1A5
330
A4
100
AcDbEntity
  8
Hawa5
 62
     1
100
AcDbPolyline
 90
        3
 70
     0
 43
0.0
 10
-7.906496
 20
45.20000099999999
 10
-8.042914999999998
 20
45.31757
 10
-8.065652999999999
 20
45.35914199999999
  0
LWPOLYLINE
  5
1AA
330
A4
100
AcDbEntity
  8
Hawa5
 62
     1
100
AcDbPolyline
 90
        6
 70
     0
 43
0.0
 10
-6.863452
 20
45.380932
 10
-7.199874
 20
46.52602
 10
-7.413539999999999
 20
47.328773
 10
-7.543382000000001
 20
47.658085
 10
-7.622547999999999
 20
47.76783799999999
 10
-7.693502
 20
47.79999899999999
  0
LWPOLYLINE
  5
1B2
330
A4
100
AcDbEntity
  8
Hawa5
 62
     1
100
AcDbPolyline
 90
        4
 70
     0
 43
0.0
 10
-8.736606
 20
47.61919
 10
-8.401127999999999
 20
46.478077
 10
-8.203786
 20
45.726955
 10
-8.065652999999999
 20
45.35914199999999
  0
LWPOLYLINE
  5
1B8
330
A4
100
AcDbEntity
  8
Hawa5
 62
     1
100
AcDbPolyline
 90
        3
 70
     0
 43
0.0
 10
-9.906474000000001
 20
45.20000099999999
 10
-10.045756
 20
45.32244099999999
 10
-10.065652
 20
45.35914199999999
  0
LWPOLYLINE
  5
1BD
330
A4
100
AcDbEntity
  8
Hawa5
 62
     1
100
AcDbPolyline
 90
        6
 70
     0
 43
0.0
 10
-8.863488999999999
 20
45.381008
 10
-9.191421999999999
 20
46.491512
 10
-9.393614999999998
 20
47.264492
 10
-9.531480999999999
 20
47.63519699999999
 10
-9.613466999999999
 20
47.75912499999999
 10
-9.693507999999999
 20
47.79999899999999
  0
LWPOLYLINE
  5
1C5
330
A4
100
AcDbEntity
  8
Hawa5
 62
     1
100
AcDbPolyline
 90
        4
 70
     0
 43
0.0
 10
-10.736565
 20
47.619106
 10
-10.420578
 20
46.55749899999999
 10
-10.203639
 20
45.726475
 10
-10.065652
 20
45.35914199999999
  0
LWPOLYLINE
  5
1CB
330
A4
100
AcDbEntity
  8
Hawa5
 62
     1
100
AcDbPolyline
 90
        3
 70
     0
 43
0.0
 10
-12.06565
 20
45.35914199999999
 10
-11.991222
 20
45.245781
 10
-11.906501
 20
45.20000099999999
  0
LWPOLYLINE
  5
1D0
330
A4
100
AcDbEntity
  8
Hawa5
 62
     1
100
AcDbPolyline
 90
        6
 70
     0
 43
0.0
 10
-10.863453
 20
45.380932
 10
-11.181973
 20
46.45293
 10
-11.384105
 20
47.232742
 10
-11.51494
 20
47.600761
 10
-11.607489
 20
47.752827
 10
-11.693515
 20
47.79999899999999
  0
LWPOLYLINE
  5
1D8
330
A4
100
AcDbEntity
  8
Hawa5
 62
     1
100
AcDbPolyline
 90
        4
 70
     0
 43
0.0
 10
-12.06565
 20
45.35914199999999
 10
-12.375173
 20
46.372284
 10
-12.608152
 20
47.269581
 10
-12.736579
 20
47.619137
  0
LWPOLYLINE
  5
1DE
330
A4
100
AcDbEntity
  8
Hawa5
 62
     1
100
AcDbPolyline
 90
        3
 70
     0
 43
0.0
 10
-14.065651
 20
45.35914199999999
 10
-13.997439
 20
45.252701
 10
-13.906497
 20
45.20000099999999
  0
LWPOLYLINE
  5
1E3
330
A4
100
AcDbEntity
  8
Hawa5
 62
     1
100
AcDbPolyline
 90
        4
 70
     0
 43
0.0
 10
-14.065651
 20
45.35914199999999
 10
-14.372358
 20
46.360836
 10
-14.594107
 20
47.22262199999999
 10
-14.736615
 20
47.619213
  0
LWPOLYLINE
  5
1E9
330
A4
100
AcDbEntity
  8
Hawa5
 62
     1
100
AcDbPolyline
 90
        6
 70
     0
 43
0.0
 10
-13.693478
 20
47.79999899999999
 10
-13.565982
 20
47.69706699999999
 10
-13.456704
 20
47.45656599999999
 10
-13.274571
 20
46.827518
 10
-13.027406
 20
45.85202
 10
-12.863481
 20
45.38099299999999
  0
LINE
  5
1F1
330
A4
100
AcDbEntity
  8
Hawa5
 62
     1
 48
0.010012
100
AcDbLine
 10
-14.999999
 20
45.757507
 30
0.0
 11
-14.86349
 21
45.38101199999999
 31
0.0
  0
LINE
  5
1F2
330
A4
100
AcDbEntity
  8
Hawa5
 62
     1
 48
0.025707
100
AcDbLine
 10
2.700000999999999
 20
48.75
 30
0.0
 11
2.306497999999999
 21
47.79999899999999
 31
0.0
  0
LINE
  5
1F3
330
A4
100
AcDbEntity
  8
Hawa5
 62
     1
 48
0.003997
100
AcDbLine
 10
2.700000999999999
 20
48.75
 30
0.0
 11
2.595235999999999
 21
48.62923
 31
0.0
  0
LWPOLYLINE
  5
1F4
330
A4
100
AcDbEntity
  8
Hawa5
 62
     1
100
AcDbPolyline
 90
        8
 70
     0
 43
0.0
 10
1.804761
 20
44.37076199999999
 10
1.769840999999999
 20
44.30394
 10
1.734917999999999
 20
44.263523
 10
1.712229999999999
 20
44.251808
 10
1.687761
 20
44.25181199999999
 10
1.665075
 20
44.263531
 10
1.630155999999999
 20
44.30394699999999
 10
1.595238999999999
 20
44.370766
  0
LWPOLYLINE
  5
1FE
330
A4
100
AcDbEntity
  8
Hawa5
 62
     1
100
AcDbPolyline
 90
        5
 70
     0
 43
0.0
 10
1.595238999999999
 20
44.370766
 10
1.384422
 20
45.26812
 10
1.173605999999999
 20
46.686359
 10
1.015498999999999
 20
47.73235699999999
 10
0.804687
 20
48.629414
  0
LWPOLYLINE
  5
205
330
A4
100
AcDbEntity
  8
Hawa5
 62
     1
100
AcDbPolyline
 90
        8
 70
     0
 43
0.0
 10
0.804687
 20
48.629414
 10
0.7697770000000001
 20
48.696159
 10
0.7348660000000001
 20
48.736519
 10
0.7121850000000001
 20
48.748203
 10
0.6877270000000001
 20
48.748184
 10
0.6650510000000001
 20
48.736454
 10
0.630146
 20
48.69603699999999
 10
0.5952410000000001
 20
48.629242
  0
LWPOLYLINE
  5
20F
330
A4
100
AcDbEntity
  8
Hawa5
 62
     1
100
AcDbPolyline
 90
        8
 70
     0
 43
0.0
 10
-0.195235
 20
44.37077
 10
-0.230159
 20
44.30394399999999
 10
-0.265081
 20
44.263527
 10
-0.287766
 20
44.251808
 10
-0.312233
 20
44.251808
 10
-0.334918
 20
44.263527
 10
-0.369836
 20
44.303936
 10
-0.4047570000000001
 20
44.370754
  0
LWPOLYLINE
  5
219
330
A4
100
AcDbEntity
  8
Hawa5
 62
     1
100
AcDbPolyline
 90
        5
 70
     0
 43
0.0
 10
-0.4047570000000001
 20
44.370754
 10
-0.61555
 20
45.26796299999999
 10
-0.8263459999999998
 20
46.686024
 10
-0.9844459999999999
 20
47.732033
 10
-1.195238999999999
 20
48.629242
  0
LWPOLYLINE
  5
220
330
A4
100
AcDbEntity
  8
Hawa5
 62
     1
100
AcDbPolyline
 90
        8
 70
     0
 43
0.0
 10
-1.195238999999999
 20
48.629242
 10
-1.230161999999999
 20
48.696064
 10
-1.265082
 20
48.736477
 10
-1.287768
 20
48.748192
 10
-1.312235
 20
48.748192
 10
-1.334920999999999
 20
48.736473
 10
-1.369842999999999
 20
48.696053
 10
-1.404767
 20
48.629223
  0
LWPOLYLINE
  5
22A
330
A4
100
AcDbEntity
  8
Hawa5
 62
     1
100
AcDbPolyline
 90
        8
 70
     0
 43
0.0
 10
-2.195238
 20
44.37076199999999
 10
-2.230147999999999
 20
44.303959
 10
-2.265054999999999
 20
44.263546
 10
-2.287732
 20
44.251816
 10
-2.312192
 20
44.251801
 10
-2.334874
 20
44.263493
 10
-2.369787
 20
44.30386
 10
-2.4047
 20
44.37062499999999
  0
LWPOLYLINE
  5
234
330
A4
100
AcDbEntity
  8
Hawa5
 62
     1
100
AcDbPolyline
 90
        5
 70
     0
 43
0.0
 10
-2.4047
 20
44.37062499999999
 10
-2.615507
 20
45.26770399999999
 10
-2.826315
 20
46.68580999999999
 10
-2.984426
 20
47.731915
 10
-3.195238
 20
48.629238
  0
LWPOLYLINE
  5
23B
330
A4
100
AcDbEntity
  8
Hawa5
 62
     1
100
AcDbPolyline
 90
        8
 70
     0
 43
0.0
 10
-3.195238
 20
48.629238
 10
-3.230154999999999
 20
48.696053
 10
-3.265071999999999
 20
48.736469
 10
-3.287757
 20
48.748192
 10
-3.312225
 20
48.748196
 10
-3.334912999999999
 20
48.736481
 10
-3.369836
 20
48.696064
 10
-3.404757
 20
48.62925
  0
LWPOLYLINE
  5
245
330
A4
100
AcDbEntity
  8
Hawa5
 62
     1
100
AcDbPolyline
 90
        8
 70
     0
 43
0.0
 10
-4.19524
 20
44.370758
 10
-4.230158
 20
44.30394399999999
 10
-4.265077999999999
 20
44.263527
 10
-4.287765
 20
44.251808
 10
-4.312235
 20
44.251808
 10
-4.334923
 20
44.263531
 10
-4.369845999999999
 20
44.303951
 10
-4.404766
 20
44.370773
  0
LWPOLYLINE
  5
24F
330
A4
100
AcDbEntity
  8
Hawa5
 62
     1
100
AcDbPolyline
 90
        5
 70
     0
 43
0.0
 10
-4.404766
 20
44.370773
 10
-4.615561
 20
45.268017
 10
-4.826354
 20
46.686073
 10
-4.984443999999999
 20
47.732021
 10
-5.195238999999999
 20
48.629242
  0
LWPOLYLINE
  5
256
330
A4
100
AcDbEntity
  8
Hawa5
 62
     1
100
AcDbPolyline
 90
        8
 70
     0
 43
0.0
 10
-5.195238999999999
 20
48.629242
 10
-5.230158
 20
48.69606
 10
-5.265079
 20
48.736477
 10
-5.287766999999999
 20
48.748192
 10
-5.312237
 20
48.748192
 10
-5.334923999999999
 20
48.736473
 10
-5.369843
 20
48.696053
 10
-5.404760999999999
 20
48.629238
  0
LWPOLYLINE
  5
260
330
A4
100
AcDbEntity
  8
Hawa5
 62
     1
100
AcDbPolyline
 90
        8
 70
     0
 43
0.0
 10
-6.195236
 20
44.370766
 10
-6.230158
 20
44.30394399999999
 10
-6.265080999999999
 20
44.263527
 10
-6.287768999999999
 20
44.251808
 10
-6.312237
 20
44.25181199999999
 10
-6.334923
 20
44.263531
 10
-6.369841
 20
44.30394399999999
 10
-6.404758
 20
44.370758
  0
LWPOLYLINE
  5
26A
330
A4
100
AcDbEntity
  8
Hawa5
 62
     1
100
AcDbPolyline
 90
        5
 70
     0
 43
0.0
 10
-6.404758
 20
44.370758
 10
-6.615572
 20
45.268089
 10
-6.826386
 20
46.686306
 10
-6.984492999999999
 20
47.73231099999999
 10
-7.195302
 20
48.629387
  0
LWPOLYLINE
  5
271
330
A4
100
AcDbEntity
  8
Hawa5
 62
     1
100
AcDbPolyline
 90
        8
 70
     0
 43
0.0
 10
-7.195302
 20
48.629387
 10
-7.230214999999999
 20
48.69614399999999
 10
-7.265125999999999
 20
48.736511
 10
-7.287807
 20
48.748203
 10
-7.312266
 20
48.748184
 10
-7.334941999999999
 20
48.736458
 10
-7.369849
 20
48.696045
 10
-7.404757
 20
48.629246
  0
LWPOLYLINE
  5
27B
330
A4
100
AcDbEntity
  8
Hawa5
 62
     1
100
AcDbPolyline
 90
        8
 70
     0
 43
0.0
 10
-8.195237999999999
 20
44.37076199999999
 10
-8.230163000000001
 20
44.303936
 10
-8.265083999999999
 20
44.263523
 10
-8.28777
 20
44.251808
 10
-8.312238
 20
44.25181199999999
 10
-8.334922999999999
 20
44.263531
 10
-8.369842999999999
 20
44.30394699999999
 10
-8.404764999999999
 20
44.370777
  0
LWPOLYLINE
  5
285
330
A4
100
AcDbEntity
  8
Hawa5
 62
     1
100
AcDbPolyline
 90
        5
 70
     0
 43
0.0
 10
-8.404764999999999
 20
44.370777
 10
-8.615555999999999
 20
45.26799
 10
-8.826347
 20
46.68603499999999
 10
-8.984446999999999
 20
47.732033
 10
-9.195236999999998
 20
48.629238
  0
LWPOLYLINE
  5
28C
330
A4
100
AcDbEntity
  8
Hawa5
 62
     1
100
AcDbPolyline
 90
        8
 70
     0
 43
0.0
 10
-9.195236999999998
 20
48.629238
 10
-9.230159
 20
48.69606
 10
-9.265077999999999
 20
48.736473
 10
-9.287762999999999
 20
48.748192
 10
-9.312229999999999
 20
48.748192
 10
-9.334915999999999
 20
48.736477
 10
-9.369837999999999
 20
48.69606
 10
-9.404761999999999
 20
48.629234
  0
LWPOLYLINE
  5
296
330
A4
100
AcDbEntity
  8
Hawa5
 62
     1
100
AcDbPolyline
 90
        8
 70
     0
 43
0.0
 10
-10.195237
 20
44.370766
 10
-10.230156
 20
44.30394699999999
 10
-10.265073
 20
44.263531
 10
-10.287757
 20
44.25181199999999
 10
-10.312224
 20
44.251808
 10
-10.334911
 20
44.263519
 10
-10.369834
 20
44.303932
 10
-10.404757
 20
44.370754
  0
LWPOLYLINE
  5
2A0
330
A4
100
AcDbEntity
  8
Hawa5
 62
     1
100
AcDbPolyline
 90
        5
 70
     0
 43
0.0
 10
-10.404757
 20
44.370754
 10
-10.61555
 20
45.26795599999999
 10
-10.826344
 20
46.686008
 10
-10.984442
 20
47.73200999999999
 10
-11.19524
 20
48.629246
  0
LWPOLYLINE
  5
2A7
330
A4
100
AcDbEntity
  8
Hawa5
 62
     1
100
AcDbPolyline
 90
        8
 70
     0
 43
0.0
 10
-11.19524
 20
48.629246
 10
-11.230158
 20
48.69606
 10
-11.265077
 20
48.736473
 10
-11.287764
 20
48.748192
 10
-11.312233
 20
48.748192
 10
-11.334922
 20
48.736473
 10
-11.369845
 20
48.696053
 10
-11.404767
 20
48.629227
  0
LWPOLYLINE
  5
2B1
330
A4
100
AcDbEntity
  8
Hawa5
 62
     1
100
AcDbPolyline
 90
        8
 70
     0
 43
0.0
 10
-12.195239
 20
44.370758
 10
-12.230157
 20
44.30394399999999
 10
-12.265077
 20
44.263527
 10
-12.287765
 20
44.251808
 10
-12.312234
 20
44.251808
 10
-12.334922
 20
44.263531
 10
-12.369843
 20
44.30394699999999
 10
-12.404761
 20
44.37076199999999
  0
LWPOLYLINE
  5
2BB
330
A4
100
AcDbEntity
  8
Hawa5
 62
     1
100
AcDbPolyline
 90
        5
 70
     0
 43
0.0
 10
-12.404761
 20
44.37076199999999
 10
-12.615558
 20
45.267998
 10
-12.826352
 20
46.686062
 10
-12.984442
 20
47.73200999999999
 10
-13.195237
 20
48.629238
  0
LWPOLYLINE
  5
2C2
330
A4
100
AcDbEntity
  8
Hawa5
 62
     1
100
AcDbPolyline
 90
        8
 70
     0
 43
0.0
 10
-13.195237
 20
48.629238
 10
-13.230157
 20
48.69605599999999
 10
-13.265079
 20
48.736477
 10
-13.287767
 20
48.748192
 10
-13.312236
 20
48.748192
 10
-13.334923
 20
48.736473
 10
-13.369841
 20
48.69605599999999
 10
-13.404757
 20
48.629246
  0
LWPOLYLINE
  5
2CC
330
A4
100
AcDbEntity
  8
Hawa5
 62
     1
100
AcDbPolyline
 90
        8
 70
     0
 43
0.0
 10
-14.195248
 20
44.370739
 10
-14.230168
 20
44.303928
 10
-14.26509
 20
44.263519
 10
-14.287776
 20
44.251808
 10
-14.312243
 20
44.25181199999999
 10
-14.334927
 20
44.263531
 10
-14.369842
 20
44.30394699999999
 10
-14.404758
 20
44.370758
  0
LWPOLYLINE
  5
2D6
330
A4
100
AcDbEntity
  8
Hawa5
 62
     1
100
AcDbPolyline
 90
        4
 70
     0
 43
0.0
 10
-14.404758
 20
44.370758
 10
-14.615555
 20
45.267982
 10
-14.826351
 20
46.686058
 10
-14.999999
 20
47.82251699999999
  0
LINE
  5
2DC
330
A4
100
AcDbEntity
  8
Hawa5
 62
     1
 48
0.013007
100
AcDbLine
 10
3.500001
 20
42.77027499999999
 30
0.0
 11
3.500001
 21
42.25
 31
0.0
  0
LINE
  5
2DD
330
A4
100
AcDbEntity
  8
Hawa5
 62
     1
 48
0.199493
100
AcDbLine
 10
3.500001
 20
50.75
 30
0.0
 11
3.500001
 21
42.77027499999999
 31
0.0
  0
LINE
  5
2DE
330
A4
100
AcDbEntity
  8
Hawa5
 62
     1
 48
0.003979
100
AcDbLine
 10
2.500000999999999
 20
45.35914199999999
 30
0.0
 11
2.500000999999999
 21
45.20000099999999
 31
0.0
  0
LWPOLYLINE
  5
2DF
330
A4
100
AcDbEntity
  8
Hawa5
 62
     1
100
AcDbPolyline
 90
        3
 70
     0
 43
0.0
 10
2.093502999999999
 20
45.20000099999999
 10
1.954243999999999
 20
45.32244099999999
 10
1.934349
 20
45.35914199999999
  0
LINE
  5
2E4
330
A4
100
AcDbEntity
  8
Hawa5
 62
     1
 48
0.061021
100
AcDbLine
 10
2.500000999999999
 20
47.79999899999999
 30
0.0
 11
2.500000999999999
 21
45.35914199999999
 31
0.0
  0
LWPOLYLINE
  5
2E5
330
A4
100
AcDbEntity
  8
Hawa5
 62
     1
100
AcDbPolyline
 90
        4
 70
     0
 43
0.0
 10
1.934349
 20
45.35914199999999
 10
1.631903
 20
46.343559
 10
1.397861
 20
47.249653
 10
1.263387999999999
 20
47.619205
  0
LINE
  5
2EB
330
A4
100
AcDbEntity
  8
Hawa5
 62
     1
 48
0.004838
100
AcDbLine
 10
2.500000999999999
 20
47.79999899999999
 30
0.0
 11
2.306497999999999
 21
47.79999899999999
 31
0.0
  0
LINE
  5
2EC
330
A4
100
AcDbEntity
  8
Hawa5
 62
     1
 48
0.014351
100
AcDbLine
 10
2.919671
 20
48.219669
 30
0.0
 11
2.700000999999999
 21
48.75
 31
0.0
  0
LINE
  5
2ED
330
A4
100
AcDbEntity
  8
Hawa5
 62
     1
 48
0.014838
100
AcDbLine
 10
2.500000999999999
 20
47.79999899999999
 30
0.0
 11
2.919671
 21
48.219669
 31
0.0
  0
LINE
  5
2EE
330
A4
100
AcDbEntity
  8
Hawa5
 62
     1
 48
0.129084
100
AcDbLine
 10
6.700000999999999
 20
49.25
 30
0.0
 11
6.700000999999999
 21
44.086647
 31
0.0
  0
LINE
  5
2EF
330
A4
100
AcDbEntity
  8
Hawa5
 62
     1
 48
0.008416
100
AcDbLine
 10
6.700000999999999
 20
44.086647
 30
0.0
 11
6.700000999999999
 21
43.75
 31
0.0
  0
LINE
  5
2F0
330
A4
100
AcDbEntity
  8
Hawa5
 62
     1
 48
0.013007
100
AcDbLine
 10
5.200001
 20
42.77027499999999
 30
0.0
 11
5.200001
 21
42.25
 31
0.0
  0
LINE
  5
2F1
330
A4
100
AcDbEntity
  8
Hawa5
 62
     1
 48
0.199493
100
AcDbLine
 10
5.200001
 20
50.75
 30
0.0
 11
5.200001
 21
42.77027499999999
 31
0.0
  0
LINE
  5
2F2
330
A4
100
AcDbEntity
  8
Hawa5
 62
     1
 48
0.028129
100
AcDbLine
 10
1.218648999999999
 20
45.20000099999999
 30
0.0
 11
0.093503
 21
45.20000099999999
 31
0.0
  0
LINE
  5
2F3
330
A4
100
AcDbEntity
  8
Hawa5
 62
     1
 48
0.02813
100
AcDbLine
 10
0.306498
 20
47.79999899999999
 30
0.0
 11
-0.818703
 21
47.79999899999999
 31
0.0
  0
LINE
  5
2F4
330
A4
100
AcDbEntity
  8
Hawa5
 62
     1
 48
0.028129
100
AcDbLine
 10
-0.7813550000000001
 20
45.20000099999999
 30
0.0
 11
-1.906500999999999
 21
45.20000099999999
 31
0.0
  0
LINE
  5
2F5
330
A4
100
AcDbEntity
  8
Hawa5
 62
     1
 48
0.028129
100
AcDbLine
 10
-1.693533
 20
47.79999899999999
 30
0.0
 11
-2.818706
 21
47.79999899999999
 31
0.0
  0
LINE
  5
2F6
330
A4
100
AcDbEntity
  8
Hawa5
 62
     1
 48
0.028128
100
AcDbLine
 10
-2.781352
 20
45.20000099999999
 30
0.0
 11
-3.906469
 21
45.20000099999999
 31
0.0
  0
LINE
  5
2F7
330
A4
100
AcDbEntity
  8
Hawa5
 62
     1
 48
0.028131
100
AcDbLine
 10
-3.693474999999999
 20
47.79999899999999
 30
0.0
 11
-4.818703
 21
47.79999899999999
 31
0.0
  0
LINE
  5
2F8
330
A4
100
AcDbEntity
  8
Hawa5
 62
     1
 48
0.028129
100
AcDbLine
 10
-4.781348999999999
 20
45.20000099999999
 30
0.0
 11
-5.906495999999999
 21
45.20000099999999
 31
0.0
  0
LINE
  5
2F9
330
A4
100
AcDbEntity
  8
Hawa5
 62
     1
 48
0.02813
100
AcDbLine
 10
-5.693487
 20
47.79999899999999
 30
0.0
 11
-6.818700999999999
 21
47.79999899999999
 31
0.0
  0
LINE
  5
2FA
330
A4
100
AcDbEntity
  8
Hawa5
 62
     1
 48
0.028129
100
AcDbLine
 10
-6.781353
 20
45.20000099999999
 30
0.0
 11
-7.906496
 21
45.20000099999999
 31
0.0
  0
LINE
  5
2FB
330
A4
100
AcDbEntity
  8
Hawa5
 62
     1
 48
0.02813
100
AcDbLine
 10
-7.693502
 20
47.79999899999999
 30
0.0
 11
-8.818704999999999
 21
47.79999899999999
 31
0.0
  0
LINE
  5
2FC
330
A4
100
AcDbEntity
  8
Hawa5
 62
     1
 48
0.028128
100
AcDbLine
 10
-8.781352999999999
 20
45.20000099999999
 30
0.0
 11
-9.906474000000001
 21
45.20000099999999
 31
0.0
  0
LINE
  5
2FD
330
A4
100
AcDbEntity
  8
Hawa5
 62
     1
 48
0.02813
100
AcDbLine
 10
-9.693507999999999
 20
47.79999899999999
 30
0.0
 11
-10.818704
 21
47.79999899999999
 31
0.0
  0
LINE
  5
2FE
330
A4
100
AcDbEntity
  8
Hawa5
 62
     1
 48
0.028129
100
AcDbLine
 10
-10.781352
 20
45.20000099999999
 30
0.0
 11
-11.906501
 21
45.20000099999999
 31
0.0
  0
LINE
  5
2FF
330
A4
100
AcDbEntity
  8
Hawa5
 62
     1
 48
0.02813
100
AcDbLine
 10
-11.693515
 20
47.79999899999999
 30
0.0
 11
-12.818704
 21
47.79999899999999
 31
0.0
  0
LINE
  5
300
330
A4
100
AcDbEntity
  8
Hawa5
 62
     1
 48
0.028129
100
AcDbLine
 10
-12.78135
 20
45.20000099999999
 30
0.0
 11
-13.906497
 21
45.20000099999999
 31
0.0
  0
LINE
  5
301
330
A4
100
AcDbEntity
  8
Hawa5
 62
     1
 48
0.028131
100
AcDbLine
 10
-13.693478
 20
47.79999899999999
 30
0.0
 11
-14.818704
 21
47.79999899999999
 31
0.0
  0
LINE
  5
302
330
A4
100
AcDbEntity
  8
Hawa5
 62
     1
 48
0.005466
100
AcDbLine
 10
-14.781351
 20
45.20000099999999
 30
0.0
 11
-14.999999
 21
45.20000099999999
 31
0.0
  0
ARC
  5
303
330
A4
100
AcDbEntity
  8
Hawa5
 62
     1
100
AcDbCircle
 10
-31.618162
 20
63.507572
 30
0.0
 40
37.308338
100
AcDbArc
 50
335.089698
 51
336.497291
  0
ARC
  5
304
330
A4
100
AcDbEntity
  8
Hawa5
 62
     1
100
AcDbCircle
 10
-27.995193
 20
31.565605
 30
0.0
 40
32.24193599999999
100
AcDbArc
 50
23.400382
 51
25.376888
  0
ARC
  5
305
330
A4
100
AcDbEntity
  8
Hawa5
 62
     1
100
AcDbCircle
 10
-33.616005
 20
63.50661800000001
 30
0.0
 40
37.305981
100
AcDbArc
 50
335.089632
 51
336.497312
  0
ARC
  5
306
330
A4
100
AcDbEntity
  8
Hawa5
 62
     1
100
AcDbCircle
 10
-29.874647
 20
31.622303
 30
0.0
 40
32.108753
100
AcDbArc
 50
23.39296300000001
 51
25.377939
  0
ARC
  5
307
330
A4
100
AcDbEntity
  8
Hawa5
 62
     1
100
AcDbCircle
 10
-31.748775
 20
31.677668
 30
0.0
 40
31.97127
100
AcDbArc
 50
23.391464
 51
25.384758
  0
ARC
  5
308
330
A4
100
AcDbEntity
  8
Hawa5
 62
     1
100
AcDbCircle
 10
-33.944038
 20
31.588856
 30
0.0
 40
32.18575300000001
100
AcDbArc
 50
23.398562
 51
25.378361
  0
ARC
  5
309
330
A4
100
AcDbEntity
  8
Hawa5
 62
     1
100
AcDbCircle
 10
-35.872547
 20
31.62434000000001
 30
0.0
 40
32.105995
100
AcDbArc
 50
23.390793
 51
25.37599800000001
  0
ARC
  5
30A
330
A4
100
AcDbEntity
  8
Hawa5
 62
     1
100
AcDbCircle
 10
-37.800167
 20
31.651175
 30
0.0
 40
32.028999
100
AcDbArc
 50
23.398537
 51
25.388102
  0
ARC
  5
30B
330
A4
100
AcDbEntity
  8
Hawa5
 62
     1
100
AcDbCircle
 10
-39.804409
 20
31.649298
 30
0.0
 40
32.033638
100
AcDbArc
 50
23.398528
 51
25.387864
  0
ARC
  5
30C
330
A4
100
AcDbEntity
  8
Hawa5
 62
     1
100
AcDbCircle
 10
-41.802567
 20
31.65019
 30
0.0
 40
32.031593
100
AcDbArc
 50
23.398364
 51
25.387847
  0
ARC
  5
30D
330
A4
100
AcDbEntity
  8
Hawa5
 62
     1
100
AcDbCircle
 10
-43.798431
 20
31.65202
 30
0.0
 40
32.027073
100
AcDbArc
 50
23.398303
 51
25.388083
  0
LINE
  5
30E
330
A4
100
AcDbEntity
  8
Hawa5
 62
     1
 48
0.010162
100
AcDbLine
 10
2.500000999999999
 20
45.20000099999999
 30
0.0
 11
2.093502999999999
 21
45.20000099999999
 31
0.0
  0
LINE
  5
30F
330
A4
100
AcDbEntity
  8
Hawa5
 62
     1
 48
0.02813
100
AcDbLine
 10
2.306497999999999
 20
47.79999899999999
 30
0.0
 11
1.181295999999999
 21
47.79999899999999
 31
0.0
  0
ARC
  5
310
330
A4
100
AcDbEntity
  8
Hawa5
 62
     1
100
AcDbCircle
 10
35.353718
 20
29.791426
 30
0.0
 40
36.579731
100
AcDbArc
 50
155.030582
 51
156.5119
  0
ARC
  5
311
330
A4
100
AcDbEntity
  8
Hawa5
 62
     1
100
AcDbCircle
 10
30.267437
 20
61.37897099999999
 30
0.0
 40
32.102711
100
AcDbArc
 50
203.400333
 51
205.380267
  0
LINE
  5
312
330
A4
100
AcDbEntity
  8
Hawa5
 62
     1
 48
0.009972
100
AcDbLine
 10
-0.019514
 20
44.768059
 30
0.0
 11
0.14564
 21
45.13114199999999
 31
0.0
  0
ARC
  5
313
330
A4
100
AcDbEntity
  8
Hawa5
 62
     1
100
AcDbCircle
 10
28.214285
 20
61.348339
 30
0.0
 40
32.041649
100
AcDbArc
 50
203.387395
 51
205.371525
  0
ARC
  5
314
330
A4
100
AcDbEntity
  8
Hawa5
 62
     1
100
AcDbCircle
 10
26.429066
 20
61.44984100000001
 30
0.0
 40
32.279163
100
AcDbArc
 50
203.401658
 51
205.37076
  0
ARC
  5
315
330
A4
100
AcDbEntity
  8
Hawa5
 62
     1
100
AcDbCircle
 10
24.274986
 20
61.379234
 30
0.0
 40
32.109699
100
AcDbArc
 50
203.395238
 51
205.374941
  0
ARC
  5
316
330
A4
100
AcDbEntity
  8
Hawa5
 62
     1
100
AcDbCircle
 10
22.422371
 20
61.44443100000001
 30
0.0
 40
32.270836
100
AcDbArc
 50
203.397587
 51
205.367603
  0
ARC
  5
317
330
A4
100
AcDbEntity
  8
Hawa5
 62
     1
100
AcDbCircle
 10
20.063177
 20
61.281303
 30
0.0
 40
31.876381
100
AcDbArc
 50
203.384856
 51
205.379024
  0
ARC
  5
318
330
A4
100
AcDbEntity
  8
Hawa5
 62
     1
100
AcDbCircle
 10
18.291899
 20
61.38678
 30
0.0
 40
32.128216
100
AcDbArc
 50
203.39536
 51
205.374148
  0
ARC
  5
319
330
A4
100
AcDbEntity
  8
Hawa5
 62
     1
100
AcDbCircle
 10
16.20908
 20
61.349514
 30
0.0
 40
32.037411
100
AcDbArc
 50
203.393229
 51
205.377412
  0
ARC
  5
31A
330
A4
100
AcDbEntity
  8
Hawa5
 62
     1
100
AcDbCircle
 10
14.456171
 20
61.458843
 30
0.0
 40
32.307575
100
AcDbArc
 50
204.252808
 51
205.36479
  0
LINE
  5
31B
330
A4
100
AcDbEntity
  8
Hawa5
 62
     1
 48
0.035355
100
AcDbLine
 10
2.500000999999999
 20
45.20000099999999
 30
0.0
 11
3.500001
 21
44.200001
 31
0.0
  0
LINE
  5
31C
330
A4
100
AcDbEntity
  8
Hawa5
 62
     1
 48
0.020518
100
AcDbLine
 10
2.919671
 20
48.219669
 30
0.0
 11
3.500001
 21
48.799999
 31
0.0
  0
LINE
  5
31D
330
A4
100
AcDbEntity
  8
Hawa5
 62
     1
 48
0.0425
100
AcDbLine
 10
5.200001
 20
42.25
 30
0.0
 11
3.500001
 21
42.25
 31
0.0
  0
LINE
  5
31E
330
A4
100
AcDbEntity
  8
Hawa5
 62
     1
 48
0.0425
100
AcDbLine
 10
5.200001
 20
50.75
 30
0.0
 11
3.500001
 21
50.75
 31
0.0
  0
ARC
  5
31F
330
A4
100
AcDbEntity
  8
Hawa5
 62
     1
100
AcDbCircle
 10
5.200001
 20
43.75
 30
0.0
 40
1.5
100
AcDbArc
 50
269.999997
 51
0.0
  0
ARC
  5
320
330
A4
100
AcDbEntity
  8
Hawa5
 62
     1
100
AcDbCircle
 10
5.200001
 20
49.25
 30
0.0
 40
1.5
100
AcDbArc
 50
360.0
 51
90.00000300000001
  0
LINE
  5
321
330
A4
100
AcDbEntity
  8
Hawa6
 62
     3
 48
0.209951
100
AcDbLine
 10
25.000002
 20
60.700001
 30
0.0
 11
33.398029
 21
60.700001
 31
0.0
  0
LINE
  5
322
330
A4
100
AcDbEntity
  8
Hawa6
 62
     3
 48
0.040049
100
AcDbLine
 10
33.398029
 20
60.700001
 30
0.0
 11
35.0
 21
60.700001
 31
0.0
  0
LINE
  5
323
330
A4
100
AcDbEntity
  8
Hawa6
 62
     3
 48
0.025267
100
AcDbLine
 10
25.000002
 20
58.799999
 30
0.0
 11
26.010696
 21
58.799999
 31
0.0
  0
LINE
  5
324
330
A4
100
AcDbEntity
  8
Hawa6
 62
     3
 48
0.03
100
AcDbLine
 10
26.010696
 20
58.799999
 30
0.0
 11
26.010696
 21
60.0
 31
0.0
  0
LINE
  5
325
330
A4
100
AcDbEntity
  8
Hawa6
 62
     3
 48
0.01699
100
AcDbLine
 10
26.010696
 20
60.0
 30
0.0
 11
26.690302
 21
60.0
 31
0.0
  0
LINE
  5
326
330
A4
100
AcDbEntity
  8
Hawa6
 62
     3
 48
0.03
100
AcDbLine
 10
26.690302
 20
58.799999
 30
0.0
 11
26.690302
 21
60.0
 31
0.0
  0
LINE
  5
327
330
A4
100
AcDbEntity
  8
Hawa6
 62
     3
 48
0.113332
100
AcDbLine
 10
26.690302
 20
58.799999
 30
0.0
 11
31.223574
 21
58.799999
 31
0.0
  0
LINE
  5
328
330
A4
100
AcDbEntity
  8
Hawa6
 62
     3
 48
0.054361
100
AcDbLine
 10
31.223574
 20
58.799999
 30
0.0
 11
33.398029
 21
58.799999
 31
0.0
  0
LINE
  5
329
330
A4
100
AcDbEntity
  8
Hawa6
 62
     3
 48
0.040049
100
AcDbLine
 10
33.398029
 20
58.799999
 30
0.0
 11
35.0
 21
58.799999
 31
0.0
  0
LINE
  5
32A
330
A4
100
AcDbEntity
  8
Hawa6
 62
     3
 48
0.002896
100
AcDbLine
 10
29.29340900000001
 20
57.03193699999999
 30
0.0
 11
29.29340900000001
 21
57.147766
 31
0.0
  0
LINE
  5
32B
330
A4
100
AcDbEntity
  8
Hawa6
 62
     3
 48
0.000715
100
AcDbLine
 10
29.264929
 20
57.034519
 30
0.0
 11
29.29340900000001
 21
57.03193699999999
 31
0.0
  0
ELLIPSE
  5
32C
330
A4
100
AcDbEntity
  8
Hawa6
 62
     3
100
AcDbEllipse
 10
29.658806
 20
64.840057
 30
0.0
 11
0.0028392476961017
 21
-7.824097633361817
 31
0.0
210
0.0
220
0.0
230
1.0
 40
0.7337350000000001
 41
5.594074726104736
 42
6.214026451110839
  0
LWPOLYLINE
  5
32D
330
A4
100
AcDbEntity
  8
Hawa6
 62
     3
100
AcDbPolyline
 90
        7
 70
     0
 43
0.0
 10
29.97301500000001
 20
57.03193699999999
 10
29.24453
 20
57.159641
 10
28.718195
 20
57.334534
 10
28.118637
 20
57.62520999999999
 10
27.522076
 20
58.02304799999999
 10
26.956852
 20
58.51841700000001
 10
26.690302
 20
58.799999
  0
LINE
  5
336
330
A4
100
AcDbEntity
  8
Hawa6
 62
     3
 48
0.003633
100
AcDbLine
 10
30.706593
 20
57.03193699999999
 30
0.0
 11
30.706593
 21
57.177238
 31
0.0
  0
LINE
  5
337
330
A4
100
AcDbEntity
  8
Hawa6
 62
     3
 48
0.000715
100
AcDbLine
 10
30.706593
 20
57.03193699999999
 30
0.0
 11
30.735073
 21
57.034519
 31
0.0
  0
LINE
  5
338
330
A4
100
AcDbEntity
  8
Hawa6
 62
     3
 48
0.000138
100
AcDbLine
 10
30.026987
 20
57.03193699999999
 30
0.0
 11
30.026987
 21
57.03745699999999
 31
0.0
  0
ARC
  5
339
330
A4
100
AcDbEntity
  8
Hawa6
 62
     3
100
AcDbCircle
 10
29.651169
 20
61.314995
 30
0.0
 40
4.299534999999999
100
AcDbArc
 50
275.0146
 51
284.212324
  0
ARC
  5
33A
330
A4
100
AcDbEntity
  8
Hawa6
 62
     3
100
AcDbCircle
 10
30.321663
 20
60.898186
 30
0.0
 40
3.885819999999999
100
AcDbArc
 50
275.685713
 51
297.793745
  0
ARC
  5
33B
330
A4
100
AcDbEntity
  8
Hawa6
 62
     3
100
AcDbCircle
 10
31.766975
 20
61.431038
 30
0.0
 40
3.987619999999999
100
AcDbArc
 50
264.722365
 51
275.27763
  0
ARC
  5
33C
330
A4
100
AcDbEntity
  8
Hawa6
 62
     3
100
AcDbCircle
 10
29.56446599999999
 20
60.961365
 30
0.0
 40
3.952844
100
AcDbArc
 50
280.064725
 51
297.669599
  0
ARC
  5
33D
330
A4
100
AcDbEntity
  8
Hawa6
 62
     3
100
AcDbCircle
 10
29.62859
 20
60.684704
 30
0.0
 40
3.668973999999999
100
AcDbArc
 50
275.386585
 51
279.83381
  0
LINE
  5
33E
330
A4
100
AcDbEntity
  8
Hawa6
 62
     3
 48
0.000684
100
AcDbLine
 10
29.99976500000001
 20
57.034603
 30
0.0
 11
30.026987
 21
57.03193699999999
 31
0.0
  0
LINE
  5
33F
330
A4
100
AcDbEntity
  8
Hawa6
 62
     3
 48
0.104975
100
AcDbLine
 10
27.50000200000001
 20
70.200005
 30
0.0
 11
31.699015
 21
70.200005
 31
0.0
  0
LINE
  5
340
330
A4
100
AcDbEntity
  8
Hawa6
 62
     3
 48
0.020025
100
AcDbLine
 10
31.699015
 20
70.200005
 30
0.0
 11
32.5
 21
70.200005
 31
0.0
  0
LINE
  5
341
330
A4
100
AcDbEntity
  8
Hawa6
 62
     3
 48
0.01602
100
AcDbLine
 10
31.359213
 20
70.700005
 30
0.0
 11
32.0
 21
70.700005
 31
0.0
  0
LINE
  5
342
330
A4
100
AcDbEntity
  8
Hawa6
 62
     3
 48
0.08398
100
AcDbLine
 10
28.000002
 20
70.700005
 30
0.0
 11
31.359213
 21
70.700005
 31
0.0
  0
LINE
  5
343
330
A4
100
AcDbEntity
  8
Hawa6
 62
     3
 48
0.0475
100
AcDbLine
 10
25.000002
 20
60.700001
 30
0.0
 11
25.000002
 21
58.799999
 31
0.0
  0
LINE
  5
344
330
A4
100
AcDbEntity
  8
Hawa6
 62
     3
 48
0.0475
100
AcDbLine
 10
35.0
 20
60.700001
 30
0.0
 11
35.0
 21
58.799999
 31
0.0
  0
ARC
  5
345
330
A4
100
AcDbEntity
  8
Hawa6
 62
     3
100
AcDbCircle
 10
30.0
 20
64.844444
 30
0.0
 40
7.844444
100
AcDbArc
 50
230.402243
 51
264.62315
  0
ARC
  5
346
330
A4
100
AcDbEntity
  8
Hawa6
 62
     3
100
AcDbCircle
 10
30.0
 20
64.844444
 30
0.0
 40
7.844444999999999
100
AcDbArc
 50
275.376852
 51
309.597752
  0
LINE
  5
347
330
A4
100
AcDbEntity
  8
Hawa6
 62
     3
 48
0.1175
100
AcDbLine
 10
27.50000200000001
 20
65.400002
 30
0.0
 11
27.50000200000001
 21
60.700001
 31
0.0
  0
LINE
  5
348
330
A4
100
AcDbEntity
  8
Hawa6
 62
     3
 48
0.1175
100
AcDbLine
 10
32.5
 20
65.400002
 30
0.0
 11
32.5
 21
60.700001
 31
0.0
  0
LINE
  5
349
330
A4
100
AcDbEntity
  8
Hawa6
 62
     3
 48
0.017678
100
AcDbLine
 10
28.000002
 20
70.700005
 30
0.0
 11
27.50000200000001
 21
70.200005
 31
0.0
  0
LINE
  5
34A
330
A4
100
AcDbEntity
  8
Hawa6
 62
     3
 48
0.017678
100
AcDbLine
 10
32.0
 20
70.700005
 30
0.0
 11
32.5
 21
70.200005
 31
0.0
  0
LINE
  5
34B
330
A4
100
AcDbEntity
  8
Hawa6
 62
     3
 48
0.005123
100
AcDbLine
 10
21.954502
 20
70.200005
 30
0.0
 11
21.74958
 21
70.200005
 31
0.0
  0
LINE
  5
34C
330
A4
100
AcDbEntity
  8
Hawa6
 62
     3
 48
0.078294
100
AcDbLine
 10
25.086279
 20
70.200005
 30
0.0
 11
21.954502
 21
70.200005
 31
0.0
  0
LINE
  5
34D
330
A4
100
AcDbEntity
  8
Hawa6
 62
     3
 48
0.296544
100
AcDbLine
 10
36.948055
 20
70.200005
 30
0.0
 11
25.086279
 21
70.200005
 31
0.0
  0
LINE
  5
34E
330
A4
100
AcDbEntity
  8
Hawa6
 62
     3
 48
0.03258
100
AcDbLine
 10
38.251263
 20
70.200005
 30
0.0
 11
36.948055
 21
70.200005
 31
0.0
  0
ELLIPSE
  5
34F
330
A4
100
AcDbEntity
  8
Hawa6
 62
     3
100
AcDbEllipse
 10
21.74958
 20
69.70000500000001
 30
0.0
 11
-0.0000000814603425
 21
0.5
 31
0.0
210
0.0
220
0.0
230
0.9999999999999998
 40
0.9991589999999998
 41
6.283185005187987
 42
7.853981494903563
  0
LINE
  5
350
330
A4
100
AcDbEntity
  8
Hawa6
 62
     3
 48
0.005123
100
AcDbLine
 10
21.454922
 20
69.70000500000001
 30
0.0
 11
21.25
 21
69.70000500000001
 31
0.0
  0
ELLIPSE
  5
351
330
A4
100
AcDbEntity
  8
Hawa6
 62
     3
100
AcDbEllipse
 10
21.954502
 20
69.70000500000001
 30
0.0
 11
-0.0000000814603425
 21
0.5
 31
0.0
210
0.0
220
0.0
230
0.9999999999999998
 40
0.9991589999999998
 41
6.283185005187987
 42
7.853981494903563
  0
LINE
  5
352
330
A4
100
AcDbEntity
  8
Hawa6
 62
     3
 48
0.086994
100
AcDbLine
 10
24.934675
 20
69.70000500000001
 30
0.0
 11
21.454922
 21
69.70000500000001
 31
0.0
  0
ELLIPSE
  5
353
330
A4
100
AcDbEntity
  8
Hawa6
 62
     3
100
AcDbEllipse
 10
25.086279
 20
69.70000500000001
 30
0.0
 11
-0.0000000218556941
 21
0.5
 31
0.0
210
0.0
220
0.0
230
1.0
 40
0.303209
 41
6.283185482025146
 42
7.853981494903563
  0
LINE
  5
354
330
A4
100
AcDbEntity
  8
Hawa6
 62
     3
 48
0.296544
100
AcDbLine
 10
36.796448
 20
69.70000500000001
 30
0.0
 11
24.934675
 21
69.70000500000001
 31
0.0
  0
ELLIPSE
  5
355
330
A4
100
AcDbEntity
  8
Hawa6
 62
     3
100
AcDbEllipse
 10
36.948055
 20
69.70000500000001
 30
0.0
 11
-0.0000000218556941
 21
0.5
 31
0.0
210
0.0
220
0.0
230
1.0
 40
0.303209
 41
6.283185482025146
 42
7.853981494903563
  0
LINE
  5
356
330
A4
100
AcDbEntity
  8
Hawa6
 62
     3
 48
0.04887
100
AcDbLine
 10
38.751263
 20
69.70000500000001
 30
0.0
 11
36.796448
 21
69.70000500000001
 31
0.0
  0
LINE
  5
357
330
A4
100
AcDbEntity
  8
Hawa6
 62
     3
 48
0.05
100
AcDbLine
 10
21.25
 20
67.700005
 30
0.0
 11
21.25
 21
69.70000500000001
 31
0.0
  0
LINE
  5
358
330
A4
100
AcDbEntity
  8
Hawa6
 62
     3
 48
0.005123
100
AcDbLine
 10
21.25
 20
67.700005
 30
0.0
 11
21.454922
 21
67.700005
 31
0.0
  0
LINE
  5
359
330
A4
100
AcDbEntity
  8
Hawa6
 62
     3
 48
0.05
100
AcDbLine
 10
21.454922
 20
67.700005
 30
0.0
 11
21.454922
 21
69.70000500000001
 31
0.0
  0
LINE
  5
35A
330
A4
100
AcDbEntity
  8
Hawa6
 62
     3
 48
0.086994
100
AcDbLine
 10
24.934675
 20
67.700005
 30
0.0
 11
21.454922
 21
67.700005
 31
0.0
  0
LINE
  5
35B
330
A4
100
AcDbEntity
  8
Hawa6
 62
     3
 48
0.05
100
AcDbLine
 10
24.934675
 20
67.700005
 30
0.0
 11
24.934675
 21
69.70000500000001
 31
0.0
  0
LINE
  5
35C
330
A4
100
AcDbEntity
  8
Hawa6
 62
     3
 48
0.296544
100
AcDbLine
 10
24.934675
 20
67.700005
 30
0.0
 11
36.796448
 21
67.700005
 31
0.0
  0
LINE
  5
35D
330
A4
100
AcDbEntity
  8
Hawa6
 62
     3
 48
0.05
100
AcDbLine
 10
36.796448
 20
67.700005
 30
0.0
 11
36.796448
 21
69.70000500000001
 31
0.0
  0
LINE
  5
35E
330
A4
100
AcDbEntity
  8
Hawa6
 62
     3
 48
0.04887
100
AcDbLine
 10
38.751263
 20
67.700005
 30
0.0
 11
36.796448
 21
67.700005
 31
0.0
  0
ELLIPSE
  5
35F
330
A4
100
AcDbEntity
  8
Hawa6
 62
     3
100
AcDbEllipse
 10
21.74958
 20
67.700005
 30
0.0
 11
-0.0000000814603425
 21
0.5
 31
0.0
210
0.0
220
0.0
230
0.9999999999999998
 40
0.9991589999999998
 41
1.570796132087708
 42
3.141592502593993
  0
LINE
  5
360
330
A4
100
AcDbEntity
  8
Hawa6
 62
     3
 48
0.005123
100
AcDbLine
 10
21.74958
 20
67.20000500000001
 30
0.0
 11
21.954502
 21
67.20000500000001
 31
0.0
  0
ELLIPSE
  5
361
330
A4
100
AcDbEntity
  8
Hawa6
 62
     3
100
AcDbEllipse
 10
21.954502
 20
67.700005
 30
0.0
 11
-0.0000000814603425
 21
0.5
 31
0.0
210
0.0
220
0.0
230
0.9999999999999998
 40
0.9991589999999998
 41
1.570796132087708
 42
3.141592502593993
  0
LINE
  5
362
330
A4
100
AcDbEntity
  8
Hawa6
 62
     3
 48
0.078294
100
AcDbLine
 10
25.086279
 20
67.20000500000001
 30
0.0
 11
21.954502
 21
67.20000500000001
 31
0.0
  0
ELLIPSE
  5
363
330
A4
100
AcDbEntity
  8
Hawa6
 62
     3
100
AcDbEllipse
 10
25.086279
 20
67.700005
 30
0.0
 11
-0.0000000218556941
 21
0.5
 31
0.0
210
0.0
220
0.0
230
1.0
 40
0.303209
 41
1.570796370506286
 42
3.141592741012573
  0
LINE
  5
364
330
A4
100
AcDbEntity
  8
Hawa6
 62
     3
 48
0.296544
100
AcDbLine
 10
25.086279
 20
67.20000500000001
 30
0.0
 11
36.948055
 21
67.20000500000001
 31
0.0
  0
ELLIPSE
  5
365
330
A4
100
AcDbEntity
  8
Hawa6
 62
     3
100
AcDbEllipse
 10
36.948055
 20
67.700005
 30
0.0
 11
-0.0000000218556941
 21
0.5
 31
0.0
210
0.0
220
0.0
230
1.0
 40
0.303209
 41
1.570796370506286
 42
3.141592741012573
  0
LINE
  5
366
330
A4
100
AcDbEntity
  8
Hawa6
 62
     3
 48
0.03258
100
AcDbLine
 10
38.251263
 20
67.20000500000001
 30
0.0
 11
36.948055
 21
67.20000500000001
 31
0.0
  0
LINE
  5
367
330
A4
100
AcDbEntity
  8
Hawa6
 62
     3
 48
0.000065
100
AcDbLine
 10
26.902607
 20
65.400002
 30
0.0
 11
26.900002
 21
65.400002
 31
0.0
  0
LINE
  5
368
330
A4
100
AcDbEntity
  8
Hawa6
 62
     3
 48
0.154935
100
AcDbLine
 10
33.10000200000001
 20
66.700005
 30
0.0
 11
26.902607
 21
66.700005
 31
0.0
  0
LINE
  5
369
330
A4
100
AcDbEntity
  8
Hawa6
 62
     3
 48
0.154935
100
AcDbLine
 10
33.10000200000001
 20
65.400002
 30
0.0
 11
26.902607
 21
65.400002
 31
0.0
  0
ELLIPSE
  5
36A
330
A4
100
AcDbEntity
  8
Hawa6
 62
     3
100
AcDbEllipse
 10
26.403027
 20
66.700005
 30
0.0
 11
0.0000000059624403
 21
-0.5
 31
0.0
210
0.0
220
0.0
230
1.0
 40
0.999159
 41
1.570796132087708
 42
3.141592502593993
  0
ELLIPSE
  5
36B
330
A4
100
AcDbEntity
  8
Hawa6
 62
     3
100
AcDbEllipse
 10
33.596973
 20
66.700005
 30
0.0
 11
-0.0000000814603425
 21
0.5
 31
0.0
210
0.0
220
0.0
230
0.9999999999999998
 40
0.9991589999999998
 41
6.283185005187987
 42
7.853981494903563
  0
ARC
  5
36C
330
A4
100
AcDbEntity
  8
Hawa6
 62
     3
100
AcDbCircle
 10
21.748753
 20
69.699989
 30
0.0
 40
0.5000100000000001
100
AcDbArc
 50
90.00151200000001
 51
175.936193
  0
ARC
  5
36D
330
A4
100
AcDbEntity
  8
Hawa6
 62
     3
100
AcDbCircle
 10
38.251263
 20
69.70000500000001
 30
0.0
 40
0.5
100
AcDbArc
 50
360.0
 51
90.00000300000001
  0
LINE
  5
36E
330
A4
100
AcDbEntity
  8
Hawa6
 62
     3
 48
0.05
100
AcDbLine
 10
38.751263
 20
67.700005
 30
0.0
 11
38.751263
 21
69.70000500000001
 31
0.0
  0
ARC
  5
36F
330
A4
100
AcDbEntity
  8
Hawa6
 62
     3
100
AcDbCircle
 10
21.748753
 20
67.700012
 30
0.0
 40
0.5000100000000001
100
AcDbArc
 50
184.063807
 51
269.998488
  0
ARC
  5
370
330
A4
100
AcDbEntity
  8
Hawa6
 62
     3
100
AcDbCircle
 10
38.251263
 20
67.700005
 30
0.0
 40
0.5
100
AcDbArc
 50
269.999997
 51
0.0
  0
LINE
  5
371
330
A4
100
AcDbEntity
  8
Hawa6
 62
     3
 48
0.0325
100
AcDbLine
 10
26.900002
 20
65.400002
 30
0.0
 11
26.900002
 21
66.700005
 31
0.0
  0
LINE
  5
372
330
A4
100
AcDbEntity
  8
Hawa6
 62
     3
 48
0.0325
100
AcDbLine
 10
33.10000200000001
 20
65.400002
 30
0.0
 11
33.10000200000001
 21
66.700005
 31
0.0
  0
LINE
  5
373
330
A4
100
AcDbEntity
  8
Hawa6
 62
     3
 48
0.5
100
AcDbLine
 10
12.250001
 20
29.300001
 30
0.0
 11
12.250001
 21
49.299999
 31
0.0
  0
LINE
  5
374
330
A4
100
AcDbEntity
  8
Hawa6
 62
     3
100
AcDbLine
 10
47.75
 20
29.300001
 30
0.0
 11
12.250001
 21
29.300001
 31
0.0
  0
LINE
  5
375
330
A4
100
AcDbEntity
  8
Hawa6
 62
     3
100
AcDbLine
 10
47.75
 20
49.299999
 30
0.0
 11
12.250001
 21
49.299999
 31
0.0
  0
LINE
  5
376
330
A4
100
AcDbEntity
  8
Hawa6
 62
     3
 48
0.5
100
AcDbLine
 10
47.75
 20
29.300001
 30
0.0
 11
47.75
 21
49.299999
 31
0.0
  0
ARC
  5
377
330
A4
100
AcDbEntity
  8
Hawa6
 62
     3
100
AcDbCircle
 10
17.500477
 20
59.799496
 30
0.0
 40
0.5005609999999999
100
AcDbArc
 50
90.054473
 51
179.875614
  0
LINE
  5
378
330
A4
100
AcDbEntity
  8
Hawa6
 62
     3
 48
0.1375
100
AcDbLine
 10
23.0
 20
60.29999899999999
 30
0.0
 11
17.5
 21
60.29999899999999
 31
0.0
  0
LINE
  5
379
330
A4
100
AcDbEntity
  8
Hawa6
 62
     3
 48
0.17598
100
AcDbLine
 10
23.245665
 20
53.265099
 30
0.0
 11
23.0
 21
60.29999899999999
 31
0.0
  0
LINE
  5
37A
330
A4
100
AcDbEntity
  8
Hawa6
 62
     3
 48
0.17598
100
AcDbLine
 10
23.245665
 20
25.3349
 30
0.0
 11
23.0
 21
18.300001
 31
0.0
  0
ARC
  5
37B
330
A4
100
AcDbEntity
  8
Hawa6
 62
     3
100
AcDbCircle
 10
24.245054
 20
53.299999
 30
0.0
 40
1.0
100
AcDbArc
 50
182.000011
 51
255.813688
  0
ARC
  5
37C
330
A4
100
AcDbEntity
  8
Hawa6
 62
     3
100
AcDbCircle
 10
24.245054
 20
25.299999
 30
0.0
 40
1.0
100
AcDbArc
 50
104.186312
 51
177.999989
  0
ARC
  5
37D
330
A4
100
AcDbEntity
  8
Hawa6
 62
     3
100
AcDbCircle
 10
42.499226
 20
18.80101
 30
0.0
 40
0.5011060000000001
100
AcDbArc
 50
270.088551
 51
1.189929
  0
LINE
  5
37E
330
A4
100
AcDbEntity
  8
Hawa6
 62
     3
 48
0.062658
100
AcDbLine
 10
43.0
 20
18.803152
 30
0.0
 11
43.0
 21
21.309471
 31
0.0
  0
ARC
  5
37F
330
A4
100
AcDbEntity
  8
Hawa6
 62
     3
100
AcDbCircle
 10
42.5
 20
59.799999
 30
0.0
 40
0.5
100
AcDbArc
 50
359.999997
 51
89.999996
  0
LINE
  5
380
330
A4
100
AcDbEntity
  8
Hawa6
 62
     3
 48
0.1375
100
AcDbLine
 10
42.5
 20
60.29999899999999
 30
0.0
 11
37.0
 21
60.29999899999999
 31
0.0
  0
LINE
  5
381
330
A4
100
AcDbEntity
  8
Hawa6
 62
     3
 48
0.004359
100
AcDbLine
 10
12.25
 20
41.799999
 30
0.0
 11
12.150001
 21
41.942814
 31
0.0
  0
LINE
  5
382
330
A4
100
AcDbEntity
  8
Hawa6
 62
     3
 48
0.004359
100
AcDbLine
 10
12.25
 20
36.799999
 30
0.0
 11
12.150001
 21
36.657185
 31
0.0
  0
LINE
  5
383
330
A4
100
AcDbEntity
  8
Hawa6
 62
     3
 48
0.062739
100
AcDbLine
 10
17.0
 20
21.309559
 30
0.0
 11
17.0
 21
18.800001
 31
0.0
  0
LINE
  5
384
330
A4
100
AcDbEntity
  8
Hawa6
 62
     3
 48
0.020731
100
AcDbLine
 10
17.0
 20
59.799999
 30
0.0
 11
17.0
 21
58.970768
 31
0.0
  0
LINE
  5
385
330
A4
100
AcDbEntity
  8
Hawa6
 62
     3
 48
0.241769
100
AcDbLine
 10
17.0
 20
58.970768
 30
0.0
 11
17.0
 21
49.299999
 31
0.0
  0
LINE
  5
386
330
A4
100
AcDbEntity
  8
Hawa6
 62
     3
 48
0.199761
100
AcDbLine
 10
17.0
 20
29.300013
 30
0.0
 11
17.0
 21
21.309559
 31
0.0
  0
LINE
  5
387
330
A4
100
AcDbEntity
  8
Hawa6
 62
     3
 48
0.210731
100
AcDbLine
 10
17.5
 20
29.300001
 30
0.0
 11
17.5
 21
20.870768
 31
0.0
  0
LINE
  5
388
330
A4
100
AcDbEntity
  8
Hawa6
 62
     3
 48
0.001698
100
AcDbLine
 10
17.5
 20
49.367939
 30
0.0
 11
17.5
 21
49.299999
 31
0.0
  0
LINE
  5
389
330
A4
100
AcDbEntity
  8
Hawa6
 62
     3
 48
0.252065
100
AcDbLine
 10
17.5
 20
59.45054200000001
 30
0.0
 11
17.5
 21
49.367939
 31
0.0
  0
LINE
  5
38A
330
A4
100
AcDbEntity
  8
Hawa6
 62
     3
 48
0.021236
100
AcDbLine
 10
17.5
 20
60.29999899999999
 30
0.0
 11
17.5
 21
59.45054200000001
 31
0.0
  0
LINE
  5
38B
330
A4
100
AcDbEntity
  8
Hawa6
 62
     3
 48
0.064269
100
AcDbLine
 10
17.5
 20
20.870768
 30
0.0
 11
17.5
 21
18.300001
 31
0.0
  0
LINE
  5
38C
330
A4
100
AcDbEntity
  8
Hawa6
 62
     3
 48
0.210731
100
AcDbLine
 10
23.0
 20
29.300001
 30
0.0
 11
23.0
 21
20.870768
 31
0.0
  0
LINE
  5
38D
330
A4
100
AcDbEntity
  8
Hawa6
 62
     3
 48
0.001698
100
AcDbLine
 10
23.0
 20
49.367939
 30
0.0
 11
23.0
 21
49.299999
 31
0.0
  0
LINE
  5
38E
330
A4
100
AcDbEntity
  8
Hawa6
 62
     3
 48
0.252065
100
AcDbLine
 10
23.0
 20
59.45054200000001
 30
0.0
 11
23.0
 21
49.367939
 31
0.0
  0
LINE
  5
38F
330
A4
100
AcDbEntity
  8
Hawa6
 62
     3
 48
0.021236
100
AcDbLine
 10
23.0
 20
60.29999899999999
 30
0.0
 11
23.0
 21
59.45054200000001
 31
0.0
  0
LINE
  5
390
330
A4
100
AcDbEntity
  8
Hawa6
 62
     3
 48
0.064269
100
AcDbLine
 10
23.0
 20
20.870768
 30
0.0
 11
23.0
 21
18.300001
 31
0.0
  0
LINE
  5
391
330
A4
100
AcDbEntity
  8
Hawa6
 62
     3
 48
0.056391
100
AcDbLine
 10
23.245665
 20
29.300104
 30
0.0
 11
23.245665
 21
27.044472
 31
0.0
  0
LINE
  5
392
330
A4
100
AcDbEntity
  8
Hawa6
 62
     3
 48
0.085008
100
AcDbLine
 10
23.245665
 20
52.70020699999999
 30
0.0
 11
23.245665
 21
49.299881
 31
0.0
  0
LINE
  5
393
330
A4
100
AcDbEntity
  8
Hawa6
 62
     3
 48
0.014122
100
AcDbLine
 10
23.245665
 20
53.265102
 30
0.0
 11
23.245665
 21
52.70020699999999
 31
0.0
  0
LINE
  5
394
330
A4
100
AcDbEntity
  8
Hawa6
 62
     3
 48
0.042739
100
AcDbLine
 10
23.245665
 20
27.044472
 30
0.0
 11
23.245665
 21
25.3349
 31
0.0
  0
LINE
  5
395
330
A4
100
AcDbEntity
  8
Hawa6
 62
     3
 48
0.035214
100
AcDbLine
 10
24.245056
 20
29.300001
 30
0.0
 11
24.245056
 21
27.891428
 31
0.0
  0
LINE
  5
396
330
A4
100
AcDbEntity
  8
Hawa6
 62
     3
 48
0.061854
100
AcDbLine
 10
24.245056
 20
51.77414699999999
 30
0.0
 11
24.245056
 21
49.299992
 31
0.0
  0
LINE
  5
397
330
A4
100
AcDbEntity
  8
Hawa6
 62
     3
 48
0.013146
100
AcDbLine
 10
24.245056
 20
52.299999
 30
0.0
 11
24.245056
 21
51.77414699999999
 31
0.0
  0
LINE
  5
398
330
A4
100
AcDbEntity
  8
Hawa6
 62
     3
 48
0.039786
100
AcDbLine
 10
24.245056
 20
27.891428
 30
0.0
 11
24.245056
 21
26.300001
 31
0.0
  0
LINE
  5
399
330
A4
100
AcDbEntity
  8
Hawa6
 62
     3
 48
0.199761
100
AcDbLine
 10
43.0
 20
29.300013
 30
0.0
 11
43.0
 21
21.309559
 31
0.0
  0
LINE
  5
39A
330
A4
100
AcDbEntity
  8
Hawa6
 62
     3
 48
0.241769
100
AcDbLine
 10
43.0
 20
58.970768
 30
0.0
 11
43.0
 21
49.299999
 31
0.0
  0
LINE
  5
39B
330
A4
100
AcDbEntity
  8
Hawa6
 62
     3
 48
0.020731
100
AcDbLine
 10
43.0
 20
59.799999
 30
0.0
 11
43.0
 21
58.970768
 31
0.0
  0
LINE
  5
39C
330
A4
100
AcDbEntity
  8
Hawa6
 62
     3
 48
0.064269
100
AcDbLine
 10
42.5
 20
20.870768
 30
0.0
 11
42.5
 21
18.300001
 31
0.0
  0
LINE
  5
39D
330
A4
100
AcDbEntity
  8
Hawa6
 62
     3
 48
0.021236
100
AcDbLine
 10
42.5
 20
60.29999899999999
 30
0.0
 11
42.5
 21
59.45054200000001
 31
0.0
  0
LINE
  5
39E
330
A4
100
AcDbEntity
  8
Hawa6
 62
     3
 48
0.252065
100
AcDbLine
 10
42.5
 20
59.45054200000001
 30
0.0
 11
42.5
 21
49.367939
 31
0.0
  0
LINE
  5
39F
330
A4
100
AcDbEntity
  8
Hawa6
 62
     3
 48
0.001698
100
AcDbLine
 10
42.5
 20
49.367939
 30
0.0
 11
42.5
 21
49.299999
 31
0.0
  0
LINE
  5
3A0
330
A4
100
AcDbEntity
  8
Hawa6
 62
     3
 48
0.210731
100
AcDbLine
 10
42.5
 20
29.300001
 30
0.0
 11
42.5
 21
20.870768
 31
0.0
  0
LINE
  5
3A1
330
A4
100
AcDbEntity
  8
Hawa6
 62
     3
 48
0.064269
100
AcDbLine
 10
37.0
 20
20.870768
 30
0.0
 11
37.0
 21
18.300001
 31
0.0
  0
LINE
  5
3A2
330
A4
100
AcDbEntity
  8
Hawa6
 62
     3
 48
0.021236
100
AcDbLine
 10
37.0
 20
60.29999899999999
 30
0.0
 11
37.0
 21
59.45054200000001
 31
0.0
  0
LINE
  5
3A3
330
A4
100
AcDbEntity
  8
Hawa6
 62
     3
 48
0.252065
100
AcDbLine
 10
37.0
 20
59.45054200000001
 30
0.0
 11
37.0
 21
49.367939
 31
0.0
  0
LINE
  5
3A4
330
A4
100
AcDbEntity
  8
Hawa6
 62
     3
 48
0.001698
100
AcDbLine
 10
37.0
 20
49.367939
 30
0.0
 11
37.0
 21
49.299999
 31
0.0
  0
LINE
  5
3A5
330
A4
100
AcDbEntity
  8
Hawa6
 62
     3
 48
0.210731
100
AcDbLine
 10
37.0
 20
29.300001
 30
0.0
 11
37.0
 21
20.870768
 31
0.0
  0
LINE
  5
3A6
330
A4
100
AcDbEntity
  8
Hawa6
 62
     3
 48
0.042739
100
AcDbLine
 10
36.754337
 20
27.044472
 30
0.0
 11
36.754337
 21
25.3349
 31
0.0
  0
LINE
  5
3A7
330
A4
100
AcDbEntity
  8
Hawa6
 62
     3
 48
0.014122
100
AcDbLine
 10
36.754337
 20
53.265102
 30
0.0
 11
36.754337
 21
52.70020699999999
 31
0.0
  0
LINE
  5
3A8
330
A4
100
AcDbEntity
  8
Hawa6
 62
     3
 48
0.085008
100
AcDbLine
 10
36.754337
 20
52.70020699999999
 30
0.0
 11
36.754337
 21
49.299881
 31
0.0
  0
LINE
  5
3A9
330
A4
100
AcDbEntity
  8
Hawa6
 62
     3
 48
0.056391
100
AcDbLine
 10
36.754337
 20
29.300104
 30
0.0
 11
36.754337
 21
27.044472
 31
0.0
  0
LINE
  5
3AA
330
A4
100
AcDbEntity
  8
Hawa6
 62
     3
 48
0.039786
100
AcDbLine
 10
35.754948
 20
27.891428
 30
0.0
 11
35.754948
 21
26.300001
 31
0.0
  0
LINE
  5
3AB
330
A4
100
AcDbEntity
  8
Hawa6
 62
     3
 48
0.013146
100
AcDbLine
 10
35.754948
 20
52.299999
 30
0.0
 11
35.754948
 21
51.77414699999999
 31
0.0
  0
LINE
  5
3AC
330
A4
100
AcDbEntity
  8
Hawa6
 62
     3
 48
0.061854
100
AcDbLine
 10
35.754948
 20
51.77414699999999
 30
0.0
 11
35.754948
 21
49.299992
 31
0.0
  0
LINE
  5
3AD
330
A4
100
AcDbEntity
  8
Hawa6
 62
     3
 48
0.035214
100
AcDbLine
 10
35.754948
 20
29.300001
 30
0.0
 11
35.754948
 21
27.891428
 31
0.0
  0
LWPOLYLINE
  5
3AE
330
A4
100
AcDbEntity
  8
Hawa6
 62
     3
100
AcDbPolyline
 90
        9
 70
     0
 43
0.0
 10
17.5
 20
60.29999899999999
 10
17.32307999999999
 20
60.267654
 10
17.16905
 20
60.17479699999999
 10
17.057838
 20
60.033413
 10
17.000961
 20
59.801044
 10
17.000172
 20
59.78576700000001
 10
17.0
 20
59.797523
 10
17.0
 20
59.79454399999999
 10
17.0
 20
57.29999499999999
  0
ARC
  5
3B9
330
A4
100
AcDbEntity
  8
Hawa6
 62
     3
100
AcDbCircle
 10
17.5
 20
18.800001
 30
0.0
 40
0.5
100
AcDbArc
 50
179.999991
 51
270.000001
  0
LINE
  5
3BB
330
A4
100
AcDbEntity
  8
Hawa6
 62
     3
 48
0.1375
100
AcDbLine
 10
23.0
 20
18.300001
 30
0.0
 11
17.5
 21
18.300001
 31
0.0
  0
ARC
  5
3BE
330
A4
100
AcDbEntity
  8
Hawa6
 62
     3
100
AcDbCircle
 10
24.245056
 20
53.299999
 30
0.0
 40
1.0
100
AcDbArc
 50
181.999997
 51
269.999997
  0
ARC
  5
3BF
330
A4
100
AcDbEntity
  8
Hawa6
 62
     3
100
AcDbCircle
 10
24.245056
 20
25.300001
 30
0.0
 40
1.0
100
AcDbArc
 50
90.00000300000001
 51
178.000003
  0
LWPOLYLINE
  5
3C0
330
A4
100
AcDbEntity
  8
Hawa6
 62
     3
100
AcDbPolyline
 90
        6
 70
     0
 43
0.0
 10
42.5
 20
18.300001
 10
42.674732
 20
18.331526
 10
42.827431
 20
18.422127
 10
42.93883899999999
 20
18.560377
 10
43.0
 20
18.827911
 10
43.0
 20
21.309473
  0
LINE
  5
3C9
330
A4
100
AcDbEntity
  8
Hawa6
 62
     3
 48
0.1375
100
AcDbLine
 10
42.5
 20
18.300001
 30
0.0
 11
37.0
 21
18.300001
 31
0.0
  0
LINE
  5
3CB
330
A4
100
AcDbEntity
  8
Hawa6
 62
     3
 48
0.17598
100
AcDbLine
 10
36.754337
 20
25.3349
 30
0.0
 11
37.0
 21
18.300001
 31
0.0
  0
LINE
  5
3CC
330
A4
100
AcDbEntity
  8
Hawa6
 62
     3
 48
0.17598
100
AcDbLine
 10
36.754337
 20
53.265102
 30
0.0
 11
37.0
 21
60.29999899999999
 31
0.0
  0
ARC
  5
3CD
330
A4
100
AcDbEntity
  8
Hawa6
 62
     3
100
AcDbCircle
 10
35.754948
 20
25.300001
 30
0.0
 40
1.0
100
AcDbArc
 50
2.0
 51
90.00000300000001
  0
ARC
  5
3CE
330
A4
100
AcDbEntity
  8
Hawa6
 62
     3
100
AcDbCircle
 10
35.754948
 20
53.299999
 30
0.0
 40
1.0
100
AcDbArc
 50
269.999997
 51
358.0
  0
LINE
  5
3CF
330
A4
100
AcDbEntity
  8
Hawa6
 62
     3
 48
0.287747
100
AcDbLine
 10
35.754948
 20
26.300001
 30
0.0
 11
24.245056
 21
26.300001
 31
0.0
  0
LINE
  5
3D0
330
A4
100
AcDbEntity
  8
Hawa6
 62
     3
 48
0.287747
100
AcDbLine
 10
35.754948
 20
52.299999
 30
0.0
 11
24.245056
 21
52.299999
 31
0.0
  0
LINE
  5
3D1
330
A4
100
AcDbEntity
  8
Hawa6
 62
     3
 48
0.007651
100
AcDbLine
 10
47.75
 20
41.49395799999999
 30
0.0
 11
47.75
 21
41.799999
 31
0.0
  0
LINE
  5
3D2
330
A4
100
AcDbEntity
  8
Hawa6
 62
     3
 48
0.0625
100
AcDbLine
 10
47.75
 20
36.799999
 30
0.0
 11
47.75
 21
39.299999
 31
0.0
  0
LINE
  5
3D3
330
A4
100
AcDbEntity
  8
Hawa6
 62
     3
 48
0.054849
100
AcDbLine
 10
47.75
 20
39.299999
 30
0.0
 11
47.75
 21
41.49395799999999
 31
0.0
  0
LINE
  5
3D4
330
A4
100
AcDbEntity
  8
Hawa6
 62
     3
 48
0.008088
100
AcDbLine
 10
47.850002
 20
41.619289
 30
0.0
 11
47.850002
 21
41.942814
 31
0.0
  0
LINE
  5
3D5
330
A4
100
AcDbEntity
  8
Hawa6
 62
     3
 48
0.124053
100
AcDbLine
 10
47.850002
 20
36.657185
 30
0.0
 11
47.850002
 21
41.619289
 31
0.0
  0
LINE
  5
3D6
330
A4
100
AcDbEntity
  8
Hawa6
 62
     3
 48
0.124053
100
AcDbLine
 10
12.150001
 20
36.657185
 30
0.0
 11
12.150001
 21
41.619289
 31
0.0
  0
LINE
  5
3D7
330
A4
100
AcDbEntity
  8
Hawa6
 62
     3
 48
0.008088
100
AcDbLine
 10
12.150001
 20
41.619289
 30
0.0
 11
12.150001
 21
41.942814
 31
0.0
  0
LINE
  5
3D8
330
A4
100
AcDbEntity
  8
Hawa6
 62
     3
 48
0.004359
100
AcDbLine
 10
47.75
 20
41.799999
 30
0.0
 11
47.850002
 21
41.942814
 31
0.0
  0
LINE
  5
3D9
330
A4
100
AcDbEntity
  8
Hawa6
 62
     3
 48
0.004359
100
AcDbLine
 10
47.75
 20
36.799999
 30
0.0
 11
47.850002
 21
36.657185
 31
0.0
  0
LINE
  5
3DC
330
A4
100
AcDbEntity
  8
Hawa6
 62
     3
 48
0.1375
100
AcDbLine
 10
24.5
 20
54.5
 30
0.0
 11
30.0
 21
54.5
 31
0.0
  0
LINE
  5
3DD
330
A4
100
AcDbEntity
  8
Hawa6
 62
     3
 48
0.1375
100
AcDbLine
 10
30.0
 20
54.5
 30
0.0
 11
35.5
 21
54.5
 31
0.0
  0
LINE
  5
3DE
330
A4
100
AcDbEntity
  8
Hawa6
 62
     3
 48
0.15
100
AcDbLine
 10
24.0
 20
54.0
 30
0.0
 11
30.0
 21
54.0
 31
0.0
  0
LINE
  5
3DF
330
A4
100
AcDbEntity
  8
Hawa6
 62
     3
 48
0.15
100
AcDbLine
 10
30.0
 20
54.0
 30
0.0
 11
36.0
 21
54.0
 31
0.0
  0
LINE
  5
3E0
330
A4
100
AcDbEntity
  8
Hawa6
 62
     3
 48
0.017678
100
AcDbLine
 10
24.5
 20
54.5
 30
0.0
 11
24.0
 21
54.0
 31
0.0
  0
LINE
  5
3E1
330
A4
100
AcDbEntity
  8
Hawa6
 62
     3
 48
0.017678
100
AcDbLine
 10
35.5
 20
54.5
 30
0.0
 11
36.0
 21
54.0
 31
0.0
  0
LINE
  5
3E2
330
A4
100
AcDbEntity
  8
Hawa6
 62
     3
 48
0.041738
100
AcDbLine
 10
24.0
 20
54.0
 30
0.0
 11
24.0
 21
52.330463
 31
0.0
  0
LINE
  5
3E3
330
A4
100
AcDbEntity
  8
Hawa6
 62
     3
 48
0.470741
100
AcDbLine
 10
24.0
 20
26.269491
 30
0.0
 11
24.0
 21
7.439866999999999
 31
0.0
  0
LINE
  5
3E4
330
A4
100
AcDbEntity
  8
Hawa6
 62
     3
 48
0.041738
100
AcDbLine
 10
36.0
 20
54.0
 30
0.0
 11
36.0
 21
52.330475
 31
0.0
  0
LINE
  5
3E5
330
A4
100
AcDbEntity
  8
Hawa6
 62
     3
 48
0.47074
100
AcDbLine
 10
36.0
 20
26.269482
 30
0.0
 11
36.0
 21
7.439866999999999
 31
0.0
  0
ENDBLK
  5
3E6
330
A4
100
AcDbEntity
  8
Hawa2
 62
     9
100
AcDbBlockEnd
  0
BLOCK
  5
3E7
330
A5
100
AcDbEntity
  8
Hawa2
 62
     9
100
AcDbBlockBegin
  2
BLOCK1
 70
     0
 10
0.0
 20
0.0
 30
0.0
  3
BLOCK1
  1

  0
LINE
  5
3E8
330
A5
100
AcDbEntity
  8
Hawa2
 62
     9
 48
0.040381
100
AcDbLine
 10
50.357864
 20
64.5
 30
0.0
 11
51.5
 21
65.64213599999999
 31
0.0
  0
LINE
  5
3E9
330
A5
100
AcDbEntity
  8
Hawa2
 62
     9
 48
0.140381
100
AcDbLine
 10
47.52943799999999
 20
64.5
 30
0.0
 11
51.5
 21
68.47056600000001
 31
0.0
  0
LINE
  5
3EA
330
A5
100
AcDbEntity
  8
Hawa2
 62
     9
 48
0.213974
100
AcDbLine
 10
44.701012
 20
64.5
 30
0.0
 11
50.753101
 21
70.55209399999999
 31
0.0
  0
LINE
  5
3EB
330
A5
100
AcDbEntity
  8
Hawa2
 62
     9
 48
0.2872889999999999
100
AcDbLine
 10
41.872585
 20
64.5
 30
0.0
 11
49.99834400000001
 21
72.625763
 31
0.0
  0
LINE
  5
3EC
330
A5
100
AcDbEntity
  8
Hawa2
 62
     9
 48
0.345793
100
AcDbLine
 10
39.044155
 20
64.5
 30
0.0
 11
48.824661
 21
74.280502
 31
0.0
  0
LINE
  5
3ED
330
A5
100
AcDbEntity
  8
Hawa2
 62
     9
 48
0.353553
100
AcDbLine
 10
36.215729
 20
64.5
 30
0.0
 11
46.21572899999999
 21
74.5
 31
0.0
  0
LINE
  5
3EE
330
A5
100
AcDbEntity
  8
Hawa2
 62
     9
 48
0.029603
100
AcDbLine
 10
35.25
 20
66.362701
 30
0.0
 11
36.08730300000001
 21
67.20000500000001
 31
0.0
  0
LINE
  5
3EF
330
A5
100
AcDbEntity
  8
Hawa2
 62
     9
 48
0.163953
100
AcDbLine
 10
38.75
 20
69.862701
 30
0.0
 11
43.387302
 21
74.5
 31
0.0
  0
LINE
  5
3F0
330
A5
100
AcDbEntity
  8
Hawa2
 62
     9
 48
0.116673
100
AcDbLine
 10
37.25887700000001
 20
71.200005
 30
0.0
 11
40.558876
 21
74.5
 31
0.0
  0
LINE
  5
3F1
330
A5
100
AcDbEntity
  8
Hawa2
 62
     9
 48
0.116673
100
AcDbLine
 10
34.430447
 20
71.200005
 30
0.0
 11
37.73045
 21
74.5
 31
0.0
  0
LINE
  5
3F2
330
A5
100
AcDbEntity
  8
Hawa2
 62
     9
 48
0.116673
100
AcDbLine
 10
31.60202
 20
71.200005
 30
0.0
 11
34.90202
 21
74.5
 31
0.0
  0
LINE
  5
3F3
330
A5
100
AcDbEntity
  8
Hawa2
 62
     9
 48
0.091923
100
AcDbLine
 10
22.073593
 20
64.5
 30
0.0
 11
24.673559
 21
67.099968
 31
0.0
  0
LINE
  5
3F4
330
A5
100
AcDbEntity
  8
Hawa2
 62
     9
 48
0.116673
100
AcDbLine
 10
28.773594
 20
71.200005
 30
0.0
 11
32.073593
 21
74.5
 31
0.0
  0
LINE
  5
3F5
330
A5
100
AcDbEntity
  8
Hawa2
 62
     9
 48
0.00901
100
AcDbLine
 10
7.245166999999999
 20
52.5
 30
0.0
 11
7.500000999999999
 21
52.754833
 31
0.0
  0
LINE
  5
3F6
330
A5
100
AcDbEntity
  8
Hawa2
 62
     9
 48
0.09546
100
AcDbLine
 10
19.245167
 20
64.5
 30
0.0
 11
21.945168
 21
67.20000500000001
 31
0.0
  0
LINE
  5
3F7
330
A5
100
AcDbEntity
  8
Hawa2
 62
     9
 48
0.116673
100
AcDbLine
 10
25.945168
 20
71.200005
 30
0.0
 11
29.245167
 21
74.5
 31
0.0
  0
LINE
  5
3F8
330
A5
100
AcDbEntity
  8
Hawa2
 62
     9
 48
0.070119
100
AcDbLine
 10
1.516739999999999
 20
49.600002
 30
0.0
 11
3.500001
 21
51.583263
 31
0.0
  0
LINE
  5
3F9
330
A5
100
AcDbEntity
  8
Hawa2
 62
     9
 48
0.10901
100
AcDbLine
 10
4.416739999999999
 20
52.5
 30
0.0
 11
7.500000999999999
 21
55.583263
 31
0.0
  0
LINE
  5
3FA
330
A5
100
AcDbEntity
  8
Hawa2
 62
     9
 48
0.170882
100
AcDbLine
 10
16.41674
 20
64.5
 30
0.0
 11
21.250002
 21
69.33326
 31
0.0
  0
LINE
  5
3FB
330
A5
100
AcDbEntity
  8
Hawa2
 62
     9
 48
0.116673
100
AcDbLine
 10
23.116739
 20
71.200005
 30
0.0
 11
26.41674
 21
74.5
 31
0.0
  0
LINE
  5
3FC
330
A5
100
AcDbEntity
  8
Hawa2
 62
     9
 48
0.265165
100
AcDbLine
 10
0.000001
 20
50.91169
 30
0.0
 11
7.500000999999999
 21
58.41169
 31
0.0
  0
LINE
  5
3FD
330
A5
100
AcDbEntity
  8
Hawa2
 62
     9
 48
0.353553
100
AcDbLine
 10
13.588313
 20
64.5
 30
0.0
 11
23.588312
 21
74.5
 31
0.0
  0
LINE
  5
3FE
330
A5
100
AcDbEntity
  8
Hawa2
 62
     9
 48
0.265165
100
AcDbLine
 10
0.000001
 20
53.740116
 30
0.0
 11
7.500000999999999
 21
61.240116
 31
0.0
  0
LINE
  5
3FF
330
A5
100
AcDbEntity
  8
Hawa2
 62
     9
 48
0.353553
100
AcDbLine
 10
10.759886
 20
64.5
 30
0.0
 11
20.759886
 21
74.5
 31
0.0
  0
LINE
  5
400
330
A5
100
AcDbEntity
  8
Hawa2
 62
     9
 48
0.247645
100
AcDbLine
 10
0.000001
 20
56.568542
 30
0.0
 11
7.004449
 21
63.57299000000001
 31
0.0
  0
LINE
  5
401
330
A5
100
AcDbEntity
  8
Hawa2
 62
     9
 48
0.336287
100
AcDbLine
 10
8.419839999999998
 20
64.98838000000001
 30
0.0
 11
17.931458
 21
74.5
 31
0.0
  0
LINE
  5
402
330
A5
100
AcDbEntity
  8
Hawa2
 62
     9
 48
0.340797
100
AcDbLine
 10
0.000001
 20
59.39696899999999
 30
0.0
 11
9.639186
 21
69.03615600000001
 31
0.0
  0
LINE
  5
403
330
A5
100
AcDbEntity
  8
Hawa2
 62
     9
 48
0.093302
100
AcDbLine
 10
12.464049
 20
71.86101500000001
 30
0.0
 11
15.103031
 21
74.5
 31
0.0
  0
LINE
  5
404
330
A5
100
AcDbEntity
  8
Hawa2
 62
     9
 48
0.32748
100
AcDbLine
 10
0.000001
 20
62.225399
 30
0.0
 11
9.262525
 21
71.487923
 31
0.0
  0
LINE
  5
405
330
A5
100
AcDbEntity
  8
Hawa2
 62
     9
 48
0.317037
100
AcDbLine
 10
0.000001
 20
65.053825
 30
0.0
 11
8.967159999999999
 21
74.020981
 31
0.0
  0
LINE
  5
406
330
A5
100
AcDbEntity
  8
Hawa2
 62
     9
 48
0.233973
100
AcDbLine
 10
0.000001
 20
67.88225600000001
 30
0.0
 11
6.61775
 21
74.5
 31
0.0
  0
LINE
  5
407
330
A5
100
AcDbEntity
  8
Hawa2
 62
     9
 48
0.133973
100
AcDbLine
 10
0.000001
 20
70.710678
 30
0.0
 11
3.789323
 21
74.5
 31
0.0
  0
LINE
  5
408
330
A5
100
AcDbEntity
  8
Hawa2
 62
     9
 48
0.033973
100
AcDbLine
 10
0.000001
 20
73.539108
 30
0.0
 11
0.9608959999999997
 21
74.5
 31
0.0
  0
ENDBLK
  5
409
330
A5
100
AcDbEntity
  8
Hawa2
 62
     9
100
AcDbBlockEnd
  0
BLOCK
  5
40A
330
A6
100
AcDbEntity
  8
Hawa2
 62
     9
100
AcDbBlockBegin
  2
BLOCK2
 70
     0
 10
0.0
 20
0.0
 30
0.0
  3
BLOCK2
  1

  0
LINE
  5
40B
330
A6
100
AcDbEntity
  8
Hawa2
 62
     9
 48
0.017157
100
AcDbLine
 10
7.014719
 20
15.500001
 30
0.0
 11
7.500000999999999
 21
15.985282
 31
0.0
  0
LINE
  5
40C
330
A6
100
AcDbEntity
  8
Hawa2
 62
     9
 48
0.117157
100
AcDbLine
 10
4.186293
 20
15.500001
 30
0.0
 11
7.500000999999999
 21
18.813709
 31
0.0
  0
LINE
  5
40D
330
A6
100
AcDbEntity
  8
Hawa2
 62
     9
 48
0.217157
100
AcDbLine
 10
1.357864999999999
 20
15.500001
 30
0.0
 11
7.500000999999999
 21
21.642138
 31
0.0
  0
LINE
  5
40E
330
A6
100
AcDbEntity
  8
Hawa2
 62
     9
 48
0.265165
100
AcDbLine
 10
0.000001
 20
16.970564
 30
0.0
 11
7.500000999999999
 21
24.47056400000001
 31
0.0
  0
LINE
  5
40F
330
A6
100
AcDbEntity
  8
Hawa2
 62
     9
 48
0.265165
100
AcDbLine
 10
0.000001
 20
19.79899
 30
0.0
 11
7.500000999999999
 21
27.29899
 31
0.0
  0
LINE
  5
410
330
A6
100
AcDbEntity
  8
Hawa2
 62
     9
 48
0.265165
100
AcDbLine
 10
0.000001
 20
22.627419
 30
0.0
 11
7.500000999999999
 21
30.127419
 31
0.0
  0
LINE
  5
411
330
A6
100
AcDbEntity
  8
Hawa2
 62
     9
 48
0.265165
100
AcDbLine
 10
0.000001
 20
25.455845
 30
0.0
 11
7.500000999999999
 21
32.955845
 31
0.0
  0
LINE
  5
412
330
A6
100
AcDbEntity
  8
Hawa2
 62
     9
 48
0.265165
100
AcDbLine
 10
0.000001
 20
28.284273
 30
0.0
 11
7.500000999999999
 21
35.78427100000001
 31
0.0
  0
LINE
  5
413
330
A6
100
AcDbEntity
  8
Hawa2
 62
     9
 48
0.265165
100
AcDbLine
 10
0.000001
 20
31.1127
 30
0.0
 11
7.500000999999999
 21
38.612698
 31
0.0
  0
LINE
  5
414
330
A6
100
AcDbEntity
  8
Hawa2
 62
     9
 48
0.231891
100
AcDbLine
 10
0.000001
 20
33.94112800000001
 30
0.0
 11
6.558875999999999
 21
40.49999999999999
 31
0.0
  0
LINE
  5
415
330
A6
100
AcDbEntity
  8
Hawa2
 62
     9
 48
0.132128
100
AcDbLine
 10
0.000001
 20
36.769554
 30
0.0
 11
3.737158999999999
 21
40.50671
 31
0.0
  0
LINE
  5
416
330
A6
100
AcDbEntity
  8
Hawa2
 62
     9
 48
0.123744
100
AcDbLine
 10
0.000001
 20
39.59798
 30
0.0
 11
3.500001
 21
43.09797999999999
 31
0.0
  0
LINE
  5
417
330
A6
100
AcDbEntity
  8
Hawa2
 62
     9
 48
0.034422
100
AcDbLine
 10
0.000001
 20
42.42640699999999
 30
0.0
 11
0.9735940000000001
 21
43.400002
 31
0.0
  0
ENDBLK
  5
418
330
A6
100
AcDbEntity
  8
Hawa2
 62
     9
100
AcDbBlockEnd
  0
BLOCK
  5
419
330
A7
100
AcDbEntity
  8
Hawa2
 62
     9
100
AcDbBlockBegin
  2
BLOCK3
 70
     0
 10
0.0
 20
0.0
 30
0.0
  3
BLOCK3
  1

  0
LINE
  5
41A
330
A7
100
AcDbEntity
  8
Hawa2
 62
     9
 48
0.041328
100
AcDbLine
 10
51.300308
 20
14.530755
 30
0.0
 11
52.46924599999999
 21
15.699695
 31
0.0
  0
LINE
  5
41B
330
A7
100
AcDbEntity
  8
Hawa2
 62
     9
 48
0.143503
100
AcDbLine
 10
48.44112800000001
 20
14.500001
 30
0.0
 11
52.5
 21
18.558876
 31
0.0
  0
LINE
  5
41C
330
A7
100
AcDbEntity
  8
Hawa2
 62
     9
 48
0.243503
100
AcDbLine
 10
45.61269799999999
 20
14.500001
 30
0.0
 11
52.5
 21
21.387302
 31
0.0
  0
LINE
  5
41D
330
A7
100
AcDbEntity
  8
Hawa2
 62
     9
 48
0.343503
100
AcDbLine
 10
42.784271
 20
14.500001
 30
0.0
 11
52.5
 21
24.215729
 31
0.0
  0
LINE
  5
41E
330
A7
100
AcDbEntity
  8
Hawa2
 62
     9
 48
0.240416
100
AcDbLine
 10
39.95584500000001
 20
14.500001
 30
0.0
 11
46.755844
 21
21.300001
 31
0.0
  0
LINE
  5
41F
330
A7
100
AcDbEntity
  8
Hawa2
 62
     9
 48
0.123744
100
AcDbLine
 10
49.0
 20
23.544157
 30
0.0
 11
52.5
 21
27.044157
 31
0.0
  0
LINE
  5
420
330
A7
100
AcDbEntity
  8
Hawa2
 62
     9
 48
0.120997
100
AcDbLine
 10
37.505108
 20
14.877691
 30
0.0
 11
40.92741799999999
 21
18.300001
 31
0.0
  0
LINE
  5
421
330
A7
100
AcDbEntity
  8
Hawa2
 62
     9
 48
0.123744
100
AcDbLine
 10
49.0
 20
26.372583
 30
0.0
 11
52.5
 21
29.872583
 31
0.0
  0
LINE
  5
422
330
A7
100
AcDbEntity
  8
Hawa2
 62
     9
 48
0.038855
100
AcDbLine
 10
37.0
 20
17.201012
 30
0.0
 11
38.098991
 21
18.300001
 31
0.0
  0
LINE
  5
423
330
A7
100
AcDbEntity
  8
Hawa2
 62
     9
 48
0.123744
100
AcDbLine
 10
49.0
 20
29.201012
 30
0.0
 11
52.5
 21
32.701012
 31
0.0
  0
LINE
  5
424
330
A7
100
AcDbEntity
  8
Hawa2
 62
     9
 48
0.123744
100
AcDbLine
 10
49.0
 20
32.029438
 30
0.0
 11
52.5
 21
35.529438
 31
0.0
  0
LINE
  5
425
330
A7
100
AcDbEntity
  8
Hawa2
 62
     9
 48
0.123744
100
AcDbLine
 10
49.0
 20
34.857864
 30
0.0
 11
52.5
 21
38.357864
 31
0.0
  0
LINE
  5
426
330
A7
100
AcDbEntity
  8
Hawa2
 62
     9
 48
0.123744
100
AcDbLine
 10
49.0
 20
37.686291
 30
0.0
 11
52.5
 21
41.18629099999999
 31
0.0
  0
LINE
  5
427
330
A7
100
AcDbEntity
  8
Hawa2
 62
     9
 48
0.123744
100
AcDbLine
 10
49.0
 20
40.514721
 30
0.0
 11
52.5
 21
44.014721
 31
0.0
  0
LINE
  5
428
330
A7
100
AcDbEntity
  8
Hawa2
 62
     9
 48
0.123744
100
AcDbLine
 10
49.0
 20
43.34314699999999
 30
0.0
 11
52.5
 21
46.84314699999999
 31
0.0
  0
LINE
  5
429
330
A7
100
AcDbEntity
  8
Hawa2
 62
     9
 48
0.123744
100
AcDbLine
 10
49.0
 20
46.17157399999999
 30
0.0
 11
52.5
 21
49.671574
 31
0.0
  0
LINE
  5
42A
330
A7
100
AcDbEntity
  8
Hawa2
 62
     9
 48
0.123744
100
AcDbLine
 10
49.0
 20
49.0
 30
0.0
 11
52.5
 21
52.5
 31
0.0
  0
LINE
  5
42B
330
A7
100
AcDbEntity
  8
Hawa2
 62
     9
 48
0.123744
100
AcDbLine
 10
49.0
 20
51.828426
 30
0.0
 11
52.5
 21
55.328426
 31
0.0
  0
LINE
  5
42C
330
A7
100
AcDbEntity
  8
Hawa2
 62
     9
 48
0.123744
100
AcDbLine
 10
49.0
 20
54.65685699999999
 30
0.0
 11
52.5
 21
58.15685699999999
 31
0.0
  0
LINE
  5
42D
330
A7
100
AcDbEntity
  8
Hawa2
 62
     9
 48
0.123744
100
AcDbLine
 10
49.0
 20
57.485283
 30
0.0
 11
52.5
 21
60.98528299999999
 31
0.0
  0
LINE
  5
42E
330
A7
100
AcDbEntity
  8
Hawa2
 62
     9
 48
0.132684
100
AcDbLine
 10
48.593754
 20
59.907463
 30
0.0
 11
52.346615
 21
63.66032399999999
 31
0.0
  0
LINE
  5
42F
330
A7
100
AcDbEntity
  8
Hawa2
 62
     9
 48
0.13435
100
AcDbLine
 10
46.557865
 20
60.700001
 30
0.0
 11
50.357864
 21
64.5
 31
0.0
  0
LINE
  5
430
330
A7
100
AcDbEntity
  8
Hawa2
 62
     9
 48
0.13435
100
AcDbLine
 10
43.729439
 20
60.700001
 30
0.0
 11
47.52943799999999
 21
64.5
 31
0.0
  0
LINE
  5
431
330
A7
100
AcDbEntity
  8
Hawa2
 62
     9
 48
0.13435
100
AcDbLine
 10
40.901012
 20
60.700001
 30
0.0
 11
44.701012
 21
64.5
 31
0.0
  0
LINE
  5
432
330
A7
100
AcDbEntity
  8
Hawa2
 62
     9
 48
0.13435
100
AcDbLine
 10
38.07258200000001
 20
60.700001
 30
0.0
 11
41.872585
 21
64.5
 31
0.0
  0
LINE
  5
433
330
A7
100
AcDbEntity
  8
Hawa2
 62
     9
 48
0.13435
100
AcDbLine
 10
35.244156
 20
60.700001
 30
0.0
 11
39.044155
 21
64.5
 31
0.0
  0
LINE
  5
434
330
A7
100
AcDbEntity
  8
Hawa2
 62
     9
 48
0.13435
100
AcDbLine
 10
32.41573
 20
60.700001
 30
0.0
 11
36.215729
 21
64.5
 31
0.0
  0
LINE
  5
435
330
A7
100
AcDbEntity
  8
Hawa2
 62
     9
 48
0.049049
100
AcDbLine
 10
32.0
 20
63.11269799999999
 30
0.0
 11
33.387302
 21
64.5
 31
0.0
  0
ENDBLK
  5
436
330
A7
100
AcDbEntity
  8
Hawa2
 62
     9
100
AcDbBlockEnd
  0
BLOCK
  5
437
330
A8
100
AcDbEntity
  8
Hawa2
 62
     9
100
AcDbBlockBegin
  2
BLOCK4
 70
     0
 10
0.0
 20
0.0
 30
0.0
  3
BLOCK4
  1

  0
LINE
  5
438
330
A8
100
AcDbEntity
  8
Hawa2
 62
     9
 48
0.10052
100
AcDbLine
 10
20.156855
 20
14.500001
 30
0.0
 11
23.000002
 21
17.343147
 31
0.0
  0
LINE
  5
439
330
A8
100
AcDbEntity
  8
Hawa2
 62
     9
 48
0.13435
100
AcDbLine
 10
17.328428
 20
14.500001
 30
0.0
 11
21.128428
 21
18.300001
 31
0.0
  0
LINE
  5
43A
330
A8
100
AcDbEntity
  8
Hawa2
 62
     9
 48
0.13435
100
AcDbLine
 10
14.500001
 20
14.500001
 30
0.0
 11
18.300001
 21
18.300001
 31
0.0
  0
LINE
  5
43B
330
A8
100
AcDbEntity
  8
Hawa2
 62
     9
 48
0.176014
100
AcDbLine
 10
11.671574
 20
14.500001
 30
0.0
 11
16.650002
 21
19.478428
 31
0.0
  0
LINE
  5
43C
330
A8
100
AcDbEntity
  8
Hawa2
 62
     9
 48
0.240144
100
AcDbLine
 10
8.850842
 20
14.507696
 30
0.0
 11
15.643147
 21
21.300001
 31
0.0
  0
LINE
  5
43D
330
A8
100
AcDbEntity
  8
Hawa2
 62
     9
 48
0.187892
100
AcDbLine
 10
7.500324
 20
15.985605
 30
0.0
 11
12.814719
 21
21.300001
 31
0.0
  0
LINE
  5
43E
330
A8
100
AcDbEntity
  8
Hawa2
 62
     9
 48
0.123744
100
AcDbLine
 10
7.500000999999999
 20
18.813709
 30
0.0
 11
11.000001
 21
22.313709
 31
0.0
  0
LINE
  5
43F
330
A8
100
AcDbEntity
  8
Hawa2
 62
     9
 48
0.123744
100
AcDbLine
 10
7.500000999999999
 20
21.642138
 30
0.0
 11
11.000001
 21
25.142138
 31
0.0
  0
LINE
  5
440
330
A8
100
AcDbEntity
  8
Hawa2
 62
     9
 48
0.123744
100
AcDbLine
 10
7.500000999999999
 20
24.47056400000001
 30
0.0
 11
11.000001
 21
27.97056400000001
 31
0.0
  0
LINE
  5
441
330
A8
100
AcDbEntity
  8
Hawa2
 62
     9
 48
0.123744
100
AcDbLine
 10
7.500000999999999
 20
27.29899
 30
0.0
 11
11.000001
 21
30.79899000000001
 31
0.0
  0
LINE
  5
442
330
A8
100
AcDbEntity
  8
Hawa2
 62
     9
 48
0.123744
100
AcDbLine
 10
7.500000999999999
 20
30.127419
 30
0.0
 11
11.000001
 21
33.627419
 31
0.0
  0
LINE
  5
443
330
A8
100
AcDbEntity
  8
Hawa2
 62
     9
 48
0.123744
100
AcDbLine
 10
7.500000999999999
 20
32.955845
 30
0.0
 11
11.000001
 21
36.455845
 31
0.0
  0
LINE
  5
444
330
A8
100
AcDbEntity
  8
Hawa2
 62
     9
 48
0.123744
100
AcDbLine
 10
7.500000999999999
 20
35.78427100000001
 30
0.0
 11
11.000001
 21
39.284271
 31
0.0
  0
LINE
  5
445
330
A8
100
AcDbEntity
  8
Hawa2
 62
     9
 48
0.123744
100
AcDbLine
 10
7.500000999999999
 20
38.612698
 30
0.0
 11
11.000001
 21
42.11269799999999
 31
0.0
  0
LINE
  5
446
330
A8
100
AcDbEntity
  8
Hawa2
 62
     9
 48
0.123744
100
AcDbLine
 10
7.500000999999999
 20
41.44112800000001
 30
0.0
 11
11.000001
 21
44.941128
 31
0.0
  0
LINE
  5
447
330
A8
100
AcDbEntity
  8
Hawa2
 62
     9
 48
0.04388
100
AcDbLine
 10
26.758875
 20
60.700001
 30
0.0
 11
28.000002
 21
61.941128
 31
0.0
  0
LINE
  5
448
330
A8
100
AcDbEntity
  8
Hawa2
 62
     9
 48
0.123744
100
AcDbLine
 10
7.500000999999999
 20
44.26955399999999
 30
0.0
 11
11.000001
 21
47.769554
 31
0.0
  0
LINE
  5
449
330
A8
100
AcDbEntity
  8
Hawa2
 62
     9
 48
0.13435
100
AcDbLine
 10
23.930449
 20
60.700001
 30
0.0
 11
27.730448
 21
64.5
 31
0.0
  0
LINE
  5
44A
330
A8
100
AcDbEntity
  8
Hawa2
 62
     9
 48
0.123744
100
AcDbLine
 10
7.500000999999999
 20
47.09798
 30
0.0
 11
11.000001
 21
50.59798
 31
0.0
  0
LINE
  5
44B
330
A8
100
AcDbEntity
  8
Hawa2
 62
     9
 48
0.13435
100
AcDbLine
 10
21.10202
 20
60.700001
 30
0.0
 11
24.902021
 21
64.5
 31
0.0
  0
LINE
  5
44C
330
A8
100
AcDbEntity
  8
Hawa2
 62
     9
 48
0.123744
100
AcDbLine
 10
7.500000999999999
 20
49.92640699999999
 30
0.0
 11
11.000001
 21
53.426407
 31
0.0
  0
LINE
  5
44D
330
A8
100
AcDbEntity
  8
Hawa2
 62
     9
 48
0.13435
100
AcDbLine
 10
18.273594
 20
60.700001
 30
0.0
 11
22.073593
 21
64.5
 31
0.0
  0
LINE
  5
44E
330
A8
100
AcDbEntity
  8
Hawa2
 62
     9
 48
0.123744
100
AcDbLine
 10
7.500000999999999
 20
52.754833
 30
0.0
 11
11.000001
 21
56.25483299999999
 31
0.0
  0
LINE
  5
44F
330
A8
100
AcDbEntity
  8
Hawa2
 62
     9
 48
0.13435
100
AcDbLine
 10
15.445167
 20
60.700001
 30
0.0
 11
19.245167
 21
64.5
 31
0.0
  0
LINE
  5
450
330
A8
100
AcDbEntity
  8
Hawa2
 62
     9
 48
0.125411
100
AcDbLine
 10
7.500000999999999
 20
55.583263
 30
0.0
 11
11.047149
 21
59.130409
 31
0.0
  0
LINE
  5
451
330
A8
100
AcDbEntity
  8
Hawa2
 62
     9
 48
0.136017
100
AcDbLine
 10
12.569592
 20
60.652851
 30
0.0
 11
16.41674
 21
64.5
 31
0.0
  0
LINE
  5
452
330
A8
100
AcDbEntity
  8
Hawa2
 62
     9
 48
0.215254
100
AcDbLine
 10
7.500000999999999
 20
58.41169
 30
0.0
 11
13.588313
 21
64.5
 31
0.0
  0
LINE
  5
453
330
A8
100
AcDbEntity
  8
Hawa2
 62
     9
 48
0.115254
100
AcDbLine
 10
7.500000999999999
 20
61.240116
 30
0.0
 11
10.759886
 21
64.5
 31
0.0
  0
ENDBLK
  5
454
330
A8
100
AcDbEntity
  8
Hawa2
 62
     9
100
AcDbBlockEnd
  0
ENDSEC
  0
SECTION
  2
ENTITIES
  0
DIMENSION
  5
26
330
A
100
AcDbEntity
  8
Hawa2
 62
     9
100
AcDbDimension
  2
*D0
 10
115.585346
 20
102.653492
 30
0.0
 11
100.584694
 21
102.653492
 31
0.0
 70
   160
 71
     5
 42
-1.0
 52
89.999523
  3
STANDARD
100
AcDbAlignedDimension
 13
85.58404300000001
 23
126.769718
 33
0.0
 14
115.585346
 24
184.729852
 34
0.0
 50
359.998092
100
AcDbRotatedDimension
  0
DIMENSION
  5
28
330
A
100
AcDbEntity
  8
Hawa2
 62
     9
100
AcDbDimension
  2
*D1
 10
137.084043
 20
218.779804
 30
0.0
 11
111.334043
 21
218.779804
 31
0.0
 70
   160
 71
     5
 42
-1.0
 52
89.999523
  3
STANDARD
100
AcDbAlignedDimension
 13
85.58404300000001
 23
209.329852
 33
0.0
 14
137.084043
 24
187.829852
 34
0.0
 50
359.998092
100
AcDbRotatedDimension
  0
DIMENSION
  5
2A
330
A
100
AcDbEntity
  8
Hawa2
 62
     9
100
AcDbDimension
  2
*D2
 10
56.47884300000001
 20
193.829852
 30
0.0
 11
56.47884300000001
 21
164.329852
 31
0.0
 70
   161
 71
     5
 42
-1.0
 52
89.999523
  3
STANDARD
100
AcDbAlignedDimension
 13
85.884043
 23
134.829852
 33
0.0
 14
85.884043
 24
193.829852
 34
0.0
  0
DIMENSION
  5
2C
330
A
100
AcDbEntity
  8
Hawa2
 62
     9
100
AcDbDimension
  2
*D3
 10
93.08404300000001
 20
122.944965
 30
0.0
 11
73.474576
 21
122.944965
 31
0.0
 70
   160
 71
     5
 42
-1.0
 52
89.999523
  3
STANDARD
100
AcDbAlignedDimension
 13
85.58404300000001
 23
126.769718
 33
0.0
 14
93.08404300000001
 24
135.129852
 34
0.0
 50
359.998092
100
AcDbRotatedDimension
  0
DIMENSION
  5
2E
330
A
100
AcDbEntity
  8
Hawa2
 62
     9
100
AcDbDimension
  2
*D4
 10
66.90415300000001
 20
168.929852
 30
0.0
 11
66.90415300000001
 21
180.763049
 31
0.0
 70
   161
  1
%%c<>
 71
     5
 42
-1.0
 52
89.999523
  3
STANDARD
100
AcDbAlignedDimension
 13
85.58404300000001
 23
162.729852
 33
0.0
 14
85.58404300000001
 24
168.929852
 34
0.0
  0
POINT
  5
2F
330
A
100
AcDbEntity
  8
Hawa2
 62
     9
100
AcDbPoint
 10
85.58404300000001
 20
126.769718
 30
0.0
  0
ARC
  5
30
330
A
100
AcDbEntity
  8
Hawa6
 62
     3
100
AcDbCircle
 10
107.343986
 20
187.029856
 30
0.0
 40
0.5
100
AcDbArc
 50
180.000005
 51
270.000001
  0
ARC
  5
31
330
A
100
AcDbEntity
  8
Hawa6
 62
     3
100
AcDbCircle
 10
107.343986
 20
189.029856
 30
0.0
 40
0.5
100
AcDbArc
 50
89.999996
 51
179.999991
  0
LINE
  5
32
330
A
100
AcDbEntity
  8
Hawa6
 62
     3
 48
0.05
100
AcDbLine
 10
106.843986
 20
189.029856
 30
0.0
 11
106.843986
 21
187.029856
 31
0.0
  0
LINE
  5
33
330
A
100
AcDbEntity
  8
Hawa6
 62
     3
 48
0.116281
100
AcDbLine
 10
107.343998
 20
186.529848
 30
0.0
 11
111.995245
 21
186.529856
 31
0.0
  0
LINE
  5
34
330
A
100
AcDbEntity
  8
Hawa6
 62
     3
 48
0.143781
100
AcDbLine
 10
113.095247
 20
189.529856
 30
0.0
 11
107.343998
 21
189.529856
 31
0.0
  0
ARC
  5
35
330
A
100
AcDbEntity
  8
Hawa6
 62
     3
100
AcDbCircle
 10
115.94408
 20
180.644846
 30
0.0
 40
4.299534999999999
100
AcDbArc
 50
255.790148
 51
264.985413
  0
ARC
  5
36
330
A
100
AcDbEntity
  8
Hawa6
 62
     3
100
AcDbCircle
 10
111.995245
 20
186.029856
 30
0.0
 40
0.5
100
AcDbArc
 50
0.0
 51
90.00000300000001
  0
ARC
  5
37
330
A
100
AcDbEntity
  8
Hawa6
 62
     3
100
AcDbCircle
 10
119.195244
 20
186.029856
 30
0.0
 40
0.5
100
AcDbArc
 50
90.00000300000001
 51
180.000005
  0
LINE
  5
38
330
A
100
AcDbEntity
  8
Hawa6
 62
     3
 48
0.015
100
AcDbLine
 10
118.095245
 20
184.729853
 30
0.0
 11
118.695244
 21
184.729853
 31
0.0
  0
LINE
  5
39
330
A
100
AcDbEntity
  8
Hawa6
 62
     3
 48
0.05
100
AcDbLine
 10
124.346508
 20
189.029856
 30
0.0
 11
124.346508
 21
187.029856
 31
0.0
  0
LINE
  5
3A
330
A
100
AcDbEntity
  8
Hawa6
 62
     3
 48
0.0625
100
AcDbLine
 10
110.595245
 20
180.029852
 30
0.0
 11
113.095245
 21
180.029852
 31
0.0
  0
LINE
  5
3B
330
A
100
AcDbEntity
  8
Hawa6
 62
     3
 48
0.0625
100
AcDbLine
 10
118.095245
 20
180.029852
 30
0.0
 11
120.595245
 21
180.029852
 31
0.0
  0
LINE
  5
3C
330
A
100
AcDbEntity
  8
Hawa6
 62
     3
 48
0.002896
100
AcDbLine
 10
114.888653
 20
176.361788
 30
0.0
 11
114.888653
 21
176.477618
 31
0.0
  0
LINE
  5
3D
330
A
100
AcDbEntity
  8
Hawa6
 62
     3
 48
0.000715
100
AcDbLine
 10
114.860172
 20
176.364371
 30
0.0
 11
114.888653
 21
176.361788
 31
0.0
  0
LINE
  5
3E
330
A
100
AcDbEntity
  8
Hawa6
 62
     3
 48
0.002877
100
AcDbLine
 10
116.301838
 20
176.361788
 30
0.0
 11
116.301838
 21
176.476862
 31
0.0
  0
LINE
  5
3F
330
A
100
AcDbEntity
  8
Hawa6
 62
     3
 48
0.000715
100
AcDbLine
 10
116.301838
 20
176.361788
 30
0.0
 11
116.330318
 21
176.364371
 31
0.0
  0
ARC
  5
40
330
A
100
AcDbEntity
  8
Hawa6
 62
     3
100
AcDbCircle
 10
115.246412
 20
180.644846
 30
0.0
 40
4.299534999999999
100
AcDbArc
 50
275.014589
 51
284.209854
  0
ARC
  5
41
330
A
100
AcDbEntity
  8
Hawa6
 62
     3
100
AcDbCircle
 10
115.223833
 20
180.014555
 30
0.0
 40
3.668973999999999
100
AcDbArc
 50
275.3865890000001
 51
275.810033
  0
LINE
  5
42
330
A
100
AcDbEntity
  8
Hawa6
 62
     3
 48
0.000678
100
AcDbLine
 10
115.595247
 20
176.364432
 30
0.0
 11
115.622231
 21
176.361788
 31
0.0
  0
LINE
  5
43
330
A
100
AcDbEntity
  8
Hawa6
 62
     3
 48
0.01602
100
AcDbLine
 10
116.954456
 20
190.029856
 30
0.0
 11
117.595245
 21
190.029856
 31
0.0
  0
LINE
  5
44
330
A
100
AcDbEntity
  8
Hawa6
 62
     3
 48
0.08398
100
AcDbLine
 10
113.595245
 20
190.029856
 30
0.0
 11
116.954456
 21
190.029856
 31
0.0
  0
LINE
  5
45
330
A
100
AcDbEntity
  8
Hawa6
 62
     3
 48
0.0475
100
AcDbLine
 10
110.595245
 20
180.029852
 30
0.0
 11
110.595245
 21
178.129851
 31
0.0
  0
LINE
  5
46
330
A
100
AcDbEntity
  8
Hawa6
 62
     3
 48
0.0475
100
AcDbLine
 10
120.595245
 20
180.029852
 30
0.0
 11
120.595245
 21
178.129851
 31
0.0
  0
ARC
  5
47
330
A
100
AcDbEntity
  8
Hawa6
 62
     3
100
AcDbCircle
 10
115.595245
 20
184.174296
 30
0.0
 40
7.844444
100
AcDbArc
 50
230.402251
 51
264.623139
  0
ARC
  5
48
330
A
100
AcDbEntity
  8
Hawa6
 62
     3
100
AcDbCircle
 10
115.595245
 20
184.174296
 30
0.0
 40
7.844444999999999
100
AcDbArc
 50
275.376862
 51
309.597749
  0
LINE
  5
49
330
A
100
AcDbEntity
  8
Hawa6
 62
     3
 48
0.1175
100
AcDbLine
 10
113.095245
 20
184.729853
 30
0.0
 11
113.095245
 21
180.029852
 31
0.0
  0
LINE
  5
4A
330
A
100
AcDbEntity
  8
Hawa6
 62
     3
 48
0.1175
100
AcDbLine
 10
118.095245
 20
184.729853
 30
0.0
 11
118.095245
 21
180.029852
 31
0.0
  0
LINE
  5
4B
330
A
100
AcDbEntity
  8
Hawa6
 62
     3
 48
0.017678
100
AcDbLine
 10
113.595245
 20
190.029856
 30
0.0
 11
113.095247
 21
189.529856
 31
0.0
  0
LINE
  5
4C
330
A
100
AcDbEntity
  8
Hawa6
 62
     3
 48
0.017678
100
AcDbLine
 10
117.595245
 20
190.029856
 30
0.0
 11
118.095245
 21
189.529856
 31
0.0
  0
LINE
  5
4D
330
A
100
AcDbEntity
  8
Hawa6
 62
     3
 48
0.143782
100
AcDbLine
 10
123.846508
 20
189.529856
 30
0.0
 11
118.095245
 21
189.529856
 31
0.0
  0
LWPOLYLINE
  5
4E
330
A
100
AcDbEntity
  8
Hawa6
 62
     3
100
AcDbPolyline
 90
        6
 70
     0
 43
0.0
 10
107.344826
 20
189.529856
 10
107.202656
 20
189.50918
 10
107.072239
 20
189.448862
 10
106.964359
 20
189.353892
 10
106.887941
 20
189.232104
 10
106.845245
 20
189.029856
  0
LWPOLYLINE
  5
56
330
A
100
AcDbEntity
  8
Hawa6
 62
     3
100
AcDbPolyline
 90
        6
 70
     0
 43
0.0
 10
107.549746
 20
189.529856
 10
107.407577
 20
189.50918
 10
107.277161
 20
189.448862
 10
107.169279
 20
189.353892
 10
107.092861
 20
189.232104
 10
107.050167
 20
189.029856
  0
LWPOLYLINE
  5
5E
330
A
100
AcDbEntity
  8
Hawa6
 62
     3
100
AcDbPolyline
 90
        7
 70
     0
 43
0.0
 10
110.681524
 20
189.529856
 10
110.668299
 20
189.527949
 10
110.65521
 20
189.522265
 10
110.629686
 20
189.499712
 10
110.582018
 20
189.407084
 10
110.530285
 20
189.064539
 10
110.529919
 20
189.029856
  0
LWPOLYLINE
  5
67
330
A
100
AcDbEntity
  8
Hawa6
 62
     3
100
AcDbPolyline
 90
        7
 70
     0
 43
0.0
 10
122.543297
 20
189.529856
 10
122.530075
 20
189.527949
 10
122.516983
 20
189.522265
 10
122.491459
 20
189.499712
 10
122.44379
 20
189.407084
 10
122.392059
 20
189.064539
 10
122.391693
 20
189.029856
  0
LWPOLYLINE
  5
70
330
A
100
AcDbEntity
  8
Hawa6
 62
     3
100
AcDbPolyline
 90
        6
 70
     0
 43
0.0
 10
106.845245
 20
187.029856
 10
106.865917
 20
186.887514
 10
106.926216
 20
186.756953
 10
107.021149
 20
186.648989
 10
107.142845
 20
186.572542
 10
107.344826
 20
186.529856
  0
LWPOLYLINE
  5
78
330
A
100
AcDbEntity
  8
Hawa6
 62
     3
100
AcDbPolyline
 90
        6
 70
     0
 43
0.0
 10
107.050167
 20
187.029856
 10
107.070837
 20
186.887514
 10
107.131138
 20
186.75696
 10
107.226068
 20
186.648989
 10
107.347767
 20
186.572542
 10
107.549746
 20
186.529856
  0
LWPOLYLINE
  5
80
330
A
100
AcDbEntity
  8
Hawa6
 62
     3
100
AcDbPolyline
 90
        4
 70
     0
 43
0.0
 10
110.529919
 20
187.029856
 10
110.574324
 20
186.676302
 10
110.623507
 20
186.567911
 10
110.681524
 20
186.529856
  0
LINE
  5
86
330
A
100
AcDbEntity
  8
Hawa6
 62
     3
 48
0.116282
100
AcDbLine
 10
119.195244
 20
186.529856
 30
0.0
 11
123.846508
 21
186.529856
 31
0.0
  0
LWPOLYLINE
  5
87
330
A
100
AcDbEntity
  8
Hawa6
 62
     3
100
AcDbPolyline
 90
        4
 70
     0
 43
0.0
 10
122.391693
 20
187.029856
 10
122.436096
 20
186.676302
 10
122.485283
 20
186.567911
 10
122.543297
 20
186.529856
  0
LINE
  5
8D
330
A
100
AcDbEntity
  8
Hawa6
 62
     3
 48
0.000065
100
AcDbLine
 10
112.497852
 20
184.729853
 30
0.0
 11
112.495245
 21
184.729853
 31
0.0
  0
LINE
  5
8E
330
A
100
AcDbEntity
  8
Hawa6
 62
     3
 48
0.014935
100
AcDbLine
 10
113.095245
 20
184.729853
 30
0.0
 11
112.497852
 21
184.729853
 31
0.0
  0
LWPOLYLINE
  5
8F
330
A
100
AcDbEntity
  8
Hawa6
 62
     3
100
AcDbPolyline
 90
        6
 70
     0
 43
0.0
 10
112.497852
 20
186.029856
 10
112.47718
 20
186.17219
 10
112.41688
 20
186.302752
 10
112.321949
 20
186.410715
 10
112.200253
 20
186.48717
 10
111.998272
 20
186.529856
  0
LWPOLYLINE
  5
97
330
A
100
AcDbEntity
  8
Hawa6
 62
     3
100
AcDbPolyline
 90
        6
 70
     0
 43
0.0
 10
119.192219
 20
186.529856
 10
119.050049
 20
186.50918
 10
118.919636
 20
186.44887
 10
118.811752
 20
186.353892
 10
118.735336
 20
186.232104
 10
118.692638
 20
186.029856
  0
ARC
  5
9F
330
A
100
AcDbEntity
  8
Hawa6
 62
     3
100
AcDbCircle
 10
123.846508
 20
189.029856
 30
0.0
 40
0.5
100
AcDbArc
 50
0.00001
 51
90.00000300000001
  0
ARC
  5
A0
330
A
100
AcDbEntity
  8
Hawa6
 62
     3
100
AcDbCircle
 10
123.846508
 20
187.029856
 30
0.0
 40
0.5
100
AcDbArc
 50
270.000001
 51
0.0
  0
LINE
  5
A1
330
A
100
AcDbEntity
  8
Hawa6
 62
     3
 48
0.0325
100
AcDbLine
 10
112.495245
 20
184.729853
 30
0.0
 11
112.495245
 21
186.029856
 31
0.0
  0
LINE
  5
A2
330
A
100
AcDbEntity
  8
Hawa6
 62
     3
 48
0.0325
100
AcDbLine
 10
118.695244
 20
184.729853
 30
0.0
 11
118.695244
 21
186.029856
 31
0.0
  0
LINE
  5
45D
330
A
100
AcDbEntity
  8
Hawa5
 62
     1
100
AcDbLine
 10
85.58404300000001
 20
209.329851
 30
0.0
 11
85.58404300000001
 21
167.12985
 31
0.0
  0
LINE
  5
45E
330
A
100
AcDbEntity
  8
Hawa5
 62
     1
100
AcDbLine
 10
85.58404300000001
 20
162.729853
 30
0.0
 11
85.58404300000001
 21
126.769718
 31
0.0
  0
LINE
  5
45F
330
A
100
AcDbEntity
  8
Hawa4
 62
     4
 48
0.03625
100
AcDbLine
 10
89.084043
 20
170.079851
 30
0.0
 11
89.084043
 21
171.529852
 31
0.0
  0
LINE
  5
460
330
A
100
AcDbEntity
  8
Hawa5
 62
     1
 48
0.004656
100
AcDbLine
 10
85.58404300000001
 20
167.316072
 30
0.0
 11
85.58404300000001
 21
167.129846
 31
0.0
  0
LINE
  5
461
330
A
100
AcDbEntity
  8
Hawa5
 62
     1
 48
0.034379
100
AcDbLine
 10
85.58404300000001
 20
164.105024
 30
0.0
 11
85.58404300000001
 21
162.729853
 31
0.0
  0
LINE
  5
462
330
A
100
AcDbEntity
  8
Hawa4
 62
     4
 48
0.0875
100
AcDbLine
 10
85.58404300000001
 20
162.729853
 30
0.0
 11
89.084043
 21
162.729853
 31
0.0
  0
LINE
  5
463
330
A
100
AcDbEntity
  8
Hawa5
 62
     1
 48
0.040345
100
AcDbLine
 10
85.58404300000001
 20
168.929853
 30
0.0
 11
85.58404300000001
 21
167.316072
 31
0.0
  0
LINE
  5
464
330
A
100
AcDbEntity
  8
Hawa4
 62
     4
 48
0.0875
100
AcDbLine
 10
85.58404300000001
 20
168.929853
 30
0.0
 11
89.084043
 21
168.929853
 31
0.0
  0
ARC
  5
465
330
A
100
AcDbEntity
  8
Hawa4
 62
     4
100
AcDbCircle
 10
89.38404299999998
 20
171.529852
 30
0.0
 40
0.3
100
AcDbArc
 50
90.00000299999824
 51
180.0000049045562
  0
LINE
  5
466
330
A
100
AcDbEntity
  8
Hawa4
 62
     4
 48
0.259393
100
AcDbLine
 10
93.08404300000001
 20
171.829851
 30
0.0
 11
93.08404300000001
 21
182.205587
 31
0.0
  0
LINE
  5
467
330
A
100
AcDbEntity
  8
Hawa4
 62
     4
 48
0.0925
100
AcDbLine
 10
89.38404299999998
 20
171.829851
 30
0.0
 11
93.08404300000001
 21
171.829851
 31
0.0
  0
LINE
  5
468
330
A
100
AcDbEntity
  8
Hawa5
 62
     1
 48
0.03625
100
AcDbLine
 10
89.084043
 20
160.12985
 30
0.0
 11
89.084043
 21
161.579851
 31
0.0
  0
ARC
  5
469
330
A
100
AcDbEntity
  8
Hawa5
 62
     1
100
AcDbCircle
 10
89.38404299999998
 20
160.12985
 30
0.0
 40
0.3
100
AcDbArc
 50
180.0000049045562
 51
270.0000010000003
  0
LINE
  5
46A
330
A
100
AcDbEntity
  8
Hawa4
 62
     4
 48
0.0925
100
AcDbLine
 10
93.08404300000001
 20
159.829851
 30
0.0
 11
89.38404299999998
 21
159.829851
 31
0.0
  0
LINE
  5
46B
330
A
100
AcDbEntity
  8
Hawa4
 62
     4
100
AcDbLine
 10
93.08404300000001
 20
135.129852
 30
0.0
 11
93.08404300000001
 21
159.829851
 31
0.0
  0
ARC
  5
46C
330
A
100
AcDbEntity
  8
Hawa4
 62
     4
100
AcDbCircle
 10
92.78404300000001
 20
135.129852
 30
0.0
 40
0.3
100
AcDbArc
 50
270.0000010000003
 51
0.0000099931643211
  0
LINE
  5
46D
330
A
100
AcDbEntity
  8
Hawa4
 62
     4
 48
0.1725
100
AcDbLine
 10
85.88404299999998
 20
134.829852
 30
0.0
 11
92.78404300000001
 21
134.829852
 31
0.0
  0
ARC
  5
46E
330
A
100
AcDbEntity
  8
Hawa4
 62
     4
100
AcDbCircle
 10
85.88404299999998
 20
135.129852
 30
0.0
 40
0.3
100
AcDbArc
 50
180.0000049045562
 51
270.0000010000003
  0
LINE
  5
46F
330
A
100
AcDbEntity
  8
Hawa4
 62
     4
100
AcDbLine
 10
85.58404300000001
 20
162.729853
 30
0.0
 11
85.58404300000001
 21
135.129852
 31
0.0
  0
LINE
  5
470
330
A
100
AcDbEntity
  8
Hawa4
 62
     4
100
AcDbLine
 10
85.58404300000001
 20
193.529856
 30
0.0
 11
85.58404300000001
 21
168.929853
 31
0.0
  0
ARC
  5
471
330
A
100
AcDbEntity
  8
Hawa4
 62
     4
100
AcDbCircle
 10
85.88404299999998
 20
193.529856
 30
0.0
 40
0.3
100
AcDbArc
 50
90.00000299999824
 51
180.0000049045562
  0
LINE
  5
472
330
A
100
AcDbEntity
  8
Hawa4
 62
     4
 48
0.205435
100
AcDbLine
 10
94.101437
 20
193.829851
 30
0.0
 11
85.88404299999998
 21
193.829851
 31
0.0
  0
ARC
  5
473
330
A
100
AcDbEntity
  8
Hawa4
 62
     4
100
AcDbCircle
 10
94.101437
 20
193.529856
 30
0.0
 40
0.3
100
AcDbArc
 50
30.00000000000644
 51
90.00000300000095
  0
LINE
  5
474
330
A
100
AcDbEntity
  8
Hawa4
 62
     4
 48
0.054131
100
AcDbLine
 10
95.443867
 20
191.804697
 30
0.0
 11
94.361245
 21
193.679849
 31
0.0
  0
ARC
  5
475
330
A
100
AcDbEntity
  8
Hawa4
 62
     4
100
AcDbCircle
 10
95.18406
 20
191.654695
 30
0.0
 40
0.3
100
AcDbArc
 50
307.4947059999979
 51
30.00000299999993
  0
ARC
  5
476
330
A
100
AcDbEntity
  8
Hawa4
 62
     4
100
AcDbCircle
 10
96.584043
 20
189.829851
 30
0.0
 40
2.0
100
AcDbArc
 50
127.4947150000004
 51
52.50528699999968
  0
ARC
  5
477
330
A
100
AcDbEntity
  8
Hawa4
 62
     4
100
AcDbCircle
 10
97.98402600000001
 20
191.654695
 30
0.0
 40
0.3
100
AcDbArc
 50
149.9999970000014
 51
232.505294
  0
LINE
  5
478
330
A
100
AcDbEntity
  8
Hawa4
 62
     4
 48
0.054131
100
AcDbLine
 10
98.80684100000001
 20
193.679849
 30
0.0
 11
97.72421900000001
 21
191.804697
 31
0.0
  0
ARC
  5
479
330
A
100
AcDbEntity
  8
Hawa4
 62
     4
100
AcDbCircle
 10
99.066649
 20
193.529856
 30
0.0
 40
0.3
100
AcDbArc
 50
90.00000300000095
 51
149.9999969999967
  0
LINE
  5
47A
330
A
100
AcDbEntity
  8
Hawa4
 62
     4
100
AcDbLine
 10
133.499806
 20
193.829851
 30
0.0
 11
99.066649
 21
193.829851
 31
0.0
  0
ARC
  5
47B
330
A
100
AcDbEntity
  8
Hawa4
 62
     4
100
AcDbCircle
 10
133.499806
 20
191.8298509999999
 30
0.0
 40
2.0
100
AcDbArc
 50
19.99999899999935
 51
90.00000300000014
  0
LINE
  5
47C
330
A
100
AcDbEntity
  8
Hawa4
 62
     4
 48
0.124616
100
AcDbLine
 10
137.084042
 20
187.829851
 30
0.0
 11
135.379193
 21
192.513895
 31
0.0
  0
LINE
  5
47D
330
A
100
AcDbEntity
  8
Hawa4
 62
     4
 48
0.1
100
AcDbLine
 10
137.084042
 20
183.829851
 30
0.0
 11
137.084042
 21
187.829851
 31
0.0
  0
LINE
  5
47E
330
A
100
AcDbEntity
  8
Hawa4
 62
     4
 48
0.40625
100
AcDbLine
 10
120.834042
 20
183.829851
 30
0.0
 11
137.084042
 21
183.829851
 31
0.0
  0
LINE
  5
47F
330
A
100
AcDbEntity
  8
Hawa4
 62
     4
 48
0.06
100
AcDbLine
 10
120.834042
 20
186.229853
 30
0.0
 11
120.834042
 21
183.829851
 31
0.0
  0
ARC
  5
480
330
A
100
AcDbEntity
  8
Hawa4
 62
     4
100
AcDbCircle
 10
121.134041
 20
186.229853
 30
0.0
 40
0.3
100
AcDbArc
 50
90.00000300000095
 51
180.0000049045562
  0
LINE
  5
481
330
A
100
AcDbEntity
  8
Hawa6
 62
     3
 48
0.004917
100
AcDbLine
 10
124.034043
 20
186.529856
 30
0.0
 11
123.837376
 21
186.529856
 31
0.0
  0
ARC
  5
482
330
A
100
AcDbEntity
  8
Hawa4
 62
     4
100
AcDbCircle
 10
124.034043
 20
186.829851
 30
0.0
 40
0.3
100
AcDbArc
 50
270.0000010000003
 51
0.0000099931643211
  0
LINE
  5
483
330
A
100
AcDbEntity
  8
Hawa4
 62
     4
 48
0.029115
100
AcDbLine
 10
124.334042
 20
190.229853
 30
0.0
 11
124.334042
 21
189.065271
 31
0.0
  0
LINE
  5
484
330
A
100
AcDbEntity
  8
Hawa6
 62
     3
 48
0.004114
100
AcDbLine
 10
124.334042
 20
186.994425
 30
0.0
 11
124.334042
 21
186.829851
 31
0.0
  0
ARC
  5
485
330
A
100
AcDbEntity
  8
Hawa4
 62
     4
100
AcDbCircle
 10
124.034043
 20
190.229853
 30
0.0
 40
0.3
100
AcDbArc
 50
0.0
 51
90.00000300000095
  0
LINE
  5
486
330
A
100
AcDbEntity
  8
Hawa4
 62
     4
 48
0.18875
100
AcDbLine
 10
116.484044
 20
190.529856
 30
0.0
 11
124.034043
 21
190.529856
 31
0.0
  0
LINE
  5
487
330
A
100
AcDbEntity
  8
Hawa4
 62
     4
 48
0.010607
100
AcDbLine
 10
116.484044
 20
190.529856
 30
0.0
 11
116.184042
 21
190.829851
 31
0.0
  0
LINE
  5
488
330
A
100
AcDbEntity
  8
Hawa4
 62
     4
 48
0.010607
100
AcDbLine
 10
116.184042
 20
190.829851
 30
0.0
 11
115.884043
 21
190.529856
 31
0.0
  0
LINE
  5
489
330
A
100
AcDbEntity
  8
Hawa4
 62
     4
 48
0.015
100
AcDbLine
 10
115.284043
 20
190.529856
 30
0.0
 11
115.884043
 21
190.529856
 31
0.0
  0
LINE
  5
48A
330
A
100
AcDbEntity
  8
Hawa4
 62
     4
 48
0.010607
100
AcDbLine
 10
114.984044
 20
190.829851
 30
0.0
 11
115.284043
 21
190.529856
 31
0.0
  0
LINE
  5
48B
330
A
100
AcDbEntity
  8
Hawa4
 62
     4
 48
0.010607
100
AcDbLine
 10
114.684042
 20
190.529856
 30
0.0
 11
114.984044
 21
190.829851
 31
0.0
  0
LINE
  5
48C
330
A
100
AcDbEntity
  8
Hawa4
 62
     4
 48
0.18875
100
AcDbLine
 10
107.134043
 20
190.529856
 30
0.0
 11
114.684042
 21
190.529856
 31
0.0
  0
ARC
  5
48D
330
A
100
AcDbEntity
  8
Hawa4
 62
     4
100
AcDbCircle
 10
107.134043
 20
190.229853
 30
0.0
 40
0.3
100
AcDbArc
 50
90.00000299999824
 51
180.0000049045562
  0
LINE
  5
48E
330
A
100
AcDbEntity
  8
Hawa4
 62
     4
 48
0.085
100
AcDbLine
 10
106.834044
 20
186.829851
 30
0.0
 11
106.834044
 21
190.229853
 31
0.0
  0
ARC
  5
48F
330
A
100
AcDbEntity
  8
Hawa4
 62
     4
100
AcDbCircle
 10
107.134043
 20
186.829851
 30
0.0
 40
0.3
100
AcDbArc
 50
180.0000049045562
 51
270.0000010000003
  0
LINE
  5
490
330
A
100
AcDbEntity
  8
Hawa4
 62
     4
 48
0.0725
100
AcDbLine
 10
110.034043
 20
186.529856
 30
0.0
 11
107.134043
 21
186.529856
 31
0.0
  0
ARC
  5
491
330
A
100
AcDbEntity
  8
Hawa4
 62
     4
100
AcDbCircle
 10
110.034043
 20
186.229853
 30
0.0
 40
0.3
100
AcDbArc
 50
0.0000099931643211
 51
89.99999200000019
  0
LINE
  5
492
330
A
100
AcDbEntity
  8
Hawa4
 62
     4
 48
0.06
100
AcDbLine
 10
110.334044
 20
183.829851
 30
0.0
 11
110.334044
 21
186.229853
 31
0.0
  0
LINE
  5
493
330
A
100
AcDbEntity
  8
Hawa4
 62
     4
 48
0.3906429999999999
100
AcDbLine
 10
94.708307
 20
183.829851
 30
0.0
 11
110.334044
 21
183.829851
 31
0.0
  0
ARC
  5
494
330
A
100
AcDbEntity
  8
Hawa4
 62
     4
100
AcDbCircle
 10
94.708307
 20
184.129854
 30
0.0
 40
0.3
100
AcDbArc
 50
224.9999950000021
 51
270.0000010000003
  0
LINE
  5
495
330
A
100
AcDbEntity
  8
Hawa4
 62
     4
 48
0.010086
100
AcDbLine
 10
94.21091500000001
 20
184.202982
 30
0.0
 11
94.496175
 21
183.917719
 31
0.0
  0
ARC
  5
496
330
A
100
AcDbEntity
  8
Hawa4
 62
     4
100
AcDbCircle
 10
93.904619
 20
183.896684
 30
0.0
 40
0.4331680000000001
100
AcDbArc
 50
45.00000000000265
 51
90.00000300000001
  0
LINE
  5
497
330
A
100
AcDbEntity
  8
Hawa4
 62
     4
 48
0.025514
100
AcDbLine
 10
92.88404300000001
 20
184.329851
 30
0.0
 11
93.904619
 21
184.329851
 31
0.0
  0
ARC
  5
498
330
A
100
AcDbEntity
  8
Hawa4
 62
     4
100
AcDbCircle
 10
92.88404300000001
 20
184.029856
 30
0.0
 40
0.3
100
AcDbArc
 50
90.00000299999824
 51
180.0000049045562
  0
LINE
  5
499
330
A
100
AcDbEntity
  8
Hawa4
 62
     4
 48
0.026894
100
AcDbLine
 10
92.584043
 20
182.954115
 30
0.0
 11
92.584043
 21
184.029856
 31
0.0
  0
ARC
  5
49A
330
A
100
AcDbEntity
  8
Hawa4
 62
     4
100
AcDbCircle
 10
92.88404300000001
 20
182.954115
 30
0.0
 40
0.3
100
AcDbArc
 50
180.0000049045562
 51
224.9999950000021
  0
LINE
  5
49B
330
A
100
AcDbEntity
  8
Hawa4
 62
     4
 48
0.011464
100
AcDbLine
 10
92.996175
 20
182.417719
 30
0.0
 11
92.67191099999999
 21
182.741983
 31
0.0
  0
ARC
  5
49C
330
A
100
AcDbEntity
  8
Hawa4
 62
     4
100
AcDbCircle
 10
92.78404300000001
 20
182.205587
 30
0.0
 40
0.3
100
AcDbArc
 50
0.0000099931643211
 51
45.0
  0
LINE
  5
49D
330
A
100
AcDbEntity
  8
Hawa4
 62
     4
 48
0.3125
100
AcDbLine
 10
136.584042
 20
133.829852
 30
0.0
 11
124.084042
 21
133.829852
 31
0.0
  0
ARC
  5
49E
330
A
100
AcDbEntity
  8
Hawa4
 62
     4
100
AcDbCircle
 10
124.084042
 20
135.329853
 30
0.0
 40
1.5
100
AcDbArc
 50
180.0000049045562
 51
270.0000009999998
  0
LINE
  5
49F
330
A
100
AcDbEntity
  8
Hawa4
 62
     4
 48
0.0575
100
AcDbLine
 10
122.584042
 20
135.329853
 30
0.0
 11
122.584042
 21
137.629852
 31
0.0
  0
LINE
  5
4A0
330
A
100
AcDbEntity
  8
Hawa4
 62
     4
 48
0.14625
100
AcDbLine
 10
122.584042
 20
137.629852
 30
0.0
 11
128.434044
 21
137.629852
 31
0.0
  0
ARC
  5
4A1
330
A
100
AcDbEntity
  8
Hawa4
 62
     4
100
AcDbCircle
 10
128.434044
 20
138.129852
 30
0.0
 40
0.5
100
AcDbArc
 50
270.0000009999981
 51
0.0000099566261208
  0
LINE
  5
4A2
330
A
100
AcDbEntity
  8
Hawa4
 62
     4
 48
0.0375
100
AcDbLine
 10
128.934044
 20
138.129852
 30
0.0
 11
128.934044
 21
139.629852
 31
0.0
  0
ARC
  5
4A3
330
A
100
AcDbEntity
  8
Hawa4
 62
     4
100
AcDbCircle
 10
129.934044
 20
139.629852
 30
0.0
 40
1.0
100
AcDbArc
 50
90.0000029999993
 51
180.0000049783131
  0
LINE
  5
4A4
330
A
100
AcDbEntity
  8
Hawa4
 62
     4
 48
0.10375
100
AcDbLine
 10
129.934044
 20
140.629852
 30
0.0
 11
134.084042
 21
140.629852
 31
0.0
  0
ARC
  5
4A5
330
A
100
AcDbEntity
  8
Hawa4
 62
     4
100
AcDbCircle
 10
134.084042
 20
141.129852
 30
0.0
 40
0.5
100
AcDbArc
 50
270.0000009999981
 51
0.0000099566261208
  0
LINE
  5
4A6
330
A
100
AcDbEntity
  8
Hawa4
 62
     4
100
AcDbLine
 10
134.584042
 20
141.129852
 30
0.0
 11
134.584042
 21
178.029852
 31
0.0
  0
ARC
  5
4A7
330
A
100
AcDbEntity
  8
Hawa4
 62
     4
100
AcDbCircle
 10
132.584042
 20
178.029852
 30
0.0
 40
2.0
100
AcDbArc
 50
0.0000099566261208
 51
89.99999200000019
  0
LINE
  5
4A8
330
A
100
AcDbEntity
  8
Hawa4
 62
     4
 48
0.3625
100
AcDbLine
 10
113.084044
 20
180.029852
 30
0.0
 11
98.58404300000001
 21
180.029852
 31
0.0
  0
LINE
  5
4A9
330
A
100
AcDbEntity
  8
Hawa4
 62
     4
 48
0.3625
100
AcDbLine
 10
132.584042
 20
180.029852
 30
0.0
 11
118.084042
 21
180.029852
 31
0.0
  0
ARC
  5
4AA
330
A
100
AcDbEntity
  8
Hawa4
 62
     4
100
AcDbCircle
 10
98.58404300000001
 20
178.029852
 30
0.0
 40
2.0
100
AcDbArc
 50
90.00000299999973
 51
180.0000049783131
  0
LINE
  5
4AB
330
A
100
AcDbEntity
  8
Hawa4
 62
     4
100
AcDbLine
 10
96.584043
 20
178.029852
 30
0.0
 11
96.584043
 21
141.129852
 31
0.0
  0
ARC
  5
4AC
330
A
100
AcDbEntity
  8
Hawa4
 62
     4
100
AcDbCircle
 10
97.08404300000001
 20
141.129852
 30
0.0
 40
0.5
100
AcDbArc
 50
180.0000049783131
 51
270.0000009999998
  0
LINE
  5
4AD
330
A
100
AcDbEntity
  8
Hawa4
 62
     4
 48
0.10375
100
AcDbLine
 10
97.08404300000001
 20
140.629852
 30
0.0
 11
101.234043
 21
140.629852
 31
0.0
  0
ARC
  5
4AE
330
A
100
AcDbEntity
  8
Hawa4
 62
     4
100
AcDbCircle
 10
101.234043
 20
139.629852
 30
0.0
 40
1.0
100
AcDbArc
 50
0.0000099566261208
 51
89.99999200000019
  0
LINE
  5
4AF
330
A
100
AcDbEntity
  8
Hawa4
 62
     4
 48
0.0375
100
AcDbLine
 10
102.234044
 20
139.629852
 30
0.0
 11
102.234044
 21
138.129852
 31
0.0
  0
ARC
  5
4B0
330
A
100
AcDbEntity
  8
Hawa4
 62
     4
100
AcDbCircle
 10
102.734044
 20
138.129852
 30
0.0
 40
0.5
100
AcDbArc
 50
180.0000049783131
 51
270.0000009999998
  0
LINE
  5
4B1
330
A
100
AcDbEntity
  8
Hawa4
 62
     4
 48
0.14625
100
AcDbLine
 10
102.734044
 20
137.629852
 30
0.0
 11
108.584044
 21
137.629852
 31
0.0
  0
LINE
  5
4B2
330
A
100
AcDbEntity
  8
Hawa4
 62
     4
 48
0.0575
100
AcDbLine
 10
108.584044
 20
137.629852
 30
0.0
 11
108.584044
 21
135.329853
 31
0.0
  0
ARC
  5
4B3
330
A
100
AcDbEntity
  8
Hawa4
 62
     4
100
AcDbCircle
 10
107.084044
 20
135.329853
 30
0.0
 40
1.5
100
AcDbArc
 50
270.0000009999998
 51
0.0000099566261208
  0
LINE
  5
4B4
330
A
100
AcDbEntity
  8
Hawa4
 62
     4
 48
0.3125
100
AcDbLine
 10
107.084044
 20
133.829852
 30
0.0
 11
94.58404300000001
 21
133.829852
 31
0.0
  0
ARC
  5
4B5
330
A
100
AcDbEntity
  8
Hawa4
 62
     4
100
AcDbCircle
 10
94.58404300000001
 20
135.329853
 30
0.0
 40
1.5
100
AcDbArc
 50
180.0000049045562
 51
270.0000009999998
  0
LINE
  5
4B6
330
A
100
AcDbEntity
  8
Hawa4
 62
     4
100
AcDbLine
 10
93.08404300000001
 20
135.329853
 30
0.0
 11
93.08404300000001
 21
182.329851
 31
0.0
  0
ARC
  5
4B7
330
A
100
AcDbEntity
  8
Hawa4
 62
     4
100
AcDbCircle
 10
94.58404300000001
 20
182.329851
 30
0.0
 40
1.5
100
AcDbArc
 50
90.00000299999987
 51
180.0000049045562
  0
LINE
  5
4B8
330
A
100
AcDbEntity
  8
Hawa4
 62
     4
 48
0.4625
100
AcDbLine
 10
118.084042
 20
183.829851
 30
0.0
 11
136.584042
 21
183.829851
 31
0.0
  0
LINE
  5
4B9
330
A
100
AcDbEntity
  8
Hawa4
 62
     4
 48
0.4625
100
AcDbLine
 10
94.58404300000001
 20
183.829851
 30
0.0
 11
113.084044
 21
183.829851
 31
0.0
  0
ARC
  5
4BA
330
A
100
AcDbEntity
  8
Hawa4
 62
     4
100
AcDbCircle
 10
136.584042
 20
182.329851
 30
0.0
 40
1.5
100
AcDbArc
 50
0.0
 51
90.00000300000095
  0
LINE
  5
4BB
330
A
100
AcDbEntity
  8
Hawa4
 62
     4
100
AcDbLine
 10
138.084042
 20
182.329851
 30
0.0
 11
138.084042
 21
135.329853
 31
0.0
  0
ARC
  5
4BC
330
A
100
AcDbEntity
  8
Hawa4
 62
     4
100
AcDbCircle
 10
136.584042
 20
135.329853
 30
0.0
 40
1.5
100
AcDbArc
 50
270.0000009999992
 51
0.0000099566261208
  0
LINE
  5
4BD
330
A
100
AcDbEntity
  8
Hawa5
 62
     1
 48
0.113192
100
AcDbLine
 10
70.58404300000001
 20
168.329851
 30
0.0
 11
75.08404300000001
 21
168.829851
 31
0.0
  0
LINE
  5
4BE
330
A
100
AcDbEntity
  8
Hawa5
 62
     1
 48
0.25
100
AcDbLine
 10
75.08404300000001
 20
168.829851
 30
0.0
 11
85.084043
 21
168.829851
 31
0.0
  0
LINE
  5
4BF
330
A
100
AcDbEntity
  8
Hawa5
 62
     1
 48
0.0125
100
AcDbLine
 10
85.084043
 20
168.829851
 30
0.0
 11
85.084043
 21
168.329851
 31
0.0
  0
LINE
  5
4C0
330
A
100
AcDbEntity
  8
Hawa5
 62
     1
 48
0.249308
100
AcDbLine
 10
75.11173599999999
 20
168.329851
 30
0.0
 11
85.084043
 21
168.329851
 31
0.0
  0
LINE
  5
4C1
330
A
100
AcDbEntity
  8
Hawa5
 62
     1
 48
0.113889
100
AcDbLine
 10
70.58404300000001
 20
167.826776
 30
0.0
 11
75.11173599999999
 21
168.329851
 31
0.0
  0
LINE
  5
4C2
330
A
100
AcDbEntity
  8
Hawa5
 62
     1
 48
0.113889
100
AcDbLine
 10
70.58404300000001
 20
163.832929
 30
0.0
 11
75.11173599999999
 21
163.329851
 31
0.0
  0
LINE
  5
4C3
330
A
100
AcDbEntity
  8
Hawa5
 62
     1
 48
0.249308
100
AcDbLine
 10
75.11173599999999
 20
163.329851
 30
0.0
 11
85.084043
 21
163.329851
 31
0.0
  0
LINE
  5
4C4
330
A
100
AcDbEntity
  8
Hawa5
 62
     1
 48
0.0125
100
AcDbLine
 10
85.084043
 20
163.329851
 30
0.0
 11
85.084043
 21
162.829851
 31
0.0
  0
LINE
  5
4C5
330
A
100
AcDbEntity
  8
Hawa5
 62
     1
 48
0.25
100
AcDbLine
 10
75.08404300000001
 20
162.829851
 30
0.0
 11
85.084043
 21
162.829851
 31
0.0
  0
LINE
  5
4C6
330
A
100
AcDbEntity
  8
Hawa5
 62
     1
 48
0.113192
100
AcDbLine
 10
70.58404300000001
 20
163.329851
 30
0.0
 11
75.08404300000001
 21
162.829851
 31
0.0
  0
LWPOLYLINE
  5
4C7
330
A
100
AcDbEntity
  8
Hawa5
 62
     1
100
AcDbPolyline
 90
        3
 70
     0
 43
0.0
 10
85.67754499999999
 20
164.529852
 10
85.54112899999999
 20
164.647421
 10
85.518391
 20
164.688993
  0
LWPOLYLINE
  5
4C8
330
A
100
AcDbEntity
  8
Hawa5
 62
     1
100
AcDbPolyline
 90
        4
 70
     0
 43
0.0
 10
85.518391
 20
164.688993
 10
85.20687699999998
 20
165.71023
 10
84.975252
 20
166.60153
 10
84.84752499999997
 20
166.948862
  0
LWPOLYLINE
  5
4C9
330
A
100
AcDbEntity
  8
Hawa5
 62
     1
100
AcDbPolyline
 90
        6
 70
     0
 43
0.0
 10
86.720585
 20
164.710794
 10
86.399146
 20
165.79471
 10
86.188525
 20
166.600614
 10
86.05245399999999
 20
166.965265
 10
85.971498
 20
167.08803
 10
85.89054
 20
167.12985
  0
LWPOLYLINE
  5
4CA
330
A
100
AcDbEntity
  8
Hawa5
 62
     1
100
AcDbPolyline
 90
        3
 70
     0
 43
0.0
 10
83.51839100000001
 20
164.688993
 10
83.59997099999999
 20
164.568266
 10
83.67754099999997
 20
164.529852
  0
LWPOLYLINE
  5
4CB
330
A
100
AcDbEntity
  8
Hawa5
 62
     1
100
AcDbPolyline
 90
        4
 70
     0
 43
0.0
 10
83.51839100000001
 20
164.688993
 10
83.210165
 20
165.6968629999999
 10
82.98757100000001
 20
166.560476
 10
82.84746099999999
 20
166.948992
  0
LWPOLYLINE
  5
4CC
330
A
100
AcDbEntity
  8
Hawa5
 62
     1
100
AcDbPolyline
 90
        6
 70
     0
 43
0.0
 10
83.89050899999999
 20
167.12985
 10
84.01097299999998
 20
167.037908
 10
84.11268599999999
 20
166.82591
 10
84.277834
 20
166.280592
 10
84.53747599999999
 20
165.250845
 10
84.720553
 20
164.710859
  0
LWPOLYLINE
  5
4CD
330
A
100
AcDbEntity
  8
Hawa5
 62
     1
100
AcDbPolyline
 90
        3
 70
     0
 43
0.0
 10
81.51839199999997
 20
164.688993
 10
81.58661
 20
164.582544
 10
81.67757299999999
 20
164.529852
  0
LWPOLYLINE
  5
4CE
330
A
100
AcDbEntity
  8
Hawa5
 62
     1
100
AcDbPolyline
 90
        6
 70
     0
 43
0.0
 10
81.89056699999998
 20
167.12985
 10
82.02775499999999
 20
167.010927
 10
82.14209100000001
 20
166.744604
 10
82.31747
 20
166.125662
 10
82.56976800000002
 20
165.135942
 10
82.720596
 20
164.710771
  0
LWPOLYLINE
  5
4CF
330
A
100
AcDbEntity
  8
Hawa5
 62
     1
100
AcDbPolyline
 90
        4
 70
     0
 43
0.0
 10
81.51839199999997
 20
164.688993
 10
81.20157499999997
 20
165.731809
 10
80.97793999999998
 20
166.592672
 10
80.84748299999999
 20
166.94895
  0
LWPOLYLINE
  5
4D0
330
A
100
AcDbEntity
  8
Hawa5
 62
     1
100
AcDbPolyline
 90
        3
 70
     0
 43
0.0
 10
79.67754599999998
 20
164.529852
 10
79.54491800000001
 20
164.641073
 10
79.518391
 20
164.688993
  0
LWPOLYLINE
  5
4D1
330
A
100
AcDbEntity
  8
Hawa5
 62
     1
100
AcDbPolyline
 90
        6
 70
     0
 43
0.0
 10
79.89055499999998
 20
167.12985
 10
80.02586699999998
 20
167.014128
 10
80.14426399999997
 20
166.7382749999999
 10
80.33031299999997
 20
166.074358
 10
80.56833299999999
 20
165.140901
 10
80.720562
 20
164.710844
  0
LWPOLYLINE
  5
4D2
330
A
100
AcDbEntity
  8
Hawa5
 62
     1
100
AcDbPolyline
 90
        4
 70
     0
 43
0.0
 10
78.84744599999997
 20
166.949022
 10
79.176976
 20
165.832182
 10
79.39446099999997
 20
165.010942
 10
79.518391
 20
164.688993
  0
LWPOLYLINE
  5
4D3
330
A
100
AcDbEntity
  8
Hawa5
 62
     1
100
AcDbPolyline
 90
        3
 70
     0
 43
0.0
 10
77.67754599999998
 20
164.529852
 10
77.54112699999997
 20
164.647421
 10
77.518389
 20
164.688993
  0
LWPOLYLINE
  5
4D4
330
A
100
AcDbEntity
  8
Hawa5
 62
     1
100
AcDbPolyline
 90
        6
 70
     0
 43
0.0
 10
78.72059
 20
164.710783
 10
78.384168
 20
165.855871
 10
78.170502
 20
166.658624
 10
78.04066
 20
166.987936
 10
77.96149399999999
 20
167.097689
 10
77.89054
 20
167.12985
  0
LWPOLYLINE
  5
4D5
330
A
100
AcDbEntity
  8
Hawa5
 62
     1
100
AcDbPolyline
 90
        4
 70
     0
 43
0.0
 10
76.847436
 20
166.949041
 10
77.182914
 20
165.807928
 10
77.380256
 20
165.056806
 10
77.518389
 20
164.688993
  0
LWPOLYLINE
  5
4D6
330
A
100
AcDbEntity
  8
Hawa5
 62
     1
100
AcDbPolyline
 90
        3
 70
     0
 43
0.0
 10
75.67756800000001
 20
164.529852
 10
75.538286
 20
164.652292
 10
75.51839
 20
164.688993
  0
LWPOLYLINE
  5
4D7
330
A
100
AcDbEntity
  8
Hawa5
 62
     1
100
AcDbPolyline
 90
        6
 70
     0
 43
0.0
 10
76.72055300000001
 20
164.710859
 10
76.39261999999999
 20
165.821363
 10
76.190427
 20
166.594343
 10
76.052561
 20
166.965048
 10
75.970575
 20
167.088976
 10
75.890534
 20
167.12985
  0
LWPOLYLINE
  5
4D8
330
A
100
AcDbEntity
  8
Hawa5
 62
     1
100
AcDbPolyline
 90
        4
 70
     0
 43
0.0
 10
74.84747699999999
 20
166.948957
 10
75.16346399999997
 20
165.88735
 10
75.380403
 20
165.056326
 10
75.51839
 20
164.688993
  0
LWPOLYLINE
  5
4D9
330
A
100
AcDbEntity
  8
Hawa5
 62
     1
100
AcDbPolyline
 90
        3
 70
     0
 43
0.0
 10
73.51839199999997
 20
164.688993
 10
73.59281999999997
 20
164.575632
 10
73.67754099999998
 20
164.529852
  0
LWPOLYLINE
  5
4DA
330
A
100
AcDbEntity
  8
Hawa5
 62
     1
100
AcDbPolyline
 90
        6
 70
     0
 43
0.0
 10
74.72058899999997
 20
164.710783
 10
74.40206899999999
 20
165.782781
 10
74.19993699999998
 20
166.562593
 10
74.069102
 20
166.930612
 10
73.97655300000001
 20
167.082678
 10
73.89052699999997
 20
167.12985
  0
LWPOLYLINE
  5
4DB
330
A
100
AcDbEntity
  8
Hawa5
 62
     1
100
AcDbPolyline
 90
        4
 70
     0
 43
0.0
 10
73.51839199999997
 20
164.688993
 10
73.20886899999997
 20
165.702135
 10
72.97588999999998
 20
166.599432
 10
72.84746299999998
 20
166.948988
  0
LWPOLYLINE
  5
4DC
330
A
100
AcDbEntity
  8
Hawa5
 62
     1
100
AcDbPolyline
 90
        3
 70
     0
 43
0.0
 10
71.51839100000001
 20
164.688993
 10
71.586603
 20
164.582552
 10
71.677545
 20
164.529852
  0
LWPOLYLINE
  5
4DD
330
A
100
AcDbEntity
  8
Hawa5
 62
     1
100
AcDbPolyline
 90
        4
 70
     0
 43
0.0
 10
71.51839100000001
 20
164.688993
 10
71.21168399999998
 20
165.690687
 10
70.989935
 20
166.552473
 10
70.84742699999999
 20
166.949064
  0
LWPOLYLINE
  5
4DE
330
A
100
AcDbEntity
  8
Hawa5
 62
     1
100
AcDbPolyline
 90
        6
 70
     0
 43
0.0
 10
71.890564
 20
167.12985
 10
72.01805999999997
 20
167.026918
 10
72.12733799999999
 20
166.786417
 10
72.309471
 20
166.157369
 10
72.556636
 20
165.181871
 10
72.720561
 20
164.710844
  0
LINE
  5
4DF
330
A
100
AcDbEntity
  8
Hawa5
 62
     1
 48
0.010012
100
AcDbLine
 10
70.58404300000001
 20
165.087358
 30
0.0
 11
70.720552
 21
164.710863
 31
0.0
  0
LINE
  5
4E0
330
A
100
AcDbEntity
  8
Hawa5
 62
     1
 48
0.025707
100
AcDbLine
 10
88.284043
 20
168.079851
 30
0.0
 11
87.89054
 21
167.12985
 31
0.0
  0
LINE
  5
4E1
330
A
100
AcDbEntity
  8
Hawa5
 62
     1
 48
0.003997
100
AcDbLine
 10
88.284043
 20
168.079851
 30
0.0
 11
88.17927799999999
 21
167.959081
 31
0.0
  0
LWPOLYLINE
  5
4E2
330
A
100
AcDbEntity
  8
Hawa5
 62
     1
100
AcDbPolyline
 90
        8
 70
     0
 43
0.0
 10
87.38880299999999
 20
163.700613
 10
87.353883
 20
163.633791
 10
87.31895999999997
 20
163.593374
 10
87.29627200000001
 20
163.581659
 10
87.27180299999998
 20
163.581663
 10
87.24911699999999
 20
163.593382
 10
87.21419799999999
 20
163.633798
 10
87.17928099999999
 20
163.700617
  0
LWPOLYLINE
  5
4E3
330
A
100
AcDbEntity
  8
Hawa5
 62
     1
100
AcDbPolyline
 90
        5
 70
     0
 43
0.0
 10
87.17928099999999
 20
163.700617
 10
86.968464
 20
164.597971
 10
86.75764800000001
 20
166.01621
 10
86.599541
 20
167.062208
 10
86.388729
 20
167.959265
  0
LWPOLYLINE
  5
4E4
330
A
100
AcDbEntity
  8
Hawa5
 62
     1
100
AcDbPolyline
 90
        8
 70
     0
 43
0.0
 10
86.388729
 20
167.959265
 10
86.353819
 20
168.02601
 10
86.31890799999998
 20
168.06637
 10
86.296227
 20
168.078054
 10
86.27176899999998
 20
168.078035
 10
86.249093
 20
168.066305
 10
86.214188
 20
168.025888
 10
86.179283
 20
167.959093
  0
LWPOLYLINE
  5
4E5
330
A
100
AcDbEntity
  8
Hawa5
 62
     1
100
AcDbPolyline
 90
        8
 70
     0
 43
0.0
 10
85.38880699999999
 20
163.700621
 10
85.35388299999999
 20
163.633795
 10
85.318961
 20
163.593378
 10
85.29627599999997
 20
163.581659
 10
85.27180899999997
 20
163.581659
 10
85.24912399999999
 20
163.593378
 10
85.21420599999997
 20
163.633787
 10
85.179285
 20
163.700605
  0
LWPOLYLINE
  5
4E6
330
A
100
AcDbEntity
  8
Hawa5
 62
     1
100
AcDbPolyline
 90
        5
 70
     0
 43
0.0
 10
85.179285
 20
163.700605
 10
84.96849199999999
 20
164.597814
 10
84.75769599999999
 20
166.015875
 10
84.59959599999997
 20
167.061884
 10
84.38880299999999
 20
167.959093
  0
LWPOLYLINE
  5
4E7
330
A
100
AcDbEntity
  8
Hawa5
 62
     1
100
AcDbPolyline
 90
        8
 70
     0
 43
0.0
 10
84.38880299999999
 20
167.959093
 10
84.35388000000001
 20
168.025915
 10
84.31895999999998
 20
168.066328
 10
84.29627399999999
 20
168.0780429999999
 10
84.27180699999999
 20
168.0780429999999
 10
84.249121
 20
168.066324
 10
84.214199
 20
168.025904
 10
84.17927499999997
 20
167.959074
  0
LWPOLYLINE
  5
4E8
330
A
100
AcDbEntity
  8
Hawa5
 62
     1
100
AcDbPolyline
 90
        8
 70
     0
 43
0.0
 10
83.388804
 20
163.700613
 10
83.353894
 20
163.63381
 10
83.31898699999998
 20
163.593397
 10
83.29630999999997
 20
163.581667
 10
83.27185
 20
163.581652
 10
83.24916800000002
 20
163.593344
 10
83.21425500000001
 20
163.633711
 10
83.17934199999998
 20
163.700476
  0
LWPOLYLINE
  5
4E9
330
A
100
AcDbEntity
  8
Hawa5
 62
     1
100
AcDbPolyline
 90
        5
 70
     0
 43
0.0
 10
83.17934199999998
 20
163.700476
 10
82.968535
 20
164.597555
 10
82.757727
 20
166.015661
 10
82.599616
 20
167.061766
 10
82.38880400000001
 20
167.959089
  0
LWPOLYLINE
  5
4EA
330
A
100
AcDbEntity
  8
Hawa5
 62
     1
100
AcDbPolyline
 90
        8
 70
     0
 43
0.0
 10
82.38880400000001
 20
167.959089
 10
82.35388699999999
 20
168.025904
 10
82.31897
 20
168.06632
 10
82.296285
 20
168.0780429999999
 10
82.271817
 20
168.078047
 10
82.24912900000001
 20
168.066332
 10
82.21420599999998
 20
168.025915
 10
82.17928499999999
 20
167.959101
  0
LWPOLYLINE
  5
4EB
330
A
100
AcDbEntity
  8
Hawa5
 62
     1
100
AcDbPolyline
 90
        8
 70
     0
 43
0.0
 10
81.388802
 20
163.700609
 10
81.353884
 20
163.633795
 10
81.318964
 20
163.593378
 10
81.296277
 20
163.581659
 10
81.271807
 20
163.581659
 10
81.24911899999998
 20
163.593382
 10
81.21419600000001
 20
163.633802
 10
81.17927599999999
 20
163.700624
  0
LWPOLYLINE
  5
4EC
330
A
100
AcDbEntity
  8
Hawa5
 62
     1
100
AcDbPolyline
 90
        5
 70
     0
 43
0.0
 10
81.17927599999999
 20
163.700624
 10
80.968481
 20
164.597868
 10
80.757688
 20
166.015924
 10
80.59959799999999
 20
167.061872
 10
80.388803
 20
167.959093
  0
LWPOLYLINE
  5
4ED
330
A
100
AcDbEntity
  8
Hawa5
 62
     1
100
AcDbPolyline
 90
        8
 70
     0
 43
0.0
 10
80.388803
 20
167.959093
 10
80.353884
 20
168.025911
 10
80.31896299999999
 20
168.066328
 10
80.296275
 20
168.0780429999999
 10
80.271805
 20
168.0780429999999
 10
80.24911800000001
 20
168.066324
 10
80.21419899999999
 20
168.025904
 10
80.179281
 20
167.959089
  0
LWPOLYLINE
  5
4EE
330
A
100
AcDbEntity
  8
Hawa5
 62
     1
100
AcDbPolyline
 90
        8
 70
     0
 43
0.0
 10
79.388806
 20
163.700617
 10
79.35388399999999
 20
163.633795
 10
79.318961
 20
163.593378
 10
79.29627299999999
 20
163.581659
 10
79.271805
 20
163.581663
 10
79.24911899999999
 20
163.593382
 10
79.214201
 20
163.633795
 10
79.179284
 20
163.700609
  0
LWPOLYLINE
  5
4EF
330
A
100
AcDbEntity
  8
Hawa5
 62
     1
100
AcDbPolyline
 90
        5
 70
     0
 43
0.0
 10
79.179284
 20
163.700609
 10
78.96847
 20
164.59794
 10
78.75765600000001
 20
166.016157
 10
78.59954899999999
 20
167.062162
 10
78.38874
 20
167.959238
  0
LWPOLYLINE
  5
4F0
330
A
100
AcDbEntity
  8
Hawa5
 62
     1
100
AcDbPolyline
 90
        8
 70
     0
 43
0.0
 10
78.38874
 20
167.959238
 10
78.353827
 20
168.025995
 10
78.318916
 20
168.066362
 10
78.296235
 20
168.078054
 10
78.271776
 20
168.078035
 10
78.2491
 20
168.066309
 10
78.21419300000001
 20
168.025896
 10
78.17928499999999
 20
167.959097
  0
LWPOLYLINE
  5
4F1
330
A
100
AcDbEntity
  8
Hawa5
 62
     1
100
AcDbPolyline
 90
        8
 70
     0
 43
0.0
 10
77.38880400000001
 20
163.700613
 10
77.35387899999998
 20
163.633787
 10
77.318958
 20
163.593374
 10
77.296272
 20
163.581659
 10
77.271804
 20
163.581663
 10
77.24911899999999
 20
163.593382
 10
77.21419899999999
 20
163.633798
 10
77.179277
 20
163.700628
  0
LWPOLYLINE
  5
4F2
330
A
100
AcDbEntity
  8
Hawa5
 62
     1
100
AcDbPolyline
 90
        5
 70
     0
 43
0.0
 10
77.179277
 20
163.700628
 10
76.968486
 20
164.597841
 10
76.757695
 20
166.015886
 10
76.59959499999999
 20
167.061884
 10
76.38880499999998
 20
167.959089
  0
LWPOLYLINE
  5
4F3
330
A
100
AcDbEntity
  8
Hawa5
 62
     1
100
AcDbPolyline
 90
        8
 70
     0
 43
0.0
 10
76.38880499999998
 20
167.959089
 10
76.35388299999999
 20
168.025911
 10
76.31896400000001
 20
168.066324
 10
76.296279
 20
168.0780429999999
 10
76.27181199999999
 20
168.0780429999999
 10
76.24912599999998
 20
168.066328
 10
76.21420400000001
 20
168.025911
 10
76.17927999999998
 20
167.959085
  0
LWPOLYLINE
  5
4F4
330
A
100
AcDbEntity
  8
Hawa5
 62
     1
100
AcDbPolyline
 90
        8
 70
     0
 43
0.0
 10
75.38880499999997
 20
163.700617
 10
75.353886
 20
163.633798
 10
75.31896899999999
 20
163.593382
 10
75.296285
 20
163.581663
 10
75.27181800000001
 20
163.581659
 10
75.24913099999998
 20
163.59337
 10
75.214208
 20
163.633783
 10
75.179285
 20
163.700605
  0
LWPOLYLINE
  5
4F5
330
A
100
AcDbEntity
  8
Hawa5
 62
     1
100
AcDbPolyline
 90
        5
 70
     0
 43
0.0
 10
75.179285
 20
163.700605
 10
74.96849199999999
 20
164.597807
 10
74.75769799999998
 20
166.015859
 10
74.59959999999999
 20
167.061861
 10
74.38880199999999
 20
167.959097
  0
LWPOLYLINE
  5
4F6
330
A
100
AcDbEntity
  8
Hawa5
 62
     1
100
AcDbPolyline
 90
        8
 70
     0
 43
0.0
 10
74.38880199999999
 20
167.959097
 10
74.35388399999999
 20
168.025911
 10
74.31896499999997
 20
168.066324
 10
74.296278
 20
168.0780429999999
 10
74.27180899999997
 20
168.0780429999999
 10
74.24911999999998
 20
168.066324
 10
74.214197
 20
168.025904
 10
74.17927499999997
 20
167.959078
  0
LWPOLYLINE
  5
4F7
330
A
100
AcDbEntity
  8
Hawa5
 62
     1
100
AcDbPolyline
 90
        8
 70
     0
 43
0.0
 10
73.38880299999999
 20
163.700609
 10
73.35388499999997
 20
163.633795
 10
73.31896499999998
 20
163.593378
 10
73.296277
 20
163.581659
 10
73.27180799999999
 20
163.581659
 10
73.24911999999997
 20
163.593382
 10
73.21419899999999
 20
163.633798
 10
73.179281
 20
163.700613
  0
LWPOLYLINE
  5
4F8
330
A
100
AcDbEntity
  8
Hawa5
 62
     1
100
AcDbPolyline
 90
        5
 70
     0
 43
0.0
 10
73.179281
 20
163.700613
 10
72.96848399999998
 20
164.597849
 10
72.75769
 20
166.015913
 10
72.59959999999999
 20
167.061861
 10
72.38880499999997
 20
167.959089
  0
LWPOLYLINE
  5
4F9
330
A
100
AcDbEntity
  8
Hawa5
 62
     1
100
AcDbPolyline
 90
        8
 70
     0
 43
0.0
 10
72.38880499999997
 20
167.959089
 10
72.35388499999998
 20
168.025907
 10
72.31896299999999
 20
168.066328
 10
72.29627499999999
 20
168.0780429999999
 10
72.27180600000001
 20
168.0780429999999
 10
72.24911899999999
 20
168.066324
 10
72.214201
 20
168.025907
 10
72.17928499999999
 20
167.959097
  0
LWPOLYLINE
  5
4FA
330
A
100
AcDbEntity
  8
Hawa5
 62
     1
100
AcDbPolyline
 90
        8
 70
     0
 43
0.0
 10
71.38879399999997
 20
163.70059
 10
71.35387399999998
 20
163.633779
 10
71.31895199999999
 20
163.59337
 10
71.296266
 20
163.581659
 10
71.271799
 20
163.581663
 10
71.24911499999997
 20
163.593382
 10
71.21419999999997
 20
163.633798
 10
71.179284
 20
163.700609
  0
LWPOLYLINE
  5
4FB
330
A
100
AcDbEntity
  8
Hawa5
 62
     1
100
AcDbPolyline
 90
        4
 70
     0
 43
0.0
 10
71.179284
 20
163.700609
 10
70.96848699999999
 20
164.597833
 10
70.75769100000001
 20
166.015909
 10
70.58404300000001
 20
167.152368
  0
LINE
  5
4FC
330
A
100
AcDbEntity
  8
Hawa5
 62
     1
 48
0.013007
100
AcDbLine
 10
89.084043
 20
162.100126
 30
0.0
 11
89.084043
 21
161.579851
 31
0.0
  0
LINE
  5
4FD
330
A
100
AcDbEntity
  8
Hawa5
 62
     1
 48
0.199493
100
AcDbLine
 10
89.084043
 20
170.079851
 30
0.0
 11
89.084043
 21
162.100126
 31
0.0
  0
LINE
  5
4FE
330
A
100
AcDbEntity
  8
Hawa5
 62
     1
 48
0.003979
100
AcDbLine
 10
88.08404300000001
 20
164.688993
 30
0.0
 11
88.08404300000001
 21
164.529852
 31
0.0
  0
LWPOLYLINE
  5
4FF
330
A
100
AcDbEntity
  8
Hawa5
 62
     1
100
AcDbPolyline
 90
        3
 70
     0
 43
0.0
 10
87.677545
 20
164.529852
 10
87.538286
 20
164.652292
 10
87.51839100000001
 20
164.688993
  0
LINE
  5
500
330
A
100
AcDbEntity
  8
Hawa5
 62
     1
 48
0.061021
100
AcDbLine
 10
88.08404300000001
 20
167.12985
 30
0.0
 11
88.08404300000001
 21
164.688993
 31
0.0
  0
LWPOLYLINE
  5
501
330
A
100
AcDbEntity
  8
Hawa5
 62
     1
100
AcDbPolyline
 90
        4
 70
     0
 43
0.0
 10
87.51839100000001
 20
164.688993
 10
87.21594499999998
 20
165.67341
 10
86.981903
 20
166.579504
 10
86.84743
 20
166.949056
  0
LINE
  5
502
330
A
100
AcDbEntity
  8
Hawa5
 62
     1
 48
0.004838
100
AcDbLine
 10
88.08404300000001
 20
167.12985
 30
0.0
 11
87.89054
 21
167.12985
 31
0.0
  0
LINE
  5
503
330
A
100
AcDbEntity
  8
Hawa5
 62
     1
 48
0.014351
100
AcDbLine
 10
88.50371299999997
 20
167.54952
 30
0.0
 11
88.284043
 21
168.079851
 31
0.0
  0
LINE
  5
504
330
A
100
AcDbEntity
  8
Hawa5
 62
     1
 48
0.014838
100
AcDbLine
 10
88.08404300000001
 20
167.12985
 30
0.0
 11
88.50371299999997
 21
167.54952
 31
0.0
  0
LINE
  5
505
330
A
100
AcDbEntity
  8
Hawa5
 62
     1
 48
0.129084
100
AcDbLine
 10
92.28404300000001
 20
168.579851
 30
0.0
 11
92.28404300000001
 21
163.416498
 31
0.0
  0
LINE
  5
506
330
A
100
AcDbEntity
  8
Hawa5
 62
     1
 48
0.008416
100
AcDbLine
 10
92.28404300000001
 20
163.416498
 30
0.0
 11
92.28404300000001
 21
163.079851
 31
0.0
  0
LINE
  5
507
330
A
100
AcDbEntity
  8
Hawa5
 62
     1
 48
0.013007
100
AcDbLine
 10
90.784043
 20
162.100126
 30
0.0
 11
90.784043
 21
161.579851
 31
0.0
  0
LINE
  5
508
330
A
100
AcDbEntity
  8
Hawa5
 62
     1
 48
0.199493
100
AcDbLine
 10
90.784043
 20
170.079851
 30
0.0
 11
90.784043
 21
162.100126
 31
0.0
  0
LINE
  5
509
330
A
100
AcDbEntity
  8
Hawa5
 62
     1
 48
0.028129
100
AcDbLine
 10
86.80269100000002
 20
164.529852
 30
0.0
 11
85.67754499999999
 21
164.529852
 31
0.0
  0
LINE
  5
50A
330
A
100
AcDbEntity
  8
Hawa5
 62
     1
 48
0.02813
100
AcDbLine
 10
85.89054
 20
167.12985
 30
0.0
 11
84.76533899999999
 21
167.12985
 31
0.0
  0
LINE
  5
50B
330
A
100
AcDbEntity
  8
Hawa5
 62
     1
 48
0.028129
100
AcDbLine
 10
84.80268699999998
 20
164.529852
 30
0.0
 11
83.67754099999997
 21
164.529852
 31
0.0
  0
LINE
  5
50C
330
A
100
AcDbEntity
  8
Hawa5
 62
     1
 48
0.028129
100
AcDbLine
 10
83.89050899999999
 20
167.12985
 30
0.0
 11
82.76533599999998
 21
167.12985
 31
0.0
  0
LINE
  5
50D
330
A
100
AcDbEntity
  8
Hawa5
 62
     1
 48
0.028128
100
AcDbLine
 10
82.80269
 20
164.529852
 30
0.0
 11
81.67757299999999
 21
164.529852
 31
0.0
  0
LINE
  5
50E
330
A
100
AcDbEntity
  8
Hawa5
 62
     1
 48
0.028131
100
AcDbLine
 10
81.89056699999998
 20
167.12985
 30
0.0
 11
80.76533899999999
 21
167.12985
 31
0.0
  0
LINE
  5
50F
330
A
100
AcDbEntity
  8
Hawa5
 62
     1
 48
0.028129
100
AcDbLine
 10
80.80269299999997
 20
164.529852
 30
0.0
 11
79.67754599999998
 21
164.529852
 31
0.0
  0
LINE
  5
510
330
A
100
AcDbEntity
  8
Hawa5
 62
     1
 48
0.02813
100
AcDbLine
 10
79.89055499999998
 20
167.12985
 30
0.0
 11
78.76534099999997
 21
167.12985
 31
0.0
  0
LINE
  5
511
330
A
100
AcDbEntity
  8
Hawa5
 62
     1
 48
0.028129
100
AcDbLine
 10
78.802689
 20
164.529852
 30
0.0
 11
77.67754599999998
 21
164.529852
 31
0.0
  0
LINE
  5
512
330
A
100
AcDbEntity
  8
Hawa5
 62
     1
 48
0.02813
100
AcDbLine
 10
77.89054
 20
167.12985
 30
0.0
 11
76.765337
 21
167.12985
 31
0.0
  0
LINE
  5
513
330
A
100
AcDbEntity
  8
Hawa5
 62
     1
 48
0.028128
100
AcDbLine
 10
76.802689
 20
164.529852
 30
0.0
 11
75.67756800000001
 21
164.529852
 31
0.0
  0
LINE
  5
514
330
A
100
AcDbEntity
  8
Hawa5
 62
     1
 48
0.02813
100
AcDbLine
 10
75.890534
 20
167.12985
 30
0.0
 11
74.765338
 21
167.12985
 31
0.0
  0
LINE
  5
515
330
A
100
AcDbEntity
  8
Hawa5
 62
     1
 48
0.028129
100
AcDbLine
 10
74.80268999999999
 20
164.529852
 30
0.0
 11
73.67754099999998
 21
164.529852
 31
0.0
  0
LINE
  5
516
330
A
100
AcDbEntity
  8
Hawa5
 62
     1
 48
0.02813
100
AcDbLine
 10
73.89052699999997
 20
167.12985
 30
0.0
 11
72.765338
 21
167.12985
 31
0.0
  0
LINE
  5
517
330
A
100
AcDbEntity
  8
Hawa5
 62
     1
 48
0.028129
100
AcDbLine
 10
72.80269200000001
 20
164.529852
 30
0.0
 11
71.677545
 21
164.529852
 31
0.0
  0
LINE
  5
518
330
A
100
AcDbEntity
  8
Hawa5
 62
     1
 48
0.028131
100
AcDbLine
 10
71.890564
 20
167.12985
 30
0.0
 11
70.76533799999999
 21
167.12985
 31
0.0
  0
LINE
  5
519
330
A
100
AcDbEntity
  8
Hawa5
 62
     1
 48
0.005466
100
AcDbLine
 10
70.80269100000001
 20
164.529852
 30
0.0
 11
70.58404300000001
 21
164.529852
 31
0.0
  0
ARC
  5
51A
330
A
100
AcDbEntity
  8
Hawa5
 62
     1
100
AcDbCircle
 10
53.96588000000001
 20
182.837423
 30
0.0
 40
37.308338
100
AcDbArc
 50
335.089698
 51
336.497291
  0
ARC
  5
51B
330
A
100
AcDbEntity
  8
Hawa5
 62
     1
100
AcDbCircle
 10
57.58884899999999
 20
150.895456
 30
0.0
 40
32.24193599999999
100
AcDbArc
 50
23.40038200000001
 51
25.37688800000003
  0
ARC
  5
51C
330
A
100
AcDbEntity
  8
Hawa5
 62
     1
100
AcDbCircle
 10
51.968037
 20
182.836469
 30
0.0
 40
37.305981
100
AcDbArc
 50
335.089632
 51
336.497312
  0
ARC
  5
51D
330
A
100
AcDbEntity
  8
Hawa5
 62
     1
100
AcDbCircle
 10
55.70939499999999
 20
150.952154
 30
0.0
 40
32.108753
100
AcDbArc
 50
23.39296299999997
 51
25.377939
  0
ARC
  5
51E
330
A
100
AcDbEntity
  8
Hawa5
 62
     1
100
AcDbCircle
 10
53.835267
 20
151.007519
 30
0.0
 40
31.97127
100
AcDbArc
 50
23.39146399999999
 51
25.38475800000001
  0
ARC
  5
51F
330
A
100
AcDbEntity
  8
Hawa5
 62
     1
100
AcDbCircle
 10
51.64000399999999
 20
150.918707
 30
0.0
 40
32.18575300000001
100
AcDbArc
 50
23.39856200000001
 51
25.37836099999999
  0
ARC
  5
520
330
A
100
AcDbEntity
  8
Hawa5
 62
     1
100
AcDbCircle
 10
49.711495
 20
150.954191
 30
0.0
 40
32.105995
100
AcDbArc
 50
23.390793
 51
25.37599800000001
  0
ARC
  5
521
330
A
100
AcDbEntity
  8
Hawa5
 62
     1
100
AcDbCircle
 10
47.78387499999999
 20
150.981026
 30
0.0
 40
32.028999
100
AcDbArc
 50
23.39853699999997
 51
25.388102
  0
ARC
  5
522
330
A
100
AcDbEntity
  8
Hawa5
 62
     1
100
AcDbCircle
 10
45.779633
 20
150.979149
 30
0.0
 40
32.033638
100
AcDbArc
 50
23.39852800000001
 51
25.38786400000004
  0
ARC
  5
523
330
A
100
AcDbEntity
  8
Hawa5
 62
     1
100
AcDbCircle
 10
43.78147499999999
 20
150.980041
 30
0.0
 40
32.031593
100
AcDbArc
 50
23.39836399999999
 51
25.38784700000001
  0
ARC
  5
524
330
A
100
AcDbEntity
  8
Hawa5
 62
     1
100
AcDbCircle
 10
41.78561099999999
 20
150.981871
 30
0.0
 40
32.027073
100
AcDbArc
 50
23.39830300000001
 51
25.38808300000002
  0
LINE
  5
525
330
A
100
AcDbEntity
  8
Hawa5
 62
     1
 48
0.010162
100
AcDbLine
 10
88.08404300000001
 20
164.529852
 30
0.0
 11
87.677545
 21
164.529852
 31
0.0
  0
LINE
  5
526
330
A
100
AcDbEntity
  8
Hawa5
 62
     1
 48
0.02813
100
AcDbLine
 10
87.89054
 20
167.12985
 30
0.0
 11
86.76533799999999
 21
167.12985
 31
0.0
  0
ARC
  5
527
330
A
100
AcDbEntity
  8
Hawa5
 62
     1
100
AcDbCircle
 10
120.93776
 20
149.121277
 30
0.0
 40
36.579731
100
AcDbArc
 50
155.0305820000001
 51
156.5119
  0
ARC
  5
528
330
A
100
AcDbEntity
  8
Hawa5
 62
     1
100
AcDbCircle
 10
115.851479
 20
180.708822
 30
0.0
 40
32.102711
100
AcDbArc
 50
203.400333
 51
205.380267
  0
LINE
  5
529
330
A
100
AcDbEntity
  8
Hawa5
 62
     1
 48
0.009972
100
AcDbLine
 10
85.564528
 20
164.09791
 30
0.0
 11
85.729682
 21
164.460993
 31
0.0
  0
ARC
  5
52A
330
A
100
AcDbEntity
  8
Hawa5
 62
     1
100
AcDbCircle
 10
113.798327
 20
180.67819
 30
0.0
 40
32.041649
100
AcDbArc
 50
203.387395
 51
205.3715249999999
  0
ARC
  5
52B
330
A
100
AcDbEntity
  8
Hawa5
 62
     1
100
AcDbCircle
 10
112.013108
 20
180.779692
 30
0.0
 40
32.279163
100
AcDbArc
 50
203.401658
 51
205.37076
  0
ARC
  5
52C
330
A
100
AcDbEntity
  8
Hawa5
 62
     1
100
AcDbCircle
 10
109.859028
 20
180.709085
 30
0.0
 40
32.109699
100
AcDbArc
 50
203.395238
 51
205.374941
  0
ARC
  5
52D
330
A
100
AcDbEntity
  8
Hawa5
 62
     1
100
AcDbCircle
 10
108.006413
 20
180.774282
 30
0.0
 40
32.270836
100
AcDbArc
 50
203.397587
 51
205.367603
  0
ARC
  5
52E
330
A
100
AcDbEntity
  8
Hawa5
 62
     1
100
AcDbCircle
 10
105.647219
 20
180.611154
 30
0.0
 40
31.876381
100
AcDbArc
 50
203.384856
 51
205.379024
  0
ARC
  5
52F
330
A
100
AcDbEntity
  8
Hawa5
 62
     1
100
AcDbCircle
 10
103.875941
 20
180.716631
 30
0.0
 40
32.128216
100
AcDbArc
 50
203.39536
 51
205.374148
  0
ARC
  5
530
330
A
100
AcDbEntity
  8
Hawa5
 62
     1
100
AcDbCircle
 10
101.793122
 20
180.679365
 30
0.0
 40
32.037411
100
AcDbArc
 50
203.393229
 51
205.377412
  0
ARC
  5
531
330
A
100
AcDbEntity
  8
Hawa5
 62
     1
100
AcDbCircle
 10
100.040213
 20
180.788694
 30
0.0
 40
32.307575
100
AcDbArc
 50
204.252808
 51
205.36479
  0
LINE
  5
532
330
A
100
AcDbEntity
  8
Hawa5
 62
     1
 48
0.035355
100
AcDbLine
 10
88.08404300000001
 20
164.529852
 30
0.0
 11
89.084043
 21
163.529852
 31
0.0
  0
LINE
  5
533
330
A
100
AcDbEntity
  8
Hawa5
 62
     1
 48
0.020518
100
AcDbLine
 10
88.50371299999997
 20
167.54952
 30
0.0
 11
89.084043
 21
168.12985
 31
0.0
  0
LINE
  5
534
330
A
100
AcDbEntity
  8
Hawa5
 62
     1
 48
0.0425
100
AcDbLine
 10
90.784043
 20
161.579851
 30
0.0
 11
89.084043
 21
161.579851
 31
0.0
  0
LINE
  5
535
330
A
100
AcDbEntity
  8
Hawa5
 62
     1
 48
0.0425
100
AcDbLine
 10
90.784043
 20
170.079851
 30
0.0
 11
89.084043
 21
170.079851
 31
0.0
  0
ARC
  5
536
330
A
100
AcDbEntity
  8
Hawa5
 62
     1
100
AcDbCircle
 10
90.784043
 20
163.079851
 30
0.0
 40
1.5
100
AcDbArc
 50
269.9999970000001
 51
0.0
  0
ARC
  5
537
330
A
100
AcDbEntity
  8
Hawa5
 62
     1
100
AcDbCircle
 10
90.784043
 20
168.579851
 30
0.0
 40
1.5
100
AcDbArc
 50
0.0
 51
90.00000299999987
  0
LINE
  5
538
330
A
100
AcDbEntity
  8
Hawa6
 62
     3
 48
0.209951
100
AcDbLine
 10
110.584044
 20
180.029852
 30
0.0
 11
118.982071
 21
180.029852
 31
0.0
  0
LINE
  5
539
330
A
100
AcDbEntity
  8
Hawa6
 62
     3
 48
0.040049
100
AcDbLine
 10
118.982071
 20
180.029852
 30
0.0
 11
120.584042
 21
180.029852
 31
0.0
  0
LINE
  5
53A
330
A
100
AcDbEntity
  8
Hawa6
 62
     3
 48
0.025267
100
AcDbLine
 10
110.584044
 20
178.12985
 30
0.0
 11
111.594738
 21
178.12985
 31
0.0
  0
LINE
  5
53B
330
A
100
AcDbEntity
  8
Hawa6
 62
     3
 48
0.03
100
AcDbLine
 10
111.594738
 20
178.12985
 30
0.0
 11
111.594738
 21
179.329851
 31
0.0
  0
LINE
  5
53C
330
A
100
AcDbEntity
  8
Hawa6
 62
     3
 48
0.01699
100
AcDbLine
 10
111.594738
 20
179.329851
 30
0.0
 11
112.274344
 21
179.329851
 31
0.0
  0
LINE
  5
53D
330
A
100
AcDbEntity
  8
Hawa6
 62
     3
 48
0.03
100
AcDbLine
 10
112.274344
 20
178.12985
 30
0.0
 11
112.274344
 21
179.329851
 31
0.0
  0
LINE
  5
53E
330
A
100
AcDbEntity
  8
Hawa6
 62
     3
 48
0.113332
100
AcDbLine
 10
112.274344
 20
178.12985
 30
0.0
 11
116.807616
 21
178.12985
 31
0.0
  0
LINE
  5
53F
330
A
100
AcDbEntity
  8
Hawa6
 62
     3
 48
0.054361
100
AcDbLine
 10
116.807616
 20
178.12985
 30
0.0
 11
118.982071
 21
178.12985
 31
0.0
  0
LINE
  5
540
330
A
100
AcDbEntity
  8
Hawa6
 62
     3
 48
0.040049
100
AcDbLine
 10
118.982071
 20
178.12985
 30
0.0
 11
120.584042
 21
178.12985
 31
0.0
  0
LINE
  5
541
330
A
100
AcDbEntity
  8
Hawa6
 62
     3
 48
0.002896
100
AcDbLine
 10
114.877451
 20
176.361788
 30
0.0
 11
114.877451
 21
176.477617
 31
0.0
  0
LINE
  5
542
330
A
100
AcDbEntity
  8
Hawa6
 62
     3
 48
0.000715
100
AcDbLine
 10
114.848971
 20
176.36437
 30
0.0
 11
114.877451
 21
176.361788
 31
0.0
  0
ELLIPSE
  5
543
330
A
100
AcDbEntity
  8
Hawa6
 62
     3
100
AcDbEllipse
 10
115.242848
 20
184.169908
 30
0.0
 11
0.0028392476961017
 21
-7.824097633361817
 31
0.0
210
0.0
220
0.0
230
1.0
 40
0.7337350000000001
 41
5.594074726104736
 42
6.214026451110839
  0
LWPOLYLINE
  5
544
330
A
100
AcDbEntity
  8
Hawa6
 62
     3
100
AcDbPolyline
 90
        7
 70
     0
 43
0.0
 10
115.557057
 20
176.361788
 10
114.828572
 20
176.489492
 10
114.302237
 20
176.664385
 10
113.702679
 20
176.955061
 10
113.106118
 20
177.352899
 10
112.540894
 20
177.848268
 10
112.274344
 20
178.12985
  0
LINE
  5
545
330
A
100
AcDbEntity
  8
Hawa6
 62
     3
 48
0.003633
100
AcDbLine
 10
116.290635
 20
176.361788
 30
0.0
 11
116.290635
 21
176.507089
 31
0.0
  0
LINE
  5
546
330
A
100
AcDbEntity
  8
Hawa6
 62
     3
 48
0.000715
100
AcDbLine
 10
116.290635
 20
176.361788
 30
0.0
 11
116.319115
 21
176.36437
 31
0.0
  0
LINE
  5
547
330
A
100
AcDbEntity
  8
Hawa6
 62
     3
 48
0.000138
100
AcDbLine
 10
115.611029
 20
176.361788
 30
0.0
 11
115.611029
 21
176.367308
 31
0.0
  0
ARC
  5
548
330
A
100
AcDbEntity
  8
Hawa6
 62
     3
100
AcDbCircle
 10
115.235211
 20
180.644846
 30
0.0
 40
4.299534999999999
100
AcDbArc
 50
275.0145999999999
 51
284.212324
  0
ARC
  5
549
330
A
100
AcDbEntity
  8
Hawa6
 62
     3
100
AcDbCircle
 10
115.905705
 20
180.228037
 30
0.0
 40
3.885819999999999
100
AcDbArc
 50
275.685713
 51
297.7937450000001
  0
ARC
  5
54A
330
A
100
AcDbEntity
  8
Hawa6
 62
     3
100
AcDbCircle
 10
117.351017
 20
180.760889
 30
0.0
 40
3.987619999999999
100
AcDbArc
 50
264.7223649999999
 51
275.2776299999997
  0
ARC
  5
54B
330
A
100
AcDbEntity
  8
Hawa6
 62
     3
100
AcDbCircle
 10
115.148508
 20
180.291216
 30
0.0
 40
3.952844
100
AcDbArc
 50
280.064725
 51
297.6695990000001
  0
ARC
  5
54C
330
A
100
AcDbEntity
  8
Hawa6
 62
     3
100
AcDbCircle
 10
115.212632
 20
180.014555
 30
0.0
 40
3.668973999999999
100
AcDbArc
 50
275.386585
 51
279.8338100000001
  0
LINE
  5
54D
330
A
100
AcDbEntity
  8
Hawa6
 62
     3
 48
0.000684
100
AcDbLine
 10
115.583807
 20
176.364454
 30
0.0
 11
115.611029
 21
176.361788
 31
0.0
  0
LINE
  5
54E
330
A
100
AcDbEntity
  8
Hawa6
 62
     3
 48
0.104975
100
AcDbLine
 10
113.084044
 20
189.529856
 30
0.0
 11
117.283057
 21
189.529856
 31
0.0
  0
LINE
  5
54F
330
A
100
AcDbEntity
  8
Hawa6
 62
     3
 48
0.020025
100
AcDbLine
 10
117.283057
 20
189.529856
 30
0.0
 11
118.084042
 21
189.529856
 31
0.0
  0
LINE
  5
550
330
A
100
AcDbEntity
  8
Hawa6
 62
     3
 48
0.01602
100
AcDbLine
 10
116.943255
 20
190.029856
 30
0.0
 11
117.584042
 21
190.029856
 31
0.0
  0
LINE
  5
551
330
A
100
AcDbEntity
  8
Hawa6
 62
     3
 48
0.08398
100
AcDbLine
 10
113.584044
 20
190.029856
 30
0.0
 11
116.943255
 21
190.029856
 31
0.0
  0
LINE
  5
552
330
A
100
AcDbEntity
  8
Hawa6
 62
     3
 48
0.0475
100
AcDbLine
 10
110.584044
 20
180.029852
 30
0.0
 11
110.584044
 21
178.12985
 31
0.0
  0
LINE
  5
553
330
A
100
AcDbEntity
  8
Hawa6
 62
     3
 48
0.0475
100
AcDbLine
 10
120.584042
 20
180.029852
 30
0.0
 11
120.584042
 21
178.12985
 31
0.0
  0
ARC
  5
554
330
A
100
AcDbEntity
  8
Hawa6
 62
     3
100
AcDbCircle
 10
115.584042
 20
184.174295
 30
0.0
 40
7.844444
100
AcDbArc
 50
230.4022429999999
 51
264.62315
  0
ARC
  5
555
330
A
100
AcDbEntity
  8
Hawa6
 62
     3
100
AcDbCircle
 10
115.584042
 20
184.174295
 30
0.0
 40
7.844444999999999
100
AcDbArc
 50
275.3768519999999
 51
309.597752
  0
LINE
  5
556
330
A
100
AcDbEntity
  8
Hawa6
 62
     3
 48
0.1175
100
AcDbLine
 10
113.084044
 20
184.729853
 30
0.0
 11
113.084044
 21
180.029852
 31
0.0
  0
LINE
  5
557
330
A
100
AcDbEntity
  8
Hawa6
 62
     3
 48
0.1175
100
AcDbLine
 10
118.084042
 20
184.729853
 30
0.0
 11
118.084042
 21
180.029852
 31
0.0
  0
LINE
  5
558
330
A
100
AcDbEntity
  8
Hawa6
 62
     3
 48
0.017678
100
AcDbLine
 10
113.584044
 20
190.029856
 30
0.0
 11
113.084044
 21
189.529856
 31
0.0
  0
LINE
  5
559
330
A
100
AcDbEntity
  8
Hawa6
 62
     3
 48
0.017678
100
AcDbLine
 10
117.584042
 20
190.029856
 30
0.0
 11
118.084042
 21
189.529856
 31
0.0
  0
LINE
  5
55A
330
A
100
AcDbEntity
  8
Hawa6
 62
     3
 48
0.005123
100
AcDbLine
 10
107.538544
 20
189.529856
 30
0.0
 11
107.333622
 21
189.529856
 31
0.0
  0
LINE
  5
55B
330
A
100
AcDbEntity
  8
Hawa6
 62
     3
 48
0.078294
100
AcDbLine
 10
110.670321
 20
189.529856
 30
0.0
 11
107.538544
 21
189.529856
 31
0.0
  0
LINE
  5
55C
330
A
100
AcDbEntity
  8
Hawa6
 62
     3
 48
0.296544
100
AcDbLine
 10
122.532097
 20
189.529856
 30
0.0
 11
110.670321
 21
189.529856
 31
0.0
  0
LINE
  5
55D
330
A
100
AcDbEntity
  8
Hawa6
 62
     3
 48
0.03258
100
AcDbLine
 10
123.835305
 20
189.529856
 30
0.0
 11
122.532097
 21
189.529856
 31
0.0
  0
ELLIPSE
  5
55E
330
A
100
AcDbEntity
  8
Hawa6
 62
     3
100
AcDbEllipse
 10
107.333622
 20
189.029856
 30
0.0
 11
-0.0000000814603425
 21
0.5
 31
0.0
210
0.0
220
0.0
230
0.9999999999999998
 40
0.9991589999999995
 41
6.283185005187987
 42
7.853981494903563
  0
LINE
  5
55F
330
A
100
AcDbEntity
  8
Hawa6
 62
     3
 48
0.005123
100
AcDbLine
 10
107.038964
 20
189.029856
 30
0.0
 11
106.834042
 21
189.029856
 31
0.0
  0
ELLIPSE
  5
560
330
A
100
AcDbEntity
  8
Hawa6
 62
     3
100
AcDbEllipse
 10
107.538544
 20
189.029856
 30
0.0
 11
-0.0000000814603425
 21
0.5
 31
0.0
210
0.0
220
0.0
230
0.9999999999999998
 40
0.9991589999999995
 41
6.283185005187987
 42
7.853981494903563
  0
LINE
  5
561
330
A
100
AcDbEntity
  8
Hawa6
 62
     3
 48
0.086994
100
AcDbLine
 10
110.518717
 20
189.029856
 30
0.0
 11
107.038964
 21
189.029856
 31
0.0
  0
ELLIPSE
  5
562
330
A
100
AcDbEntity
  8
Hawa6
 62
     3
100
AcDbEllipse
 10
110.670321
 20
189.029856
 30
0.0
 11
-0.0000000218556941
 21
0.5
 31
0.0
210
0.0
220
0.0
230
1.0
 40
0.303209
 41
6.283185482025146
 42
7.853981494903563
  0
LINE
  5
563
330
A
100
AcDbEntity
  8
Hawa6
 62
     3
 48
0.296544
100
AcDbLine
 10
122.38049
 20
189.029856
 30
0.0
 11
110.518717
 21
189.029856
 31
0.0
  0
ELLIPSE
  5
564
330
A
100
AcDbEntity
  8
Hawa6
 62
     3
100
AcDbEllipse
 10
122.532097
 20
189.029856
 30
0.0
 11
-0.0000000218556941
 21
0.5
 31
0.0
210
0.0
220
0.0
230
1.0
 40
0.303209
 41
6.283185482025146
 42
7.853981494903563
  0
LINE
  5
565
330
A
100
AcDbEntity
  8
Hawa6
 62
     3
 48
0.04887
100
AcDbLine
 10
124.335305
 20
189.029856
 30
0.0
 11
122.38049
 21
189.029856
 31
0.0
  0
LINE
  5
566
330
A
100
AcDbEntity
  8
Hawa6
 62
     3
 48
0.05
100
AcDbLine
 10
106.834042
 20
187.029856
 30
0.0
 11
106.834042
 21
189.029856
 31
0.0
  0
LINE
  5
567
330
A
100
AcDbEntity
  8
Hawa6
 62
     3
 48
0.005123
100
AcDbLine
 10
106.834042
 20
187.029856
 30
0.0
 11
107.038964
 21
187.029856
 31
0.0
  0
LINE
  5
568
330
A
100
AcDbEntity
  8
Hawa6
 62
     3
 48
0.05
100
AcDbLine
 10
107.038964
 20
187.029856
 30
0.0
 11
107.038964
 21
189.029856
 31
0.0
  0
LINE
  5
569
330
A
100
AcDbEntity
  8
Hawa6
 62
     3
 48
0.086994
100
AcDbLine
 10
110.518717
 20
187.029856
 30
0.0
 11
107.038964
 21
187.029856
 31
0.0
  0
LINE
  5
56A
330
A
100
AcDbEntity
  8
Hawa6
 62
     3
 48
0.05
100
AcDbLine
 10
110.518717
 20
187.029856
 30
0.0
 11
110.518717
 21
189.029856
 31
0.0
  0
LINE
  5
56B
330
A
100
AcDbEntity
  8
Hawa6
 62
     3
 48
0.296544
100
AcDbLine
 10
110.518717
 20
187.029856
 30
0.0
 11
122.38049
 21
187.029856
 31
0.0
  0
LINE
  5
56C
330
A
100
AcDbEntity
  8
Hawa6
 62
     3
 48
0.05
100
AcDbLine
 10
122.38049
 20
187.029856
 30
0.0
 11
122.38049
 21
189.029856
 31
0.0
  0
LINE
  5
56D
330
A
100
AcDbEntity
  8
Hawa6
 62
     3
 48
0.04887
100
AcDbLine
 10
124.335305
 20
187.029856
 30
0.0
 11
122.38049
 21
187.029856
 31
0.0
  0
ELLIPSE
  5
56E
330
A
100
AcDbEntity
  8
Hawa6
 62
     3
100
AcDbEllipse
 10
107.333622
 20
187.029856
 30
0.0
 11
-0.0000000814603425
 21
0.5
 31
0.0
210
0.0
220
0.0
230
0.9999999999999998
 40
0.9991589999999995
 41
1.570796132087708
 42
3.141592502593993
  0
LINE
  5
56F
330
A
100
AcDbEntity
  8
Hawa6
 62
     3
 48
0.005123
100
AcDbLine
 10
107.333622
 20
186.529856
 30
0.0
 11
107.538544
 21
186.529856
 31
0.0
  0
ELLIPSE
  5
570
330
A
100
AcDbEntity
  8
Hawa6
 62
     3
100
AcDbEllipse
 10
107.538544
 20
187.029856
 30
0.0
 11
-0.0000000814603425
 21
0.5
 31
0.0
210
0.0
220
0.0
230
0.9999999999999998
 40
0.9991589999999995
 41
1.570796132087708
 42
3.141592502593993
  0
LINE
  5
571
330
A
100
AcDbEntity
  8
Hawa6
 62
     3
 48
0.078294
100
AcDbLine
 10
110.670321
 20
186.529856
 30
0.0
 11
107.538544
 21
186.529856
 31
0.0
  0
ELLIPSE
  5
572
330
A
100
AcDbEntity
  8
Hawa6
 62
     3
100
AcDbEllipse
 10
110.670321
 20
187.029856
 30
0.0
 11
-0.0000000218556941
 21
0.5
 31
0.0
210
0.0
220
0.0
230
1.0
 40
0.303209
 41
1.570796370506286
 42
3.141592741012573
  0
LINE
  5
573
330
A
100
AcDbEntity
  8
Hawa6
 62
     3
 48
0.296544
100
AcDbLine
 10
110.670321
 20
186.529856
 30
0.0
 11
122.532097
 21
186.529856
 31
0.0
  0
ELLIPSE
  5
574
330
A
100
AcDbEntity
  8
Hawa6
 62
     3
100
AcDbEllipse
 10
122.532097
 20
187.029856
 30
0.0
 11
-0.0000000218556941
 21
0.5
 31
0.0
210
0.0
220
0.0
230
1.0
 40
0.303209
 41
1.570796370506286
 42
3.141592741012573
  0
LINE
  5
575
330
A
100
AcDbEntity
  8
Hawa6
 62
     3
 48
0.03258
100
AcDbLine
 10
123.835305
 20
186.529856
 30
0.0
 11
122.532097
 21
186.529856
 31
0.0
  0
LINE
  5
576
330
A
100
AcDbEntity
  8
Hawa6
 62
     3
 48
0.000065
100
AcDbLine
 10
112.486649
 20
184.729853
 30
0.0
 11
112.484044
 21
184.729853
 31
0.0
  0
LINE
  5
577
330
A
100
AcDbEntity
  8
Hawa6
 62
     3
 48
0.154935
100
AcDbLine
 10
118.684044
 20
186.029856
 30
0.0
 11
112.486649
 21
186.029856
 31
0.0
  0
LINE
  5
578
330
A
100
AcDbEntity
  8
Hawa6
 62
     3
 48
0.154935
100
AcDbLine
 10
118.684044
 20
184.729853
 30
0.0
 11
112.486649
 21
184.729853
 31
0.0
  0
ELLIPSE
  5
579
330
A
100
AcDbEntity
  8
Hawa6
 62
     3
100
AcDbEllipse
 10
111.987069
 20
186.029856
 30
0.0
 11
0.0000000059624403
 21
-0.5
 31
0.0
210
0.0
220
0.0
230
1.0
 40
0.999159
 41
1.570796132087708
 42
3.141592502593993
  0
ELLIPSE
  5
57A
330
A
100
AcDbEntity
  8
Hawa6
 62
     3
100
AcDbEllipse
 10
119.181015
 20
186.029856
 30
0.0
 11
-0.0000000814603425
 21
0.5
 31
0.0
210
0.0
220
0.0
230
0.9999999999999998
 40
0.9991589999999995
 41
6.283185005187987
 42
7.853981494903563
  0
ARC
  5
57B
330
A
100
AcDbEntity
  8
Hawa6
 62
     3
100
AcDbCircle
 10
107.332795
 20
189.02984
 30
0.0
 40
0.5000100000000001
100
AcDbArc
 50
90.00151200000045
 51
175.9361929999983
  0
ARC
  5
57C
330
A
100
AcDbEntity
  8
Hawa6
 62
     3
100
AcDbCircle
 10
123.835305
 20
189.029856
 30
0.0
 40
0.5
100
AcDbArc
 50
0.0
 51
90.00000300000095
  0
LINE
  5
57D
330
A
100
AcDbEntity
  8
Hawa6
 62
     3
 48
0.05
100
AcDbLine
 10
124.335305
 20
187.029856
 30
0.0
 11
124.335305
 21
189.029856
 31
0.0
  0
ARC
  5
57E
330
A
100
AcDbEntity
  8
Hawa6
 62
     3
100
AcDbCircle
 10
107.332795
 20
187.0298629999999
 30
0.0
 40
0.5000100000000001
100
AcDbArc
 50
184.0638070000016
 51
269.9984879999995
  0
ARC
  5
57F
330
A
100
AcDbEntity
  8
Hawa6
 62
     3
100
AcDbCircle
 10
123.835305
 20
187.029856
 30
0.0
 40
0.5
100
AcDbArc
 50
269.999996999999
 51
0.0
  0
LINE
  5
580
330
A
100
AcDbEntity
  8
Hawa6
 62
     3
 48
0.0325
100
AcDbLine
 10
112.484044
 20
184.729853
 30
0.0
 11
112.484044
 21
186.029856
 31
0.0
  0
LINE
  5
581
330
A
100
AcDbEntity
  8
Hawa6
 62
     3
 48
0.0325
100
AcDbLine
 10
118.684044
 20
184.729853
 30
0.0
 11
118.684044
 21
186.029856
 31
0.0
  0
LINE
  5
582
330
A
100
AcDbEntity
  8
Hawa6
 62
     3
 48
0.5
100
AcDbLine
 10
97.834043
 20
148.629852
 30
0.0
 11
97.834043
 21
168.62985
 31
0.0
  0
LINE
  5
583
330
A
100
AcDbEntity
  8
Hawa6
 62
     3
100
AcDbLine
 10
133.334042
 20
148.629852
 30
0.0
 11
97.834043
 21
148.629852
 31
0.0
  0
LINE
  5
584
330
A
100
AcDbEntity
  8
Hawa6
 62
     3
100
AcDbLine
 10
133.334042
 20
168.62985
 30
0.0
 11
97.834043
 21
168.62985
 31
0.0
  0
LINE
  5
585
330
A
100
AcDbEntity
  8
Hawa6
 62
     3
 48
0.5
100
AcDbLine
 10
133.334042
 20
148.629852
 30
0.0
 11
133.334042
 21
168.62985
 31
0.0
  0
ARC
  5
586
330
A
100
AcDbEntity
  8
Hawa6
 62
     3
100
AcDbCircle
 10
103.084519
 20
179.129347
 30
0.0
 40
0.5005609999999999
100
AcDbArc
 50
90.05447300000035
 51
179.8756140000006
  0
LINE
  5
587
330
A
100
AcDbEntity
  8
Hawa6
 62
     3
 48
0.1375
100
AcDbLine
 10
108.584042
 20
179.62985
 30
0.0
 11
103.084042
 21
179.62985
 31
0.0
  0
LINE
  5
588
330
A
100
AcDbEntity
  8
Hawa6
 62
     3
 48
0.17598
100
AcDbLine
 10
108.829707
 20
172.59495
 30
0.0
 11
108.584042
 21
179.62985
 31
0.0
  0
LINE
  5
589
330
A
100
AcDbEntity
  8
Hawa6
 62
     3
 48
0.17598
100
AcDbLine
 10
108.829707
 20
144.664751
 30
0.0
 11
108.584042
 21
137.629852
 31
0.0
  0
ARC
  5
58A
330
A
100
AcDbEntity
  8
Hawa6
 62
     3
100
AcDbCircle
 10
109.829096
 20
172.62985
 30
0.0
 40
1.0
100
AcDbArc
 50
182.0000109999992
 51
255.813688
  0
ARC
  5
58B
330
A
100
AcDbEntity
  8
Hawa6
 62
     3
100
AcDbCircle
 10
109.829096
 20
144.62985
 30
0.0
 40
1.0
100
AcDbArc
 50
104.1863120000001
 51
177.9999890000008
  0
ARC
  5
58C
330
A
100
AcDbEntity
  8
Hawa6
 62
     3
100
AcDbCircle
 10
128.083268
 20
138.130861
 30
0.0
 40
0.5011060000000001
100
AcDbArc
 50
270.0885509999997
 51
1.189928999998952
  0
LINE
  5
58D
330
A
100
AcDbEntity
  8
Hawa6
 62
     3
 48
0.062658
100
AcDbLine
 10
128.5840419999999
 20
138.133003
 30
0.0
 11
128.5840419999999
 21
140.639322
 31
0.0
  0
ARC
  5
58E
330
A
100
AcDbEntity
  8
Hawa6
 62
     3
100
AcDbCircle
 10
128.084042
 20
179.12985
 30
0.0
 40
0.5
100
AcDbArc
 50
359.9999970424414
 51
89.99999600000093
  0
LINE
  5
58F
330
A
100
AcDbEntity
  8
Hawa6
 62
     3
 48
0.1375
100
AcDbLine
 10
128.084042
 20
179.62985
 30
0.0
 11
122.584042
 21
179.62985
 31
0.0
  0
LINE
  5
590
330
A
100
AcDbEntity
  8
Hawa6
 62
     3
 48
0.004359
100
AcDbLine
 10
97.83404200000001
 20
161.12985
 30
0.0
 11
97.73404300000001
 21
161.272665
 31
0.0
  0
LINE
  5
591
330
A
100
AcDbEntity
  8
Hawa6
 62
     3
 48
0.004359
100
AcDbLine
 10
97.83404200000001
 20
156.12985
 30
0.0
 11
97.73404300000001
 21
155.987036
 31
0.0
  0
LINE
  5
592
330
A
100
AcDbEntity
  8
Hawa6
 62
     3
 48
0.062739
100
AcDbLine
 10
102.584042
 20
140.63941
 30
0.0
 11
102.584042
 21
138.129852
 31
0.0
  0
LINE
  5
593
330
A
100
AcDbEntity
  8
Hawa6
 62
     3
 48
0.020731
100
AcDbLine
 10
102.584042
 20
179.12985
 30
0.0
 11
102.584042
 21
178.300619
 31
0.0
  0
LINE
  5
594
330
A
100
AcDbEntity
  8
Hawa6
 62
     3
 48
0.241769
100
AcDbLine
 10
102.584042
 20
178.300619
 30
0.0
 11
102.584042
 21
168.62985
 31
0.0
  0
LINE
  5
595
330
A
100
AcDbEntity
  8
Hawa6
 62
     3
 48
0.199761
100
AcDbLine
 10
102.584042
 20
148.629864
 30
0.0
 11
102.584042
 21
140.63941
 31
0.0
  0
LINE
  5
596
330
A
100
AcDbEntity
  8
Hawa6
 62
     3
 48
0.210731
100
AcDbLine
 10
103.084042
 20
148.629852
 30
0.0
 11
103.084042
 21
140.2006189999999
 31
0.0
  0
LINE
  5
597
330
A
100
AcDbEntity
  8
Hawa6
 62
     3
 48
0.001698
100
AcDbLine
 10
103.084042
 20
168.69779
 30
0.0
 11
103.084042
 21
168.62985
 31
0.0
  0
LINE
  5
598
330
A
100
AcDbEntity
  8
Hawa6
 62
     3
 48
0.252065
100
AcDbLine
 10
103.084042
 20
178.780393
 30
0.0
 11
103.084042
 21
168.69779
 31
0.0
  0
LINE
  5
599
330
A
100
AcDbEntity
  8
Hawa6
 62
     3
 48
0.021236
100
AcDbLine
 10
103.084042
 20
179.62985
 30
0.0
 11
103.084042
 21
178.780393
 31
0.0
  0
LINE
  5
59A
330
A
100
AcDbEntity
  8
Hawa6
 62
     3
 48
0.064269
100
AcDbLine
 10
103.084042
 20
140.2006189999999
 30
0.0
 11
103.084042
 21
137.629852
 31
0.0
  0
LINE
  5
59B
330
A
100
AcDbEntity
  8
Hawa6
 62
     3
 48
0.210731
100
AcDbLine
 10
108.584042
 20
148.629852
 30
0.0
 11
108.584042
 21
140.2006189999999
 31
0.0
  0
LINE
  5
59C
330
A
100
AcDbEntity
  8
Hawa6
 62
     3
 48
0.001698
100
AcDbLine
 10
108.584042
 20
168.69779
 30
0.0
 11
108.584042
 21
168.62985
 31
0.0
  0
LINE
  5
59D
330
A
100
AcDbEntity
  8
Hawa6
 62
     3
 48
0.252065
100
AcDbLine
 10
108.584042
 20
178.780393
 30
0.0
 11
108.584042
 21
168.69779
 31
0.0
  0
LINE
  5
59E
330
A
100
AcDbEntity
  8
Hawa6
 62
     3
 48
0.021236
100
AcDbLine
 10
108.584042
 20
179.62985
 30
0.0
 11
108.584042
 21
178.780393
 31
0.0
  0
LINE
  5
59F
330
A
100
AcDbEntity
  8
Hawa6
 62
     3
 48
0.064269
100
AcDbLine
 10
108.584042
 20
140.2006189999999
 30
0.0
 11
108.584042
 21
137.629852
 31
0.0
  0
LINE
  5
5A0
330
A
100
AcDbEntity
  8
Hawa6
 62
     3
 48
0.056391
100
AcDbLine
 10
108.829707
 20
148.629955
 30
0.0
 11
108.829707
 21
146.374323
 31
0.0
  0
LINE
  5
5A1
330
A
100
AcDbEntity
  8
Hawa6
 62
     3
 48
0.085008
100
AcDbLine
 10
108.829707
 20
172.030058
 30
0.0
 11
108.829707
 21
168.629732
 31
0.0
  0
LINE
  5
5A2
330
A
100
AcDbEntity
  8
Hawa6
 62
     3
 48
0.014122
100
AcDbLine
 10
108.829707
 20
172.594953
 30
0.0
 11
108.829707
 21
172.030058
 31
0.0
  0
LINE
  5
5A3
330
A
100
AcDbEntity
  8
Hawa6
 62
     3
 48
0.042739
100
AcDbLine
 10
108.829707
 20
146.374323
 30
0.0
 11
108.829707
 21
144.664751
 31
0.0
  0
LINE
  5
5A4
330
A
100
AcDbEntity
  8
Hawa6
 62
     3
 48
0.035214
100
AcDbLine
 10
109.829098
 20
148.629852
 30
0.0
 11
109.829098
 21
147.221279
 31
0.0
  0
LINE
  5
5A5
330
A
100
AcDbEntity
  8
Hawa6
 62
     3
 48
0.061854
100
AcDbLine
 10
109.829098
 20
171.103998
 30
0.0
 11
109.829098
 21
168.629843
 31
0.0
  0
LINE
  5
5A6
330
A
100
AcDbEntity
  8
Hawa6
 62
     3
 48
0.013146
100
AcDbLine
 10
109.829098
 20
171.62985
 30
0.0
 11
109.829098
 21
171.103998
 31
0.0
  0
LINE
  5
5A7
330
A
100
AcDbEntity
  8
Hawa6
 62
     3
 48
0.039786
100
AcDbLine
 10
109.829098
 20
147.221279
 30
0.0
 11
109.829098
 21
145.629852
 31
0.0
  0
LINE
  5
5A8
330
A
100
AcDbEntity
  8
Hawa6
 62
     3
 48
0.199761
100
AcDbLine
 10
128.5840419999999
 20
148.629864
 30
0.0
 11
128.5840419999999
 21
140.63941
 31
0.0
  0
LINE
  5
5A9
330
A
100
AcDbEntity
  8
Hawa6
 62
     3
 48
0.241769
100
AcDbLine
 10
128.5840419999999
 20
178.300619
 30
0.0
 11
128.5840419999999
 21
168.62985
 31
0.0
  0
LINE
  5
5AA
330
A
100
AcDbEntity
  8
Hawa6
 62
     3
 48
0.020731
100
AcDbLine
 10
128.5840419999999
 20
179.12985
 30
0.0
 11
128.5840419999999
 21
178.300619
 31
0.0
  0
LINE
  5
5AB
330
A
100
AcDbEntity
  8
Hawa6
 62
     3
 48
0.064269
100
AcDbLine
 10
128.084042
 20
140.2006189999999
 30
0.0
 11
128.084042
 21
137.629852
 31
0.0
  0
LINE
  5
5AC
330
A
100
AcDbEntity
  8
Hawa6
 62
     3
 48
0.021236
100
AcDbLine
 10
128.084042
 20
179.62985
 30
0.0
 11
128.084042
 21
178.780393
 31
0.0
  0
LINE
  5
5AD
330
A
100
AcDbEntity
  8
Hawa6
 62
     3
 48
0.252065
100
AcDbLine
 10
128.084042
 20
178.780393
 30
0.0
 11
128.084042
 21
168.69779
 31
0.0
  0
LINE
  5
5AE
330
A
100
AcDbEntity
  8
Hawa6
 62
     3
 48
0.001698
100
AcDbLine
 10
128.084042
 20
168.69779
 30
0.0
 11
128.084042
 21
168.62985
 31
0.0
  0
LINE
  5
5AF
330
A
100
AcDbEntity
  8
Hawa6
 62
     3
 48
0.210731
100
AcDbLine
 10
128.084042
 20
148.629852
 30
0.0
 11
128.084042
 21
140.2006189999999
 31
0.0
  0
LINE
  5
5B0
330
A
100
AcDbEntity
  8
Hawa6
 62
     3
 48
0.064269
100
AcDbLine
 10
122.584042
 20
140.2006189999999
 30
0.0
 11
122.584042
 21
137.629852
 31
0.0
  0
LINE
  5
5B1
330
A
100
AcDbEntity
  8
Hawa6
 62
     3
 48
0.021236
100
AcDbLine
 10
122.584042
 20
179.62985
 30
0.0
 11
122.584042
 21
178.780393
 31
0.0
  0
LINE
  5
5B2
330
A
100
AcDbEntity
  8
Hawa6
 62
     3
 48
0.252065
100
AcDbLine
 10
122.584042
 20
178.780393
 30
0.0
 11
122.584042
 21
168.69779
 31
0.0
  0
LINE
  5
5B3
330
A
100
AcDbEntity
  8
Hawa6
 62
     3
 48
0.001698
100
AcDbLine
 10
122.584042
 20
168.69779
 30
0.0
 11
122.584042
 21
168.62985
 31
0.0
  0
LINE
  5
5B4
330
A
100
AcDbEntity
  8
Hawa6
 62
     3
 48
0.210731
100
AcDbLine
 10
122.584042
 20
148.629852
 30
0.0
 11
122.584042
 21
140.2006189999999
 31
0.0
  0
LINE
  5
5B5
330
A
100
AcDbEntity
  8
Hawa6
 62
     3
 48
0.042739
100
AcDbLine
 10
122.338379
 20
146.374323
 30
0.0
 11
122.338379
 21
144.664751
 31
0.0
  0
LINE
  5
5B6
330
A
100
AcDbEntity
  8
Hawa6
 62
     3
 48
0.014122
100
AcDbLine
 10
122.338379
 20
172.594953
 30
0.0
 11
122.338379
 21
172.030058
 31
0.0
  0
LINE
  5
5B7
330
A
100
AcDbEntity
  8
Hawa6
 62
     3
 48
0.085008
100
AcDbLine
 10
122.338379
 20
172.030058
 30
0.0
 11
122.338379
 21
168.629732
 31
0.0
  0
LINE
  5
5B8
330
A
100
AcDbEntity
  8
Hawa6
 62
     3
 48
0.056391
100
AcDbLine
 10
122.338379
 20
148.629955
 30
0.0
 11
122.338379
 21
146.374323
 31
0.0
  0
LINE
  5
5B9
330
A
100
AcDbEntity
  8
Hawa6
 62
     3
 48
0.039786
100
AcDbLine
 10
121.33899
 20
147.221279
 30
0.0
 11
121.33899
 21
145.629852
 31
0.0
  0
LINE
  5
5BA
330
A
100
AcDbEntity
  8
Hawa6
 62
     3
 48
0.013146
100
AcDbLine
 10
121.33899
 20
171.62985
 30
0.0
 11
121.33899
 21
171.103998
 31
0.0
  0
LINE
  5
5BB
330
A
100
AcDbEntity
  8
Hawa6
 62
     3
 48
0.061854
100
AcDbLine
 10
121.33899
 20
171.103998
 30
0.0
 11
121.33899
 21
168.629843
 31
0.0
  0
LINE
  5
5BC
330
A
100
AcDbEntity
  8
Hawa6
 62
     3
 48
0.035214
100
AcDbLine
 10
121.33899
 20
148.629852
 30
0.0
 11
121.33899
 21
147.221279
 31
0.0
  0
LWPOLYLINE
  5
5BD
330
A
100
AcDbEntity
  8
Hawa6
 62
     3
100
AcDbPolyline
 90
        9
 70
     0
 43
0.0
 10
103.084042
 20
179.62985
 10
102.907122
 20
179.597505
 10
102.753092
 20
179.504648
 10
102.64188
 20
179.363264
 10
102.585003
 20
179.130895
 10
102.584214
 20
179.1156179999999
 10
102.584042
 20
179.127374
 10
102.584042
 20
179.124395
 10
102.584042
 20
176.6298459999999
  0
ARC
  5
5BE
330
A
100
AcDbEntity
  8
Hawa6
 62
     3
100
AcDbCircle
 10
103.084042
 20
138.129852
 30
0.0
 40
0.5
100
AcDbArc
 50
179.9999910455465
 51
270.0000009999998
  0
LINE
  5
5C0
330
A
100
AcDbEntity
  8
Hawa6
 62
     3
 48
0.1375
100
AcDbLine
 10
108.584042
 20
137.629852
 30
0.0
 11
103.084042
 21
137.629852
 31
0.0
  0
ARC
  5
5C3
330
A
100
AcDbEntity
  8
Hawa6
 62
     3
100
AcDbCircle
 10
109.829098
 20
172.62985
 30
0.0
 40
1.0
100
AcDbArc
 50
181.9999970000004
 51
269.9999969999999
  0
ARC
  5
5C4
330
A
100
AcDbEntity
  8
Hawa6
 62
     3
100
AcDbCircle
 10
109.829098
 20
144.629852
 30
0.0
 40
1.0
100
AcDbArc
 50
90.00000300000014
 51
178.0000029999996
  0
LWPOLYLINE
  5
5C5
330
A
100
AcDbEntity
  8
Hawa6
 62
     3
100
AcDbPolyline
 90
        6
 70
     0
 43
0.0
 10
128.084042
 20
137.629852
 10
128.258774
 20
137.661377
 10
128.411473
 20
137.751978
 10
128.522881
 20
137.890228
 10
128.5840419999999
 20
138.157762
 10
128.5840419999999
 20
140.639324
  0
LINE
  5
5C7
330
A
100
AcDbEntity
  8
Hawa6
 62
     3
 48
0.1375
100
AcDbLine
 10
128.084042
 20
137.629852
 30
0.0
 11
122.584042
 21
137.629852
 31
0.0
  0
LINE
  5
5C9
330
A
100
AcDbEntity
  8
Hawa6
 62
     3
 48
0.17598
100
AcDbLine
 10
122.338379
 20
144.664751
 30
0.0
 11
122.584042
 21
137.629852
 31
0.0
  0
LINE
  5
5CA
330
A
100
AcDbEntity
  8
Hawa6
 62
     3
 48
0.17598
100
AcDbLine
 10
122.338379
 20
172.594953
 30
0.0
 11
122.584042
 21
179.62985
 31
0.0
  0
ARC
  5
5CB
330
A
100
AcDbEntity
  8
Hawa6
 62
     3
100
AcDbCircle
 10
121.33899
 20
144.629852
 30
0.0
 40
1.0
100
AcDbArc
 50
2.000000000000494
 51
90.00000300000014
  0
ARC
  5
5CC
330
A
100
AcDbEntity
  8
Hawa6
 62
     3
100
AcDbCircle
 10
121.33899
 20
172.62985
 30
0.0
 40
1.0
100
AcDbArc
 50
269.9999969999999
 51
357.9999999999995
  0
LINE
  5
5CD
330
A
100
AcDbEntity
  8
Hawa6
 62
     3
 48
0.287747
100
AcDbLine
 10
121.33899
 20
145.629852
 30
0.0
 11
109.829098
 21
145.629852
 31
0.0
  0
LINE
  5
5CE
330
A
100
AcDbEntity
  8
Hawa6
 62
     3
 48
0.287747
100
AcDbLine
 10
121.33899
 20
171.62985
 30
0.0
 11
109.829098
 21
171.62985
 31
0.0
  0
LINE
  5
5CF
330
A
100
AcDbEntity
  8
Hawa6
 62
     3
 48
0.007651
100
AcDbLine
 10
133.334042
 20
160.823809
 30
0.0
 11
133.334042
 21
161.12985
 31
0.0
  0
LINE
  5
5D0
330
A
100
AcDbEntity
  8
Hawa6
 62
     3
 48
0.0625
100
AcDbLine
 10
133.334042
 20
156.12985
 30
0.0
 11
133.334042
 21
158.62985
 31
0.0
  0
LINE
  5
5D1
330
A
100
AcDbEntity
  8
Hawa6
 62
     3
 48
0.054849
100
AcDbLine
 10
133.334042
 20
158.62985
 30
0.0
 11
133.334042
 21
160.823809
 31
0.0
  0
LINE
  5
5D2
330
A
100
AcDbEntity
  8
Hawa6
 62
     3
 48
0.008088
100
AcDbLine
 10
133.434044
 20
160.94914
 30
0.0
 11
133.434044
 21
161.272665
 31
0.0
  0
LINE
  5
5D3
330
A
100
AcDbEntity
  8
Hawa6
 62
     3
 48
0.124053
100
AcDbLine
 10
133.434044
 20
155.987036
 30
0.0
 11
133.434044
 21
160.94914
 31
0.0
  0
LINE
  5
5D4
330
A
100
AcDbEntity
  8
Hawa6
 62
     3
 48
0.124053
100
AcDbLine
 10
97.73404300000001
 20
155.987036
 30
0.0
 11
97.73404300000001
 21
160.94914
 31
0.0
  0
LINE
  5
5D5
330
A
100
AcDbEntity
  8
Hawa6
 62
     3
 48
0.008088
100
AcDbLine
 10
97.73404300000001
 20
160.94914
 30
0.0
 11
97.73404300000001
 21
161.272665
 31
0.0
  0
LINE
  5
5D6
330
A
100
AcDbEntity
  8
Hawa6
 62
     3
 48
0.004359
100
AcDbLine
 10
133.334042
 20
161.12985
 30
0.0
 11
133.434044
 21
161.272665
 31
0.0
  0
LINE
  5
5D7
330
A
100
AcDbEntity
  8
Hawa6
 62
     3
 48
0.004359
100
AcDbLine
 10
133.334042
 20
156.12985
 30
0.0
 11
133.434044
 21
155.987036
 31
0.0
  0
LINE
  5
5DA
330
A
100
AcDbEntity
  8
Hawa6
 62
     3
 48
0.1375
100
AcDbLine
 10
110.084042
 20
173.829851
 30
0.0
 11
115.584042
 21
173.829851
 31
0.0
  0
LINE
  5
5DB
330
A
100
AcDbEntity
  8
Hawa6
 62
     3
 48
0.1375
100
AcDbLine
 10
115.584042
 20
173.829851
 30
0.0
 11
121.084042
 21
173.829851
 31
0.0
  0
LINE
  5
5DC
330
A
100
AcDbEntity
  8
Hawa6
 62
     3
 48
0.15
100
AcDbLine
 10
109.584042
 20
173.329851
 30
0.0
 11
115.584042
 21
173.329851
 31
0.0
  0
LINE
  5
5DD
330
A
100
AcDbEntity
  8
Hawa6
 62
     3
 48
0.15
100
AcDbLine
 10
115.584042
 20
173.329851
 30
0.0
 11
121.584042
 21
173.329851
 31
0.0
  0
LINE
  5
5DE
330
A
100
AcDbEntity
  8
Hawa6
 62
     3
 48
0.017678
100
AcDbLine
 10
110.084042
 20
173.829851
 30
0.0
 11
109.584042
 21
173.329851
 31
0.0
  0
LINE
  5
5DF
330
A
100
AcDbEntity
  8
Hawa6
 62
     3
 48
0.017678
100
AcDbLine
 10
121.084042
 20
173.829851
 30
0.0
 11
121.584042
 21
173.329851
 31
0.0
  0
LINE
  5
5E0
330
A
100
AcDbEntity
  8
Hawa6
 62
     3
 48
0.041738
100
AcDbLine
 10
109.584042
 20
173.329851
 30
0.0
 11
109.584042
 21
171.660314
 31
0.0
  0
LINE
  5
5E1
330
A
100
AcDbEntity
  8
Hawa6
 62
     3
 48
0.470741
100
AcDbLine
 10
109.584042
 20
145.5993419999999
 30
0.0
 11
109.584042
 21
126.769718
 31
0.0
  0
LINE
  5
5E2
330
A
100
AcDbEntity
  8
Hawa6
 62
     3
 48
0.041738
100
AcDbLine
 10
121.584042
 20
173.329851
 30
0.0
 11
121.584042
 21
171.660326
 31
0.0
  0
LINE
  5
5E3
330
A
100
AcDbEntity
  8
Hawa6
 62
     3
 48
0.47074
100
AcDbLine
 10
121.584042
 20
145.599333
 30
0.0
 11
121.584042
 21
126.769718
 31
0.0
  0
LINE
  5
5E4
330
A
100
AcDbEntity
  8
Hawa2
 62
     9
 48
0.040381
100
AcDbLine
 10
135.941906
 20
183.829851
 30
0.0
 11
137.084042
 21
184.971987
 31
0.0
  0
LINE
  5
5E5
330
A
100
AcDbEntity
  8
Hawa2
 62
     9
 48
0.140381
100
AcDbLine
 10
133.11348
 20
183.829851
 30
0.0
 11
137.084042
 21
187.800417
 31
0.0
  0
LINE
  5
5E6
330
A
100
AcDbEntity
  8
Hawa2
 62
     9
 48
0.213974
100
AcDbLine
 10
130.285054
 20
183.829851
 30
0.0
 11
136.337143
 21
189.881945
 31
0.0
  0
LINE
  5
5E7
330
A
100
AcDbEntity
  8
Hawa2
 62
     9
 48
0.2872889999999999
100
AcDbLine
 10
127.456627
 20
183.829851
 30
0.0
 11
135.582386
 21
191.955614
 31
0.0
  0
LINE
  5
5E8
330
A
100
AcDbEntity
  8
Hawa2
 62
     9
 48
0.345793
100
AcDbLine
 10
124.628197
 20
183.829851
 30
0.0
 11
134.408703
 21
193.610353
 31
0.0
  0
LINE
  5
5E9
330
A
100
AcDbEntity
  8
Hawa2
 62
     9
 48
0.353553
100
AcDbLine
 10
121.799771
 20
183.829851
 30
0.0
 11
131.799771
 21
193.829851
 31
0.0
  0
LINE
  5
5EA
330
A
100
AcDbEntity
  8
Hawa2
 62
     9
 48
0.029603
100
AcDbLine
 10
120.834042
 20
185.692552
 30
0.0
 11
121.671345
 21
186.529856
 31
0.0
  0
LINE
  5
5EB
330
A
100
AcDbEntity
  8
Hawa2
 62
     9
 48
0.163953
100
AcDbLine
 10
124.334042
 20
189.192552
 30
0.0
 11
128.971344
 21
193.829851
 31
0.0
  0
LINE
  5
5EC
330
A
100
AcDbEntity
  8
Hawa2
 62
     9
 48
0.116673
100
AcDbLine
 10
122.842919
 20
190.529856
 30
0.0
 11
126.142918
 21
193.829851
 31
0.0
  0
LINE
  5
5ED
330
A
100
AcDbEntity
  8
Hawa2
 62
     9
 48
0.116673
100
AcDbLine
 10
120.014489
 20
190.529856
 30
0.0
 11
123.314492
 21
193.829851
 31
0.0
  0
LINE
  5
5EE
330
A
100
AcDbEntity
  8
Hawa2
 62
     9
 48
0.116673
100
AcDbLine
 10
117.186062
 20
190.529856
 30
0.0
 11
120.486062
 21
193.829851
 31
0.0
  0
LINE
  5
5EF
330
A
100
AcDbEntity
  8
Hawa2
 62
     9
 48
0.091923
100
AcDbLine
 10
107.657635
 20
183.829851
 30
0.0
 11
110.257601
 21
186.4298189999999
 31
0.0
  0
LINE
  5
5F0
330
A
100
AcDbEntity
  8
Hawa2
 62
     9
 48
0.116673
100
AcDbLine
 10
114.357636
 20
190.529856
 30
0.0
 11
117.657635
 21
193.829851
 31
0.0
  0
LINE
  5
5F1
330
A
100
AcDbEntity
  8
Hawa2
 62
     9
 48
0.00901
100
AcDbLine
 10
92.829209
 20
171.829851
 30
0.0
 11
93.08404300000001
 21
172.084684
 31
0.0
  0
LINE
  5
5F2
330
A
100
AcDbEntity
  8
Hawa2
 62
     9
 48
0.09546
100
AcDbLine
 10
104.829209
 20
183.829851
 30
0.0
 11
107.52921
 21
186.529856
 31
0.0
  0
LINE
  5
5F3
330
A
100
AcDbEntity
  8
Hawa2
 62
     9
 48
0.116673
100
AcDbLine
 10
111.52921
 20
190.529856
 30
0.0
 11
114.829209
 21
193.829851
 31
0.0
  0
LINE
  5
5F4
330
A
100
AcDbEntity
  8
Hawa2
 62
     9
 48
0.070119
100
AcDbLine
 10
87.10078199999999
 20
168.929853
 30
0.0
 11
89.084043
 21
170.913114
 31
0.0
  0
LINE
  5
5F5
330
A
100
AcDbEntity
  8
Hawa2
 62
     9
 48
0.10901
100
AcDbLine
 10
90.000782
 20
171.829851
 30
0.0
 11
93.08404300000001
 21
174.913114
 31
0.0
  0
LINE
  5
5F6
330
A
100
AcDbEntity
  8
Hawa2
 62
     9
 48
0.170882
100
AcDbLine
 10
102.000782
 20
183.829851
 30
0.0
 11
106.834044
 21
188.663111
 31
0.0
  0
LINE
  5
5F7
330
A
100
AcDbEntity
  8
Hawa2
 62
     9
 48
0.116673
100
AcDbLine
 10
108.700781
 20
190.529856
 30
0.0
 11
112.000782
 21
193.829851
 31
0.0
  0
LINE
  5
5F8
330
A
100
AcDbEntity
  8
Hawa2
 62
     9
 48
0.265165
100
AcDbLine
 10
85.58404300000001
 20
170.241541
 30
0.0
 11
93.08404300000001
 21
177.741541
 31
0.0
  0
LINE
  5
5F9
330
A
100
AcDbEntity
  8
Hawa2
 62
     9
 48
0.353553
100
AcDbLine
 10
99.17235500000002
 20
183.829851
 30
0.0
 11
109.172354
 21
193.829851
 31
0.0
  0
LINE
  5
5FA
330
A
100
AcDbEntity
  8
Hawa2
 62
     9
 48
0.265165
100
AcDbLine
 10
85.58404300000001
 20
173.069967
 30
0.0
 11
93.08404300000001
 21
180.569967
 31
0.0
  0
LINE
  5
5FB
330
A
100
AcDbEntity
  8
Hawa2
 62
     9
 48
0.353553
100
AcDbLine
 10
96.343928
 20
183.829851
 30
0.0
 11
106.343928
 21
193.829851
 31
0.0
  0
LINE
  5
5FC
330
A
100
AcDbEntity
  8
Hawa2
 62
     9
 48
0.247645
100
AcDbLine
 10
85.58404300000001
 20
175.898393
 30
0.0
 11
92.588491
 21
182.902841
 31
0.0
  0
LINE
  5
5FD
330
A
100
AcDbEntity
  8
Hawa2
 62
     9
 48
0.336287
100
AcDbLine
 10
94.003882
 20
184.318231
 30
0.0
 11
103.5155
 21
193.829851
 31
0.0
  0
LINE
  5
5FE
330
A
100
AcDbEntity
  8
Hawa2
 62
     9
 48
0.340797
100
AcDbLine
 10
85.58404300000001
 20
178.72682
 30
0.0
 11
95.22322800000001
 21
188.366007
 31
0.0
  0
LINE
  5
5FF
330
A
100
AcDbEntity
  8
Hawa2
 62
     9
 48
0.093302
100
AcDbLine
 10
98.04809099999999
 20
191.190866
 30
0.0
 11
100.687073
 21
193.829851
 31
0.0
  0
LINE
  5
600
330
A
100
AcDbEntity
  8
Hawa2
 62
     9
 48
0.32748
100
AcDbLine
 10
85.58404300000001
 20
181.55525
 30
0.0
 11
94.846567
 21
190.817774
 31
0.0
  0
LINE
  5
601
330
A
100
AcDbEntity
  8
Hawa2
 62
     9
 48
0.317037
100
AcDbLine
 10
85.58404300000001
 20
184.383676
 30
0.0
 11
94.55120200000001
 21
193.350832
 31
0.0
  0
LINE
  5
602
330
A
100
AcDbEntity
  8
Hawa2
 62
     9
 48
0.233973
100
AcDbLine
 10
85.58404300000001
 20
187.212107
 30
0.0
 11
92.201792
 21
193.829851
 31
0.0
  0
LINE
  5
603
330
A
100
AcDbEntity
  8
Hawa2
 62
     9
 48
0.133973
100
AcDbLine
 10
85.58404300000001
 20
190.040529
 30
0.0
 11
89.37336499999998
 21
193.829851
 31
0.0
  0
LINE
  5
604
330
A
100
AcDbEntity
  8
Hawa2
 62
     9
 48
0.033973
100
AcDbLine
 10
85.58404300000001
 20
192.868959
 30
0.0
 11
86.544938
 21
193.829851
 31
0.0
  0
LINE
  5
605
330
A
100
AcDbEntity
  8
Hawa2
 62
     9
 48
0.017157
100
AcDbLine
 10
92.59876099999999
 20
134.829852
 30
0.0
 11
93.08404300000001
 21
135.315133
 31
0.0
  0
LINE
  5
606
330
A
100
AcDbEntity
  8
Hawa2
 62
     9
 48
0.117157
100
AcDbLine
 10
89.770335
 20
134.829852
 30
0.0
 11
93.08404300000001
 21
138.14356
 31
0.0
  0
LINE
  5
607
330
A
100
AcDbEntity
  8
Hawa2
 62
     9
 48
0.217157
100
AcDbLine
 10
86.941907
 20
134.829852
 30
0.0
 11
93.08404300000001
 21
140.971989
 31
0.0
  0
LINE
  5
608
330
A
100
AcDbEntity
  8
Hawa2
 62
     9
 48
0.265165
100
AcDbLine
 10
85.58404300000001
 20
136.300415
 30
0.0
 11
93.08404300000001
 21
143.800415
 31
0.0
  0
LINE
  5
609
330
A
100
AcDbEntity
  8
Hawa2
 62
     9
 48
0.265165
100
AcDbLine
 10
85.58404300000001
 20
139.128841
 30
0.0
 11
93.08404300000001
 21
146.628841
 31
0.0
  0
LINE
  5
60A
330
A
100
AcDbEntity
  8
Hawa2
 62
     9
 48
0.265165
100
AcDbLine
 10
85.58404300000001
 20
141.95727
 30
0.0
 11
93.08404300000001
 21
149.45727
 31
0.0
  0
LINE
  5
60B
330
A
100
AcDbEntity
  8
Hawa2
 62
     9
 48
0.265165
100
AcDbLine
 10
85.58404300000001
 20
144.785696
 30
0.0
 11
93.08404300000001
 21
152.285696
 31
0.0
  0
LINE
  5
60C
330
A
100
AcDbEntity
  8
Hawa2
 62
     9
 48
0.265165
100
AcDbLine
 10
85.58404300000001
 20
147.614124
 30
0.0
 11
93.08404300000001
 21
155.114122
 31
0.0
  0
LINE
  5
60D
330
A
100
AcDbEntity
  8
Hawa2
 62
     9
 48
0.265165
100
AcDbLine
 10
85.58404300000001
 20
150.442551
 30
0.0
 11
93.08404300000001
 21
157.942549
 31
0.0
  0
LINE
  5
60E
330
A
100
AcDbEntity
  8
Hawa2
 62
     9
 48
0.231891
100
AcDbLine
 10
85.58404300000001
 20
153.270979
 30
0.0
 11
92.14291800000001
 21
159.829851
 31
0.0
  0
LINE
  5
60F
330
A
100
AcDbEntity
  8
Hawa2
 62
     9
 48
0.132128
100
AcDbLine
 10
85.58404300000001
 20
156.099405
 30
0.0
 11
89.321201
 21
159.836561
 31
0.0
  0
LINE
  5
610
330
A
100
AcDbEntity
  8
Hawa2
 62
     9
 48
0.123744
100
AcDbLine
 10
85.58404300000001
 20
158.927831
 30
0.0
 11
89.084043
 21
162.427831
 31
0.0
  0
LINE
  5
611
330
A
100
AcDbEntity
  8
Hawa2
 62
     9
 48
0.034422
100
AcDbLine
 10
85.58404300000001
 20
161.756258
 30
0.0
 11
86.557636
 21
162.729853
 31
0.0
  0
LINE
  5
612
330
A
100
AcDbEntity
  8
Hawa2
 62
     9
 48
0.041328
100
AcDbLine
 10
136.88435
 20
133.860606
 30
0.0
 11
138.053288
 21
135.029546
 31
0.0
  0
LINE
  5
613
330
A
100
AcDbEntity
  8
Hawa2
 62
     9
 48
0.143503
100
AcDbLine
 10
134.02517
 20
133.829852
 30
0.0
 11
138.084042
 21
137.888727
 31
0.0
  0
LINE
  5
614
330
A
100
AcDbEntity
  8
Hawa2
 62
     9
 48
0.243503
100
AcDbLine
 10
131.19674
 20
133.829852
 30
0.0
 11
138.084042
 21
140.717153
 31
0.0
  0
LINE
  5
615
330
A
100
AcDbEntity
  8
Hawa2
 62
     9
 48
0.343503
100
AcDbLine
 10
128.368313
 20
133.829852
 30
0.0
 11
138.084042
 21
143.54558
 31
0.0
  0
LINE
  5
616
330
A
100
AcDbEntity
  8
Hawa2
 62
     9
 48
0.240416
100
AcDbLine
 10
125.539887
 20
133.829852
 30
0.0
 11
132.339886
 21
140.629852
 31
0.0
  0
LINE
  5
617
330
A
100
AcDbEntity
  8
Hawa2
 62
     9
 48
0.123744
100
AcDbLine
 10
134.584042
 20
142.874008
 30
0.0
 11
138.084042
 21
146.374008
 31
0.0
  0
LINE
  5
618
330
A
100
AcDbEntity
  8
Hawa2
 62
     9
 48
0.120997
100
AcDbLine
 10
123.08915
 20
134.207542
 30
0.0
 11
126.51146
 21
137.629852
 31
0.0
  0
LINE
  5
619
330
A
100
AcDbEntity
  8
Hawa2
 62
     9
 48
0.123744
100
AcDbLine
 10
134.584042
 20
145.702434
 30
0.0
 11
138.084042
 21
149.202434
 31
0.0
  0
LINE
  5
61A
330
A
100
AcDbEntity
  8
Hawa2
 62
     9
 48
0.038855
100
AcDbLine
 10
122.584042
 20
136.530863
 30
0.0
 11
123.683033
 21
137.629852
 31
0.0
  0
LINE
  5
61B
330
A
100
AcDbEntity
  8
Hawa2
 62
     9
 48
0.123744
100
AcDbLine
 10
134.584042
 20
148.530863
 30
0.0
 11
138.084042
 21
152.030863
 31
0.0
  0
LINE
  5
61C
330
A
100
AcDbEntity
  8
Hawa2
 62
     9
 48
0.123744
100
AcDbLine
 10
134.584042
 20
151.359289
 30
0.0
 11
138.084042
 21
154.859289
 31
0.0
  0
LINE
  5
61D
330
A
100
AcDbEntity
  8
Hawa2
 62
     9
 48
0.123744
100
AcDbLine
 10
134.584042
 20
154.187715
 30
0.0
 11
138.084042
 21
157.687715
 31
0.0
  0
LINE
  5
61E
330
A
100
AcDbEntity
  8
Hawa2
 62
     9
 48
0.123744
100
AcDbLine
 10
134.584042
 20
157.016142
 30
0.0
 11
138.084042
 21
160.516142
 31
0.0
  0
LINE
  5
61F
330
A
100
AcDbEntity
  8
Hawa2
 62
     9
 48
0.123744
100
AcDbLine
 10
134.584042
 20
159.844572
 30
0.0
 11
138.084042
 21
163.344572
 31
0.0
  0
LINE
  5
620
330
A
100
AcDbEntity
  8
Hawa2
 62
     9
 48
0.123744
100
AcDbLine
 10
134.584042
 20
162.672998
 30
0.0
 11
138.084042
 21
166.172998
 31
0.0
  0
LINE
  5
621
330
A
100
AcDbEntity
  8
Hawa2
 62
     9
 48
0.123744
100
AcDbLine
 10
134.584042
 20
165.501425
 30
0.0
 11
138.084042
 21
169.001425
 31
0.0
  0
LINE
  5
622
330
A
100
AcDbEntity
  8
Hawa2
 62
     9
 48
0.123744
100
AcDbLine
 10
134.584042
 20
168.329851
 30
0.0
 11
138.084042
 21
171.829851
 31
0.0
  0
LINE
  5
623
330
A
100
AcDbEntity
  8
Hawa2
 62
     9
 48
0.123744
100
AcDbLine
 10
134.584042
 20
171.158277
 30
0.0
 11
138.084042
 21
174.658277
 31
0.0
  0
LINE
  5
624
330
A
100
AcDbEntity
  8
Hawa2
 62
     9
 48
0.123744
100
AcDbLine
 10
134.584042
 20
173.986708
 30
0.0
 11
138.084042
 21
177.486708
 31
0.0
  0
LINE
  5
625
330
A
100
AcDbEntity
  8
Hawa2
 62
     9
 48
0.123744
100
AcDbLine
 10
134.584042
 20
176.815134
 30
0.0
 11
138.084042
 21
180.315134
 31
0.0
  0
LINE
  5
626
330
A
100
AcDbEntity
  8
Hawa2
 62
     9
 48
0.132684
100
AcDbLine
 10
134.177796
 20
179.237314
 30
0.0
 11
137.930657
 21
182.990175
 31
0.0
  0
LINE
  5
627
330
A
100
AcDbEntity
  8
Hawa2
 62
     9
 48
0.13435
100
AcDbLine
 10
132.141907
 20
180.029852
 30
0.0
 11
135.941906
 21
183.829851
 31
0.0
  0
LINE
  5
628
330
A
100
AcDbEntity
  8
Hawa2
 62
     9
 48
0.13435
100
AcDbLine
 10
129.313481
 20
180.029852
 30
0.0
 11
133.11348
 21
183.829851
 31
0.0
  0
LINE
  5
629
330
A
100
AcDbEntity
  8
Hawa2
 62
     9
 48
0.13435
100
AcDbLine
 10
126.485054
 20
180.029852
 30
0.0
 11
130.285054
 21
183.829851
 31
0.0
  0
LINE
  5
62A
330
A
100
AcDbEntity
  8
Hawa2
 62
     9
 48
0.13435
100
AcDbLine
 10
123.656624
 20
180.029852
 30
0.0
 11
127.456627
 21
183.829851
 31
0.0
  0
LINE
  5
62B
330
A
100
AcDbEntity
  8
Hawa2
 62
     9
 48
0.13435
100
AcDbLine
 10
120.828198
 20
180.029852
 30
0.0
 11
124.628197
 21
183.829851
 31
0.0
  0
LINE
  5
62C
330
A
100
AcDbEntity
  8
Hawa2
 62
     9
 48
0.13435
100
AcDbLine
 10
117.999772
 20
180.029852
 30
0.0
 11
121.799771
 21
183.829851
 31
0.0
  0
LINE
  5
62D
330
A
100
AcDbEntity
  8
Hawa2
 62
     9
 48
0.049049
100
AcDbLine
 10
117.584042
 20
182.442549
 30
0.0
 11
118.971344
 21
183.829851
 31
0.0
  0
LINE
  5
62E
330
A
100
AcDbEntity
  8
Hawa2
 62
     9
 48
0.10052
100
AcDbLine
 10
105.740897
 20
133.829852
 30
0.0
 11
108.584044
 21
136.672998
 31
0.0
  0
LINE
  5
62F
330
A
100
AcDbEntity
  8
Hawa2
 62
     9
 48
0.13435
100
AcDbLine
 10
102.91247
 20
133.829852
 30
0.0
 11
106.71247
 21
137.629852
 31
0.0
  0
LINE
  5
630
330
A
100
AcDbEntity
  8
Hawa2
 62
     9
 48
0.13435
100
AcDbLine
 10
100.084043
 20
133.829852
 30
0.0
 11
103.884043
 21
137.629852
 31
0.0
  0
LINE
  5
631
330
A
100
AcDbEntity
  8
Hawa2
 62
     9
 48
0.176014
100
AcDbLine
 10
97.255616
 20
133.829852
 30
0.0
 11
102.234044
 21
138.808279
 31
0.0
  0
LINE
  5
632
330
A
100
AcDbEntity
  8
Hawa2
 62
     9
 48
0.240144
100
AcDbLine
 10
94.43488399999999
 20
133.837547
 30
0.0
 11
101.227189
 21
140.629852
 31
0.0
  0
LINE
  5
633
330
A
100
AcDbEntity
  8
Hawa2
 62
     9
 48
0.187892
100
AcDbLine
 10
93.084366
 20
135.315456
 30
0.0
 11
98.39876099999999
 21
140.629852
 31
0.0
  0
LINE
  5
634
330
A
100
AcDbEntity
  8
Hawa2
 62
     9
 48
0.123744
100
AcDbLine
 10
93.08404300000001
 20
138.14356
 30
0.0
 11
96.584043
 21
141.64356
 31
0.0
  0
LINE
  5
635
330
A
100
AcDbEntity
  8
Hawa2
 62
     9
 48
0.123744
100
AcDbLine
 10
93.08404300000001
 20
140.971989
 30
0.0
 11
96.584043
 21
144.471989
 31
0.0
  0
LINE
  5
636
330
A
100
AcDbEntity
  8
Hawa2
 62
     9
 48
0.123744
100
AcDbLine
 10
93.08404300000001
 20
143.800415
 30
0.0
 11
96.584043
 21
147.300415
 31
0.0
  0
LINE
  5
637
330
A
100
AcDbEntity
  8
Hawa2
 62
     9
 48
0.123744
100
AcDbLine
 10
93.08404300000001
 20
146.628841
 30
0.0
 11
96.584043
 21
150.128841
 31
0.0
  0
LINE
  5
638
330
A
100
AcDbEntity
  8
Hawa2
 62
     9
 48
0.123744
100
AcDbLine
 10
93.08404300000001
 20
149.45727
 30
0.0
 11
96.584043
 21
152.95727
 31
0.0
  0
LINE
  5
639
330
A
100
AcDbEntity
  8
Hawa2
 62
     9
 48
0.123744
100
AcDbLine
 10
93.08404300000001
 20
152.285696
 30
0.0
 11
96.584043
 21
155.785696
 31
0.0
  0
LINE
  5
63A
330
A
100
AcDbEntity
  8
Hawa2
 62
     9
 48
0.123744
100
AcDbLine
 10
93.08404300000001
 20
155.114122
 30
0.0
 11
96.584043
 21
158.614122
 31
0.0
  0
LINE
  5
63B
330
A
100
AcDbEntity
  8
Hawa2
 62
     9
 48
0.123744
100
AcDbLine
 10
93.08404300000001
 20
157.942549
 30
0.0
 11
96.584043
 21
161.442549
 31
0.0
  0
LINE
  5
63C
330
A
100
AcDbEntity
  8
Hawa2
 62
     9
 48
0.123744
100
AcDbLine
 10
93.08404300000001
 20
160.770979
 30
0.0
 11
96.584043
 21
164.270979
 31
0.0
  0
LINE
  5
63D
330
A
100
AcDbEntity
  8
Hawa2
 62
     9
 48
0.04388
100
AcDbLine
 10
112.342917
 20
180.029852
 30
0.0
 11
113.584044
 21
181.270979
 31
0.0
  0
LINE
  5
63E
330
A
100
AcDbEntity
  8
Hawa2
 62
     9
 48
0.123744
100
AcDbLine
 10
93.08404300000001
 20
163.599405
 30
0.0
 11
96.584043
 21
167.099405
 31
0.0
  0
LINE
  5
63F
330
A
100
AcDbEntity
  8
Hawa2
 62
     9
 48
0.13435
100
AcDbLine
 10
109.514491
 20
180.029852
 30
0.0
 11
113.31449
 21
183.829851
 31
0.0
  0
LINE
  5
640
330
A
100
AcDbEntity
  8
Hawa2
 62
     9
 48
0.123744
100
AcDbLine
 10
93.08404300000001
 20
166.427831
 30
0.0
 11
96.584043
 21
169.927831
 31
0.0
  0
LINE
  5
641
330
A
100
AcDbEntity
  8
Hawa2
 62
     9
 48
0.13435
100
AcDbLine
 10
106.686062
 20
180.029852
 30
0.0
 11
110.486063
 21
183.829851
 31
0.0
  0
LINE
  5
642
330
A
100
AcDbEntity
  8
Hawa2
 62
     9
 48
0.123744
100
AcDbLine
 10
93.08404300000001
 20
169.256258
 30
0.0
 11
96.584043
 21
172.756258
 31
0.0
  0
LINE
  5
643
330
A
100
AcDbEntity
  8
Hawa2
 62
     9
 48
0.13435
100
AcDbLine
 10
103.857636
 20
180.029852
 30
0.0
 11
107.657635
 21
183.829851
 31
0.0
  0
LINE
  5
644
330
A
100
AcDbEntity
  8
Hawa2
 62
     9
 48
0.123744
100
AcDbLine
 10
93.08404300000001
 20
172.084684
 30
0.0
 11
96.584043
 21
175.584684
 31
0.0
  0
LINE
  5
645
330
A
100
AcDbEntity
  8
Hawa2
 62
     9
 48
0.13435
100
AcDbLine
 10
101.029209
 20
180.029852
 30
0.0
 11
104.829209
 21
183.829851
 31
0.0
  0
LINE
  5
646
330
A
100
AcDbEntity
  8
Hawa2
 62
     9
 48
0.125411
100
AcDbLine
 10
93.08404300000001
 20
174.913114
 30
0.0
 11
96.63119100000001
 21
178.46026
 31
0.0
  0
LINE
  5
647
330
A
100
AcDbEntity
  8
Hawa2
 62
     9
 48
0.136017
100
AcDbLine
 10
98.153634
 20
179.982702
 30
0.0
 11
102.000782
 21
183.829851
 31
0.0
  0
LINE
  5
648
330
A
100
AcDbEntity
  8
Hawa2
 62
     9
 48
0.215254
100
AcDbLine
 10
93.08404300000001
 20
177.741541
 30
0.0
 11
99.17235500000002
 21
183.829851
 31
0.0
  0
LINE
  5
649
330
A
100
AcDbEntity
  8
Hawa2
 62
     9
 48
0.115254
100
AcDbLine
 10
93.08404300000001
 20
180.569967
 30
0.0
 11
96.343928
 21
183.829851
 31
0.0
  0
VIEWPORT
  5
A3
102
{ACAD_XDICTIONARY
360
677
102
}
330
B
100
AcDbEntity
 67
     1
  8
0
 62
     9
100
AcDbViewport
 10
0.0
 20
0.0
 30
0.0
 40
1000.0
 41
1000.0
 68
     1
 69
     1
 12
0.0
 22
0.0
 13
0.0
 23
0.0
 14
1.0
 24
1.0
 15
1.0
 25
1.0
 16
0.0
 26
0.0
 36
1.0
 17
0.0
 27
0.0
 37
0.0
 42
50.0
 43
0.0
 44
0.0
 45
1000.0
 50
0.0
 51
0.0
 72
   100
 90
   557216
  1

281
     0
 71
     1
 74
     0
110
0.0
120
0.0
130
0.0
111
1.0
121
0.0
131
0.0
112
0.0
122
1.0
132
0.0
 79
     0
146
0.0
  0
ENDSEC
  0
SECTION
  2
OBJECTS
  0
DICTIONARY
  5
19
330
0
100
AcDbDictionary
281
     1
  3
ACAD_COLOR
350
66B
  3
ACAD_GROUP
350
1A
  3
ACAD_LAYOUT
350
45A
  3
ACAD_MATERIAL
350
656
  3
ACAD_MLINESTYLE
350
1B
  3
ACAD_PLOTSETTINGS
350
66E
  3
ACAD_PLOTSTYLENAME
350
654
  3
ACAD_TABLESTYLE
350
66C
  3
ACAD_VISUALSTYLE
350
65A
  3
AcDbVariableDictionary
350
671
  3
DWGPROPS
350
676
  0
DICTIONARY
  5
677
330
A3
100
AcDbDictionary
280
     1
281
     1
  3
ACAD_XREC_ROUNDTRIP
360
678
  0
DICTIONARY
  5
66B
102
{ACAD_REACTORS
330
19
102
}
330
19
100
AcDbDictionary
281
     1
  0
DICTIONARY
  5
1A
102
{ACAD_REACTORS
330
19
102
}
330
19
100
AcDbDictionary
281
     1
  0
DICTIONARY
  5
45A
102
{ACAD_REACTORS
330
19
102
}
330
19
100
AcDbDictionary
281
     1
  3
Layout1
350
45C
  3
Model
350
45B
  0
DICTIONARY
  5
656
102
{ACAD_REACTORS
330
19
102
}
330
19
100
AcDbDictionary
281
     1
  3
ByBlock
350
658
  3
ByLayer
350
657
  3
Global
350
659
  0
DICTIONARY
  5
1B
102
{ACAD_REACTORS
330
19
102
}
330
19
100
AcDbDictionary
281
     1
  3
STANDARD
350
1C
  0
DICTIONARY
  5
66E
102
{ACAD_REACTORS
330
19
102
}
330
19
100
AcDbDictionary
281
     1
  0
ACDBDICTIONARYWDFLT
  5
654
102
{ACAD_REACTORS
330
19
102
}
330
19
100
AcDbDictionary
281
     1
  3
Normal
350
655
100
AcDbDictionaryWithDefault
340
655
  0
DICTIONARY
  5
66C
102
{ACAD_REACTORS
330
19
102
}
330
19
100
AcDbDictionary
281
     1
  3
Standard
350
66D
  0
DICTIONARY
  5
65A
102
{ACAD_REACTORS
330
19
102
}
330
19
100
AcDbDictionary
281
     1
  3
2dWireframe
350
660
  3
3D Hidden
350
662
  3
3dWireframe
350
661
  3
Basic
350
65F
  3
Brighten
350
666
  3
ColorChange
350
66A
  3
Conceptual
350
663
  3
Dim
350
665
  3
Facepattern
350
669
  3
Flat
350
65B
  3
FlatWithEdges
350
65C
  3
Gouraud
350
65D
  3
GouraudWithEdges
350
65E
  3
Linepattern
350
668
  3
Realistic
350
664
  3
Thicken
350
667
  0
DICTIONARY
  5
671
102
{ACAD_REACTORS
330
19
102
}
330
19
100
AcDbDictionary
281
     1
  3
CTABLESTYLE
350
672
  3
DIMASSOC
350
675
  3
INDEXCTL
350
674
  3
SORTENTS
350
673
  0
XRECORD
  5
676
102
{ACAD_REACTORS
330
19
102
}
330
19
100
AcDbXrecord
280
     1
  1
DWGPROPS COOKIE
  2

  3

  4

  6

  7

  8
rhu
  9

300
=
301
=
302
=
303
=
304
=
305
=
306
=
307
=
308
=
309
=
 40
0.0021333680555556
 41
2447893.0
 42
2454272.406296134
  1

 90
        0
  0
XRECORD
  5
678
102
{ACAD_REACTORS
330
677
102
}
330
677
100
AcDbXrecord
280
     1
102
SHADEPLOT
 70
     0
  0
LAYOUT
  5
45C
102
{ACAD_XDICTIONARY
360
67B
102
}
102
{ACAD_REACTORS
330
45A
102
}
330
45A
100
AcDbPlotSettings
  1

  2
none_device
  4

  6

 40
0.0
 41
0.0
 42
0.0
 43
0.0
 44
0.0
 45
0.0
 46
0.0
 47
0.0
 48
0.0
 49
0.0
140
0.0
141
0.0
142
1.0
143
1.0
 70
   688
 72
     0
 73
     0
 74
     5
  7

 75
    16
147
1.0
148
0.0
149
0.0
100
AcDbLayout
  1
Layout1
 70
     1
 71
     1
 10
0.0
 20
0.0
 11
420.0
 21
297.0
 12
0.0
 22
0.0
 32
0.0
 14
0.0
 24
0.0
 34
0.0
 15
56.30533199999999
 25
105.7584
 35
2.0
146
0.0
 13
0.0
 23
0.0
 33
0.0
 16
1.0
 26
0.0
 36
0.0
 17
0.0
 27
1.0
 37
0.0
 76
     0
330
B
331
A3
  0
LAYOUT
  5
45B
102
{ACAD_XDICTIONARY
360
679
102
}
102
{ACAD_REACTORS
330
45A
102
}
330
45A
100
AcDbPlotSettings
  1

  2
none_device
  4

  6

 40
0.0
 41
0.0
 42
0.0
 43
0.0
 44
0.0
 45
0.0
 46
0.0
 47
0.0
 48
0.0
 49
0.0
140
0.0
141
0.0
142
1.0
143
1.0
 70
   688
 72
     0
 73
     0
 74
     5
  7

 75
    16
147
1.0
148
0.0
149
0.0
100
AcDbLayout
  1
Model
 70
     1
 71
     0
 10
0.0
 20
0.0
 11
0.0
 21
0.0
 12
0.0
 22
0.0
 32
0.0
 14
0.0
 24
0.0
 34
0.0
 15
0.0
 25
0.0
 35
0.0
146
0.0
 13
0.0
 23
0.0
 33
0.0
 16
1.0
 26
0.0
 36
0.0
 17
0.0
 27
1.0
 37
0.0
 76
     0
330
A
331
15
  0
MATERIAL
  5
658
102
{ACAD_XDICTIONARY
360
67F
102
}
102
{ACAD_REACTORS
330
656
102
}
330
656
100
AcDbMaterial
  1
ByBlock
  0
MATERIAL
  5
657
102
{ACAD_XDICTIONARY
360
67D
102
}
102
{ACAD_REACTORS
330
656
102
}
330
656
100
AcDbMaterial
  1
ByLayer
  0
MATERIAL
  5
659
102
{ACAD_XDICTIONARY
360
681
102
}
102
{ACAD_REACTORS
330
656
102
}
330
656
100
AcDbMaterial
  1
Global
  0
MLINESTYLE
  5
1C
102
{ACAD_REACTORS
330
1B
102
}
330
1B
100
AcDbMlineStyle
  2
STANDARD
 70
     0
  3

 62
     0
 51
90.0
 52
90.0
 71
     2
 49
0.5
 62
   256
  6
BYLAYER
 49
-0.5
 62
   256
  6
BYLAYER
  0
ACDBPLACEHOLDER
  5
655
102
{ACAD_REACTORS
330
654
102
}
330
654
  0
TABLESTYLE
  5
66D
102
{ACAD_XDICTIONARY
360
683
102
}
102
{ACAD_REACTORS
330
66C
102
}
330
66C
100
AcDbTableStyle
  3
Standard
 70
     0
 71
     0
 40
1.5
 41
1.5
280
     0
281
     0
  7
STANDARD
140
4.5
170
     2
 62
     0
 63
     7
283
     0
274
    -2
284
     1
 64
     0
275
    -2
285
     1
 65
     0
276
    -2
286
     1
 66
     0
277
    -2
287
     1
 67
     0
278
    -2
288
     1
 68
     0
279
    -2
289
     1
 69
     0
  7
STANDARD
140
6.0
170
     5
 62
     0
 63
     7
283
     0
274
    -2
284
     1
 64
     0
275
    -2
285
     1
 65
     0
276
    -2
286
     1
 66
     0
277
    -2
287
     1
 67
     0
278
    -2
288
     1
 68
     0
279
    -2
289
     1
 69
     0
  7
STANDARD
140
4.5
170
     5
 62
     0
 63
     7
283
     0
274
    -2
284
     1
 64
     0
275
    -2
285
     1
 65
     0
276
    -2
286
     1
 66
     0
277
    -2
287
     1
 67
     0
278
    -2
288
     1
 68
     0
279
    -2
289
     1
 69
     0
  0
VISUALSTYLE
  5
660
102
{ACAD_REACTORS
330
65A
102
}
330
65A
100
AcDbVisualStyle
  2
2dWireframe
 70
     4
 71
     0
 72
     2
 73
     0
 90
        0
 40
-0.6
 41
-30.0
 62
     5
 63
     7
 74
     1
 91
        4
 64
     7
 65
   257
 75
     1
175
     1
 42
1.0
 92
        0
 66
   257
 43
1.0
 76
     1
 77
     6
 78
     2
 67
     7
 79
     5
170
     0
171
     0
290
     0
174
     0
 93
        1
 44
0.0
173
     0
291
     0
 45
0.0
1001
ACAD
1000
AcDbSavedByObjectVersion
1070
     0
  0
VISUALSTYLE
  5
662
102
{ACAD_REACTORS
330
65A
102
}
330
65A
100
AcDbVisualStyle
  2
3D Hidden
 70
     6
 71
     1
 72
     2
 73
     2
 90
        0
 40
-0.6
 41
-30.0
 62
     5
 63
     7
 74
     2
 91
        2
 64
     7
 65
   257
 75
     2
175
     1
 42
40.0
 92
        0
 66
   257
 43
1.0
 76
     1
 77
     6
 78
     2
 67
     7
 79
     3
170
     0
171
     0
290
     0
174
     0
 93
        1
 44
0.0
173
     0
291
     0
 45
0.0
1001
ACAD
1000
AcDbSavedByObjectVersion
1070
     0
  0
VISUALSTYLE
  5
661
102
{ACAD_REACTORS
330
65A
102
}
330
65A
100
AcDbVisualStyle
  2
3dWireframe
 70
     5
 71
     0
 72
     2
 73
     0
 90
        0
 40
-0.6
 41
-30.0
 62
     5
 63
     7
 74
     1
 91
        4
 64
     7
 65
   257
 75
     1
175
     1
 42
1.0
 92
        0
 66
   257
 43
1.0
 76
     1
 77
     6
 78
     2
 67
     7
 79
     5
170
     0
171
     0
290
     0
174
     0
 93
        1
 44
0.0
173
     0
291
     0
 45
0.0
1001
ACAD
1000
AcDbSavedByObjectVersion
1070
     0
  0
VISUALSTYLE
  5
65F
102
{ACAD_REACTORS
330
65A
102
}
330
65A
100
AcDbVisualStyle
  2
Basic
 70
     7
 71
     1
 72
     0
 73
     1
 90
        0
 40
-0.6
 41
-30.0
 62
     5
 63
     7
 74
     0
 91
        4
 64
     7
 65
   257
 75
     1
175
     1
 42
1.0
 92
        8
 66
     7
 43
1.0
 76
     1
 77
     6
 78
     2
 67
     7
 79
     5
170
     0
171
     0
290
     0
174
     0
 93
        1
 44
0.0
173
     0
291
     1
 45
0.0
1001
ACAD
1000
AcDbSavedByObjectVersion
1070
     0
  0
VISUALSTYLE
  5
666
102
{ACAD_REACTORS
330
65A
102
}
330
65A
100
AcDbVisualStyle
  2
Brighten
 70
    12
 71
     2
 72
     2
 73
     0
 90
        0
 40
-0.6
 41
-30.0
 62
     5
 63
     7
 74
     1
 91
        4
 64
     7
 65
   257
 75
     1
175
     1
 42
1.0
 92
        8
 66
     7
 43
1.0
 76
     1
 77
     6
 78
     2
 67
     7
 79
     5
170
     0
171
     0
290
     0
174
     0
 93
        1
 44
50.0
173
     0
291
     1
 45
0.0
1001
ACAD
1000
AcDbSavedByObjectVersion
1070
     0
  0
VISUALSTYLE
  5
66A
102
{ACAD_REACTORS
330
65A
102
}
330
65A
100
AcDbVisualStyle
  2
ColorChange
 70
    16
 71
     2
 72
     2
 73
     3
 90
        0
 40
-0.6
 41
-30.0
 62
     5
 63
     8
 74
     1
 91
        4
 64
     7
 65
   257
 75
     1
175
     1
 42
1.0
 92
        8
 66
     8
 43
1.0
 76
     1
 77
     6
 78
     2
 67
     7
 79
     5
170
     0
171
     0
290
     0
174
     0
 93
        1
 44
0.0
173
     0
291
     1
 45
0.0
1001
ACAD
1000
AcDbSavedByObjectVersion
1070
     0
  0
VISUALSTYLE
  5
663
102
{ACAD_REACTORS
330
65A
102
}
330
65A
100
AcDbVisualStyle
  2
Conceptual
 70
     9
 71
     3
 72
     2
 73
     0
 90
        0
 40
-0.6
 41
-30.0
 62
     5
 63
     7
 74
     2
 91
        2
 64
     7
 65
   257
 75
     1
175
     1
 42
40.0
 92
        8
 66
     7
 43
1.0
 76
     1
 77
     6
 78
     2
 67
     7
 79
     3
170
     0
171
     0
290
     0
174
     0
 93
        1
 44
0.0
173
     0
291
     0
 45
0.0
1001
ACAD
1000
AcDbSavedByObjectVersion
1070
     0
  0
VISUALSTYLE
  5
665
102
{ACAD_REACTORS
330
65A
102
}
330
65A
100
AcDbVisualStyle
  2
Dim
 70
    11
 71
     2
 72
     2
 73
     0
 90
        0
 40
-0.6
 41
-30.0
 62
     5
 63
     7
 74
     1
 91
        4
 64
     7
 65
   257
 75
     1
175
     1
 42
1.0
 92
        8
 66
     7
 43
1.0
 76
     1
 77
     6
 78
     2
 67
     7
 79
     5
170
     0
171
     0
290
     0
174
     0
 93
        1
 44
-50.0
173
     0
291
     1
 45
0.0
1001
ACAD
1000
AcDbSavedByObjectVersion
1070
     0
  0
VISUALSTYLE
  5
669
102
{ACAD_REACTORS
330
65A
102
}
330
65A
100
AcDbVisualStyle
  2
Facepattern
 70
    15
 71
     2
 72
     2
 73
     0
 90
        0
 40
-0.6
 41
-30.0
 62
     5
 63
     7
 74
     1
 91
        4
 64
     7
 65
   257
 75
     1
175
     1
 42
1.0
 92
        8
 66
     7
 43
1.0
 76
     1
 77
     6
 78
     2
 67
     7
 79
     5
170
     0
171
     0
290
     0
174
     0
 93
        1
 44
0.0
173
     0
291
     1
 45
0.0
1001
ACAD
1000
AcDbSavedByObjectVersion
1070
     0
  0
VISUALSTYLE
  5
65B
102
{ACAD_REACTORS
330
65A
102
}
330
65A
100
AcDbVisualStyle
  2
Flat
 70
     0
 71
     2
 72
     1
 73
     1
 90
        2
 40
-0.6
 41
30.0
 62
     5
 63
     7
 74
     0
 91
        4
 64
     7
 65
   257
 75
     1
175
     1
 42
1.0
 92
        8
 66
     7
 43
1.0
 76
     1
 77
     6
 78
     2
 67
     7
 79
     5
170
     0
171
     0
290
     0
174
     0
 93
       13
 44
0.0
173
     0
291
     1
 45
0.0
1001
ACAD
1000
AcDbSavedByObjectVersion
1070
     0
  0
VISUALSTYLE
  5
65C
102
{ACAD_REACTORS
330
65A
102
}
330
65A
100
AcDbVisualStyle
  2
FlatWithEdges
 70
     1
 71
     2
 72
     1
 73
     1
 90
        2
 40
-0.6
 41
30.0
 62
     5
 63
     7
 74
     1
 91
        4
 64
     7
 65
   257
 75
     1
175
     1
 42
1.0
 92
        0
 66
   257
 43
1.0
 76
     1
 77
     6
 78
     2
 67
     7
 79
     5
170
     0
171
     0
290
     0
174
     0
 93
       13
 44
0.0
173
     0
291
     1
 45
0.0
1001
ACAD
1000
AcDbSavedByObjectVersion
1070
     0
  0
VISUALSTYLE
  5
65D
102
{ACAD_REACTORS
330
65A
102
}
330
65A
100
AcDbVisualStyle
  2
Gouraud
 70
     2
 71
     2
 72
     2
 73
     1
 90
        2
 40
-0.6
 41
30.0
 62
     5
 63
     7
 74
     0
 91
        4
 64
     7
 65
   257
 75
     1
175
     1
 42
1.0
 92
        0
 66
     7
 43
1.0
 76
     1
 77
     6
 78
     2
 67
     7
 79
     5
170
     0
171
     0
290
     0
174
     0
 93
       13
 44
0.0
173
     0
291
     1
 45
0.0
1001
ACAD
1000
AcDbSavedByObjectVersion
1070
     0
  0
VISUALSTYLE
  5
65E
102
{ACAD_REACTORS
330
65A
102
}
330
65A
100
AcDbVisualStyle
  2
GouraudWithEdges
 70
     3
 71
     2
 72
     2
 73
     1
 90
        2
 40
-0.6
 41
30.0
 62
     5
 63
     7
 74
     1
 91
        4
 64
     7
 65
   257
 75
     1
175
     1
 42
1.0
 92
        0
 66
   257
 43
1.0
 76
     1
 77
     6
 78
     2
 67
     7
 79
     5
170
     0
171
     0
290
     0
174
     0
 93
       13
 44
0.0
173
     0
291
     1
 45
0.0
1001
ACAD
1000
AcDbSavedByObjectVersion
1070
     0
  0
VISUALSTYLE
  5
668
102
{ACAD_REACTORS
330
65A
102
}
330
65A
100
AcDbVisualStyle
  2
Linepattern
 70
    14
 71
     2
 72
     2
 73
     0
 90
        0
 40
-0.6
 41
-30.0
 62
     5
 63
     7
 74
     1
 91
        4
 64
     7
 65
   257
 75
     7
175
     7
 42
1.0
 92
        8
 66
     7
 43
1.0
 76
     1
 77
     6
 78
     2
 67
     7
 79
     5
170
     0
171
     0
290
     0
174
     0
 93
        1
 44
0.0
173
     0
291
     1
 45
0.0
1001
ACAD
1000
AcDbSavedByObjectVersion
1070
     0
  0
VISUALSTYLE
  5
664
102
{ACAD_REACTORS
330
65A
102
}
330
65A
100
AcDbVisualStyle
  2
Realistic
 70
     8
 71
     2
 72
     2
 73
     0
 90
        0
 40
-0.6
 41
-30.0
 62
     5
 63
     7
 74
     1
 91
        0
 64
     7
 65
   257
 75
     1
175
     1
 42
1.0
 92
        8
 66
     8
 43
1.0
 76
     1
 77
     6
 78
     2
 67
     7
 79
     5
170
     0
171
     0
290
     0
174
     0
 93
       13
 44
0.0
173
     0
291
     0
 45
0.0
1001
ACAD
1000
AcDbSavedByObjectVersion
1070
     0
  0
VISUALSTYLE
  5
667
102
{ACAD_REACTORS
330
65A
102
}
330
65A
100
AcDbVisualStyle
  2
Thicken
 70
    13
 71
     2
 72
     2
 73
     0
 90
        0
 40
-0.6
 41
-30.0
 62
     5
 63
     7
 74
     1
 91
        4
 64
     7
 65
   257
 75
     1
175
     1
 42
1.0
 92
       12
 66
     7
 43
1.0
 76
     1
 77
     6
 78
     2
 67
     7
 79
     5
170
     0
171
     0
290
     0
174
     0
 93
        1
 44
0.0
173
     0
291
     1
 45
0.0
1001
ACAD
1000
AcDbSavedByObjectVersion
1070
     0
  0
DICTIONARYVAR
  5
672
102
{ACAD_REACTORS
330
671
102
}
330
671
100
DictionaryVariables
280
     0
  1
STANDARD
  0
DICTIONARYVAR
  5
675
102
{ACAD_REACTORS
330
671
102
}
330
671
100
DictionaryVariables
280
     0
  1
1
  0
DICTIONARYVAR
  5
674
102
{ACAD_REACTORS
330
671
102
}
330
671
100
DictionaryVariables
280
     0
  1
0
  0
DICTIONARYVAR
  5
673
102
{ACAD_REACTORS
330
671
102
}
330
671
100
DictionaryVariables
280
     0
  1
127
  0
DICTIONARY
  5
67B
330
45C
100
AcDbDictionary
280
     1
281
     1
  3
ACAD_XREC_ROUNDTRIP
360
67C
  0
DICTIONARY
  5
679
330
45B
100
AcDbDictionary
280
     1
281
     1
  3
ACAD_XREC_ROUNDTRIP
360
67A
  0
DICTIONARY
  5
67F
330
658
100
AcDbDictionary
280
     1
281
     1
  3
ACAD_XREC_ROUNDTRIP
360
680
  0
DICTIONARY
  5
67D
330
657
100
AcDbDictionary
280
     1
281
     1
  3
ACAD_XREC_ROUNDTRIP
360
67E
  0
DICTIONARY
  5
681
330
659
100
AcDbDictionary
280
     1
281
     1
  3
ACAD_XREC_ROUNDTRIP
360
682
  0
DICTIONARY
  5
683
330
66D
100
AcDbDictionary
280
     1
281
     1
  3
ACAD_XREC_ROUNDTRIP
360
684
  0
XRECORD
  5
67C
102
{ACAD_REACTORS
330
67B
102
}
330
67B
100
AcDbXrecord
280
     1
102
SHADEPLOT
 70
     0
102
SHADEPLOTRESLEVEL
 70
     2
102
SHADEPLOTCUSTOMDPI
 70
   300
  0
XRECORD
  5
67A
102
{ACAD_REACTORS
330
679
102
}
330
679
100
AcDbXrecord
280
     1
102
SHADEPLOT
 70
     0
102
SHADEPLOTRESLEVEL
 70
     2
102
SHADEPLOTCUSTOMDPI
 70
   300
  0
XRECORD
  5
680
102
{ACAD_REACTORS
330
67F
102
}
330
67F
100
AcDbXrecord
280
     1
102
MATERIAL
148
0.0
149
0.0
149
0.0
 93
        0
 94
       63
282
     0
 72
     1
 77
     1
171
     1
175
     1
179
     1
273
     0
  0
XRECORD
  5
67E
102
{ACAD_REACTORS
330
67D
102
}
330
67D
100
AcDbXrecord
280
     1
102
MATERIAL
148
0.0
149
0.0
149
0.0
 93
        0
 94
       63
282
     0
 72
     1
 77
     1
171
     1
175
     1
179
     1
273
     0
  0
XRECORD
  5
682
102
{ACAD_REACTORS
330
681
102
}
330
681
100
AcDbXrecord
280
     1
102
MATERIAL
148
0.0
149
0.0
149
0.0
 93
        0
 94
       63
282
     0
 72
     1
 77
     1
171
     1
175
     1
179
     1
273
     0
  0
XRECORD
  5
684
102
{ACAD_REACTORS
330
683
102
}
330
683
100
AcDbXrecord
280
     1
102
ACAD_ROUNDTRIP_PRE2007_TABLESTYLE
 90
      512
 91
        0
  1

 92
      512
 93
        0
  2

 94
      512
 95
        0
  3

  0
ENDSEC
  0
EOF
